  0
SECTION
  2
HEADER
  9
$ACADVER
  1
AC1021
  9
$ACADMAINTVER
 70
     1
  9
$DWGCODEPAGE
  3
ANSI_1252
  9
$LASTSAVEDBY
  1
RSutcliffe
  9
$INSBASE
 10
299.1280711153836
 20
505.9361356312583
 30
0.0
  9
$EXTMIN
 10
-256.5574169631745
 20
81.66840766940982
 30
-0.0015258207003583
  9
$EXTMAX
 10
-48.61780710476296
 20
358.9072656946076
 30
0.0000000349246037
  9
$LIMMIN
 10
0.0
 20
0.0
  9
$LIMMAX
 10
12.0
 20
9.0
  9
$ORTHOMODE
 70
     1
  9
$REGENMODE
 70
     1
  9
$FILLMODE
 70
     1
  9
$QTEXTMODE
 70
     0
  9
$MIRRTEXT
 70
     1
  9
$LTSCALE
 40
1.0
  9
$ATTMODE
 70
     1
  9
$TEXTSIZE
 40
2.0
  9
$TRACEWID
 40
0.05
  9
$TEXTSTYLE
  7
WEB PAGE
  9
$CLAYER
  8
0
  9
$CELTYPE
  6
BYLAYER
  9
$CECOLOR
 62
   256
  9
$CELTSCALE
 40
1.0
  9
$DISPSILH
 70
     0
  9
$DIMSCALE
 40
1.0
  9
$DIMASZ
 40
3.0
  9
$DIMEXO
 40
2.0
  9
$DIMDLI
 40
1.0
  9
$DIMRND
 40
0.0
  9
$DIMDLE
 40
0.0
  9
$DIMEXE
 40
1.0
  9
$DIMTP
 40
0.0
  9
$DIMTM
 40
0.0
  9
$DIMTXT
 40
1.75
  9
$DIMCEN
 40
1.0
  9
$DIMTSZ
 40
0.0
  9
$DIMTOL
 70
     0
  9
$DIMLIM
 70
     0
  9
$DIMTIH
 70
     1
  9
$DIMTOH
 70
     1
  9
$DIMSE1
 70
     0
  9
$DIMSE2
 70
     0
  9
$DIMTAD
 70
     0
  9
$DIMZIN
 70
     0
  9
$DIMBLK
  1

  9
$DIMASO
 70
     1
  9
$DIMSHO
 70
     1
  9
$DIMPOST
  1

  9
$DIMAPOST
  1

  9
$DIMALT
 70
     0
  9
$DIMALTD
 70
     2
  9
$DIMALTF
 40
25.4
  9
$DIMLFAC
 40
1.0
  9
$DIMTOFL
 70
     0
  9
$DIMTVP
 40
0.0
  9
$DIMTIX
 70
     0
  9
$DIMSOXD
 70
     0
  9
$DIMSAH
 70
     0
  9
$DIMBLK1
  1

  9
$DIMBLK2
  1

  9
$DIMSTYLE
  2
STANDARD
  9
$DIMCLRD
 70
     0
  9
$DIMCLRE
 70
     0
  9
$DIMCLRT
 70
     0
  9
$DIMTFAC
 40
1.0
  9
$DIMGAP
 40
1.0
  9
$DIMJUST
 70
     0
  9
$DIMSD1
 70
     0
  9
$DIMSD2
 70
     0
  9
$DIMTOLJ
 70
     1
  9
$DIMTZIN
 70
     0
  9
$DIMALTZ
 70
     0
  9
$DIMALTTZ
 70
     0
  9
$DIMUPT
 70
     0
  9
$DIMDEC
 70
     4
  9
$DIMTDEC
 70
     4
  9
$DIMALTU
 70
     2
  9
$DIMALTTD
 70
     2
  9
$DIMTXSTY
  7
WEB PAGE
  9
$DIMAUNIT
 70
     0
  9
$DIMADEC
 70
     4
  9
$DIMALTRND
 40
0.0
  9
$DIMAZIN
 70
     0
  9
$DIMDSEP
 70
    46
  9
$DIMATFIT
 70
     3
  9
$DIMFRAC
 70
     0
  9
$DIMLDRBLK
  1

  9
$DIMLUNIT
 70
     4
  9
$DIMLWD
 70
    -2
  9
$DIMLWE
 70
    -2
  9
$DIMTMOVE
 70
     0
  9
$DIMFXL
 40
1.0
  9
$DIMFXLON
 70
     0
  9
$DIMJOGANG
 40
0.7853981633974483
  9
$DIMTFILL
 70
     0
  9
$DIMTFILLCLR
 70
     0
  9
$DIMARCSYM
 70
     0
  9
$DIMLTYPE
  6

  9
$DIMLTEX1
  6

  9
$DIMLTEX2
  6

  9
$LUNITS
 70
     4
  9
$LUPREC
 70
     4
  9
$SKETCHINC
 40
0.1
  9
$FILLETRAD
 40
0.0
  9
$AUNITS
 70
     0
  9
$AUPREC
 70
     0
  9
$MENU
  1
.
  9
$ELEVATION
 40
0.0
  9
$PELEVATION
 40
0.0
  9
$THICKNESS
 40
0.0
  9
$LIMCHECK
 70
     0
  9
$CHAMFERA
 40
0.5
  9
$CHAMFERB
 40
0.5
  9
$CHAMFERC
 40
1.0
  9
$CHAMFERD
 40
0.0
  9
$SKPOLY
 70
     1
  9
$TDCREATE
 40
2451409.294489352
  9
$TDUCREATE
 40
2451409.502822685
  9
$TDUPDATE
 40
2454083.476181632
  9
$TDUUPDATE
 40
2454083.684514966
  9
$TDINDWG
 40
1.5347374653
  9
$TDUSRTIMER
 40
1.5347374653
  9
$USRTIMER
 70
     1
  9
$ANGBASE
 50
0.0
  9
$ANGDIR
 70
     0
  9
$PDMODE
 70
     0
  9
$PDSIZE
 40
0.0
  9
$PLINEWID
 40
0.0
  9
$SPLFRAME
 70
     0
  9
$SPLINETYPE
 70
     6
  9
$SPLINESEGS
 70
     8
  9
$HANDSEED
  5
67AB
  9
$SURFTAB1
 70
     6
  9
$SURFTAB2
 70
     6
  9
$SURFTYPE
 70
     6
  9
$SURFU
 70
     6
  9
$SURFV
 70
     6
  9
$UCSBASE
  2

  9
$UCSNAME
  2

  9
$UCSORG
 10
0.0
 20
0.0
 30
0.0
  9
$UCSXDIR
 10
1.0
 20
0.0
 30
0.0
  9
$UCSYDIR
 10
0.0
 20
1.0
 30
0.0
  9
$UCSORTHOREF
  2

  9
$UCSORTHOVIEW
 70
     0
  9
$UCSORGTOP
 10
0.0
 20
0.0
 30
0.0
  9
$UCSORGBOTTOM
 10
0.0
 20
0.0
 30
0.0
  9
$UCSORGLEFT
 10
0.0
 20
0.0
 30
0.0
  9
$UCSORGRIGHT
 10
0.0
 20
0.0
 30
0.0
  9
$UCSORGFRONT
 10
0.0
 20
0.0
 30
0.0
  9
$UCSORGBACK
 10
0.0
 20
0.0
 30
0.0
  9
$PUCSBASE
  2

  9
$PUCSNAME
  2

  9
$PUCSORG
 10
0.0
 20
0.0
 30
0.0
  9
$PUCSXDIR
 10
1.0
 20
0.0
 30
0.0
  9
$PUCSYDIR
 10
0.0
 20
1.0
 30
0.0
  9
$PUCSORTHOREF
  2

  9
$PUCSORTHOVIEW
 70
     0
  9
$PUCSORGTOP
 10
0.0
 20
0.0
 30
0.0
  9
$PUCSORGBOTTOM
 10
0.0
 20
0.0
 30
0.0
  9
$PUCSORGLEFT
 10
0.0
 20
0.0
 30
0.0
  9
$PUCSORGRIGHT
 10
0.0
 20
0.0
 30
0.0
  9
$PUCSORGFRONT
 10
0.0
 20
0.0
 30
0.0
  9
$PUCSORGBACK
 10
0.0
 20
0.0
 30
0.0
  9
$USERI1
 70
     0
  9
$USERI2
 70
     0
  9
$USERI3
 70
     0
  9
$USERI4
 70
     0
  9
$USERI5
 70
     0
  9
$USERR1
 40
0.0
  9
$USERR2
 40
0.0
  9
$USERR3
 40
0.0
  9
$USERR4
 40
0.0
  9
$USERR5
 40
0.0
  9
$WORLDVIEW
 70
     1
  9
$SHADEDGE
 70
     3
  9
$SHADEDIF
 70
    70
  9
$TILEMODE
 70
     1
  9
$MAXACTVP
 70
    48
  9
$PINSBASE
 10
0.0
 20
0.0
 30
0.0
  9
$PLIMCHECK
 70
     0
  9
$PEXTMIN
 10
-444.6356834019652
 20
-347.4903591108755
 30
0.0
  9
$PEXTMAX
 10
-436.8378354681516
 20
-337.211820901359
 30
0.0
  9
$PLIMMIN
 10
-445.0409571534833
 20
-347.8767814416081
  9
$PLIMMAX
 10
-436.4735348257402
 20
-336.7895289462341
  9
$UNITMODE
 70
     0
  9
$VISRETAIN
 70
     1
  9
$PLINEGEN
 70
     0
  9
$PSLTSCALE
 70
     1
  9
$TREEDEPTH
 70
  3020
  9
$CMLSTYLE
  2
STANDARD
  9
$CMLJUST
 70
     0
  9
$CMLSCALE
 40
1.0
  9
$PROXYGRAPHICS
 70
     1
  9
$MEASUREMENT
 70
     0
  9
$CELWEIGHT
370
    -1
  9
$ENDCAPS
280
     0
  9
$JOINSTYLE
280
     0
  9
$LWDISPLAY
290
     0
  9
$INSUNITS
 70
     1
  9
$HYPERLINKBASE
  1

  9
$STYLESHEET
  1
Default R14 pen assignments.ctb
  9
$XEDIT
290
     1
  9
$CEPSNTYPE
380
     0
  9
$PSTYLEMODE
290
     1
  9
$FINGERPRINTGUID
  2
{BC46CB79-887E-11D4-9211-00C04FB0DC4F}
  9
$VERSIONGUID
  2
{A49D3961-82AB-4D61-A243-ED5B29656AAF}
  9
$EXTNAMES
290
     1
  9
$PSVPSCALE
 40
0.0
  9
$OLESTARTUP
290
     0
  9
$SORTENTS
280
    96
  9
$INDEXCTL
280
     0
  9
$HIDETEXT
280
     0
  9
$XCLIPFRAME
290
     0
  9
$HALOGAP
280
     0
  9
$OBSCOLOR
 70
   257
  9
$OBSLTYPE
280
     0
  9
$INTERSECTIONDISPLAY
280
     0
  9
$INTERSECTIONCOLOR
 70
   257
  9
$DIMASSOC
280
     1
  9
$PROJECTNAME
  1

  9
$CAMERADISPLAY
290
     0
  9
$LENSLENGTH
 40
50.0
  9
$CAMERAHEIGHT
 40
0.0
  9
$STEPSPERSEC
 40
2.0
  9
$STEPSIZE
 40
6.0
  9
$3DDWFPREC
 40
2.0
  9
$PSOLWIDTH
 40
0.25
  9
$PSOLHEIGHT
 40
4.0
  9
$LOFTANG1
 40
1.570796326794896
  9
$LOFTANG2
 40
1.570796326794896
  9
$LOFTMAG1
 40
0.0
  9
$LOFTMAG2
 40
0.0
  9
$LOFTPARAM
 70
     7
  9
$LOFTNORMALS
280
     1
  9
$LATITUDE
 40
37.795
  9
$LONGITUDE
 40
-122.394
  9
$NORTHDIRECTION
 40
0.0
  9
$TIMEZONE
 70
 -8000
  9
$LIGHTGLYPHDISPLAY
280
     1
  9
$TILEMODELIGHTSYNCH
280
     1
  9
$CMATERIAL
347
63A8
  9
$SOLIDHIST
280
     1
  9
$SHOWHIST
280
     1
  9
$DWFFRAME
280
     2
  9
$DGNFRAME
280
     0
  9
$REALWORLDSCALE
290
     1
  9
$INTERFERECOLOR
 62
     1
  9
$INTERFEREOBJVS
345
63B5
  9
$INTERFEREVPVS
346
63B2
  9
$CSHADOW
280
     0
  9
$SHADOWPLANELOCATION
 40
0.0
  0
ENDSEC
  0
SECTION
  2
CLASSES
  0
CLASS
  1
ACDBDICTIONARYWDFLT
  2
AcDbDictionaryWithDefault
  3
ObjectDBX Classes
 90
        0
 91
        1
280
     0
281
     0
  0
CLASS
  1
DICTIONARYVAR
  2
AcDbDictionaryVar
  3
ObjectDBX Classes
 90
        0
 91
        3
280
     0
281
     0
  0
CLASS
  1
MATERIAL
  2
AcDbMaterial
  3
ObjectDBX Classes
 90
     1024
 91
        3
280
     0
281
     0
  0
CLASS
  1
VISUALSTYLE
  2
AcDbVisualStyle
  3
ObjectDBX Classes
 90
     4095
 91
       16
280
     0
281
     0
  0
CLASS
  1
TABLESTYLE
  2
AcDbTableStyle
  3
ObjectDBX Classes
 90
     4095
 91
        1
280
     0
281
     0
  0
CLASS
  1
SORTENTSTABLE
  2
AcDbSortentsTable
  3
ObjectDBX Classes
 90
        0
 91
        1
280
     0
281
     0
  0
ENDSEC
  0
SECTION
  2
TABLES
  0
TABLE
  2
VPORT
  5
13
102
{ACAD_XDICTIONARY
360
6519
102
}
330
0
100
AcDbSymbolTable
 70
     1
  0
VPORT
  5
63A6
330
13
100
AcDbSymbolTableRecord
100
AcDbViewportTableRecord
  2
*Active
 70
     0
 10
0.0
 20
0.0
 11
1.0
 21
1.0
 12
-152.5876120339687
 22
220.2878366820087
 13
0.0
 23
0.0
 14
0.5
 24
0.5
 15
0.5
 25
0.5
 16
0.0
 26
0.0
 36
1.0
 17
0.0
 27
0.0
 37
0.0
 40
279.3796986277089
 41
1.542525773195876
 42
50.0
 43
0.0
 44
0.0
 50
90.0
 51
0.0
 71
     0
 72
   100
 73
     1
 74
     0
 75
     0
 76
     0
 77
     0
 78
     0
281
     0
 65
     1
110
0.0
120
0.0
130
0.0
111
1.0
121
0.0
131
0.0
112
0.0
122
1.0
132
0.0
 79
     0
146
0.0
348
63B1
 60
     3
 61
     5
292
     1
282
     1
141
0.0
142
0.0
 63
   250
421
  3355443
  0
ENDTAB
  0
TABLE
  2
LTYPE
  5
E
330
0
100
AcDbSymbolTable
 70
     8
  0
LTYPE
  5
F
330
E
100
AcDbSymbolTableRecord
100
AcDbLinetypeTableRecord
  2
BYBLOCK
 70
     0
  3

 72
    65
 73
     0
 40
0.0
  0
LTYPE
  5
10
330
E
100
AcDbSymbolTableRecord
100
AcDbLinetypeTableRecord
  2
BYLAYER
 70
     0
  3

 72
    65
 73
     0
 40
0.0
  0
LTYPE
  5
5
330
E
100
AcDbSymbolTableRecord
100
AcDbLinetypeTableRecord
  2
CONTINUOUS
 70
     0
  3
Solid line
 72
    65
 73
     0
 40
0.0
  0
LTYPE
  5
4DA0
330
E
100
AcDbSymbolTableRecord
100
AcDbLinetypeTableRecord
  2
PHANTOM
 70
     0
  3
______  __  __  ______  __  __  ______  __  __ 
 72
    65
 73
     6
 40
2.5
 49
1.25
 74
     0
 49
-0.25
 74
     0
 49
0.25
 74
     0
 49
-0.25
 74
     0
 49
0.25
 74
     0
 49
-0.25
 74
     0
  0
ENDTAB
  0
TABLE
  2
LAYER
  5
A
102
{ACAD_XDICTIONARY
360
65FE
102
}
330
0
100
AcDbSymbolTable
 70
    41
  0
LAYER
  5
4
330
A
100
AcDbSymbolTableRecord
100
AcDbLayerTableRecord
  2
0
 70
     0
 62
     7
  6
CONTINUOUS
370
    -3
390
18F5
347
63AA
  0
LAYER
  5
106
330
A
100
AcDbSymbolTableRecord
100
AcDbLayerTableRecord
  2
REVERSE-ANGLE
 70
     0
 62
     4
  6
CONTINUOUS
370
    -3
390
18F5
347
63AA
  0
LAYER
  5
11D
330
A
100
AcDbSymbolTableRecord
100
AcDbLayerTableRecord
  2
OUTSIDE
 70
     0
 62
     7
  6
CONTINUOUS
370
    -3
390
18F5
347
63AA
  0
LAYER
  5
2E
330
A
100
AcDbSymbolTableRecord
100
AcDbLayerTableRecord
  2
DEFPOINTS
 70
     0
 62
     7
  6
CONTINUOUS
290
     0
370
    -3
390
18F5
347
63AA
  0
LAYER
  5
21E
330
A
100
AcDbSymbolTableRecord
100
AcDbLayerTableRecord
  2
JAMB
 70
     0
 62
     1
  6
CONTINUOUS
370
    -3
390
18F5
347
63AA
  0
LAYER
  5
21F
330
A
100
AcDbSymbolTableRecord
100
AcDbLayerTableRecord
  2
UPPER-ANGLE
 70
     0
 62
     7
  6
CONTINUOUS
370
    -3
390
18F5
347
63AA
  0
LAYER
  5
785
330
A
100
AcDbSymbolTableRecord
100
AcDbLayerTableRecord
  2
SPLICE-PLATE
 70
     0
 62
     3
  6
CONTINUOUS
370
    -3
390
18F5
347
63AA
  0
LAYER
  5
9E9
330
A
100
AcDbSymbolTableRecord
100
AcDbLayerTableRecord
  2
BDR
 70
     0
 62
     7
  6
CONTINUOUS
370
    -3
390
18F5
347
63AA
  0
LAYER
  5
2A5D
330
A
100
AcDbSymbolTableRecord
100
AcDbLayerTableRecord
  2
TEXT
 70
     0
 62
     7
  6
CONTINUOUS
370
    25
390
18F5
347
63AA
  0
LAYER
  5
4DA1
330
A
100
AcDbSymbolTableRecord
100
AcDbLayerTableRecord
  2
PHANTOM
 70
     0
 62
     6
  6
PHANTOM
370
    -3
390
18F5
347
63AA
  0
ENDTAB
  0
TABLE
  2
STYLE
  5
B
330
0
100
AcDbSymbolTable
 70
    11
  0
STYLE
  5
C
330
B
100
AcDbSymbolTableRecord
100
AcDbTextStyleTableRecord
  2
STANDARD
 70
     0
 40
0.0
 41
1.0
 50
0.0
 71
     0
 42
4.0
  3
BOOKOS.TTF
  4

1001
ACAD
1000
Bookman Old Style
1071
       18
  0
STYLE
  5
2A5E
330
B
100
AcDbSymbolTableRecord
100
AcDbTextStyleTableRecord
  2
WEB PAGE
 70
     0
 40
0.0
 41
1.0
 50
0.0
 71
     0
 42
2.0
  3
TIMES.TTF
  4

1001
ACAD
1000
Times New Roman
1071
       18
  0
ENDTAB
  0
TABLE
  2
VIEW
  5
11
330
0
100
AcDbSymbolTable
 70
     1
  0
ENDTAB
  0
TABLE
  2
UCS
  5
12
330
0
100
AcDbSymbolTable
 70
     0
  0
ENDTAB
  0
TABLE
  2
APPID
  5
15
330
0
100
AcDbSymbolTable
 70
     8
  0
APPID
  5
D
330
15
100
AcDbSymbolTableRecord
100
AcDbRegAppTableRecord
  2
ACAD
 70
     0
  0
APPID
  5
222
330
15
100
AcDbSymbolTableRecord
100
AcDbRegAppTableRecord
  2
AVE_RENDER
 70
     0
  0
APPID
  5
223
330
15
100
AcDbSymbolTableRecord
100
AcDbRegAppTableRecord
  2
AVE_ENTITY_MATERIAL
 70
     0
  0
APPID
  5
224
330
15
100
AcDbSymbolTableRecord
100
AcDbRegAppTableRecord
  2
AVE_FINISH
 70
     0
  0
APPID
  5
225
330
15
100
AcDbSymbolTableRecord
100
AcDbRegAppTableRecord
  2
AVE_MATERIAL
 70
     0
  0
APPID
  5
226
330
15
100
AcDbSymbolTableRecord
100
AcDbRegAppTableRecord
  2
AVE_GLOBAL
 70
     0
  0
APPID
  5
1909
330
15
100
AcDbSymbolTableRecord
100
AcDbRegAppTableRecord
  2
DCO15
 70
     0
  0
APPID
  5
3F6A
330
15
100
AcDbSymbolTableRecord
100
AcDbRegAppTableRecord
  2
AME_SOL
 70
     0
  0
ENDTAB
  0
TABLE
  2
DIMSTYLE
  5
16
330
0
100
AcDbSymbolTable
 70
     1
100
AcDbDimStyleTable
 71
     1
340
1C
  0
DIMSTYLE
105
1C
102
{ACAD_REACTORS
330
3F8C
330
3F8E
330
3F9F
330
46B1
330
4784
330
47C3
330
47C7
330
47C9
330
47CF
330
47DF
330
47F4
330
481E
330
4824
330
4826
330
4828
330
4829
330
482B
330
482F
330
4831
330
63CF
330
63D1
330
63D2
330
63D3
330
63D5
330
63D8
330
6420
330
6421
102
}
330
16
100
AcDbSymbolTableRecord
100
AcDbDimStyleTableRecord
  2
STANDARD
 70
     0
 41
3.0
 42
2.0
 43
1.0
 44
1.0
140
1.75
141
1.0
147
1.0
179
     4
277
     4
340
2A5E
  0
ENDTAB
  0
TABLE
  2
BLOCK_RECORD
  5
1
330
0
100
AcDbSymbolTable
 70
   249
  0
BLOCK_RECORD
  5
2
330
1
100
AcDbSymbolTableRecord
100
AcDbBlockTableRecord
  2
*MODEL_SPACE
340
18F8
 70
     0
280
     1
281
     0
  0
BLOCK_RECORD
  5
7
330
1
100
AcDbSymbolTableRecord
100
AcDbBlockTableRecord
  2
*PAPER_SPACE
340
18F9
 70
     0
280
     1
281
     0
  0
BLOCK_RECORD
  5
145
330
1
100
AcDbSymbolTableRecord
100
AcDbBlockTableRecord
  2
EBP5
340
0
102
{BLKREFS
331
63D9
102
}
 70
     0
280
     1
281
     0
  0
BLOCK_RECORD
  5
92D
330
1
100
AcDbSymbolTableRecord
100
AcDbBlockTableRecord
  2
OTC-6
340
0
102
{BLKREFS
331
4807
331
47CD
331
63DE
102
}
 70
     0
280
     1
281
     0
  0
BLOCK_RECORD
  5
939
330
1
100
AcDbSymbolTableRecord
100
AcDbBlockTableRecord
  2
OTC-8
340
0
102
{BLKREFS
331
63DD
102
}
 70
     0
280
     1
281
     0
  0
BLOCK_RECORD
  5
948
330
1
100
AcDbSymbolTableRecord
100
AcDbBlockTableRecord
  2
OTC-10
340
0
102
{BLKREFS
331
63DF
102
}
 70
     0
280
     1
281
     0
  0
BLOCK_RECORD
  5
957
330
1
100
AcDbSymbolTableRecord
100
AcDbBlockTableRecord
  2
OTC-12
340
0
102
{BLKREFS
331
63E3
102
}
 70
     0
280
     1
281
     0
  0
BLOCK_RECORD
  5
966
330
1
100
AcDbSymbolTableRecord
100
AcDbBlockTableRecord
  2
OTC-14
340
0
102
{BLKREFS
331
63E8
102
}
 70
     0
280
     1
281
     0
  0
BLOCK_RECORD
  5
4518
330
1
100
AcDbSymbolTableRecord
100
AcDbBlockTableRecord
  2
A$C72267DA4
340
0
102
{BLKREFS
331
4522
102
}
 70
     0
280
     1
281
     0
  0
BLOCK_RECORD
  5
4521
330
1
100
AcDbSymbolTableRecord
100
AcDbBlockTableRecord
  2
A$C66E47D23
340
0
102
{BLKREFS
331
47F0
331
4786
331
4970
102
}
 70
     0
280
     1
281
     0
  0
BLOCK_RECORD
  5
48E0
330
1
100
AcDbSymbolTableRecord
100
AcDbBlockTableRecord
  2
A$C5DCC5A0E
340
0
102
{BLKREFS
331
63E9
102
}
 70
     0
280
     1
281
     0
  0
BLOCK_RECORD
  5
48FC
330
1
100
AcDbSymbolTableRecord
100
AcDbBlockTableRecord
  2
A$C7D0E5576
340
0
102
{BLKREFS
331
63D0
102
}
 70
     0
280
     1
281
     0
  0
BLOCK_RECORD
  5
492E
330
1
100
AcDbSymbolTableRecord
100
AcDbBlockTableRecord
  2
A$C06D334F2
340
0
102
{BLKREFS
331
63D6
102
}
 70
     0
280
     1
281
     0
  0
BLOCK_RECORD
  5
496F
330
1
100
AcDbSymbolTableRecord
100
AcDbBlockTableRecord
  2
A$C03EA5BC6
340
0
102
{BLKREFS
331
63EA
102
}
 70
     0
280
     1
281
     0
  0
BLOCK_RECORD
  5
4BBC
330
1
100
AcDbSymbolTableRecord
100
AcDbBlockTableRecord
  2
3VPT-156
340
0
102
{BLKREFS
331
63F2
102
}
 70
     1
280
     1
281
     0
  0
BLOCK_RECORD
  5
54C5
330
1
100
AcDbSymbolTableRecord
100
AcDbBlockTableRecord
  2
A$C0C90362F
340
0
102
{BLKREFS
331
63F1
102
}
 70
     0
280
     1
281
     0
  0
BLOCK_RECORD
  5
5609
330
1
100
AcDbSymbolTableRecord
100
AcDbBlockTableRecord
  2
A$C643A598F
340
0
102
{BLKREFS
331
63F3
102
}
 70
     0
280
     1
281
     0
  0
BLOCK_RECORD
  5
6422
330
1
100
AcDbSymbolTableRecord
100
AcDbBlockTableRecord
  2
*D240
340
0
 70
     0
280
     1
281
     0
  0
BLOCK_RECORD
  5
642F
330
1
100
AcDbSymbolTableRecord
100
AcDbBlockTableRecord
  2
*D241
340
0
 70
     0
280
     1
281
     0
  0
BLOCK_RECORD
  5
643C
330
1
100
AcDbSymbolTableRecord
100
AcDbBlockTableRecord
  2
*D242
340
0
 70
     0
280
     1
281
     0
  0
BLOCK_RECORD
  5
6449
330
1
100
AcDbSymbolTableRecord
100
AcDbBlockTableRecord
  2
*D243
340
0
 70
     0
280
     1
281
     0
  0
BLOCK_RECORD
  5
6456
330
1
100
AcDbSymbolTableRecord
100
AcDbBlockTableRecord
  2
*D244
340
0
 70
     0
280
     1
281
     0
  0
BLOCK_RECORD
  5
6463
330
1
100
AcDbSymbolTableRecord
100
AcDbBlockTableRecord
  2
*D245
340
0
 70
     0
280
     1
281
     0
  0
BLOCK_RECORD
  5
6470
330
1
100
AcDbSymbolTableRecord
100
AcDbBlockTableRecord
  2
*D246
340
0
 70
     0
280
     1
281
     0
  0
BLOCK_RECORD
  5
647D
330
1
100
AcDbSymbolTableRecord
100
AcDbBlockTableRecord
  2
*D247
340
0
 70
     0
280
     1
281
     0
  0
ENDTAB
  0
ENDSEC
  0
SECTION
  2
BLOCKS
  0
BLOCK
  5
3
330
2
100
AcDbEntity
  8
0
100
AcDbBlockBegin
  2
*MODEL_SPACE
 70
     0
 10
0.0
 20
0.0
 30
0.0
  3
*MODEL_SPACE
  1

  0
ENDBLK
  5
6
330
2
100
AcDbEntity
  8
0
100
AcDbBlockEnd
  0
BLOCK
  5
8
330
7
100
AcDbEntity
 67
     1
  8
0
100
AcDbBlockBegin
  2
*PAPER_SPACE
 70
     0
 10
0.0
 20
0.0
 30
0.0
  3
*PAPER_SPACE
  1

  0
ENDBLK
  5
9
330
7
100
AcDbEntity
 67
     1
  8
0
100
AcDbBlockEnd
  0
BLOCK
  5
157
330
145
100
AcDbEntity
  8
0
100
AcDbBlockBegin
  2
EBP5
 70
     0
 10
0.0
 20
0.0
 30
0.0
  3
EBP5
  1

  0
LINE
  5
146
330
145
100
AcDbEntity
  8
0
100
AcDbLine
 10
0.625
 20
-0.5625
 30
0.0
 11
-3.75
 21
-0.5625
 31
0.0
  0
LINE
  5
147
330
145
100
AcDbEntity
  8
0
100
AcDbLine
 10
-3.75
 20
-0.5625
 30
0.0
 11
-3.75
 21
1.5
 31
0.0
  0
LINE
  5
148
330
145
100
AcDbEntity
  8
0
100
AcDbLine
 10
-3.75
 20
1.5
 30
0.0
 11
-5.9375
 21
1.5
 31
0.0
  0
LINE
  5
149
330
145
100
AcDbEntity
  8
0
100
AcDbLine
 10
-5.9375
 20
7.375
 30
0.0
 11
0.625
 21
7.375
 31
0.0
  0
LINE
  5
14A
330
145
100
AcDbEntity
  8
0
100
AcDbLine
 10
-5.823300000000003
 20
7.375
 30
0.0
 11
-5.823300000000003
 21
1.5
 31
0.0
  0
LINE
  5
14B
330
145
100
AcDbEntity
  8
0
100
AcDbLine
 10
-5.9375
 20
7.375
 30
0.0
 11
-5.9375
 21
1.5
 31
0.0
  0
LINE
  5
14C
330
145
100
AcDbEntity
  8
0
100
AcDbLine
 10
0.625
 20
7.375
 30
0.0
 11
0.625
 21
-0.5625
 31
0.0
  0
CIRCLE
  5
14D
330
145
100
AcDbEntity
  8
0
100
AcDbCircle
 10
-0.9375
 20
6.0
 30
0.0
 40
0.5
  0
CIRCLE
  5
14E
330
145
100
AcDbEntity
  8
0
100
AcDbCircle
 10
-0.9375
 20
6.0
 30
0.0
 40
0.75
  0
ARC
  5
14F
330
145
100
AcDbEntity
  8
0
100
AcDbCircle
 10
-1.25
 20
0.0
 30
0.0
 40
0.1875
100
AcDbArc
 50
90.0
 51
270.0
  0
ARC
  5
150
330
145
100
AcDbEntity
  8
0
100
AcDbCircle
 10
-1.875
 20
0.0
 30
0.0
 40
0.1875
100
AcDbArc
 50
270.0
 51
90.0
  0
LINE
  5
151
330
145
100
AcDbEntity
  8
0
100
AcDbLine
 10
0.0
 20
0.1875
 30
0.0
 11
-1.25
 21
0.1875
 31
0.0
  0
LINE
  5
152
330
145
100
AcDbEntity
  8
0
100
AcDbLine
 10
0.0
 20
-0.1875
 30
0.0
 11
-1.25
 21
-0.1875
 31
0.0
  0
ARC
  5
153
330
145
100
AcDbEntity
  8
0
100
AcDbCircle
 10
-3.3125
 20
0.0
 30
0.0
 40
0.1875000000000002
100
AcDbArc
 50
90.0
 51
270.0
  0
LINE
  5
154
330
145
100
AcDbEntity
  8
0
100
AcDbLine
 10
-1.875
 20
-0.1875
 30
0.0
 11
-3.3125
 21
-0.1875
 31
0.0
  0
LINE
  5
155
330
145
100
AcDbEntity
  8
0
100
AcDbLine
 10
-1.875
 20
0.1875
 30
0.0
 11
-3.3125
 21
0.1875
 31
0.0
  0
ARC
  5
156
330
145
100
AcDbEntity
  8
0
100
AcDbCircle
 10
0.0
 20
0.0
 30
0.0
 40
0.1875
100
AcDbArc
 50
270.0
 51
90.0
  0
ENDBLK
  5
158
330
145
100
AcDbEntity
  8
0
100
AcDbBlockEnd
  0
BLOCK
  5
936
330
92D
100
AcDbEntity
  8
0
100
AcDbBlockBegin
  2
OTC-6
 70
     0
 10
0.0
 20
0.0
 30
0.0
  3
OTC-6
  1

  0
LWPOLYLINE
  5
92E
330
92D
100
AcDbEntity
  8
0
100
AcDbPolyline
 90
        4
 70
     1
 43
0.0
 10
-0.5
 20
-2.0
 10
5.499999999999985
 20
-2.0
 10
5.499999999999985
 20
0.5
 10
-0.5
 20
0.5
  0
ARC
  5
92F
330
92D
100
AcDbEntity
  8
OUTSIDE
100
AcDbCircle
 10
4.796874999999985
 20
-0.71875
 30
0.0
 40
0.140625
100
AcDbArc
 50
270.0
 51
90.0
  0
CIRCLE
  5
930
330
92D
100
AcDbEntity
  8
0
100
AcDbCircle
 10
0.0
 20
0.0
 30
0.0
 40
0.136
  0
CIRCLE
  5
931
330
92D
100
AcDbEntity
  8
0
100
AcDbCircle
 10
0.0
 20
-1.5
 30
0.0
 40
0.136
  0
TEXT
  5
932
330
92D
100
AcDbEntity
  8
0
100
AcDbText
 10
0.2258530993734666
 20
-0.8627655840508623
 30
0.0
 40
0.25
  1
6
100
AcDbText
  0
LINE
  5
933
330
92D
100
AcDbEntity
  8
OUTSIDE
100
AcDbLine
 10
3.703124999999985
 20
-0.578125
 30
0.0
 11
4.796874999999985
 21
-0.578125
 31
0.0
  0
LINE
  5
934
330
92D
100
AcDbEntity
  8
OUTSIDE
100
AcDbLine
 10
3.703124999999985
 20
-0.859375
 30
0.0
 11
4.796874999999985
 21
-0.859375
 31
0.0
  0
ARC
  5
935
330
92D
100
AcDbEntity
  8
OUTSIDE
100
AcDbCircle
 10
3.703124999999985
 20
-0.71875
 30
0.0
 40
0.140625
100
AcDbArc
 50
90.0
 51
270.0
  0
ENDBLK
  5
937
330
92D
100
AcDbEntity
  8
0
100
AcDbBlockEnd
  0
BLOCK
  5
945
330
939
100
AcDbEntity
  8
0
100
AcDbBlockBegin
  2
OTC-8
 70
     0
 10
0.0
 20
0.0
 30
0.0
  3
OTC-8
  1

  0
LINE
  5
93A
330
939
100
AcDbEntity
  8
OUTSIDE
100
AcDbLine
 10
5.703125
 20
-0.578125
 30
0.0
 11
6.796875
 21
-0.578125
 31
0.0
  0
LINE
  5
93B
330
939
100
AcDbEntity
  8
OUTSIDE
100
AcDbLine
 10
5.703125
 20
-0.859375
 30
0.0
 11
6.796875
 21
-0.859375
 31
0.0
  0
LINE
  5
93C
330
939
100
AcDbEntity
  8
OUTSIDE
100
AcDbLine
 10
-0.5
 20
0.5
 30
0.0
 11
7.5
 21
0.5
 31
0.0
  0
LINE
  5
93D
330
939
100
AcDbEntity
  8
OUTSIDE
100
AcDbLine
 10
7.5
 20
-1.9375
 30
0.0
 11
-0.5
 21
-1.9375
 31
0.0
  0
TEXT
  5
93E
330
939
100
AcDbEntity
  8
0
100
AcDbText
 10
0.2258530993734666
 20
-0.8627655840508623
 30
0.0
 40
0.25
  1
8
100
AcDbText
  0
ARC
  5
93F
330
939
100
AcDbEntity
  8
OUTSIDE
100
AcDbCircle
 10
5.703125
 20
-0.71875
 30
0.0
 40
0.140625
100
AcDbArc
 50
90.0
 51
270.0
  0
LINE
  5
940
330
939
100
AcDbEntity
  8
0
100
AcDbLine
 10
-0.5
 20
0.5
 30
0.0
 11
-0.5
 21
-1.9375
 31
0.0
  0
CIRCLE
  5
941
330
939
100
AcDbEntity
  8
0
100
AcDbCircle
 10
0.0
 20
-1.5
 30
0.0
 40
0.136
  0
CIRCLE
  5
942
330
939
100
AcDbEntity
  8
0
100
AcDbCircle
 10
0.0
 20
0.0
 30
0.0
 40
0.136
  0
ARC
  5
943
330
939
100
AcDbEntity
  8
OUTSIDE
100
AcDbCircle
 10
6.796875
 20
-0.71875
 30
0.0
 40
0.140625
100
AcDbArc
 50
270.0
 51
90.0
  0
LINE
  5
944
330
939
100
AcDbEntity
  8
OUTSIDE
100
AcDbLine
 10
7.5
 20
-1.9375
 30
0.0
 11
7.5
 21
0.5
 31
0.0
  0
ENDBLK
  5
946
330
939
100
AcDbEntity
  8
0
100
AcDbBlockEnd
  0
BLOCK
  5
954
330
948
100
AcDbEntity
  8
0
100
AcDbBlockBegin
  2
OTC-10
 70
     0
 10
0.0
 20
0.0
 30
0.0
  3
OTC-10
  1

  0
LINE
  5
949
330
948
100
AcDbEntity
  8
OUTSIDE
100
AcDbLine
 10
-0.5
 20
0.5
 30
0.0
 11
9.5
 21
0.5
 31
0.0
  0
LINE
  5
94A
330
948
100
AcDbEntity
  8
OUTSIDE
100
AcDbLine
 10
9.5
 20
-1.9375
 30
0.0
 11
-0.5
 21
-1.9375
 31
0.0
  0
TEXT
  5
94B
330
948
100
AcDbEntity
  8
0
100
AcDbText
 10
0.2258530993734666
 20
-0.8627655840508623
 30
0.0
 40
0.25
  1
10
100
AcDbText
  0
LINE
  5
94C
330
948
100
AcDbEntity
  8
0
100
AcDbLine
 10
-0.5
 20
0.5
 30
0.0
 11
-0.5
 21
-1.9375
 31
0.0
  0
CIRCLE
  5
94D
330
948
100
AcDbEntity
  8
0
100
AcDbCircle
 10
0.0
 20
-1.5
 30
0.0
 40
0.136
  0
CIRCLE
  5
94E
330
948
100
AcDbEntity
  8
0
100
AcDbCircle
 10
0.0
 20
0.0
 30
0.0
 40
0.136
  0
ARC
  5
94F
330
948
100
AcDbEntity
  8
OUTSIDE
100
AcDbCircle
 10
8.796875
 20
-0.71875
 30
0.0
 40
0.140625
100
AcDbArc
 50
270.0
 51
90.0
  0
ARC
  5
950
330
948
100
AcDbEntity
  8
OUTSIDE
100
AcDbCircle
 10
7.703125
 20
-0.71875
 30
0.0
 40
0.140625
100
AcDbArc
 50
90.0
 51
270.0
  0
LINE
  5
951
330
948
100
AcDbEntity
  8
OUTSIDE
100
AcDbLine
 10
9.5
 20
-1.9375
 30
0.0
 11
9.5
 21
0.5
 31
0.0
  0
LINE
  5
952
330
948
100
AcDbEntity
  8
OUTSIDE
100
AcDbLine
 10
7.703125
 20
-0.859375
 30
0.0
 11
8.796875
 21
-0.859375
 31
0.0
  0
LINE
  5
953
330
948
100
AcDbEntity
  8
OUTSIDE
100
AcDbLine
 10
7.703125
 20
-0.578125
 30
0.0
 11
8.796875
 21
-0.578125
 31
0.0
  0
ENDBLK
  5
955
330
948
100
AcDbEntity
  8
0
100
AcDbBlockEnd
  0
BLOCK
  5
963
330
957
100
AcDbEntity
  8
0
100
AcDbBlockBegin
  2
OTC-12
 70
     0
 10
0.0
 20
0.0
 30
0.0
  3
OTC-12
  1

  0
LINE
  5
958
330
957
100
AcDbEntity
  8
OUTSIDE
100
AcDbLine
 10
-0.5
 20
0.5
 30
0.0
 11
11.5
 21
0.5
 31
0.0
  0
LINE
  5
959
330
957
100
AcDbEntity
  8
OUTSIDE
100
AcDbLine
 10
11.5
 20
-1.9375
 30
0.0
 11
-0.5
 21
-1.9375
 31
0.0
  0
CIRCLE
  5
95A
330
957
100
AcDbEntity
  8
0
100
AcDbCircle
 10
0.0
 20
0.0
 30
0.0
 40
0.136
  0
CIRCLE
  5
95B
330
957
100
AcDbEntity
  8
0
100
AcDbCircle
 10
0.0
 20
-1.5
 30
0.0
 40
0.136
  0
TEXT
  5
95C
330
957
100
AcDbEntity
  8
0
100
AcDbText
 10
0.2258530993734666
 20
-0.8627655840508623
 30
0.0
 40
0.25
  1
12
100
AcDbText
  0
LINE
  5
95D
330
957
100
AcDbEntity
  8
0
100
AcDbLine
 10
-0.5
 20
0.5
 30
0.0
 11
-0.5
 21
-1.9375
 31
0.0
  0
LINE
  5
95E
330
957
100
AcDbEntity
  8
OUTSIDE
100
AcDbLine
 10
9.703125
 20
-0.859375
 30
0.0
 11
10.796875
 21
-0.859375
 31
0.0
  0
LINE
  5
95F
330
957
100
AcDbEntity
  8
OUTSIDE
100
AcDbLine
 10
9.703125
 20
-0.578125
 30
0.0
 11
10.796875
 21
-0.578125
 31
0.0
  0
ARC
  5
960
330
957
100
AcDbEntity
  8
OUTSIDE
100
AcDbCircle
 10
9.703125
 20
-0.71875
 30
0.0
 40
0.140625
100
AcDbArc
 50
90.0
 51
270.0
  0
ARC
  5
961
330
957
100
AcDbEntity
  8
OUTSIDE
100
AcDbCircle
 10
10.796875
 20
-0.71875
 30
0.0
 40
0.140625
100
AcDbArc
 50
270.0
 51
90.0
  0
LINE
  5
962
330
957
100
AcDbEntity
  8
OUTSIDE
100
AcDbLine
 10
11.5
 20
-1.9375
 30
0.0
 11
11.5
 21
0.5
 31
0.0
  0
ENDBLK
  5
964
330
957
100
AcDbEntity
  8
0
100
AcDbBlockEnd
  0
BLOCK
  5
972
330
966
100
AcDbEntity
  8
0
100
AcDbBlockBegin
  2
OTC-14
 70
     0
 10
0.0
 20
0.0
 30
0.0
  3
OTC-14
  1

  0
LINE
  5
967
330
966
100
AcDbEntity
  8
OUTSIDE
100
AcDbLine
 10
-0.5
 20
0.5
 30
0.0
 11
13.5
 21
0.5
 31
0.0
  0
LINE
  5
968
330
966
100
AcDbEntity
  8
OUTSIDE
100
AcDbLine
 10
13.5
 20
-1.9375
 30
0.0
 11
-0.5
 21
-1.9375
 31
0.0
  0
LINE
  5
969
330
966
100
AcDbEntity
  8
0
100
AcDbLine
 10
-0.5
 20
0.5
 30
0.0
 11
-0.5
 21
-1.9375
 31
0.0
  0
CIRCLE
  5
96A
330
966
100
AcDbEntity
  8
0
100
AcDbCircle
 10
0.0
 20
-1.5
 30
0.0
 40
0.136
  0
TEXT
  5
96B
330
966
100
AcDbEntity
  8
0
100
AcDbText
 10
0.2258530993734666
 20
-0.8627655840508623
 30
0.0
 40
0.25
  1
14
100
AcDbText
  0
CIRCLE
  5
96C
330
966
100
AcDbEntity
  8
0
100
AcDbCircle
 10
0.0
 20
0.0
 30
0.0
 40
0.136
  0
LINE
  5
96D
330
966
100
AcDbEntity
  8
OUTSIDE
100
AcDbLine
 10
13.5
 20
-1.9375
 30
0.0
 11
13.5
 21
0.5
 31
0.0
  0
LINE
  5
96E
330
966
100
AcDbEntity
  8
OUTSIDE
100
AcDbLine
 10
11.703125
 20
-0.578125
 30
0.0
 11
12.796875
 21
-0.578125
 31
0.0
  0
LINE
  5
96F
330
966
100
AcDbEntity
  8
OUTSIDE
100
AcDbLine
 10
11.703125
 20
-0.859375
 30
0.0
 11
12.796875
 21
-0.859375
 31
0.0
  0
ARC
  5
970
330
966
100
AcDbEntity
  8
OUTSIDE
100
AcDbCircle
 10
11.703125
 20
-0.71875
 30
0.0
 40
0.140625
100
AcDbArc
 50
90.0
 51
270.0
  0
ARC
  5
971
330
966
100
AcDbEntity
  8
OUTSIDE
100
AcDbCircle
 10
12.796875
 20
-0.71875
 30
0.0
 40
0.140625
100
AcDbArc
 50
270.0
 51
90.0
  0
ENDBLK
  5
973
330
966
100
AcDbEntity
  8
0
100
AcDbBlockEnd
  0
BLOCK
  5
451F
330
4518
100
AcDbEntity
  8
0
100
AcDbBlockBegin
  2
A$C72267DA4
 70
     0
 10
0.0
 20
0.0
 30
0.0
  3
A$C72267DA4
  1

  0
LINE
  5
4519
330
4518
100
AcDbEntity
  8
BDR
100
AcDbLine
 10
-0.0000007227840797
 20
3.011458393144607
 30
0.0
 11
-0.0000007227840797
 21
9.97725522305393
 31
0.0
  0
LINE
  5
451A
330
4518
100
AcDbEntity
  8
BDR
100
AcDbLine
 10
0.2499992772159203
 20
9.97725522305393
 30
0.0
 11
0.2499992772159203
 21
3.011458393144607
 31
0.0
  0
LINE
  5
451B
330
4518
100
AcDbEntity
  8
BDR
100
AcDbLine
 10
-0.0000007227840797
 20
9.97725522305393
 30
0.0
 11
0.2499992772159203
 21
9.97725522305393
 31
0.0
  0
ARC
  5
451C
330
4518
100
AcDbEntity
  8
BDR
100
AcDbCircle
 10
3.01145753855053
 20
3.011458393144607
 30
0.0
 40
3.01145826133464
100
AcDbArc
 50
180.0
 51
0.0
  0
ARC
  5
451D
330
4518
100
AcDbEntity
  8
BDR
100
AcDbCircle
 10
3.01145753855053
 20
3.011458393144607
 30
0.0
 40
2.76145826133464
100
AcDbArc
 50
180.0
 51
0.0
  0
LINE
  5
451E
330
4518
100
AcDbEntity
  8
BDR
100
AcDbLine
 10
5.77291579988514
 20
3.011458393144607
 30
0.0
 11
6.02291579988514
 21
3.011458393144607
 31
0.0
  0
ENDBLK
  5
4520
330
4518
100
AcDbEntity
  8
0
100
AcDbBlockEnd
  0
BLOCK
  5
4523
330
4521
100
AcDbEntity
  8
0
100
AcDbBlockBegin
  2
A$C66E47D23
 70
     0
 10
0.0
 20
0.0
 30
0.0
  3
A$C66E47D23
  1

  0
INSERT
  5
4522
330
4521
100
AcDbEntity
  8
0
100
AcDbBlockReference
  2
A$C72267DA4
 10
6.022915498545671
 20
-0.0000004041654051
 30
0.0
 41
-1.0
  0
ENDBLK
  5
4524
330
4521
100
AcDbEntity
  8
0
100
AcDbBlockEnd
  0
BLOCK
  5
48FA
330
48E0
100
AcDbEntity
  8
0
100
AcDbBlockBegin
  2
A$C5DCC5A0E
 70
     0
 10
0.0
 20
0.0
 30
0.0
  3
A$C5DCC5A0E
  1

  0
LINE
  5
48E1
330
48E0
100
AcDbEntity
  8
0
100
AcDbLine
 10
6.437500549257407
 20
0.5999996940967094
 30
0.0
 11
8.562500549257407
 21
0.5999996940967094
 31
0.0
  0
LINE
  5
48E2
330
48E0
100
AcDbEntity
  8
0
100
AcDbLine
 10
6.437500549257407
 20
0.9749996940967093
 30
0.0
 11
8.562500549257407
 21
0.9749996940967093
 31
0.0
  0
LINE
  5
48E3
330
48E0
100
AcDbEntity
  8
0
100
AcDbLine
 10
0.0000005492574076
 20
-0.0000003059032565
 30
0.0
 11
0.0000005492574076
 21
1.64999969409672
 31
0.0
  0
LINE
  5
48E4
330
48E0
100
AcDbEntity
  8
0
100
AcDbLine
 10
0.4375005492574076
 20
0.5999996940967094
 30
0.0
 11
2.562500549257407
 21
0.5999996940967094
 31
0.0
  0
LINE
  5
48E5
330
48E0
100
AcDbEntity
  8
0
100
AcDbLine
 10
0.4375005492574076
 20
0.9749996940967093
 30
0.0
 11
2.562500549257407
 21
0.9749996940967093
 31
0.0
  0
ARC
  5
48E6
330
48E0
100
AcDbEntity
  8
0
100
AcDbCircle
 10
0.4375005492573934
 20
0.7874996940967663
 30
0.0
 40
0.1874999999999933
100
AcDbArc
 50
90.0
 51
270.0
  0
LINE
  5
48E7
330
48E0
100
AcDbEntity
  8
0
100
AcDbLine
 10
3.437500549257407
 20
0.9749996940967093
 30
0.0
 11
5.562500549257407
 21
0.9749996940967093
 31
0.0
  0
LINE
  5
48E8
330
48E0
100
AcDbEntity
  8
0
100
AcDbLine
 10
3.437500549257407
 20
0.5999996940967094
 30
0.0
 11
5.562500549257407
 21
0.5999996940967094
 31
0.0
  0
ARC
  5
48E9
330
48E0
100
AcDbEntity
  8
0
100
AcDbCircle
 10
2.562500549257393
 20
0.7874996940967663
 30
0.0
 40
0.1874999999999933
100
AcDbArc
 50
270.0
 51
90.0
  0
ARC
  5
48EA
330
48E0
100
AcDbEntity
  8
0
100
AcDbCircle
 10
3.437500549257407
 20
0.7874996940967663
 30
0.0
 40
0.1874999999999933
100
AcDbArc
 50
90.0
 51
270.0
  0
ARC
  5
48EB
330
48E0
100
AcDbEntity
  8
0
100
AcDbCircle
 10
5.562500549257407
 20
0.7874996940967663
 30
0.0
 40
0.1874999999999933
100
AcDbArc
 50
270.0
 51
90.0
  0
ARC
  5
48EC
330
48E0
100
AcDbEntity
  8
0
100
AcDbCircle
 10
6.437500549257407
 20
0.7874996940967663
 30
0.0
 40
0.1874999999999933
100
AcDbArc
 50
90.0
 51
270.0
  0
LINE
  5
48ED
330
48E0
100
AcDbEntity
  8
0
100
AcDbLine
 10
12.4375005492574
 20
0.9749996940967093
 30
0.0
 11
14.56250054925741
 21
0.9749996940967093
 31
0.0
  0
LINE
  5
48EE
330
48E0
100
AcDbEntity
  8
0
100
AcDbLine
 10
12.4375005492574
 20
0.5999996940967094
 30
0.0
 11
14.56250054925741
 21
0.5999996940967094
 31
0.0
  0
LINE
  5
48EF
330
48E0
100
AcDbEntity
  8
0
100
AcDbLine
 10
9.437500549257407
 20
0.5999996940967094
 30
0.0
 11
11.56250054925741
 21
0.5999996940967094
 31
0.0
  0
LINE
  5
48F0
330
48E0
100
AcDbEntity
  8
0
100
AcDbLine
 10
9.437500549257407
 20
0.9749996940967093
 30
0.0
 11
11.56250054925741
 21
0.9749996940967093
 31
0.0
  0
ARC
  5
48F1
330
48E0
100
AcDbEntity
  8
0
100
AcDbCircle
 10
8.562500549257407
 20
0.7874996940967663
 30
0.0
 40
0.1874999999999933
100
AcDbArc
 50
270.0
 51
90.0
  0
ARC
  5
48F2
330
48E0
100
AcDbEntity
  8
0
100
AcDbCircle
 10
9.437500549257407
 20
0.7874996940967663
 30
0.0
 40
0.1874999999999933
100
AcDbArc
 50
90.0
 51
270.0
  0
ARC
  5
48F3
330
48E0
100
AcDbEntity
  8
0
100
AcDbCircle
 10
12.4375005492574
 20
0.7874996940967663
 30
0.0
 40
0.1874999999999933
100
AcDbArc
 50
90.0
 51
270.0
  0
ARC
  5
48F4
330
48E0
100
AcDbEntity
  8
0
100
AcDbCircle
 10
11.56250054925741
 20
0.7874996940967663
 30
0.0
 40
0.1874999999999933
100
AcDbArc
 50
270.0
 51
90.0
  0
LINE
  5
48F5
330
48E0
100
AcDbEntity
  8
0
100
AcDbLine
 10
15.00000054925743
 20
-0.0000003059032565
 30
0.0
 11
0.0000005492574076
 21
-0.0000003059032565
 31
0.0
  0
LINE
  5
48F6
330
48E0
100
AcDbEntity
  8
0
100
AcDbLine
 10
15.00000054925741
 20
0.0999996940967094
 30
0.0
 11
0.0000005492574076
 21
0.0999996940967094
 31
0.0
  0
LINE
  5
48F7
330
48E0
100
AcDbEntity
  8
0
100
AcDbLine
 10
0.0000005492574076
 20
1.64999969409672
 30
0.0
 11
15.00000054925738
 21
1.649999694096663
 31
0.0
  0
LINE
  5
48F8
330
48E0
100
AcDbEntity
  8
0
100
AcDbLine
 10
15.00000054925741
 20
-0.0000003059032565
 30
0.0
 11
15.00000054925741
 21
1.64999969409672
 31
0.0
  0
ARC
  5
48F9
330
48E0
100
AcDbEntity
  8
0
100
AcDbCircle
 10
14.56250054925741
 20
0.7874996940967663
 30
0.0
 40
0.1874999999999933
100
AcDbArc
 50
270.0
 51
90.0
  0
ENDBLK
  5
48FB
330
48E0
100
AcDbEntity
  8
0
100
AcDbBlockEnd
  0
BLOCK
  5
492C
330
48FC
100
AcDbEntity
  8
0
100
AcDbBlockBegin
  2
A$C7D0E5576
 70
     0
 10
0.0
 20
0.0
 30
0.0
  3
A$C7D0E5576
  1

  0
LINE
  5
48FD
330
48FC
100
AcDbEntity
  8
0
100
AcDbLine
 10
0.0851364488465834
 20
-0.0000002507530894
 30
0.0
 11
0.0851364488465834
 21
117.9999997492469
 31
0.0
  0
LINE
  5
48FE
330
48FC
100
AcDbEntity
  8
0
100
AcDbLine
 10
-0.0000003139434739
 20
-0.0000002507530894
 30
0.0
 11
-0.0000003139434703
 21
117.9999997492469
 31
0.0
  0
LINE
  5
48FF
330
48FC
100
AcDbEntity
  8
0
100
AcDbLine
 10
4.427083019389762
 20
112.999999749247
 30
0.0
 11
3.670624686056498
 21
40.3799997492469
 31
0.0
  0
LINE
  5
4900
330
48FC
100
AcDbEntity
  8
0
100
AcDbLine
 10
-0.0000003139434739
 20
-0.0000002507530894
 30
0.0
 11
3.249999686056526
 21
-0.0000002507530894
 31
0.0
  0
LINE
  5
4901
330
48FC
100
AcDbEntity
  8
0
100
AcDbLine
 10
2.924866372087819
 20
9.859148487278133
 30
0.0
 11
1.203350948025274
 21
9.859148487278133
 31
0.0
  0
LINE
  5
4902
330
48FC
100
AcDbEntity
  8
0
100
AcDbLine
 10
1.203350948025274
 20
10.14085101121566
 30
0.0
 11
2.924866372087819
 21
10.14085101121566
 31
0.0
  0
LINE
  5
4903
330
48FC
100
AcDbEntity
  8
0
100
AcDbLine
 10
3.174866372087706
 20
33.85914848727817
 30
0.0
 11
1.453350948025274
 21
33.85914848727817
 31
0.0
  0
LINE
  5
4904
330
48FC
100
AcDbEntity
  8
0
100
AcDbLine
 10
1.453350948025274
 20
34.14085101121563
 30
0.0
 11
3.174866372087706
 21
34.14085101121563
 31
0.0
  0
LINE
  5
4905
330
48FC
100
AcDbEntity
  8
0
100
AcDbLine
 10
3.174864225551857
 20
40.85837087557774
 30
0.0
 11
1.453348801489426
 21
40.85837087557774
 31
0.0
  0
LINE
  5
4906
330
48FC
100
AcDbEntity
  8
0
100
AcDbLine
 10
1.453348801489426
 20
41.14007339951522
 30
0.0
 11
3.174864225551857
 21
41.14007339951522
 31
0.0
  0
ARC
  5
4907
330
48FC
100
AcDbEntity
  8
0
100
AcDbCircle
 10
1.203350948025274
 20
9.99999974924691
 30
0.0
 40
0.14085126196875
100
AcDbArc
 50
90.0
 51
270.0
  0
ARC
  5
4908
330
48FC
100
AcDbEntity
  8
0
100
AcDbCircle
 10
1.453350948025274
 20
33.99999974924691
 30
0.0
 40
0.14085126196875
100
AcDbArc
 50
90.0
 51
270.0
  0
ARC
  5
4909
330
48FC
100
AcDbEntity
  8
0
100
AcDbCircle
 10
1.453348801489426
 20
40.99922213754649
 30
0.0
 40
0.14085126196875
100
AcDbArc
 50
90.0
 51
270.0
  0
LINE
  5
490A
330
48FC
100
AcDbEntity
  8
0
100
AcDbLine
 10
3.610728852723127
 20
34.62999974924691
 30
0.0
 11
3.249999686056526
 21
-0.0000002507530894
 31
0.0
  0
ARC
  5
490B
330
48FC
100
AcDbEntity
  8
0
100
AcDbCircle
 10
2.924866372087819
 20
9.99999974924691
 30
0.0
 40
0.14085126196875
100
AcDbArc
 50
270.0
 51
90.0
  0
LINE
  5
490C
330
48FC
100
AcDbEntity
  8
0
100
AcDbLine
 10
1.812499686056526
 20
34.62999974924691
 30
0.0
 11
1.812499686056526
 21
40.3799997492469
 31
0.0
  0
LINE
  5
490D
330
48FC
100
AcDbEntity
  8
0
100
AcDbLine
 10
1.812499686056526
 20
34.62999974924691
 30
0.0
 11
3.610728852723127
 21
34.62999974924691
 31
0.0
  0
ARC
  5
490E
330
48FC
100
AcDbEntity
  8
0
100
AcDbCircle
 10
3.174866372087706
 20
33.99999974924691
 30
0.0
 40
0.14085126196875
100
AcDbArc
 50
270.0
 51
90.0
  0
LINE
  5
490F
330
48FC
100
AcDbEntity
  8
0
100
AcDbLine
 10
1.812499686056526
 20
40.3799997492469
 30
0.0
 11
3.670624686056498
 21
40.3799997492469
 31
0.0
  0
ARC
  5
4910
330
48FC
100
AcDbEntity
  8
0
100
AcDbCircle
 10
3.174864225551857
 20
40.99922213754649
 30
0.0
 40
0.14085126196875
100
AcDbArc
 50
270.0
 51
90.0
  0
ARC
  5
4911
330
48FC
100
AcDbEntity
  8
0
100
AcDbCircle
 10
1.703350948025274
 20
57.99996845564999
 30
0.0
 40
0.14085126196875
100
AcDbArc
 50
90.0
 51
270.0
  0
ARC
  5
4912
330
48FC
100
AcDbEntity
  8
0
100
AcDbCircle
 10
3.424866372087819
 20
57.99996845564999
 30
0.0
 40
0.14085126196875
100
AcDbArc
 50
270.0
 51
90.0
  0
LINE
  5
4913
330
48FC
100
AcDbEntity
  8
0
100
AcDbLine
 10
1.703350948025274
 20
58.14081971761879
 30
0.0
 11
3.424866372087819
 21
58.14081971761879
 31
0.0
  0
LINE
  5
4914
330
48FC
100
AcDbEntity
  8
0
100
AcDbLine
 10
3.424866372087819
 20
57.85911719368124
 30
0.0
 11
1.703350948025274
 21
57.85911719368124
 31
0.0
  0
ARC
  5
4915
330
48FC
100
AcDbEntity
  8
0
100
AcDbCircle
 10
1.948679537326972
 20
81.99996845564999
 30
0.0
 40
0.14085126196875
100
AcDbArc
 50
90.0
 51
270.0
  0
LINE
  5
4916
330
48FC
100
AcDbEntity
  8
0
100
AcDbLine
 10
3.670194961389517
 20
81.85911719368125
 30
0.0
 11
1.948679537326972
 21
81.85911719368125
 31
0.0
  0
LINE
  5
4917
330
48FC
100
AcDbEntity
  8
0
100
AcDbLine
 10
1.948679537326972
 20
82.1408197176188
 30
0.0
 11
3.670194961389517
 21
82.1408197176188
 31
0.0
  0
ARC
  5
4918
330
48FC
100
AcDbEntity
  8
0
100
AcDbCircle
 10
3.670194961389517
 20
81.99996845564999
 30
0.0
 40
0.14085126196875
100
AcDbArc
 50
270.0
 51
90.0
  0
LINE
  5
4919
330
48FC
100
AcDbEntity
  8
0
100
AcDbLine
 10
2.088501251091496
 20
95.54581597446007
 30
0.0
 11
3.810016675153928
 21
95.54581597446007
 31
0.0
  0
LINE
  5
491A
330
48FC
100
AcDbEntity
  8
0
100
AcDbLine
 10
3.810016675153928
 20
95.26411345052258
 30
0.0
 11
2.088501251091496
 21
95.26411345052258
 31
0.0
  0
ARC
  5
491B
330
48FC
100
AcDbEntity
  8
0
100
AcDbCircle
 10
3.810016675153928
 20
95.40496471249133
 30
0.0
 40
0.14085126196875
100
AcDbArc
 50
270.0
 51
90.0
  0
ARC
  5
491C
330
48FC
100
AcDbEntity
  8
0
100
AcDbCircle
 10
2.088501251091496
 20
95.40496471249133
 30
0.0
 40
0.14085126196875
100
AcDbArc
 50
90.0
 51
270.0
  0
LINE
  5
491D
330
48FC
100
AcDbEntity
  8
0
100
AcDbLine
 10
2.088501251091496
 20
96.73331597446008
 30
0.0
 11
3.810016675153928
 21
96.73331597446008
 31
0.0
  0
LINE
  5
491E
330
48FC
100
AcDbEntity
  8
0
100
AcDbLine
 10
3.810016675153928
 20
96.45161345052258
 30
0.0
 11
2.088501251091496
 21
96.45161345052258
 31
0.0
  0
ARC
  5
491F
330
48FC
100
AcDbEntity
  8
0
100
AcDbCircle
 10
3.810016675153928
 20
96.59246471249133
 30
0.0
 40
0.14085126196875
100
AcDbArc
 50
270.0
 51
90.0
  0
ARC
  5
4920
330
48FC
100
AcDbEntity
  8
0
100
AcDbCircle
 10
2.088501251091496
 20
96.59246471249133
 30
0.0
 40
0.14085126196875
100
AcDbArc
 50
90.0
 51
270.0
  0
LINE
  5
4921
330
48FC
100
AcDbEntity
  8
0
100
AcDbLine
 10
-0.0000003139434739
 20
117.9999997492469
 30
0.0
 11
1.874999686056526
 21
117.9999997492469
 31
0.0
  0
LINE
  5
4922
330
48FC
100
AcDbEntity
  8
0
100
AcDbLine
 10
0.9996980034313764
 20
117.4991952622469
 30
0.0
 11
0.9996980034313764
 21
115.370776192497
 31
0.0
  0
LINE
  5
4923
330
48FC
100
AcDbEntity
  8
0
100
AcDbLine
 10
1.375301368681448
 20
115.370776192497
 30
0.0
 11
1.375301368681448
 21
117.4991952622469
 31
0.0
  0
LINE
  5
4924
330
48FC
100
AcDbEntity
  8
0
100
AcDbLine
 10
0.9996980034313764
 20
114.5898194782947
 30
0.0
 11
0.9996980034313764
 21
112.4614004085447
 31
0.0
  0
LINE
  5
4925
330
48FC
100
AcDbEntity
  8
0
100
AcDbLine
 10
1.375301368681448
 20
112.4614004085447
 30
0.0
 11
1.375301368681448
 21
114.5898194782947
 31
0.0
  0
ARC
  5
4926
330
48FC
100
AcDbEntity
  8
0
100
AcDbCircle
 10
1.187499686056526
 20
112.4614004085447
 30
0.0
 40
0.187801682625
100
AcDbArc
 50
180.0
 51
0.0
  0
ARC
  5
4927
330
48FC
100
AcDbEntity
  8
0
100
AcDbCircle
 10
1.187499686056526
 20
114.5898194782947
 30
0.0
 40
0.187801682625
100
AcDbArc
 50
0.0
 51
180.0
  0
ARC
  5
4928
330
48FC
100
AcDbEntity
  8
0
100
AcDbCircle
 10
1.187499686056526
 20
115.370776192497
 30
0.0
 40
0.187801682625
100
AcDbArc
 50
180.0
 51
0.0
  0
ARC
  5
4929
330
48FC
100
AcDbEntity
  8
0
100
AcDbCircle
 10
1.187499686056526
 20
117.4991952622469
 30
0.0
 40
0.187801682625
100
AcDbArc
 50
0.0
 51
180.0
  0
LINE
  5
492A
330
48FC
100
AcDbEntity
  8
0
100
AcDbLine
 10
1.874999686056526
 20
112.9999997492469
 30
0.0
 11
1.874999686056526
 21
117.9999997492469
 31
0.0
  0
LINE
  5
492B
330
48FC
100
AcDbEntity
  8
0
100
AcDbLine
 10
1.874999686056526
 20
112.9999997492469
 30
0.0
 11
4.427083019389762
 21
112.999999749247
 31
0.0
  0
ENDBLK
  5
492D
330
48FC
100
AcDbEntity
  8
0
100
AcDbBlockEnd
  0
BLOCK
  5
493B
330
492E
100
AcDbEntity
  8
0
100
AcDbBlockBegin
  2
A$C06D334F2
 70
     0
 10
0.0
 20
0.0
 30
0.0
  3
A$C06D334F2
  1

  0
LINE
  5
492F
330
492E
100
AcDbEntity
  8
0
100
AcDbLine
 10
3.999766952306876
 20
95.99479228434237
 30
0.0
 11
2.99983703619182
 21
0.000000028913945
 31
0.0
  0
LINE
  5
4930
330
492E
100
AcDbEntity
  8
0
100
AcDbLine
 10
3.312304247352632
 20
96.0019532407729
 30
0.0
 11
2.312374331237577
 21
0.0071609853444556
 31
0.0
  0
LINE
  5
4931
330
492E
100
AcDbEntity
  8
0
100
AcDbLine
 10
-0.0000002217904012
 20
0.0312478387926092
 30
0.0
 11
0.99992969432469
 21
96.02604009422103
 31
0.0
  0
LINE
  5
4932
330
492E
100
AcDbEntity
  8
0
100
AcDbLine
 10
2.99983703619182
 20
0.000000028913945
 30
0.0
 11
-0.0000002217904012
 21
0.0312478387926092
 31
0.0
  0
POINT
  5
4933
330
492E
100
AcDbEntity
  8
DEFPOINTS
  6
ByBlock
 62
     0
100
AcDbPoint
 10
-0.0000002217904012
 20
0.0312478387926092
 30
0.0
  0
CIRCLE
  5
4934
330
492E
100
AcDbEntity
  8
0
100
AcDbCircle
 10
1.604077773462876
 20
10.01508146046038
 30
0.0
 40
0.203
  0
CIRCLE
  5
4935
330
492E
100
AcDbEntity
  8
0
100
AcDbCircle
 10
1.854060252491649
 20
34.01377952431747
 30
0.0
 40
0.203
  0
CIRCLE
  5
4936
330
492E
100
AcDbEntity
  8
0
100
AcDbCircle
 10
2.104042731520792
 20
58.01247758817459
 30
0.0
 40
0.203
  0
CIRCLE
  5
4937
330
492E
100
AcDbEntity
  8
0
100
AcDbCircle
 10
2.553595506503674
 20
95.40982378148767
 30
0.0
 40
0.136
  0
CIRCLE
  5
4938
330
492E
100
AcDbEntity
  8
0
100
AcDbCircle
 10
1.803636192008118
 20
95.41763573395741
 30
0.0
 40
0.136
  0
CIRCLE
  5
4939
330
492E
100
AcDbEntity
  8
0
100
AcDbCircle
 10
2.171845490448836
 20
94.76376501849307
 30
0.0
 40
0.2075
  0
LINE
  5
493A
330
492E
100
AcDbEntity
  8
0
100
AcDbLine
 10
3.999766952309045
 20
95.99479228434233
 30
0.0
 11
0.9999296943268234
 21
96.02604009422101
 31
0.0
  0
ENDBLK
  5
493C
330
492E
100
AcDbEntity
  8
0
100
AcDbBlockEnd
  0
BLOCK
  5
4971
330
496F
100
AcDbEntity
  8
0
100
AcDbBlockBegin
  2
A$C03EA5BC6
 70
     0
 10
0.0
 20
0.0
 30
0.0
  3
A$C03EA5BC6
  1

  0
INSERT
  5
4970
330
496F
100
AcDbEntity
  8
0
100
AcDbBlockReference
  2
A$C66E47D23
 10
6.022916237817128
 20
0.0000001770681308
 30
0.0
 41
-1.0
  0
ENDBLK
  5
4972
330
496F
100
AcDbEntity
  8
0
100
AcDbBlockEnd
  0
BLOCK
  5
4BE5
330
4BBC
100
AcDbEntity
  8
0
100
AcDbBlockBegin
  2
3VPT-156
 70
     0
 10
0.0
 20
0.0
 30
0.0
  3
3VPT-156
  1

  0
LINE
  5
54FF
330
4BBC
100
AcDbEntity
  8
0
100
AcDbLine
 10
1.488000000000027
 20
-1.453000000000002
 30
0.0
 11
1.487999999999999
 21
154.547
 31
0.0
  0
LINE
  5
5500
330
4BBC
100
AcDbEntity
  8
0
100
AcDbLine
 10
2.118000000000023
 20
-1.453000000000002
 30
0.0
 11
2.118000000000023
 21
154.547
 31
0.0
  0
LINE
  5
5501
330
4BBC
100
AcDbEntity
  8
0
100
AcDbLine
 10
-1.061999999999983
 20
-1.453000000000002
 30
0.0
 11
-1.061999999999983
 21
154.547
 31
0.0
  0
LINE
  5
5502
330
4BBC
100
AcDbEntity
  8
0
100
AcDbLine
 10
-1.061999999999983
 20
-1.453000000000002
 30
0.0
 11
2.118000000000023
 21
-1.453000000000002
 31
0.0
  0
CIRCLE
  5
5503
330
4BBC
100
AcDbEntity
  8
0
100
AcDbCircle
 10
0.0
 20
-0.203000000000003
 30
0.0
 40
0.203
  0
CIRCLE
  5
5504
330
4BBC
100
AcDbEntity
  8
0
100
AcDbCircle
 10
-0.3499999999999659
 20
-0.8530000000000086
 30
0.0
 40
0.136
  0
CIRCLE
  5
5505
330
4BBC
100
AcDbEntity
  8
0
100
AcDbCircle
 10
0.4000000000000341
 20
-0.8530000000000086
 30
0.0
 40
0.136
  0
ARC
  5
5506
330
4BBC
100
AcDbEntity
  8
0
100
AcDbCircle
 10
-0.2019999999999982
 20
9.162000000000006
 30
0.0
 40
0.135
100
AcDbArc
 50
0.0
 51
180.0
  0
ARC
  5
5507
330
4BBC
100
AcDbEntity
  8
0
100
AcDbCircle
 10
-0.2019999999999982
 20
7.931999999999987
 30
0.0
 40
0.135
100
AcDbArc
 50
180.0
 51
0.0
  0
LINE
  5
5508
330
4BBC
100
AcDbEntity
  8
0
100
AcDbLine
 10
-0.3369999999999891
 20
7.931999999999987
 30
0.0
 11
-0.3369999999999891
 21
9.162000000000006
 31
0.0
  0
LINE
  5
5509
330
4BBC
100
AcDbEntity
  8
0
100
AcDbLine
 10
-0.0669999999999789
 20
9.162000000000006
 30
0.0
 11
-0.0669999999999789
 21
7.931999999999987
 31
0.0
  0
LINE
  5
550A
330
4BBC
100
AcDbEntity
  8
0
100
AcDbLine
 10
-0.0669999999999789
 20
33.16200000000001
 30
0.0
 11
-0.0669999999999789
 21
31.93199999999999
 31
0.0
  0
LINE
  5
550B
330
4BBC
100
AcDbEntity
  8
0
100
AcDbLine
 10
-0.3369999999999891
 20
31.93199999999999
 30
0.0
 11
-0.3369999999999891
 21
33.16200000000001
 31
0.0
  0
ARC
  5
550C
330
4BBC
100
AcDbEntity
  8
0
100
AcDbCircle
 10
-0.2019999999999982
 20
31.93199999999999
 30
0.0
 40
0.135
100
AcDbArc
 50
180.0
 51
0.0
  0
ARC
  5
550D
330
4BBC
100
AcDbEntity
  8
0
100
AcDbCircle
 10
-0.2019999999999982
 20
33.16200000000001
 30
0.0
 40
0.135
100
AcDbArc
 50
0.0
 51
180.0
  0
LINE
  5
550E
330
4BBC
100
AcDbEntity
  8
0
100
AcDbLine
 10
-0.0669999999999789
 20
57.162
 30
0.0
 11
-0.0669999999999789
 21
55.93199999999999
 31
0.0
  0
LINE
  5
550F
330
4BBC
100
AcDbEntity
  8
0
100
AcDbLine
 10
-0.3369999999999607
 20
55.93199999999999
 30
0.0
 11
-0.3369999999999607
 21
57.162
 31
0.0
  0
ARC
  5
5510
330
4BBC
100
AcDbEntity
  8
0
100
AcDbCircle
 10
-0.2019999999999982
 20
55.93199999999999
 30
0.0
 40
0.135
100
AcDbArc
 50
180.0
 51
0.0
  0
ARC
  5
5511
330
4BBC
100
AcDbEntity
  8
0
100
AcDbCircle
 10
-0.2019999999999982
 20
57.162
 30
0.0
 40
0.135
100
AcDbArc
 50
0.0
 51
180.0
  0
LINE
  5
5512
330
4BBC
100
AcDbEntity
  8
0
100
AcDbLine
 10
-1.061999999999983
 20
154.5469999999999
 30
0.0
 11
2.118000000000023
 21
154.547
 31
0.0
  0
LINE
  5
5513
330
4BBC
100
AcDbEntity
  8
0
100
AcDbLine
 10
-1.061999999999983
 20
154.547
 30
0.0
 11
2.118000000000023
 21
154.547
 31
0.0
  0
ARC
  5
5514
330
4BBC
100
AcDbEntity
  8
0
100
AcDbCircle
 10
-0.2019999999999982
 20
81.16200000000004
 30
0.0
 40
0.135
100
AcDbArc
 50
0.0
 51
180.0
  0
ARC
  5
5515
330
4BBC
100
AcDbEntity
  8
0
100
AcDbCircle
 10
-0.2019999999999982
 20
79.93200000000001
 30
0.0
 40
0.135
100
AcDbArc
 50
180.0
 51
0.0
  0
LINE
  5
5516
330
4BBC
100
AcDbEntity
  8
0
100
AcDbLine
 10
-0.0669999999999789
 20
81.16200000000004
 30
0.0
 11
-0.0669999999999789
 21
79.93200000000001
 31
0.0
  0
LINE
  5
5517
330
4BBC
100
AcDbEntity
  8
0
100
AcDbLine
 10
-0.3369999999999607
 20
79.93200000000001
 30
0.0
 11
-0.3369999999999607
 21
81.16200000000004
 31
0.0
  0
ARC
  5
5518
330
4BBC
100
AcDbEntity
  8
0
100
AcDbCircle
 10
-0.2019999999999982
 20
105.162
 30
0.0
 40
0.135
100
AcDbArc
 50
0.0
 51
180.0
  0
ARC
  5
5519
330
4BBC
100
AcDbEntity
  8
0
100
AcDbCircle
 10
-0.2019999999999982
 20
103.932
 30
0.0
 40
0.135
100
AcDbArc
 50
180.0
 51
0.0
  0
LINE
  5
551A
330
4BBC
100
AcDbEntity
  8
0
100
AcDbLine
 10
-0.0669999999999789
 20
105.162
 30
0.0
 11
-0.0669999999999789
 21
103.932
 31
0.0
  0
LINE
  5
551B
330
4BBC
100
AcDbEntity
  8
0
100
AcDbLine
 10
-0.3369999999999607
 20
103.932
 30
0.0
 11
-0.3369999999999607
 21
105.162
 31
0.0
  0
ARC
  5
551C
330
4BBC
100
AcDbEntity
  8
0
100
AcDbCircle
 10
-0.2019999999999982
 20
129.162
 30
0.0
 40
0.135
100
AcDbArc
 50
0.0
 51
180.0
  0
ARC
  5
551D
330
4BBC
100
AcDbEntity
  8
0
100
AcDbCircle
 10
-0.2019999999999982
 20
127.932
 30
0.0
 40
0.135
100
AcDbArc
 50
180.0
 51
0.0
  0
LINE
  5
551E
330
4BBC
100
AcDbEntity
  8
0
100
AcDbLine
 10
-0.0669999999999789
 20
129.162
 30
0.0
 11
-0.0669999999999789
 21
127.932
 31
0.0
  0
LINE
  5
551F
330
4BBC
100
AcDbEntity
  8
0
100
AcDbLine
 10
-0.3369999999999607
 20
127.932
 30
0.0
 11
-0.3369999999999607
 21
129.162
 31
0.0
  0
LINE
  5
5520
330
4BBC
100
AcDbEntity
  8
0
100
AcDbLine
 10
-0.0669999999999789
 20
153.1053753669279
 30
0.0
 11
-0.0669999999999789
 21
151.932
 31
0.0
  0
ARC
  5
5521
330
4BBC
100
AcDbEntity
  8
0
100
AcDbCircle
 10
-0.2019999999999982
 20
153.162
 30
0.0
 40
0.135
100
AcDbArc
 50
90.42441704858335
 51
180.0
  0
ARC
  5
5522
330
4BBC
100
AcDbEntity
  8
0
100
AcDbCircle
 10
-0.0000000000000284
 20
153.297
 30
0.0
 40
0.203
100
AcDbArc
 50
250.7282345350644
 51
180.0010453669293
  0
CIRCLE
  5
5523
330
4BBC
100
AcDbEntity
  8
0
100
AcDbCircle
 10
-0.3499999999999943
 20
153.9469999999999
 30
0.0
 40
0.136
  0
CIRCLE
  5
5524
330
4BBC
100
AcDbEntity
  8
0
100
AcDbCircle
 10
0.4000000000000057
 20
153.9469999999999
 30
0.0
 40
0.136
  0
LINE
  5
5525
330
4BBC
100
AcDbEntity
  8
0
100
AcDbLine
 10
-0.3369999999999607
 20
151.932
 30
0.0
 11
-0.3369999999999607
 21
153.162
 31
0.0
  0
ARC
  5
5526
330
4BBC
100
AcDbEntity
  8
0
100
AcDbCircle
 10
-0.2019999999999982
 20
151.932
 30
0.0
 40
0.135
100
AcDbArc
 50
180.0
 51
0.0
  0
ENDBLK
  5
4BE6
330
4BBC
100
AcDbEntity
  8
0
100
AcDbBlockEnd
  0
BLOCK
  5
54FC
330
54C5
100
AcDbEntity
  8
0
100
AcDbBlockBegin
  2
A$C0C90362F
 70
     0
 10
0.0
 20
0.0
 30
0.0
  3
A$C0C90362F
  1

  0
LINE
  5
54C6
330
54C5
100
AcDbEntity
  8
JAMB
 62
     7
100
AcDbLine
 10
0.0000002911639285
 20
122.9999999508193
 30
0.0
 11
0.0000002911638148
 21
-0.0000000491806418
 31
0.0
  0
LINE
  5
54C7
330
54C5
100
AcDbEntity
  8
REVERSE-ANGLE
 62
     7
100
AcDbLine
 10
0.0000002911638717
 20
-0.0000000491806418
 30
0.0
 11
0.0000002911638717
 21
122.9999999508193
 31
0.0
  0
LINE
  5
54C8
330
54C5
100
AcDbEntity
  8
REVERSE-ANGLE
 62
     7
100
AcDbLine
 10
0.1000002911639513
 20
-0.0000000491806418
 30
0.0
 11
0.1000002911638376
 21
122.9999999508193
 31
0.0
  0
LINE
  5
54C9
330
54C5
100
AcDbEntity
  8
REVERSE-ANGLE
 62
     7
100
AcDbLine
 10
1.625000291163871
 20
77.49999995081935
 30
0.0
 11
1.625000291163928
 21
104.4999999508193
 31
0.0
  0
LINE
  5
54CA
330
54C5
100
AcDbEntity
  8
REVERSE-ANGLE
 62
     7
100
AcDbLine
 10
1.625000291163871
 20
29.49999995081936
 30
0.0
 11
1.625000291163871
 21
50.49999995081936
 31
0.0
  0
LINE
  5
54CB
330
54C5
100
AcDbEntity
  8
REVERSE-ANGLE
 62
     7
100
AcDbLine
 10
1.625000291163871
 20
5.499999950819358
 30
0.0
 11
1.625000291163871
 21
26.49999995081936
 31
0.0
  0
LINE
  5
54CC
330
54C5
100
AcDbEntity
  8
UPPER-ANGLE
100
AcDbLine
 10
1.625000291163928
 20
-0.0000000491806702
 30
0.0
 11
1.625000291163871
 21
2.499999950819358
 31
0.0
  0
LINE
  5
54CD
330
54C5
100
AcDbEntity
  8
UPPER-ANGLE
100
AcDbLine
 10
0.0000002911639285
 20
-0.0000000491806418
 30
0.0
 11
1.625000291163928
 21
-0.0000000491806418
 31
0.0
  0
LINE
  5
54CE
330
54C5
100
AcDbEntity
  8
REVERSE-ANGLE
 62
     7
100
AcDbLine
 10
0.0000002911638717
 20
3.807499950819362
 30
0.0
 11
0.1000002911638944
 21
3.807499950819362
 31
0.0
  0
LINE
  5
54CF
330
54C5
100
AcDbEntity
  8
REVERSE-ANGLE
 62
     7
100
AcDbLine
 10
0.0000002911638717
 20
4.192499950819353
 30
0.0
 11
0.1000002911638944
 21
4.192499950819353
 31
0.0
  0
CIRCLE
  5
54D0
330
54C5
100
AcDbEntity
  8
REVERSE-ANGLE
 62
     7
100
AcDbCircle
 10
0.7750002911639058
 20
4.749999950819358
 30
0.0
 40
0.1325
  0
LINE
  5
54D1
330
54C5
100
AcDbEntity
  8
REVERSE-ANGLE
 62
     7
100
AcDbLine
 10
1.205000291163855
 20
5.499999950819358
 30
0.0
 11
1.625000291163871
 21
5.499999950819358
 31
0.0
  0
LINE
  5
54D2
330
54C5
100
AcDbEntity
  8
REVERSE-ANGLE
 62
     7
100
AcDbLine
 10
1.205000291163855
 20
2.499999950819358
 30
0.0
 11
1.625000291163871
 21
2.499999950819358
 31
0.0
  0
LINE
  5
54D3
330
54C5
100
AcDbEntity
  8
REVERSE-ANGLE
 62
     7
100
AcDbLine
 10
1.205000291163855
 20
2.499999950819358
 30
0.0
 11
1.205000291163855
 21
5.499999950819358
 31
0.0
  0
CIRCLE
  5
54D4
330
54C5
100
AcDbEntity
  8
REVERSE-ANGLE
 62
     7
100
AcDbCircle
 10
0.7750002911639058
 20
3.249999950819358
 30
0.0
 40
0.1325
  0
LINE
  5
54D5
330
54C5
100
AcDbEntity
  8
REVERSE-ANGLE
 62
     7
100
AcDbLine
 10
0.0000002911638717
 20
28.19249995081936
 30
0.0
 11
0.1000002911638944
 21
28.19249995081936
 31
0.0
  0
LINE
  5
54D6
330
54C5
100
AcDbEntity
  8
REVERSE-ANGLE
 62
     7
100
AcDbLine
 10
0.0000002911638717
 20
27.80749995081936
 30
0.0
 11
0.1000002911638944
 21
27.80749995081936
 31
0.0
  0
CIRCLE
  5
54D7
330
54C5
100
AcDbEntity
  8
REVERSE-ANGLE
 62
     7
100
AcDbCircle
 10
0.7750002911639058
 20
28.74999995081936
 30
0.0
 40
0.1325
  0
CIRCLE
  5
54D8
330
54C5
100
AcDbEntity
  8
REVERSE-ANGLE
 62
     7
100
AcDbCircle
 10
0.7750002911639058
 20
27.24999995081936
 30
0.0
 40
0.1325
  0
LINE
  5
54D9
330
54C5
100
AcDbEntity
  8
REVERSE-ANGLE
 62
     7
100
AcDbLine
 10
1.205000291163855
 20
26.49999995081936
 30
0.0
 11
1.205000291163855
 21
29.49999995081936
 31
0.0
  0
LINE
  5
54DA
330
54C5
100
AcDbEntity
  8
REVERSE-ANGLE
 62
     7
100
AcDbLine
 10
1.205000291163855
 20
26.49999995081936
 30
0.0
 11
1.625000291163871
 21
26.49999995081936
 31
0.0
  0
LINE
  5
54DB
330
54C5
100
AcDbEntity
  8
REVERSE-ANGLE
 62
     7
100
AcDbLine
 10
1.205000291163855
 20
29.49999995081936
 30
0.0
 11
1.625000291163871
 21
29.49999995081936
 31
0.0
  0
LINE
  5
54DC
330
54C5
100
AcDbEntity
  8
REVERSE-ANGLE
 62
     7
100
AcDbLine
 10
1.625000291163871
 20
53.49999995081936
 30
0.0
 11
1.625000291163871
 21
74.49999995081935
 31
0.0
  0
LINE
  5
54DD
330
54C5
100
AcDbEntity
  8
REVERSE-ANGLE
 62
     7
100
AcDbLine
 10
1.205000291163855
 20
50.49999995081936
 30
0.0
 11
1.205000291163855
 21
53.49999995081936
 31
0.0
  0
LINE
  5
54DE
330
54C5
100
AcDbEntity
  8
REVERSE-ANGLE
 62
     7
100
AcDbLine
 10
1.205000291163855
 20
50.49999995081936
 30
0.0
 11
1.625000291163871
 21
50.49999995081936
 31
0.0
  0
LINE
  5
54DF
330
54C5
100
AcDbEntity
  8
REVERSE-ANGLE
 62
     7
100
AcDbLine
 10
0.0000002911638717
 20
51.80749995081936
 30
0.0
 11
0.1000002911638944
 21
51.80749995081936
 31
0.0
  0
LINE
  5
54E0
330
54C5
100
AcDbEntity
  8
REVERSE-ANGLE
 62
     7
100
AcDbLine
 10
0.0000002911638717
 20
52.19249995081935
 30
0.0
 11
0.1000002911638944
 21
52.19249995081935
 31
0.0
  0
LINE
  5
54E1
330
54C5
100
AcDbEntity
  8
REVERSE-ANGLE
 62
     7
100
AcDbLine
 10
1.205000291163855
 20
53.49999995081936
 30
0.0
 11
1.625000291163871
 21
53.49999995081936
 31
0.0
  0
CIRCLE
  5
54E2
330
54C5
100
AcDbEntity
  8
REVERSE-ANGLE
 62
     7
100
AcDbCircle
 10
0.7750002911639058
 20
51.24999995081935
 30
0.0
 40
0.1325
  0
CIRCLE
  5
54E3
330
54C5
100
AcDbEntity
  8
REVERSE-ANGLE
 62
     7
100
AcDbCircle
 10
0.7750002911639058
 20
52.74999995081936
 30
0.0
 40
0.1325
  0
LINE
  5
54E4
330
54C5
100
AcDbEntity
  8
REVERSE-ANGLE
 62
     7
100
AcDbLine
 10
0.0000002911638717
 20
76.19249995081935
 30
0.0
 11
0.1000002911638944
 21
76.19249995081935
 31
0.0
  0
LINE
  5
54E5
330
54C5
100
AcDbEntity
  8
REVERSE-ANGLE
 62
     7
100
AcDbLine
 10
0.0000002911638717
 20
75.80749995081936
 30
0.0
 11
0.1000002911638944
 21
75.80749995081936
 31
0.0
  0
LINE
  5
54E6
330
54C5
100
AcDbEntity
  8
REVERSE-ANGLE
 62
     7
100
AcDbLine
 10
1.205000291163855
 20
77.49999995081935
 30
0.0
 11
1.625000291163871
 21
77.49999995081935
 31
0.0
  0
LINE
  5
54E7
330
54C5
100
AcDbEntity
  8
REVERSE-ANGLE
 62
     7
100
AcDbLine
 10
1.205000291163855
 20
74.49999995081935
 30
0.0
 11
1.625000291163871
 21
74.49999995081935
 31
0.0
  0
CIRCLE
  5
54E8
330
54C5
100
AcDbEntity
  8
REVERSE-ANGLE
 62
     7
100
AcDbCircle
 10
0.7750002911639058
 20
76.74999995081936
 30
0.0
 40
0.1325
  0
CIRCLE
  5
54E9
330
54C5
100
AcDbEntity
  8
REVERSE-ANGLE
 62
     7
100
AcDbCircle
 10
0.7750002911639058
 20
75.24999995081936
 30
0.0
 40
0.1325
  0
LINE
  5
54EA
330
54C5
100
AcDbEntity
  8
REVERSE-ANGLE
 62
     7
100
AcDbLine
 10
1.205000291163855
 20
74.49999995081935
 30
0.0
 11
1.205000291163855
 21
77.49999995081935
 31
0.0
  0
LINE
  5
54EB
330
54C5
100
AcDbEntity
  8
REVERSE-ANGLE
 62
     7
100
AcDbLine
 10
1.625000291163928
 20
107.4999999508194
 30
0.0
 11
1.625000291163928
 21
122.9999999508193
 31
0.0
  0
LINE
  5
54EC
330
54C5
100
AcDbEntity
  8
REVERSE-ANGLE
 62
     7
100
AcDbLine
 10
1.205000291163855
 20
104.4999999508193
 30
0.0
 11
1.205000291163855
 21
107.4999999508193
 31
0.0
  0
CIRCLE
  5
54ED
330
54C5
100
AcDbEntity
  8
REVERSE-ANGLE
 62
     7
100
AcDbCircle
 10
0.7750002911639058
 20
106.7499999508193
 30
0.0
 40
0.1325
  0
LINE
  5
54EE
330
54C5
100
AcDbEntity
  8
REVERSE-ANGLE
 62
     7
100
AcDbLine
 10
0.0000002911638717
 20
99.80749995081936
 30
0.0
 11
0.1000002911638944
 21
99.80749995081936
 31
0.0
  0
LINE
  5
54EF
330
54C5
100
AcDbEntity
  8
REVERSE-ANGLE
 62
     7
100
AcDbLine
 10
0.0000002911638717
 20
100.1924999508193
 30
0.0
 11
0.1000002911638944
 21
100.1924999508193
 31
0.0
  0
LINE
  5
54F0
330
54C5
100
AcDbEntity
  8
REVERSE-ANGLE
 62
     7
100
AcDbLine
 10
1.205000291163855
 20
104.4999999508193
 30
0.0
 11
1.625000291163871
 21
104.4999999508193
 31
0.0
  0
CIRCLE
  5
54F1
330
54C5
100
AcDbEntity
  8
REVERSE-ANGLE
 62
     7
100
AcDbCircle
 10
0.7750002911639058
 20
105.2499999508193
 30
0.0
 40
0.1325
  0
LINE
  5
54F2
330
54C5
100
AcDbEntity
  8
REVERSE-ANGLE
 62
     7
100
AcDbLine
 10
1.205000291163855
 20
107.4999999508193
 30
0.0
 11
1.625000291163871
 21
107.4999999508193
 31
0.0
  0
ARC
  5
54F3
330
54C5
100
AcDbEntity
  8
UPPER-ANGLE
100
AcDbCircle
 10
1.045554748446079
 20
118.8674999508194
 30
0.0
 40
0.1925000000000002
100
AcDbArc
 50
0.0
 51
180.0
  0
ARC
  5
54F4
330
54C5
100
AcDbEntity
  8
UPPER-ANGLE
100
AcDbCircle
 10
1.045554748446079
 20
117.7524999508193
 30
0.0
 40
0.1925000000000002
100
AcDbArc
 50
180.0
 51
0.0
  0
LINE
  5
54F5
330
54C5
100
AcDbEntity
  8
UPPER-ANGLE
100
AcDbLine
 10
1.238054748446074
 20
117.7524999508193
 30
0.0
 11
1.238054748446074
 21
118.8674999508194
 31
0.0
  0
LINE
  5
54F6
330
54C5
100
AcDbEntity
  8
UPPER-ANGLE
100
AcDbLine
 10
0.8530547484460839
 20
117.7524999508193
 30
0.0
 11
0.8530547484460839
 21
118.8674999508194
 31
0.0
  0
LINE
  5
54F7
330
54C5
100
AcDbEntity
  8
UPPER-ANGLE
100
AcDbLine
 10
0.0000002911639285
 20
122.9999999508193
 30
0.0
 11
1.625000291163928
 21
122.9999999508193
 31
0.0
  0
LINE
  5
54F8
330
54C5
100
AcDbEntity
  8
UPPER-ANGLE
100
AcDbLine
 10
1.238054748446074
 20
121.4024999508193
 30
0.0
 11
1.238054748446074
 21
122.5174999508193
 31
0.0
  0
LINE
  5
54F9
330
54C5
100
AcDbEntity
  8
UPPER-ANGLE
100
AcDbLine
 10
0.8530547484460839
 20
121.4024999508193
 30
0.0
 11
0.8530547484460839
 21
122.5174999508193
 31
0.0
  0
ARC
  5
54FA
330
54C5
100
AcDbEntity
  8
UPPER-ANGLE
100
AcDbCircle
 10
1.045554748446079
 20
121.4024999508193
 30
0.0
 40
0.1925000000000002
100
AcDbArc
 50
180.0
 51
0.0
  0
ARC
  5
54FB
330
54C5
100
AcDbEntity
  8
UPPER-ANGLE
100
AcDbCircle
 10
1.045554748446079
 20
122.5174999508193
 30
0.0
 40
0.1925000000000002
100
AcDbArc
 50
0.0
 51
180.0
  0
ENDBLK
  5
54FD
330
54C5
100
AcDbEntity
  8
0
100
AcDbBlockEnd
  0
BLOCK
  5
5629
330
5609
100
AcDbEntity
  8
0
100
AcDbBlockBegin
  2
A$C643A598F
 70
     0
 10
0.0
 20
0.0
 30
0.0
  3
A$C643A598F
  1

  0
LINE
  5
560A
330
5609
100
AcDbEntity
  8
SPLICE-PLATE
 62
     7
100
AcDbLine
 10
5.999999993123793
 20
-0.0000000001829221
 30
0.0
 11
-0.0000000068762063
 21
-0.0000000001829221
 31
0.0
  0
LINE
  5
560B
330
5609
100
AcDbEntity
  8
SPLICE-PLATE
 62
     7
100
AcDbLine
 10
5.999999993123793
 20
2.499999999817077
 30
0.0
 11
-0.0000000068762063
 21
2.499999999817077
 31
0.0
  0
LINE
  5
560C
330
5609
100
AcDbEntity
  8
SPLICE-PLATE
 62
     7
100
AcDbLine
 10
-0.0000000068762063
 20
2.499999999817077
 30
0.0
 11
-0.0000000068762063
 21
-0.000000000182979
 31
0.0
  0
ARC
  5
560D
330
5609
100
AcDbEntity
  8
UPPER-ANGLE
100
AcDbCircle
 10
1.031249993123793
 20
1.968749999817077
 30
0.0
 40
0.1562500000000379
100
AcDbArc
 50
270.0
 51
90.0
  0
ARC
  5
560E
330
5609
100
AcDbEntity
  8
UPPER-ANGLE
100
AcDbCircle
 10
1.031249993123793
 20
0.5312499998169642
 30
0.0
 40
0.1562500000000379
100
AcDbArc
 50
270.0
 51
90.0
  0
ARC
  5
560F
330
5609
100
AcDbEntity
  8
UPPER-ANGLE
100
AcDbCircle
 10
1.031249993123793
 20
1.249999999817077
 30
0.0
 40
0.1562500000000379
100
AcDbArc
 50
270.0
 51
90.0
  0
ARC
  5
5610
330
5609
100
AcDbEntity
  8
UPPER-ANGLE
100
AcDbCircle
 10
0.5937499931237938
 20
1.968749999817191
 30
0.0
 40
0.1562500000000343
100
AcDbArc
 50
90.0
 51
270.0
  0
ARC
  5
5611
330
5609
100
AcDbEntity
  8
UPPER-ANGLE
100
AcDbCircle
 10
0.5937499931237938
 20
0.5312499998169642
 30
0.0
 40
0.1562500000000343
100
AcDbArc
 50
90.0
 51
270.0
  0
ARC
  5
5612
330
5609
100
AcDbEntity
  8
UPPER-ANGLE
100
AcDbCircle
 10
0.5937499931237938
 20
1.249999999817077
 30
0.0
 40
0.1562500000000343
100
AcDbArc
 50
90.0
 51
270.0
  0
LINE
  5
5613
330
5609
100
AcDbEntity
  8
UPPER-ANGLE
100
AcDbLine
 10
0.5937499931237938
 20
2.124999999817134
 30
0.0
 11
1.031249993123793
 21
2.124999999817134
 31
0.0
  0
LINE
  5
5614
330
5609
100
AcDbEntity
  8
UPPER-ANGLE
100
AcDbLine
 10
0.5937499931237938
 20
1.812499999817134
 30
0.0
 11
1.031249993123793
 21
1.812499999817134
 31
0.0
  0
LINE
  5
5615
330
5609
100
AcDbEntity
  8
UPPER-ANGLE
100
AcDbLine
 10
0.5937499931237938
 20
0.6874999998169642
 30
0.0
 11
1.031249993123793
 21
0.6874999998169642
 31
0.0
  0
LINE
  5
5616
330
5609
100
AcDbEntity
  8
UPPER-ANGLE
100
AcDbLine
 10
0.5937499931237938
 20
0.3749999998169642
 30
0.0
 11
1.031249993123793
 21
0.3749999998169642
 31
0.0
  0
LINE
  5
5617
330
5609
100
AcDbEntity
  8
UPPER-ANGLE
100
AcDbLine
 10
0.5937499931237938
 20
1.093749999817077
 30
0.0
 11
1.031249993123793
 21
1.093749999817077
 31
0.0
  0
LINE
  5
5618
330
5609
100
AcDbEntity
  8
UPPER-ANGLE
100
AcDbLine
 10
0.5937499931237938
 20
1.406249999817077
 30
0.0
 11
1.031249993123793
 21
1.406249999817077
 31
0.0
  0
TEXT
  5
5619
330
5609
100
AcDbEntity
  8
SPLICE-PLATE
 62
     7
100
AcDbText
 10
2.702608406870638
 20
1.162239747366129
 30
0.0
 40
0.3
  1
6
 50
90.0
100
AcDbText
  0
ARC
  5
561A
330
5609
100
AcDbEntity
  8
UPPER-ANGLE
100
AcDbCircle
 10
5.593749993123765
 20
1.249999999817077
 30
0.0
 40
0.1562500000000379
100
AcDbArc
 50
270.0
 51
90.0
  0
LINE
  5
561B
330
5609
100
AcDbEntity
  8
UPPER-ANGLE
100
AcDbLine
 10
5.624999993123793
 20
0.8124999998170778
 30
0.0
 11
5.624999993123793
 21
0.5624999998170779
 31
0.0
  0
ARC
  5
561C
330
5609
100
AcDbEntity
  8
UPPER-ANGLE
100
AcDbCircle
 10
4.15624999312385
 20
1.249999999817077
 30
0.0
 40
0.1562500000000343
100
AcDbArc
 50
90.0
 51
270.0
  0
LINE
  5
561D
330
5609
100
AcDbEntity
  8
UPPER-ANGLE
100
AcDbLine
 10
4.624999993123793
 20
0.8124999998170778
 30
0.0
 11
4.624999993123793
 21
0.5624999998170779
 31
0.0
  0
LINE
  5
561E
330
5609
100
AcDbEntity
  8
UPPER-ANGLE
100
AcDbLine
 10
4.874999993123793
 20
0.8124999998170778
 30
0.0
 11
4.874999993123793
 21
0.5624999998170779
 31
0.0
  0
ARC
  5
561F
330
5609
100
AcDbEntity
  8
UPPER-ANGLE
100
AcDbCircle
 10
4.749999993123793
 20
0.8124999998170778
 30
0.0
 40
0.125
100
AcDbArc
 50
0.0
 51
180.0
  0
ARC
  5
5620
330
5609
100
AcDbEntity
  8
UPPER-ANGLE
100
AcDbCircle
 10
4.749999993123793
 20
0.5624999998170779
 30
0.0
 40
0.125
100
AcDbArc
 50
180.0
 51
0.0
  0
LINE
  5
5621
330
5609
100
AcDbEntity
  8
UPPER-ANGLE
100
AcDbLine
 10
5.374999993123793
 20
0.8124999998170778
 30
0.0
 11
5.374999993123793
 21
0.5624999998170779
 31
0.0
  0
CIRCLE
  5
5622
330
5609
100
AcDbEntity
  8
UPPER-ANGLE
100
AcDbCircle
 10
4.749999993123793
 20
1.90619999981709
 30
0.0
 40
0.125
  0
ARC
  5
5623
330
5609
100
AcDbEntity
  8
UPPER-ANGLE
100
AcDbCircle
 10
5.499999993123793
 20
0.5624999998170779
 30
0.0
 40
0.125
100
AcDbArc
 50
180.0
 51
0.0
  0
ARC
  5
5624
330
5609
100
AcDbEntity
  8
UPPER-ANGLE
100
AcDbCircle
 10
5.499999993123793
 20
0.8124999998170778
 30
0.0
 40
0.125
100
AcDbArc
 50
0.0
 51
180.0
  0
LINE
  5
5625
330
5609
100
AcDbEntity
  8
UPPER-ANGLE
100
AcDbLine
 10
4.15624999312385
 20
1.406249999817077
 30
0.0
 11
5.593749993123765
 21
1.406249999817021
 31
0.0
  0
LINE
  5
5626
330
5609
100
AcDbEntity
  8
UPPER-ANGLE
100
AcDbLine
 10
4.15624999312385
 20
1.093749999817077
 30
0.0
 11
5.593749993123765
 21
1.093749999817021
 31
0.0
  0
CIRCLE
  5
5627
330
5609
100
AcDbEntity
  8
UPPER-ANGLE
100
AcDbCircle
 10
5.499999993123793
 20
1.90619999981709
 30
0.0
 40
0.125
  0
LINE
  5
5628
330
5609
100
AcDbEntity
  8
SPLICE-PLATE
 62
     7
100
AcDbLine
 10
5.999999993123793
 20
2.499999999817077
 30
0.0
 11
5.999999993123793
 21
-0.0000000001829221
 31
0.0
  0
ENDBLK
  5
562A
330
5609
100
AcDbEntity
  8
0
100
AcDbBlockEnd
  0
BLOCK
  5
642D
330
6422
100
AcDbEntity
  8
0
100
AcDbBlockBegin
  2
*D240
 70
     1
 10
0.0
 20
0.0
 30
0.0
  3
*D240
  1

  0
LINE
  5
64EE
330
6422
100
AcDbEntity
  8
0
 62
     0
370
    -2
100
AcDbLine
 10
-182.2156625717828
 20
90.96081328069265
 30
0.0
 11
-182.1533432426279
 21
90.96081328069265
 31
0.0
  0
LINE
  5
64EF
330
6422
100
AcDbEntity
  8
0
 62
     0
370
    -2
100
AcDbLine
 10
-159.4956960864164
 20
208.9608132806926
 30
0.0
 11
-182.1533432426279
 21
208.9608132806926
 31
0.0
  0
LINE
  5
64F0
330
6422
100
AcDbEntity
  8
0
 62
     0
370
    -2
100
AcDbLine
 10
-181.1533432426279
 20
93.96081328069266
 30
0.0
 11
-181.1533432426279
 21
145.1495900170541
 31
0.0
  0
LINE
  5
64F1
330
6422
100
AcDbEntity
  8
0
 62
     0
370
    -2
100
AcDbLine
 10
-181.1533432426279
 20
205.9608132806927
 30
0.0
 11
-181.1533432426279
 21
154.7720365443312
 31
0.0
  0
SOLID
  5
64F2
330
6422
100
AcDbEntity
  8
0
 62
     0
100
AcDbTrace
 10
-181.6533432426279
 20
93.96081328069266
 30
0.0
 11
-180.6533432426279
 21
93.96081328069266
 31
0.0
 12
-181.1533432426279
 22
90.96081328069265
 32
0.0
 13
-181.1533432426279
 23
90.96081328069265
 33
0.0
  0
SOLID
  5
64F3
330
6422
100
AcDbEntity
  8
0
 62
     0
100
AcDbTrace
 10
-181.6533432426279
 20
205.9608132806927
 30
0.0
 11
-180.6533432426279
 21
205.9608132806927
 31
0.0
 12
-181.1533432426279
 22
208.9608132806926
 32
0.0
 13
-181.1533432426279
 23
208.9608132806926
 33
0.0
  0
MTEXT
  5
64F4
330
6422
100
AcDbEntity
  8
0
 62
     0
100
AcDbMText
 10
-181.1533432426279
 20
149.9608132806926
 30
0.0
 40
1.75
 41
0.0
 46
0.0
 71
     5
 72
     1
  1
\A1;TAPERED REVERSE\PANGLE\PDOOR HEIGHT + 10"
  7
WEB PAGE
 73
     1
 44
1.0
  0
POINT
  5
64F5
330
6422
100
AcDbEntity
  8
DEFPOINTS
 62
     0
100
AcDbPoint
 10
-180.2156625717828
 20
90.96081328069265
 30
0.0
  0
POINT
  5
64F6
330
6422
100
AcDbEntity
  8
DEFPOINTS
 62
     0
100
AcDbPoint
 10
-157.4956960864164
 20
208.9608132806926
 30
0.0
  0
POINT
  5
64F7
330
6422
100
AcDbEntity
  8
DEFPOINTS
 62
     0
100
AcDbPoint
 10
-181.1533432426279
 20
208.9608132806926
 30
0.0
  0
ENDBLK
  5
642E
330
6422
100
AcDbEntity
  8
0
100
AcDbBlockEnd
  0
BLOCK
  5
643A
330
642F
100
AcDbEntity
  8
0
100
AcDbBlockBegin
  2
*D241
 70
     1
 10
0.0
 20
0.0
 30
0.0
  3
*D241
  1

  0
LINE
  5
64DA
330
642F
100
AcDbEntity
  8
0
 62
     0
370
    -2
100
AcDbLine
 10
-165.3706960864164
 20
198.9608132806926
 30
0.0
 11
-202.3390459805796
 21
198.9608132806927
 31
0.0
  0
LINE
  5
64DB
330
642F
100
AcDbEntity
  8
0
 62
     0
370
    -2
100
AcDbLine
 10
-165.3706960864164
 20
90.96081328069265
 30
0.0
 11
-202.3390459805796
 21
90.96081328069265
 31
0.0
  0
LINE
  5
64DC
330
642F
100
AcDbEntity
  8
0
 62
     0
370
    -2
100
AcDbLine
 10
-201.3390459805796
 20
195.9608132806927
 30
0.0
 11
-201.3390459805796
 21
148.3137032109979
 31
0.0
  0
LINE
  5
64DD
330
642F
100
AcDbEntity
  8
0
 62
     0
370
    -2
100
AcDbLine
 10
-201.3390459805796
 20
93.96081328069266
 30
0.0
 11
-201.3390459805796
 21
141.6079233503874
 31
0.0
  0
SOLID
  5
64DE
330
642F
100
AcDbEntity
  8
0
 62
     0
100
AcDbTrace
 10
-201.8390459805796
 20
195.9608132806927
 30
0.0
 11
-200.8390459805796
 21
195.9608132806927
 31
0.0
 12
-201.3390459805796
 22
198.9608132806927
 32
0.0
 13
-201.3390459805796
 23
198.9608132806927
 33
0.0
  0
SOLID
  5
64DF
330
642F
100
AcDbEntity
  8
0
 62
     0
100
AcDbTrace
 10
-201.8390459805796
 20
93.96081328069266
 30
0.0
 11
-200.8390459805796
 21
93.96081328069266
 31
0.0
 12
-201.3390459805796
 22
90.96081328069265
 32
0.0
 13
-201.3390459805796
 23
90.96081328069265
 33
0.0
  0
MTEXT
  5
64E0
330
642F
100
AcDbEntity
  8
0
 62
     0
100
AcDbMText
 10
-201.3390459805796
 20
144.9608132806926
 30
0.0
 40
1.75
 41
0.0
 46
0.0
 71
     5
 72
     1
  1
\A1;DOOR\POPENING
  7
WEB PAGE
 73
     1
 44
1.0
  0
POINT
  5
64E1
330
642F
100
AcDbEntity
  8
DEFPOINTS
 62
     0
100
AcDbPoint
 10
-163.3706960864164
 20
198.9608132806926
 30
0.0
  0
POINT
  5
64E2
330
642F
100
AcDbEntity
  8
DEFPOINTS
 62
     0
100
AcDbPoint
 10
-163.3706960864164
 20
90.96081328069265
 30
0.0
  0
POINT
  5
64E3
330
642F
100
AcDbEntity
  8
DEFPOINTS
 62
     0
100
AcDbPoint
 10
-201.3390459805796
 20
90.96081328069265
 30
0.0
  0
ENDBLK
  5
643B
330
642F
100
AcDbEntity
  8
0
100
AcDbBlockEnd
  0
BLOCK
  5
6447
330
643C
100
AcDbEntity
  8
0
100
AcDbBlockBegin
  2
*D242
 70
     1
 10
0.0
 20
0.0
 30
0.0
  3
*D242
  1

  0
LINE
  5
649E
330
643C
100
AcDbEntity
  8
0
 62
     0
370
    -2
100
AcDbLine
 10
-165.3706960864164
 20
90.96081328069265
 30
0.0
 11
-245.8833965938526
 21
90.96081328069267
 31
0.0
  0
LINE
  5
649F
330
643C
100
AcDbEntity
  8
0
 62
     0
370
    -2
100
AcDbLine
 10
-161.3706960864162
 20
342.9608132806927
 30
0.0
 11
-245.8833965938525
 21
342.9608132806927
 31
0.0
  0
LINE
  5
64A0
330
643C
100
AcDbEntity
  8
0
 62
     0
370
    -2
100
AcDbLine
 10
-244.8833965938526
 20
93.96081328069268
 30
0.0
 11
-244.8833965938526
 21
210.4190821104296
 31
0.0
  0
LINE
  5
64A1
330
643C
100
AcDbEntity
  8
0
 62
     0
370
    -2
100
AcDbLine
 10
-244.8833965938526
 20
339.9608132806926
 30
0.0
 11
-244.8833965938526
 21
217.1248619710401
 31
0.0
  0
SOLID
  5
64A2
330
643C
100
AcDbEntity
  8
0
 62
     0
100
AcDbTrace
 10
-245.3833965938526
 20
93.96081328069268
 30
0.0
 11
-244.3833965938526
 21
93.96081328069268
 31
0.0
 12
-244.8833965938526
 22
90.96081328069267
 32
0.0
 13
-244.8833965938526
 23
90.96081328069267
 33
0.0
  0
SOLID
  5
64A3
330
643C
100
AcDbEntity
  8
0
 62
     0
100
AcDbTrace
 10
-245.3833965938525
 20
339.9608132806926
 30
0.0
 11
-244.3833965938526
 21
339.9608132806926
 31
0.0
 12
-244.8833965938526
 22
342.9608132806927
 32
0.0
 13
-244.8833965938526
 23
342.9608132806927
 33
0.0
  0
MTEXT
  5
64A4
330
643C
100
AcDbEntity
  8
0
 62
     0
100
AcDbMText
 10
-244.8833965938526
 20
213.7719720407348
 30
0.0
 40
1.75
 41
0.0
 46
0.0
 71
     5
 72
     1
  1
\A1;MINIMUM CEILING\PHEIGHT
  7
WEB PAGE
 73
     1
 44
1.0
  0
POINT
  5
64A5
330
643C
100
AcDbEntity
  8
DEFPOINTS
 62
     0
100
AcDbPoint
 10
-163.3706960864164
 20
90.96081328069265
 30
0.0
  0
POINT
  5
64A6
330
643C
100
AcDbEntity
  8
DEFPOINTS
 62
     0
100
AcDbPoint
 10
-159.3706960864162
 20
342.9608132806927
 30
0.0
  0
POINT
  5
64A7
330
643C
100
AcDbEntity
  8
DEFPOINTS
 62
     0
100
AcDbPoint
 10
-244.8833965938526
 20
342.9608132806927
 30
0.0
  0
ENDBLK
  5
6448
330
643C
100
AcDbEntity
  8
0
100
AcDbBlockEnd
  0
BLOCK
  5
6454
330
6449
100
AcDbEntity
  8
0
100
AcDbBlockBegin
  2
*D243
 70
     1
 10
0.0
 20
0.0
 30
0.0
  3
*D243
  1

  0
LINE
  5
64A8
330
6449
100
AcDbEntity
  8
0
 62
     0
370
    -2
100
AcDbLine
 10
-166.6206960864164
 20
90.96081328069265
 30
0.0
 11
-224.6272259473862
 21
90.96081328069267
 31
0.0
  0
LINE
  5
64A9
330
6449
100
AcDbEntity
  8
0
 62
     0
370
    -2
100
AcDbLine
 10
-155.3706960864164
 20
336.1483132806927
 30
0.0
 11
-224.6272259473862
 21
336.1483132806927
 31
0.0
  0
LINE
  5
64AA
330
6449
100
AcDbEntity
  8
0
 62
     0
370
    -2
100
AcDbLine
 10
-223.6272259473862
 20
93.96081328069266
 30
0.0
 11
-223.6272259473862
 21
194.037548904245
 31
0.0
  0
LINE
  5
64AB
330
6449
100
AcDbEntity
  8
0
 62
     0
370
    -2
100
AcDbLine
 10
-223.6272259473861
 20
333.1483132806927
 30
0.0
 11
-223.6272259473862
 21
200.7433287648555
 31
0.0
  0
SOLID
  5
64AC
330
6449
100
AcDbEntity
  8
0
 62
     0
100
AcDbTrace
 10
-224.1272259473862
 20
93.96081328069268
 30
0.0
 11
-223.1272259473862
 21
93.96081328069266
 31
0.0
 12
-223.6272259473862
 22
90.96081328069265
 32
0.0
 13
-223.6272259473862
 23
90.96081328069265
 33
0.0
  0
SOLID
  5
64AD
330
6449
100
AcDbEntity
  8
0
 62
     0
100
AcDbTrace
 10
-224.1272259473862
 20
333.1483132806927
 30
0.0
 11
-223.1272259473862
 21
333.1483132806927
 31
0.0
 12
-223.6272259473861
 22
336.1483132806927
 32
0.0
 13
-223.6272259473861
 23
336.1483132806927
 33
0.0
  0
MTEXT
  5
64AE
330
6449
100
AcDbEntity
  8
0
 62
     0
100
AcDbMText
 10
-223.6272259473862
 20
197.3904388345502
 30
0.0
 40
1.75
 41
0.0
 46
0.0
 71
     5
 72
     1
  1
\A1;FLOOR TO\PSHAFT CENTER
  7
WEB PAGE
 73
     1
 44
1.0
  0
POINT
  5
64AF
330
6449
100
AcDbEntity
  8
DEFPOINTS
 62
     0
100
AcDbPoint
 10
-164.6206960864164
 20
90.96081328069265
 30
0.0
  0
POINT
  5
64B0
330
6449
100
AcDbEntity
  8
DEFPOINTS
 62
     0
100
AcDbPoint
 10
-153.3706960864163
 20
336.1483132806927
 30
0.0
  0
POINT
  5
64B1
330
6449
100
AcDbEntity
  8
DEFPOINTS
 62
     0
100
AcDbPoint
 10
-223.6272259473861
 20
336.1483132806927
 30
0.0
  0
ENDBLK
  5
6455
330
6449
100
AcDbEntity
  8
0
100
AcDbBlockEnd
  0
BLOCK
  5
6461
330
6456
100
AcDbEntity
  8
0
100
AcDbBlockBegin
  2
*D244
 70
     1
 10
0.0
 20
0.0
 30
0.0
  3
*D244
  1

  0
LINE
  5
64F8
330
6456
100
AcDbEntity
  8
0
 62
     0
370
    -2
100
AcDbLine
 10
-127.3643075812054
 20
90.96081328069265
 30
0.0
 11
-124.956280661735
 21
90.96081328069265
 31
0.0
  0
LINE
  5
64F9
330
6456
100
AcDbEntity
  8
0
 62
     0
370
    -2
100
AcDbLine
 10
-152.1145076515157
 20
186.9507467467918
 30
0.0
 11
-124.956280661735
 21
186.9507467467918
 31
0.0
  0
LINE
  5
64FA
330
6456
100
AcDbEntity
  8
0
 62
     0
370
    -2
100
AcDbLine
 10
-125.956280661735
 20
93.96081328069266
 30
0.0
 11
-125.956280661735
 21
134.1445567501037
 31
0.0
  0
LINE
  5
64FB
330
6456
100
AcDbEntity
  8
0
 62
     0
370
    -2
100
AcDbLine
 10
-125.956280661735
 20
183.9507467467918
 30
0.0
 11
-125.956280661735
 21
143.7670032773807
 31
0.0
  0
SOLID
  5
64FC
330
6456
100
AcDbEntity
  8
0
 62
     0
100
AcDbTrace
 10
-126.456280661735
 20
93.96081328069266
 30
0.0
 11
-125.456280661735
 21
93.96081328069266
 31
0.0
 12
-125.956280661735
 22
90.96081328069265
 32
0.0
 13
-125.956280661735
 23
90.96081328069265
 33
0.0
  0
SOLID
  5
64FD
330
6456
100
AcDbEntity
  8
0
 62
     0
100
AcDbTrace
 10
-126.456280661735
 20
183.9507467467918
 30
0.0
 11
-125.456280661735
 21
183.9507467467918
 31
0.0
 12
-125.956280661735
 22
186.9507467467918
 32
0.0
 13
-125.956280661735
 23
186.9507467467918
 33
0.0
  0
MTEXT
  5
64FE
330
6456
100
AcDbEntity
  8
0
 62
     0
100
AcDbMText
 10
-125.956280661735
 20
138.9557800137422
 30
0.0
 40
1.75
 41
0.0
 46
0.0
 71
     5
 72
     1
  1
\A1;LOWER VERTICAL\PTRACK\PDOOR HEIGHT - 12"
  7
WEB PAGE
 73
     1
 44
1.0
  0
POINT
  5
64FF
330
6456
100
AcDbEntity
  8
DEFPOINTS
 62
     0
100
AcDbPoint
 10
-129.3643075812053
 20
90.96081328069265
 30
0.0
  0
POINT
  5
6500
330
6456
100
AcDbEntity
  8
DEFPOINTS
 62
     0
100
AcDbPoint
 10
-154.1145076515157
 20
186.9507467467918
 30
0.0
  0
POINT
  5
6501
330
6456
100
AcDbEntity
  8
DEFPOINTS
 62
     0
100
AcDbPoint
 10
-125.956280661735
 20
186.9507467467918
 30
0.0
  0
ENDBLK
  5
6462
330
6456
100
AcDbEntity
  8
0
100
AcDbBlockEnd
  0
BLOCK
  5
646E
330
6463
100
AcDbEntity
  8
0
100
AcDbBlockBegin
  2
*D245
 70
     1
 10
0.0
 20
0.0
 30
0.0
  3
*D245
  1

  0
LINE
  5
64E4
330
6463
100
AcDbEntity
  8
0
 62
     0
370
    -2
100
AcDbLine
 10
-165.3706960864164
 20
198.9608132806926
 30
0.0
 11
-202.3390459805797
 21
198.9608132806927
 31
0.0
  0
LINE
  5
64E5
330
6463
100
AcDbEntity
  8
0
 62
     0
370
    -2
100
AcDbLine
 10
-161.3706960864162
 20
342.9608132806927
 30
0.0
 11
-202.3390459805796
 21
342.9608132806927
 31
0.0
  0
LINE
  5
64E6
330
6463
100
AcDbEntity
  8
0
 62
     0
370
    -2
100
AcDbLine
 10
-201.3390459805796
 20
201.9608132806927
 30
0.0
 11
-201.3390459805796
 21
267.6079233503874
 31
0.0
  0
LINE
  5
64E7
330
6463
100
AcDbEntity
  8
0
 62
     0
370
    -2
100
AcDbLine
 10
-201.3390459805796
 20
339.9608132806926
 30
0.0
 11
-201.3390459805796
 21
274.3137032109979
 31
0.0
  0
SOLID
  5
64E8
330
6463
100
AcDbEntity
  8
0
 62
     0
100
AcDbTrace
 10
-201.8390459805796
 20
201.9608132806927
 30
0.0
 11
-200.8390459805796
 21
201.9608132806927
 31
0.0
 12
-201.3390459805796
 22
198.9608132806927
 32
0.0
 13
-201.3390459805796
 23
198.9608132806927
 33
0.0
  0
SOLID
  5
64E9
330
6463
100
AcDbEntity
  8
0
 62
     0
100
AcDbTrace
 10
-201.8390459805796
 20
339.9608132806926
 30
0.0
 11
-200.8390459805796
 21
339.9608132806926
 31
0.0
 12
-201.3390459805796
 22
342.9608132806927
 32
0.0
 13
-201.3390459805796
 23
342.9608132806927
 33
0.0
  0
MTEXT
  5
64EA
330
6463
100
AcDbEntity
  8
0
 62
     0
100
AcDbMText
 10
-201.3390459805797
 20
270.9608132806926
 30
0.0
 40
1.75
 41
0.0
 46
0.0
 71
     5
 72
     1
  1
\A1;MINIMUM\PHEADROOM
  7
WEB PAGE
 73
     1
 44
1.0
  0
POINT
  5
64EB
330
6463
100
AcDbEntity
  8
DEFPOINTS
 62
     0
100
AcDbPoint
 10
-163.3706960864164
 20
198.9608132806926
 30
0.0
  0
POINT
  5
64EC
330
6463
100
AcDbEntity
  8
DEFPOINTS
 62
     0
100
AcDbPoint
 10
-159.3706960864162
 20
342.9608132806927
 30
0.0
  0
POINT
  5
64ED
330
6463
100
AcDbEntity
  8
DEFPOINTS
 62
     0
100
AcDbPoint
 10
-201.3390459805796
 20
342.9608132806927
 30
0.0
  0
ENDBLK
  5
646F
330
6463
100
AcDbEntity
  8
0
100
AcDbBlockEnd
  0
BLOCK
  5
647B
330
6470
100
AcDbEntity
  8
0
100
AcDbBlockBegin
  2
*D246
 70
     1
 10
0.0
 20
0.0
 30
0.0
  3
*D246
  1

  0
LINE
  5
650C
330
6470
100
AcDbEntity
  8
0
 62
     0
370
    -2
100
AcDbLine
 10
-161.3706960864164
 20
208.960813231512
 30
0.0
 11
-182.1533432426279
 21
208.960813231512
 31
0.0
  0
LINE
  5
650D
330
6470
100
AcDbEntity
  8
0
 62
     0
370
    -2
100
AcDbLine
 10
-161.3706957952524
 20
331.960813231512
 30
0.0
 11
-182.1533432426278
 21
331.960813231512
 31
0.0
  0
LINE
  5
650E
330
6470
100
AcDbEntity
  8
0
 62
     0
370
    -2
100
AcDbLine
 10
-181.1533432426279
 20
211.960813231512
 30
0.0
 11
-181.1533432426279
 21
265.3707507465325
 31
0.0
  0
LINE
  5
650F
330
6470
100
AcDbEntity
  8
0
 62
     0
370
    -2
100
AcDbLine
 10
-181.1533432426278
 20
328.960813231512
 30
0.0
 11
-181.1533432426279
 21
275.5508757164916
 31
0.0
  0
SOLID
  5
6510
330
6470
100
AcDbEntity
  8
0
 62
     0
100
AcDbTrace
 10
-181.6533432426279
 20
211.960813231512
 30
0.0
 11
-180.6533432426279
 21
211.960813231512
 31
0.0
 12
-181.1533432426279
 22
208.960813231512
 32
0.0
 13
-181.1533432426279
 23
208.960813231512
 33
0.0
  0
SOLID
  5
6511
330
6470
100
AcDbEntity
  8
0
 62
     0
100
AcDbTrace
 10
-181.6533432426279
 20
328.960813231512
 30
0.0
 11
-180.6533432426278
 21
328.960813231512
 31
0.0
 12
-181.1533432426278
 22
331.960813231512
 32
0.0
 13
-181.1533432426278
 23
331.960813231512
 33
0.0
  0
MTEXT
  5
6512
330
6470
100
AcDbEntity
  8
0
 62
     0
100
AcDbMText
 10
-181.1533432426279
 20
270.460813231512
 30
0.0
 40
1.75
 41
0.0
 46
0.0
 71
     5
 72
     1
  1
\A1;UPPER VERTICAL\PANGLE\P(DOOR HEIGHT - 9")
  7
WEB PAGE
 73
     1
 44
1.0
  0
POINT
  5
6513
330
6470
100
AcDbEntity
  8
DEFPOINTS
 62
     0
100
AcDbPoint
 10
-159.3706960864164
 20
208.960813231512
 30
0.0
  0
POINT
  5
6514
330
6470
100
AcDbEntity
  8
DEFPOINTS
 62
     0
100
AcDbPoint
 10
-159.3706957952524
 20
331.960813231512
 30
0.0
  0
POINT
  5
6515
330
6470
100
AcDbEntity
  8
DEFPOINTS
 62
     0
100
AcDbPoint
 10
-181.1533432426278
 20
331.960813231512
 30
0.0
  0
ENDBLK
  5
647C
330
6470
100
AcDbEntity
  8
0
100
AcDbBlockEnd
  0
BLOCK
  5
6488
330
647D
100
AcDbEntity
  8
0
100
AcDbBlockBegin
  2
*D247
 70
     1
 10
0.0
 20
0.0
 30
0.0
  3
*D247
  1

  0
LINE
  5
6502
330
647D
100
AcDbEntity
  8
0
 62
     0
370
    -2
100
AcDbLine
 10
-152.1145076515136
 20
186.9507467467918
 30
0.0
 11
-75.03582613072811
 21
186.9507467467918
 31
0.0
  0
LINE
  5
6503
330
647D
100
AcDbEntity
  8
0
 62
     0
370
    -2
100
AcDbLine
 10
-142.847173672652
 20
342.7077013938452
 30
0.0
 11
-75.03582613072808
 21
342.7077013938451
 31
0.0
  0
LINE
  5
6504
330
647D
100
AcDbEntity
  8
0
 62
     0
370
    -2
100
AcDbLine
 10
-76.03582613072811
 20
189.9507467467918
 30
0.0
 11
-76.03582613072809
 21
259.7391615853389
 31
0.0
  0
LINE
  5
6505
330
647D
100
AcDbEntity
  8
0
 62
     0
370
    -2
100
AcDbLine
 10
-76.03582613072808
 20
339.7077013938451
 30
0.0
 11
-76.03582613072809
 21
269.919286555298
 31
0.0
  0
SOLID
  5
6506
330
647D
100
AcDbEntity
  8
0
 62
     0
100
AcDbTrace
 10
-76.53582613072811
 20
189.9507467467918
 30
0.0
 11
-75.53582613072811
 21
189.9507467467918
 31
0.0
 12
-76.03582613072811
 22
186.9507467467918
 32
0.0
 13
-76.03582613072811
 23
186.9507467467918
 33
0.0
  0
SOLID
  5
6507
330
647D
100
AcDbEntity
  8
0
 62
     0
100
AcDbTrace
 10
-76.53582613072808
 20
339.7077013938451
 30
0.0
 11
-75.53582613072808
 21
339.7077013938451
 31
0.0
 12
-76.03582613072808
 22
342.7077013938451
 32
0.0
 13
-76.03582613072808
 23
342.7077013938451
 33
0.0
  0
MTEXT
  5
6508
330
647D
100
AcDbEntity
  8
0
 62
     0
100
AcDbMText
 10
-76.03582613072814
 20
264.8292240703185
 30
0.0
 40
1.75
 41
0.0
 46
0.0
 71
     5
 72
     1
  1
\A1;UPPER VERTICAL\PTRACK\P(DOOR HEIGHT + 24")
  7
WEB PAGE
 73
     1
 44
1.0
  0
POINT
  5
6509
330
647D
100
AcDbEntity
  8
DEFPOINTS
 62
     0
100
AcDbPoint
 10
-154.1145076515136
 20
186.9507467467918
 30
0.0
  0
POINT
  5
650A
330
647D
100
AcDbEntity
  8
DEFPOINTS
 62
     0
100
AcDbPoint
 10
-144.8471736726521
 20
342.7077013938452
 30
0.0
  0
POINT
  5
650B
330
647D
100
AcDbEntity
  8
DEFPOINTS
 62
     0
100
AcDbPoint
 10
-76.03582613072808
 20
342.7077013938451
 30
0.0
  0
ENDBLK
  5
6489
330
647D
100
AcDbEntity
  8
0
100
AcDbBlockEnd
  0
ENDSEC
  0
SECTION
  2
ENTITIES
  0
MTEXT
  5
4FBF
330
2
100
AcDbEntity
  8
PHANTOM
 48
0.5
100
AcDbMText
 10
668.7237188090962
 20
477.1145576378315
 30
0.0
 40
0.125
 41
0.0
 46
0.0
 71
     6
 72
     1
  1
\A1;
 73
     1
 44
1.0
  0
MTEXT
  5
4FC1
330
2
100
AcDbEntity
  8
PHANTOM
 48
0.5
100
AcDbMText
 10
623.1742760245294
 20
476.9384644500068
 30
0.0
 40
0.125
 41
0.0
 46
0.0
 71
     6
 72
     1
  1
\A1;
 73
     1
 44
1.0
  0
MTEXT
  5
5001
330
2
100
AcDbEntity
  8
PHANTOM
 48
0.5
100
AcDbMText
 10
650.1490778602423
 20
487.7618568722367
 30
0.0
 40
0.5
 41
0.0
 46
0.0
 71
     6
 72
     1
  1
\A1;
 73
     1
 44
1.0
  0
MTEXT
  5
5018
330
2
100
AcDbEntity
  8
PHANTOM
 48
0.5
100
AcDbMText
 10
656.2777665489601
 20
488.1387524588306
 30
0.0
 40
0.5
 41
0.0
 46
0.0
 71
     6
 72
     1
  1
\A1;
 73
     1
 44
1.0
  0
MTEXT
  5
501A
330
2
100
AcDbEntity
  8
PHANTOM
 48
0.5
100
AcDbMText
 10
676.2321044187403
 20
477.5739814978017
 30
0.0
 40
0.5
 41
0.0
 46
0.0
 71
     6
 72
     1
  1
\A1;
 73
     1
 44
1.0
  0
MTEXT
  5
5036
330
2
100
AcDbEntity
  8
PHANTOM
 48
0.5
100
AcDbMText
 10
646.0004269491595
 20
487.9503046620741
 30
0.0
 40
0.5
 41
0.0
 46
0.0
 71
     6
 72
     1
  1
\A1;
 73
     1
 44
1.0
  0
LINE
  5
63CD
102
{ACAD_REACTORS
330
63F6
102
}
330
2
100
AcDbEntity
  8
0
100
AcDbLine
 10
-159.3706960864164
 20
90.96081328069265
 30
0.0
 11
-159.3706960864162
 21
342.9608132806927
 31
0.0
  0
LINE
  5
63CE
102
{ACAD_REACTORS
330
63F6
102
}
330
2
100
AcDbEntity
  8
0
100
AcDbLine
 10
-163.3706960864164
 20
90.96081328069265
 30
0.0
 11
-163.3706960864164
 21
346.9608132806927
 31
0.0
  0
DIMENSION
  5
63CF
330
2
100
AcDbEntity
  8
0
100
AcDbDimension
  2
*D240
 10
-181.1533432426279
 20
208.9608132806926
 30
0.0
 11
-181.1533432426279
 21
149.9608132806926
 31
0.0
 70
    32
  1
TAPERED REVERSE\PANGLE\PDOOR HEIGHT + 10"
 71
     5
 42
118.0
 73
     0
 74
     0
 75
     0
  3
STANDARD
100
AcDbAlignedDimension
 13
-180.2156625717828
 23
90.96081328069265
 33
0.0
 14
-157.4956960864164
 24
208.9608132806926
 34
0.0
 50
90.0
100
AcDbRotatedDimension
  0
INSERT
  5
63D0
330
2
100
AcDbEntity
  8
0
100
AcDbBlockReference
  2
A$C7D0E5576
 10
-159.3706957724729
 20
90.96081353144574
 30
0.0
  0
DIMENSION
  5
63D1
330
2
100
AcDbEntity
  8
0
100
AcDbDimension
  2
*D241
 10
-201.3390459805796
 20
90.96081328069265
 30
0.0
 11
-201.3390459805796
 21
144.9608132806926
 31
0.0
 70
    32
  1
DOOR\POPENING
 71
     5
 42
108.0
 73
     0
 74
     0
 75
     0
  3
STANDARD
100
AcDbAlignedDimension
 13
-163.3706960864164
 23
198.9608132806926
 33
0.0
 14
-163.3706960864164
 24
90.96081328069265
 34
0.0
 50
90.0
100
AcDbRotatedDimension
1001
ACAD
1000
DSTYLE
1002
{
1070
    40
1040
1.0
1002
}
  0
DIMENSION
  5
63D2
330
2
100
AcDbEntity
  8
0
100
AcDbDimension
  2
*D242
 10
-244.8833965938526
 20
342.9608132806927
 30
0.0
 11
-244.8833965938526
 21
213.7719720407348
 31
0.0
 70
   160
  1
MINIMUM CEILING\PHEIGHT
 71
     5
 42
252.0
 73
     0
 74
     0
 75
     0
  3
STANDARD
100
AcDbAlignedDimension
 13
-163.3706960864164
 23
90.96081328069265
 33
0.0
 14
-159.3706960864162
 24
342.9608132806927
 34
0.0
 50
90.0
100
AcDbRotatedDimension
1001
ACAD
1000
DSTYLE
1002
{
1070
    40
1040
1.0
1002
}
  0
DIMENSION
  5
63D3
330
2
100
AcDbEntity
  8
0
100
AcDbDimension
  2
*D243
 10
-223.6272259473861
 20
336.1483132806927
 30
0.0
 11
-223.6272259473862
 21
197.3904388345502
 31
0.0
 70
   160
  1
FLOOR TO\PSHAFT CENTER
 71
     5
 42
245.1875
 73
     0
 74
     0
 75
     0
  3
STANDARD
100
AcDbAlignedDimension
 13
-164.6206960864164
 23
90.96081328069265
 33
0.0
 14
-153.3706960864163
 24
336.1483132806927
 34
0.0
 50
90.0
100
AcDbRotatedDimension
1001
ACAD
1000
DSTYLE
1002
{
1070
    40
1040
1.0
1002
}
  0
LINE
  5
63D4
330
2
100
AcDbEntity
  8
0
100
AcDbLine
 10
-230.1283635444547
 20
90.96081328069265
 30
0.0
 11
-81.25740050122113
 21
90.96081328069265
 31
0.0
  0
DIMENSION
  5
63D5
330
2
100
AcDbEntity
  8
0
100
AcDbDimension
  2
*D244
 10
-125.956280661735
 20
186.9507467467918
 30
0.0
 11
-125.956280661735
 21
138.9557800137422
 31
0.0
 70
    32
  1
LOWER VERTICAL\PTRACK\PDOOR HEIGHT - 12"
 71
     5
 42
95.98993346609914
 73
     0
 74
     0
 75
     0
  3
STANDARD
100
AcDbAlignedDimension
 13
-129.3643075812053
 23
90.96081328069265
 33
0.0
 14
-154.1145076515157
 24
186.9507467467918
 34
0.0
 50
90.0
100
AcDbRotatedDimension
1001
ACAD
1000
DSTYLE
1002
{
1070
    40
1040
1.0
1002
}
  0
INSERT
  5
63D6
330
2
100
AcDbEntity
  8
0
100
AcDbBlockReference
  2
A$C06D334F2
 10
-158.1142746038226
 20
90.95595446244942
 30
0.0
  0
LINE
  5
63D7
102
{ACAD_REACTORS
330
63F6
102
}
330
2
100
AcDbEntity
  8
0
100
AcDbLine
 10
-163.3706960864164
 20
198.9608132806926
 30
0.0
 11
-159.3706960864164
 21
198.9608132806926
 31
0.0
  0
DIMENSION
  5
63D8
330
2
100
AcDbEntity
  8
0
100
AcDbDimension
  2
*D245
 10
-201.3390459805796
 20
342.9608132806927
 30
0.0
 11
-201.3390459805797
 21
270.9608132806926
 31
0.0
 70
    32
  1
MINIMUM\PHEADROOM
 71
     5
 42
143.9999999999999
 73
     0
 74
     0
 75
     0
  3
STANDARD
100
AcDbAlignedDimension
 13
-163.3706960864164
 23
198.9608132806926
 33
0.0
 14
-159.3706960864162
 24
342.9608132806927
 34
0.0
 50
90.0
100
AcDbRotatedDimension
1001
ACAD
1000
DSTYLE
1002
{
1070
    40
1040
1.0
1002
}
  0
INSERT
  5
63D9
330
2
100
AcDbEntity
  8
0
100
AcDbBlockReference
  2
EBP5
 10
-153.4331960864164
 20
330.1483132806927
 30
0.0
  0
CIRCLE
  5
63DA
330
2
100
AcDbEntity
  8
0
100
AcDbCircle
 10
-154.3706960864164
 20
336.1483132806927
 30
0.0
 40
4.25
  0
LEADER
  5
63DB
330
2
100
AcDbEntity
  8
0
100
AcDbLeader
  3
STANDARD
 76
     3
 10
-148.9083040666714
 20
331.0551505443693
 30
0.0
 10
-129.1628427328919
 20
357.4354370969089
 30
0.0
 10
-124.566836177335
 20
357.4354370969089
 30
0.0
1001
ACAD
1000
DSTYLE
1002
{
1070
    40
1040
1.0
1002
}
  0
MTEXT
  5
63DC
330
2
100
AcDbEntity
  8
0
100
AcDbMText
 10
-130.6024906947453
 20
273.6242901167712
 30
0.0
 40
1.75
 41
0.0
 46
0.0
 71
     1
 72
     1
  1
UPPER VERTICAL TRACK
  7
WEB PAGE
 73
     1
 44
1.0
  0
INSERT
  5
63DD
330
2
100
AcDbEntity
  8
0
100
AcDbBlockReference
  2
OTC-8
 10
-158.5956960864164
 20
237.7108132806927
 30
0.0
  0
INSERT
  5
63DE
330
2
100
AcDbEntity
  8
0
100
AcDbBlockReference
  2
OTC-6
 10
-158.5956960864164
 20
213.7108132806927
 30
0.0
  0
INSERT
  5
63DF
330
2
100
AcDbEntity
  8
0
100
AcDbBlockReference
  2
OTC-10
 10
-158.5956960864164
 20
261.7108132806927
 30
0.0
  0
MTEXT
  5
63E0
330
2
100
AcDbEntity
  8
0
100
AcDbMText
 10
-126.8038711490657
 20
328.3992114457313
 30
0.0
 40
1.75
 41
0.0
 46
0.0
 71
     1
 72
     1
  1
SPRING BUMPER
  7
WEB PAGE
 73
     1
 44
1.0
  0
MTEXT
  5
63E1
330
2
100
AcDbEntity
  8
0
100
AcDbMText
 10
-131.9922090110023
 20
297.5750363545857
 30
0.0
 40
1.75
 41
0.0
 46
0.0
 71
     1
 72
     1
  1
OVERALL OFFSET\PTRACK CLIPS (TYP.)
  7
WEB PAGE
 73
     1
 44
1.0
  0
LEADER
  5
63E2
330
2
100
AcDbEntity
  8
0
100
AcDbLeader
  3
STANDARD
 76
     3
 10
-152.506123042524
 20
286.2503731288914
 30
0.0
 10
-137.0332285139138
 20
296.7819631526822
 30
0.0
 10
-132.8044725704833
 20
296.7819631526822
 30
0.0
1001
ACAD
1000
DSTYLE
1002
{
1070
    40
1040
1.0
1002
}
  0
INSERT
  5
63E3
330
2
100
AcDbEntity
  8
0
100
AcDbBlockReference
  2
OTC-12
 10
-158.5956960864164
 20
285.7108132806926
 30
0.0
  0
SOLID
  5
63E4
330
2
100
AcDbEntity
  8
0
100
AcDbTrace
 10
-145.4603815577942
 20
275.6391150780416
 30
0.0
 11
-145.0505783167272
 21
276.7669720297917
 31
0.0
 12
-148.6390507925108
 22
277.4324532771181
 32
0.0
 13
-148.6390507925108
 23
277.4324532771181
 33
0.0
  0
LINE
  5
63E5
330
2
100
AcDbEntity
  8
0
100
AcDbLine
 10
-145.2554799372607
 20
276.2030435539166
 30
0.0
 11
-135.6355674610207
 21
272.707701458621
 31
0.0
  0
LINE
  5
63E6
330
2
100
AcDbEntity
  8
0
100
AcDbLine
 10
-135.6355674610207
 20
272.707701458621
 30
0.0
 11
-132.0355674610206
 21
272.707701458621
 31
0.0
  0
LEADER
  5
63E7
330
2
100
AcDbEntity
  8
0
100
AcDbLeader
  3
STANDARD
 76
     2
 10
-142.4791704914172
 20
327.5271067631526
 30
0.0
 10
-128.3314772880175
 20
327.5271067631526
 30
0.0
1001
ACAD
1000
DSTYLE
1002
{
1070
    40
1040
1.0
1002
}
  0
INSERT
  5
63E8
330
2
100
AcDbEntity
  8
0
100
AcDbBlockReference
  2
OTC-14
 10
-158.5956960864164
 20
315.7108132806927
 30
0.0
  0
INSERT
  5
63E9
330
2
100
AcDbEntity
  8
0
100
AcDbBlockReference
  2
A$C5DCC5A0E
 10
-159.3706966356737
 20
329.360813586596
 30
0.0
  0
INSERT
  5
63EA
330
2
100
AcDbEntity
  8
0
100
AcDbBlockReference
  2
A$C03EA5BC6
 10
-142.4791705867045
 20
325.1548287027054
 30
0.0
 50
90.0
  0
LINE
  5
63EB
102
{ACAD_REACTORS
330
63F6
102
}
330
2
100
AcDbEntity
  8
0
100
AcDbLine
 10
-159.3706960864162
 20
342.9608132806927
 30
0.0
 11
-89.03297734976673
 21
342.9608132806926
 31
0.0
  0
MTEXT
  5
63EC
330
2
100
AcDbEntity
  8
0
100
AcDbMText
 10
-122.9150254123132
 20
358.3436806337801
 30
0.0
 40
1.75
 41
0.0
 46
0.0
 71
     1
 72
     1
  1
HIGH-LIFT ANGLE
  7
WEB PAGE
 73
     1
 44
1.0
  0
MTEXT
  5
63ED
102
{ACAD_REACTORS
330
63EE
102
}
330
2
100
AcDbEntity
  8
OUTSIDE
100
AcDbMText
 10
-132.220227084964
 20
254.0467791140631
 30
0.0
 40
1.75
 41
0.0
 46
0.0
 71
     1
 72
     1
  1
UPPER REVERSE ANGLE
  7
WEB PAGE
 73
     1
 44
1.0
  0
LEADER
  5
63EE
330
2
100
AcDbEntity
  8
OUTSIDE
100
AcDbLeader
  3
STANDARD
 73
     0
 40
1.790374909877433
 41
29.50144196106705
 76
     2
 10
-158.9126919738649
 20
253.1717791140631
 30
0.0
 10
-133.220227084964
 20
253.1717791140631
 30
0.0
340
63ED
213
0.0
223
-0.875
233
0.0
1001
ACAD
1000
DSTYLE
1002
{
1070
   147
1040
1.0
1070
    77
1070
     0
1002
}
  0
MTEXT
  5
63EF
102
{ACAD_REACTORS
330
63F0
102
}
330
2
100
AcDbEntity
  8
0
100
AcDbMText
 10
-141.9430301557613
 20
203.1181429515827
 30
0.0
 40
1.75
 41
0.0
 46
0.0
 71
     1
 72
     1
  1
HIGH LIFT SPLICE PLATE
  7
WEB PAGE
 73
     1
 44
1.0
  0
LEADER
  5
63F0
330
2
100
AcDbEntity
  8
0
100
AcDbLeader
  3
STANDARD
 73
     0
 74
     0
 75
     1
 40
1.75
 41
32.33333333333333
 76
     3
 10
-156.1292691052613
 20
208.468306286968
 30
0.0
 10
-145.9430301557613
 20
201.8681429515827
 30
0.0
 10
-142.9430301557613
 20
201.8681429515827
 30
0.0
213
0.0
223
-1.25
233
0.0
1001
ACAD
1000
DSTYLE
1002
{
1070
   147
1040
1.0
1070
    77
1070
     0
1002
}
  0
INSERT
  5
63F1
330
2
100
AcDbEntity
  8
0
100
AcDbBlockReference
  2
A$C0C90362F
 10
-159.3706960864164
 20
208.9608132806926
 30
0.0
  0
INSERT
  5
63F2
330
2
100
AcDbEntity
  8
0
100
AcDbBlockReference
  2
3VPT-156
 10
-143.9043956534755
 20
341.1746578176356
 30
0.0
 41
-1.0
 50
175.4272
  0
INSERT
  5
63F3
330
2
100
AcDbEntity
  8
0
100
AcDbBlockReference
  2
A$C643A598F
 10
-159.0772942487013
 20
207.710813231695
 30
0.0
  0
LINE
  5
63F4
102
{ACAD_REACTORS
330
63F6
102
}
330
2
100
AcDbEntity
  8
0
100
AcDbLine
 10
-89.03297734976673
 20
342.9608132806926
 30
0.0
 11
-89.03297734976673
 21
346.9608132806927
 31
0.0
  0
LINE
  5
63F5
102
{ACAD_REACTORS
330
63F6
102
}
330
2
100
AcDbEntity
  8
0
100
AcDbLine
 10
-163.3706960864164
 20
346.9608132806927
 30
0.0
 11
-89.03297734976673
 21
346.9608132806927
 31
0.0
  0
HATCH
  5
63F6
330
2
100
AcDbEntity
  8
0
100
AcDbHatch
 10
0.0
 20
0.0
 30
0.0
210
0.0
220
0.0
230
1.0
  2
ANSI31
 70
     0
 71
     1
 91
        1
 92
        7
 72
     0
 73
     1
 93
        6
 10
-163.3706960864164
 20
198.9608132806926
 10
-159.3706960864163
 20
198.9608132806926
 10
-159.3706960864162
 20
342.9608132806927
 10
-89.03297734976673
 20
342.9608132806926
 10
-89.03297734976673
 20
346.9608132806927
 10
-163.3706960864164
 20
346.9608132806927
 97
        6
330
63EB
330
63F4
330
63F5
330
63CE
330
63D7
330
63CD
 75
     0
 76
     1
 52
0.0
 41
15.0
 77
     0
 78
     1
 53
45.0
 43
-360.7955621377462
 44
0.0
 45
-1.325825214724776
 46
1.325825214724776
 79
     0
 47
0.3591560535630289
 98
        1
 10
-161.6684325551493
 20
321.7845506105839
  0
MTEXT
  5
63F7
330
2
100
AcDbEntity
  8
0
100
AcDbMText
 10
-228.8071464221435
 20
83.84221038977022
 30
0.0
 40
3.0
 41
0.0
 46
0.0
 71
     4
 72
     1
  1
{\LVERTICAL LIFT STANDARD 3" TAPERED REVERSE ANGLE MOUNT TRACK SET DETAIL}
  7
WEB PAGE
 73
     1
 44
1.0
  0
TEXT
  5
63F9
330
2
100
AcDbEntity
  8
TEXT
100
AcDbText
 10
-100.3263846133131
 20
143.6335040130328
 30
0.0
 40
1.75
  1
7' - 20'
  7
WEB PAGE
 72
     1
 11
-96.84657206825182
 21
143.6335040130328
 31
0.0
100
AcDbText
  0
MTEXT
  5
63FA
330
2
100
AcDbEntity
  8
TEXT
100
AcDbMText
 10
-80.71613796166706
 20
162.2157794230902
 30
0.0
 40
2.6
 41
37.3125
 46
0.0
 71
     2
 72
     5
  1
{\fTimes New Roman|b0|i0|c0|p18;HEADROOM\PREQUIREMENTS}
 73
     1
 44
1.0
  0
LINE
  5
63FB
330
2
100
AcDbEntity
  8
TEXT
100
AcDbLine
 10
-106.803146369333
 20
146.3231441657154
 30
0.0
 11
-53.88720145248834
 21
146.3231441657154
 31
0.0
  0
LINE
  5
63FC
330
2
100
AcDbEntity
  8
TEXT
100
AcDbLine
 10
-106.803146369333
 20
153.2067539666836
 30
0.0
 11
-53.88720145248834
 21
153.2067539666836
 31
0.0
  0
LINE
  5
63FD
330
2
100
AcDbEntity
  8
TEXT
100
AcDbLine
 10
-53.88720145248829
 20
142.6895343647473
 30
0.0
 11
-106.803146369333
 21
142.6895343647473
 31
0.0
  0
LINE
  5
63FF
330
2
100
AcDbEntity
  8
TEXT
100
AcDbLine
 10
-106.803146369333
 20
163.4452784303681
 30
0.0
 11
-53.88720145248834
 21
163.4452784303681
 31
0.0
  0
LINE
  5
6400
330
2
100
AcDbEntity
  8
TEXT
100
AcDbLine
 10
-106.803146369333
 20
153.2067539666836
 30
0.0
 11
-106.803146369333
 21
163.4452784303681
 31
0.0
  0
LINE
  5
6401
330
2
100
AcDbEntity
  8
TEXT
100
AcDbLine
 10
-106.803146369333
 20
153.2067539666836
 30
0.0
 11
-106.803146369333
 21
142.6895343647473
 31
0.0
  0
TEXT
  5
6402
330
2
100
AcDbEntity
  8
TEXT
100
AcDbText
 10
-100.632907048734
 20
150.5218979445969
 30
0.0
 40
1.75
  1
DOOR
  7
WEB PAGE
 72
     1
 11
-96.96068282378815
 21
150.5218979445969
 31
0.0
100
AcDbText
  0
TEXT
  5
6403
330
2
100
AcDbEntity
  8
TEXT
100
AcDbText
 10
-101.7684513890369
 20
147.476058982225
 30
0.0
 40
1.75
  1
HEIGHT
  7
WEB PAGE
 72
     1
 11
-96.96068282378815
 21
147.476058982225
 31
0.0
100
AcDbText
  0
LINE
  5
6404
330
2
100
AcDbEntity
  8
TEXT
100
AcDbLine
 10
-53.88720145248834
 20
153.2067539666836
 30
0.0
 11
-53.88720145248834
 21
163.4452784303681
 31
0.0
  0
TEXT
  5
6405
330
2
100
AcDbEntity
  8
TEXT
100
AcDbText
 10
-80.67901565779223
 20
143.6335040130328
 30
0.0
 40
1.75
  1
DR HEIGHT + 13"
  7
WEB PAGE
 72
     1
 11
-70.55942301179368
 21
143.6335040130328
 31
0.0
100
AcDbText
  0
TEXT
  5
6407
330
2
100
AcDbEntity
  8
TEXT
100
AcDbText
 10
-78.8938493462685
 20
147.476058982225
 30
0.0
 40
1.75
  1
HEADROOM
  7
WEB PAGE
 72
     1
 11
-71.42890702471118
 21
147.476058982225
 31
0.0
100
AcDbText
  0
LINE
  5
6408
330
2
100
AcDbEntity
  8
TEXT
100
AcDbLine
 10
-87.35636239085994
 20
153.2067539666836
 30
0.0
 11
-87.35636239085994
 21
142.6895343647473
 31
0.0
  0
TEXT
  5
6409
330
2
100
AcDbEntity
  8
TEXT
100
AcDbText
 10
-77.60185223019063
 20
150.5218979445969
 30
0.0
 40
1.75
  1
MINIMUM
  7
WEB PAGE
 72
     1
 11
-71.42890702471118
 21
150.5218979445969
 31
0.0
100
AcDbText
  0
LINE
  5
640A
330
2
100
AcDbEntity
  8
TEXT
100
AcDbLine
 10
-53.88720145248834
 20
153.2067539666836
 30
0.0
 11
-53.88720145248829
 21
142.6895343647473
 31
0.0
  0
DIMENSION
  5
6420
330
2
100
AcDbEntity
  8
0
100
AcDbDimension
  2
*D246
 10
-181.1533432426278
 20
331.960813231512
 30
0.0
 11
-181.1533432426279
 21
270.460813231512
 31
0.0
 70
    32
  1
UPPER VERTICAL\PANGLE\P(DOOR HEIGHT - 9")
 71
     5
 42
122.9999999999999
 73
     0
 74
     0
 75
     0
  3
STANDARD
100
AcDbAlignedDimension
 13
-159.3706960864164
 23
208.960813231512
 33
0.0
 14
-159.3706957952524
 24
331.960813231512
 34
0.0
 50
90.0
100
AcDbRotatedDimension
  0
DIMENSION
  5
6421
330
2
100
AcDbEntity
  8
0
100
AcDbDimension
  2
*D247
 10
-76.03582613072808
 20
342.7077013938451
 30
0.0
 11
-76.03582613072814
 21
264.8292240703185
 31
0.0
 70
    32
  1
UPPER VERTICAL\PTRACK\P(DOOR HEIGHT + 24")
 71
     5
 42
155.7569546470533
 73
     0
 74
     0
 75
     0
  3
STANDARD
100
AcDbAlignedDimension
 13
-154.1145076515136
 23
186.9507467467918
 33
0.0
 14
-144.8471736726521
 24
342.7077013938452
 34
0.0
 50
90.0
100
AcDbRotatedDimension
  0
TEXT
  5
65E6
330
2
100
AcDbEntity
  8
TEXT
100
AcDbText
 10
-86.92034814451909
 20
121.357754946143
 30
0.0
 40
1.75
  1
FLOOR TO SHAFT CENTER
  7
WEB PAGE
 72
     1
 11
-70.86564374653784
 21
121.357754946143
 31
0.0
100
AcDbText
  0
MTEXT
  5
65E7
330
2
100
AcDbEntity
  8
TEXT
100
AcDbMText
 10
-80.25005610421175
 20
134.8746071549739
 30
0.0
 40
2.6
 41
50.92302437734452
 46
0.0
 71
     2
 72
     5
  1
{\fTimes New Roman|b0|i0|c0|p18;FLOOR TO SHAFT CENTER\PREQUIREMENTS}
 73
     1
 44
1.0
  0
TEXT
  5
65E8
330
2
100
AcDbEntity
  8
TEXT
100
AcDbText
 10
-81.0445556615914
 20
116.2923317449165
 30
0.0
 40
1.75
  1
2 x DH + 6-1/4"
  7
WEB PAGE
 72
     1
 11
-72.61124636094251
 21
116.2923317449165
 31
0.0
100
AcDbText
  0
TEXT
  5
65E9
330
2
100
AcDbEntity
  8
TEXT
100
AcDbText
 10
-81.0445556615914
 20
112.7660933821162
 30
0.0
 40
1.75
  1
2 x DH + 6-1/4"
  7
WEB PAGE
 72
     1
 11
-72.61124636094251
 21
112.7660933821162
 31
0.0
100
AcDbText
  0
LINE
  5
65EA
330
2
100
AcDbEntity
  8
TEXT
100
AcDbLine
 10
-108.8549697184818
 20
118.9819718975991
 30
0.0
 11
-51.98180845983063
 21
118.9819718975991
 31
0.0
  0
LINE
  5
65EB
330
2
100
AcDbEntity
  8
TEXT
100
AcDbLine
 10
-108.8549697184818
 20
125.8655816985673
 30
0.0
 11
-51.98180845983063
 21
125.8655816985673
 31
0.0
  0
LINE
  5
65EC
330
2
100
AcDbEntity
  8
TEXT
100
AcDbLine
 10
-51.98180845983057
 20
115.348362096631
 30
0.0
 11
-108.8549697184818
 21
115.3483620966309
 31
0.0
  0
LINE
  5
65ED
330
2
100
AcDbEntity
  8
TEXT
100
AcDbLine
 10
-51.98180845983057
 20
111.7147522956629
 30
0.0
 11
-108.8549697184818
 21
111.7147522956628
 31
0.0
  0
LINE
  5
65EE
330
2
100
AcDbEntity
  8
TEXT
100
AcDbLine
 10
-51.98180845983057
 20
108.0811424946947
 30
0.0
 11
-108.8549697184818
 21
108.0811424946947
 31
0.0
  0
TEXT
  5
65EF
330
2
100
AcDbEntity
  8
TEXT
100
AcDbText
 10
-81.0445556615914
 20
109.0964317136226
 30
0.0
 40
1.75
  1
2 x DH + 6-1/4"
  7
WEB PAGE
 72
     1
 11
-72.61124636094251
 21
109.0964317136226
 31
0.0
100
AcDbText
  0
LINE
  5
65F0
330
2
100
AcDbEntity
  8
TEXT
100
AcDbLine
 10
-108.8549697184818
 20
136.1041061622518
 30
0.0
 11
-51.98180845983063
 21
136.1041061622518
 31
0.0
  0
LINE
  5
65F1
330
2
100
AcDbEntity
  8
TEXT
100
AcDbLine
 10
-108.8549697184818
 20
125.8655816985673
 30
0.0
 11
-108.8549697184818
 21
108.0811424946947
 31
0.0
  0
LINE
  5
65F2
330
2
100
AcDbEntity
  8
TEXT
100
AcDbLine
 10
-89.40818574000877
 20
125.8655816985673
 30
0.0
 11
-89.40818574000877
 21
108.0811424946947
 31
0.0
  0
TEXT
  5
65F3
330
2
100
AcDbEntity
  8
TEXT
100
AcDbText
 10
-104.3439092885559
 20
112.5085893874859
 30
0.0
 40
1.75
  1
1100-216
  7
WEB PAGE
 72
     1
 11
-99.391674248902
 21
112.5085893874859
 31
0.0
100
AcDbText
  0
TEXT
  5
65F4
330
2
100
AcDbEntity
  8
TEXT
100
AcDbText
 10
-103.2046318990156
 20
116.2923317449165
 30
0.0
 40
1.75
  1
850-132
  7
WEB PAGE
 72
     1
 11
-98.89839541740066
 21
116.2923317449165
 31
0.0
100
AcDbText
  0
TEXT
  5
65F5
330
2
100
AcDbEntity
  8
TEXT
100
AcDbText
 10
-104.1570508670931
 20
109.0027562092546
 30
0.0
 40
1.75
  1
1350-336
  7
WEB PAGE
 72
     1
 11
-99.20481582743917
 21
109.0027562092546
 31
0.0
100
AcDbText
  0
TEXT
  5
65F6
330
2
100
AcDbEntity
  8
TEXT
100
AcDbText
 10
-102.8891283791374
 20
121.357754946143
 30
0.0
 40
1.75
  1
DRUM
  7
WEB PAGE
 72
     1
 11
-99.01250617293698
 21
121.357754946143
 31
0.0
100
AcDbText
  0
LINE
  5
65F7
330
2
100
AcDbEntity
  8
TEXT
100
AcDbLine
 10
-108.8549697184818
 20
125.8655816985673
 30
0.0
 11
-108.8549697184818
 21
136.1041061622518
 31
0.0
  0
LINE
  5
65F8
330
2
100
AcDbEntity
  8
TEXT
100
AcDbLine
 10
-51.98180845983063
 20
125.8655816985673
 30
0.0
 11
-51.98180845983063
 21
108.0811424946947
 31
0.0
  0
LINE
  5
65F9
330
2
100
AcDbEntity
  8
TEXT
100
AcDbLine
 10
-51.98180845983063
 20
125.8655816985673
 30
0.0
 11
-51.98180845983063
 21
136.1041061622518
 31
0.0
  0
TEXT
  5
65FA
330
2
100
AcDbEntity
  8
TEXT
100
AcDbText
 10
-106.055109770151
 20
104.5292278297591
 30
0.0
 40
1.75
  1
DH = DOOR HEIGHT
  7
WEB PAGE
 72
     1
 11
-94.02275576870904
 21
104.5292278297591
 31
0.0
100
AcDbText
  0
VIEWPORT
  5
AA7
330
7
100
AcDbEntity
 67
     1
  8
0
100
AcDbViewport
 10
-440.7366160212712
 20
-342.3509188751328
 30
0.0
 40
21.57248169964526
 41
13.98516775181681
 68
     1
 69
     1
 12
-440.7366160212712
 22
-342.3509188751328
 13
0.0
 23
0.0
 14
0.5
 24
0.5
 15
0.5
 25
0.5
 16
0.0
 26
0.0
 36
1.0
 17
0.0
 27
0.0
 37
0.0
 42
50.0
 43
0.0
 44
0.0
 45
13.98516775181681
 50
0.0
 51
0.0
 72
   100
 90
    32800
  1

281
     0
 71
     1
 74
     0
110
0.0
120
0.0
130
0.0
111
1.0
121
0.0
131
0.0
112
0.0
122
1.0
132
0.0
 79
     0
146
0.0
170
     0
 61
     5
348
63B1
292
     1
282
     1
141
0.0
142
0.0
 63
   250
421
  3355443
  0
VIEWPORT
  5
11F7
330
7
100
AcDbEntity
 67
     1
  8
DEFPOINTS
100
AcDbViewport
 10
-440.7191099545349
 20
-342.8539354113285
 30
0.0
 40
7.620151324406833
 41
8.951652479653887
 68
     2
 69
     2
 12
-154.2635134868161
 22
217.1011922217143
 13
0.0
 23
0.0
 14
0.5
 24
0.5
 15
0.5
 25
0.5
 16
0.0
 26
0.0
 36
1.0
 17
0.0
 27
0.0
 37
0.0
 42
50.0
 43
0.0
 44
0.0
 45
286.1630119936593
 50
0.0
 51
0.0
 72
   100
 90
    32768
  1

281
     0
 71
     1
 74
     0
110
0.0
120
0.0
130
0.0
111
1.0
121
0.0
131
0.0
112
0.0
122
1.0
132
0.0
 79
     0
146
0.0
170
     0
 61
     5
348
63B1
292
     1
282
     1
141
0.0
142
0.0
 63
   250
421
  3355443
  0
ENDSEC
  0
SECTION
  2
OBJECTS
  0
DICTIONARY
  5
1A
330
0
100
AcDbDictionary
281
     1
  3
ACAD_COLOR
350
62FA
  3
ACAD_GROUP
350
18
  3
ACAD_LAYOUT
350
18F6
  3
ACAD_MATERIAL
350
62F9
  3
ACAD_MLINESTYLE
350
19
  3
ACAD_PLOTSETTINGS
350
18F7
  3
ACAD_PLOTSTYLENAME
350
18F4
  3
ACAD_TABLESTYLE
350
63BC
  3
ACAD_VISUALSTYLE
350
63AB
  3
AcadDim
350
2A5B
  3
AcDbVariableDictionary
350
562E
  3
ASE_INDEX_DICTIONARY
350
1908
  0
DICTIONARY
  5
6519
330
13
100
AcDbDictionary
280
     1
281
     1
  0
DICTIONARY
  5
65FE
330
A
100
AcDbDictionary
280
     1
281
     1
  3
ACAD_LAYERSTATES
360
65FF
  0
DICTIONARY
  5
62FA
102
{ACAD_REACTORS
330
1A
102
}
330
1A
100
AcDbDictionary
281
     1
  0
DICTIONARY
  5
18
102
{ACAD_REACTORS
330
1A
102
}
330
1A
100
AcDbDictionary
281
     1
  0
DICTIONARY
  5
18F6
102
{ACAD_REACTORS
330
1A
102
}
330
1A
100
AcDbDictionary
281
     1
  3
Layout1
350
18F9
  3
Model
350
18F8
  0
DICTIONARY
  5
62F9
102
{ACAD_REACTORS
330
1A
102
}
330
1A
100
AcDbDictionary
281
     1
  3
ByBlock
350
63A9
  3
ByLayer
350
63A8
  3
Global
350
63AA
  0
DICTIONARY
  5
19
102
{ACAD_REACTORS
330
1A
102
}
330
1A
100
AcDbDictionary
281
     1
  3
STANDARD
350
1B
  0
DICTIONARY
  5
18F7
102
{ACAD_REACTORS
330
1A
102
}
330
1A
100
AcDbDictionary
281
     1
  0
ACDBDICTIONARYWDFLT
  5
18F4
102
{ACAD_REACTORS
330
1A
102
}
330
1A
100
AcDbDictionary
281
     1
  3
Normal
350
18F5
100
AcDbDictionaryWithDefault
340
18F5
  0
DICTIONARY
  5
63BC
102
{ACAD_REACTORS
330
1A
102
}
330
1A
100
AcDbDictionary
281
     1
  3
Standard
350
63BD
  0
DICTIONARY
  5
63AB
102
{ACAD_REACTORS
330
1A
102
}
330
1A
100
AcDbDictionary
281
     1
  3
2dWireframe
350
63B1
  3
3D Hidden
350
63B3
  3
3dWireframe
350
63B2
  3
Basic
350
63B0
  3
Brighten
350
63B7
  3
ColorChange
350
63BB
  3
Conceptual
350
63B4
  3
Dim
350
63B6
  3
Facepattern
350
63BA
  3
Flat
350
63AC
  3
FlatWithEdges
350
63AD
  3
Gouraud
350
63AE
  3
GouraudWithEdges
350
63AF
  3
Linepattern
350
63B9
  3
Realistic
350
63B5
  3
Thicken
350
63B8
  0
XRECORD
  5
2A5B
102
{ACAD_REACTORS
330
1A
102
}
330
1A
100
AcDbXrecord
280
     1
 90
   990106
  3

 60
     0
 61
     0
 62
     1
 63
     3
 64
     0
 65
     0
 66
     0
 67
     3
 68
     1
 69
     0
 70
     0
 71
     0
 72
     0
 40
0.0
170
     0
  0
DICTIONARY
  5
562E
102
{ACAD_REACTORS
330
1A
102
}
330
1A
100
AcDbDictionary
281
     1
  3
CTABLESTYLE
350
6516
  3
DIMASSOC
350
62F7
  3
SORTENTS
350
562F
  0
DICTIONARY
  5
1908
102
{ACAD_REACTORS
330
1A
102
}
330
1A
100
AcDbDictionary
281
     1
  3
ASEBlockHierarchyIndexRecord
350
190A
1001
DCO15
1040
1389624268.911
  0
DICTIONARY
  5
65FF
102
{ACAD_REACTORS
330
65FE
102
}
330
65FE
100
AcDbDictionary
281
     1
  0
LAYOUT
  5
18F9
102
{ACAD_XDICTIONARY
360
6601
102
}
102
{ACAD_REACTORS
330
18F6
102
}
330
18F6
100
AcDbPlotSettings
  1

  2
Acrobat PDFWriter
  4
Letter
  6

 40
7.143749713897705
 41
7.143756389617919
 42
7.14373779296875
 43
7.14373779296875
 44
215.8999938964844
 45
279.3999938964844
 46
0.254
 47
0.508
 48
0.0
 49
0.0
140
0.0
141
0.0
142
1.0
143
1.0
 70
   692
 72
     0
 73
     0
 74
     1
  7
Default R14 pen assignments.ctb
 75
    16
147
1.0
 76
     0
 77
     2
 78
   300
148
11294.69973441699
149
8825.830205278178
100
AcDbLayout
  1
Layout1
 70
     1
 71
     1
 10
-445.0409571534833
 20
-347.8767814416081
 11
-436.4735348257402
 21
-336.7895289462341
 12
0.0
 22
0.0
 32
0.0
 14
-444.6356834019652
 24
-347.4903591108755
 34
0.0
 15
-436.8378354681516
 25
-337.211820901359
 35
0.0
146
0.0
 13
0.0
 23
0.0
 33
0.0
 16
1.0
 26
0.0
 36
0.0
 17
0.0
 27
1.0
 37
0.0
 76
     0
330
7
331
AA7
  0
LAYOUT
  5
18F8
102
{ACAD_REACTORS
330
18F6
102
}
330
18F6
100
AcDbPlotSettings
  1

  2
PMKT1 Marketing HP-8100DN Laser
  4
Letter
  6

 40
4.233333110809326
 41
4.233341693878173
 42
4.233322143554687
 43
4.23333740234375
 44
215.8999938964844
 45
279.3999938964844
 46
0.0
 47
9.651999999999999
 48
70.75324879982327
 49
58.72275626559872
140
348.640784371755
141
381.3095403969981
142
1.0
143
28.55543636606483
 70
 11956
 72
     0
 73
     0
 74
     1
  7
Default R14 pen assignments.ctb
 75
     0
147
0.03501960142302
 76
     0
 77
     2
 78
   300
148
-3143.670953473604
149
-1921.304411036426
100
AcDbLayout
  1
Model
 70
     1
 71
     0
 10
0.0
 20
0.0
 11
12.0
 21
9.0
 12
0.0
 22
0.0
 32
0.0
 14
0.0
 24
0.0
 34
0.0
 15
0.0
 25
0.0
 35
0.0
146
0.0
 13
0.0
 23
0.0
 33
0.0
 16
1.0
 26
0.0
 36
0.0
 17
0.0
 27
1.0
 37
0.0
 76
     0
330
2
331
63A6
  0
MATERIAL
  5
63A9
102
{ACAD_REACTORS
330
62F9
102
}
330
62F9
100
AcDbMaterial
  1
ByBlock
  0
MATERIAL
  5
63A8
102
{ACAD_REACTORS
330
62F9
102
}
330
62F9
100
AcDbMaterial
  1
ByLayer
  0
MATERIAL
  5
63AA
102
{ACAD_REACTORS
330
62F9
102
}
330
62F9
100
AcDbMaterial
  1
Global
  0
MLINESTYLE
  5
1B
102
{ACAD_REACTORS
330
19
102
}
330
19
100
AcDbMlineStyle
  2
STANDARD
 70
     0
  3

 62
     0
 51
90.0
 52
90.0
 71
     2
 49
0.5
 62
   256
  6
BYLAYER
 49
-0.5
 62
   256
  6
BYLAYER
  0
ACDBPLACEHOLDER
  5
18F5
102
{ACAD_REACTORS
330
18F4
102
}
330
18F4
  0
TABLESTYLE
  5
63BD
102
{ACAD_REACTORS
330
63BC
102
}
330
63BC
100
AcDbTableStyle
  3
Standard
 70
     0
 71
     0
 40
0.06
 41
0.06
280
     0
281
     0
  7
STANDARD
140
0.18
170
     2
 62
     0
 63
     7
283
     0
 90
      512
 91
        0
  1

274
    -2
284
     1
 64
     0
275
    -2
285
     1
 65
     0
276
    -2
286
     1
 66
     0
277
    -2
287
     1
 67
     0
278
    -2
288
     1
 68
     0
279
    -2
289
     1
 69
     0
  7
STANDARD
140
0.25
170
     5
 62
     0
 63
     7
283
     0
 90
      512
 91
        0
  1

274
    -2
284
     1
 64
     0
275
    -2
285
     1
 65
     0
276
    -2
286
     1
 66
     0
277
    -2
287
     1
 67
     0
278
    -2
288
     1
 68
     0
279
    -2
289
     1
 69
     0
  7
STANDARD
140
0.18
170
     5
 62
     0
 63
     7
283
     0
 90
      512
 91
        0
  1

274
    -2
284
     1
 64
     0
275
    -2
285
     1
 65
     0
276
    -2
286
     1
 66
     0
277
    -2
287
     1
 67
     0
278
    -2
288
     1
 68
     0
279
    -2
289
     1
 69
     0
  0
VISUALSTYLE
  5
63B1
102
{ACAD_REACTORS
330
63AB
102
}
330
63AB
100
AcDbVisualStyle
  2
2dWireframe
 70
     4
 71
     0
 72
     2
 73
     0
 90
        0
 40
-0.6
 41
-30.0
 62
     5
 63
     7
421
 16777215
 74
     1
 91
        4
 64
     7
 65
   257
 75
     1
175
     1
 42
1.0
 92
        0
 66
   257
 43
1.0
 76
     1
 77
     6
 78
     2
 67
     7
 79
     5
170
     0
171
     0
290
     0
174
     0
 93
        1
 44
0.0
173
     0
291
     0
 45
0.0
  0
VISUALSTYLE
  5
63B3
102
{ACAD_REACTORS
330
63AB
102
}
330
63AB
100
AcDbVisualStyle
  2
3D Hidden
 70
     6
 71
     1
 72
     2
 73
     2
 90
        0
 40
-0.6
 41
-30.0
 62
     5
 63
     7
421
 16777215
 74
     2
 91
        2
 64
     7
 65
   257
 75
     2
175
     1
 42
40.0
 92
        0
 66
   257
 43
1.0
 76
     1
 77
     6
 78
     2
 67
     7
 79
     3
170
     0
171
     0
290
     0
174
     0
 93
        1
 44
0.0
173
     0
291
     0
 45
0.0
  0
VISUALSTYLE
  5
63B2
102
{ACAD_REACTORS
330
63AB
102
}
330
63AB
100
AcDbVisualStyle
  2
3dWireframe
 70
     5
 71
     0
 72
     2
 73
     0
 90
        0
 40
-0.6
 41
-30.0
 62
     5
 63
     7
421
 16777215
 74
     1
 91
        4
 64
     7
 65
   257
 75
     1
175
     1
 42
1.0
 92
        0
 66
   257
 43
1.0
 76
     1
 77
     6
 78
     2
 67
     7
 79
     5
170
     0
171
     0
290
     0
174
     0
 93
        1
 44
0.0
173
     0
291
     0
 45
0.0
  0
VISUALSTYLE
  5
63B0
102
{ACAD_REACTORS
330
63AB
102
}
330
63AB
100
AcDbVisualStyle
  2
Basic
 70
     7
 71
     1
 72
     0
 73
     1
 90
        0
 40
-0.6
 41
-30.0
 62
     5
 63
     7
421
 16777215
 74
     0
 91
        4
 64
     7
 65
   257
 75
     1
175
     1
 42
1.0
 92
        8
 66
     7
 43
1.0
 76
     1
 77
     6
 78
     2
 67
     7
 79
     5
170
     0
171
     0
290
     0
174
     0
 93
        1
 44
0.0
173
     0
291
     1
 45
0.0
  0
VISUALSTYLE
  5
63B7
102
{ACAD_REACTORS
330
63AB
102
}
330
63AB
100
AcDbVisualStyle
  2
Brighten
 70
    12
 71
     2
 72
     2
 73
     0
 90
        0
 40
-0.6
 41
-30.0
 62
     5
 63
     7
421
 16777215
 74
     1
 91
        4
 64
     7
 65
   257
 75
     1
175
     1
 42
1.0
 92
        8
 66
     7
 43
1.0
 76
     1
 77
     6
 78
     2
 67
     7
 79
     5
170
     0
171
     0
290
     0
174
     0
 93
        1
 44
50.0
173
     0
291
     1
 45
0.0
  0
VISUALSTYLE
  5
63BB
102
{ACAD_REACTORS
330
63AB
102
}
330
63AB
100
AcDbVisualStyle
  2
ColorChange
 70
    16
 71
     2
 72
     2
 73
     3
 90
        0
 40
-0.6
 41
-30.0
 62
     5
 63
     8
421
  8421504
 74
     1
 91
        4
 64
     7
 65
   257
 75
     1
175
     1
 42
1.0
 92
        8
 66
     8
424
  8421504
 43
1.0
 76
     1
 77
     6
 78
     2
 67
     7
 79
     5
170
     0
171
     0
290
     0
174
     0
 93
        1
 44
0.0
173
     0
291
     1
 45
0.0
  0
VISUALSTYLE
  5
63B4
102
{ACAD_REACTORS
330
63AB
102
}
330
63AB
100
AcDbVisualStyle
  2
Conceptual
 70
     9
 71
     3
 72
     2
 73
     0
 90
        0
 40
-0.6
 41
-30.0
 62
     5
 63
     7
421
 16777215
 74
     2
 91
        2
 64
     7
 65
   257
 75
     1
175
     1
 42
40.0
 92
        8
 66
     7
 43
1.0
 76
     1
 77
     6
 78
     2
 67
     7
 79
     3
170
     0
171
     0
290
     0
174
     0
 93
        1
 44
0.0
173
     0
291
     0
 45
0.0
  0
VISUALSTYLE
  5
63B6
102
{ACAD_REACTORS
330
63AB
102
}
330
63AB
100
AcDbVisualStyle
  2
Dim
 70
    11
 71
     2
 72
     2
 73
     0
 90
        0
 40
-0.6
 41
-30.0
 62
     5
 63
     7
421
 16777215
 74
     1
 91
        4
 64
     7
 65
   257
 75
     1
175
     1
 42
1.0
 92
        8
 66
     7
 43
1.0
 76
     1
 77
     6
 78
     2
 67
     7
 79
     5
170
     0
171
     0
290
     0
174
     0
 93
        1
 44
-50.0
173
     0
291
     1
 45
0.0
  0
VISUALSTYLE
  5
63BA
102
{ACAD_REACTORS
330
63AB
102
}
330
63AB
100
AcDbVisualStyle
  2
Facepattern
 70
    15
 71
     2
 72
     2
 73
     0
 90
        0
 40
-0.6
 41
-30.0
 62
     5
 63
     7
421
 16777215
 74
     1
 91
        4
 64
     7
 65
   257
 75
     1
175
     1
 42
1.0
 92
        8
 66
     7
 43
1.0
 76
     1
 77
     6
 78
     2
 67
     7
 79
     5
170
     0
171
     0
290
     0
174
     0
 93
        1
 44
0.0
173
     0
291
     1
 45
0.0
  0
VISUALSTYLE
  5
63AC
102
{ACAD_REACTORS
330
63AB
102
}
330
63AB
100
AcDbVisualStyle
  2
Flat
 70
     0
 71
     2
 72
     1
 73
     1
 90
        2
 40
-0.6
 41
30.0
 62
     5
 63
     7
421
 16777215
 74
     0
 91
        4
 64
     7
 65
   257
 75
     1
175
     1
 42
1.0
 92
        8
 66
     7
 43
1.0
 76
     1
 77
     6
 78
     2
 67
     7
 79
     5
170
     0
171
     0
290
     0
174
     0
 93
       13
 44
0.0
173
     0
291
     1
 45
0.0
  0
VISUALSTYLE
  5
63AD
102
{ACAD_REACTORS
330
63AB
102
}
330
63AB
100
AcDbVisualStyle
  2
FlatWithEdges
 70
     1
 71
     2
 72
     1
 73
     1
 90
        2
 40
-0.6
 41
30.0
 62
     5
 63
     7
421
 16777215
 74
     1
 91
        4
 64
     7
 65
   257
 75
     1
175
     1
 42
1.0
 92
        0
 66
   257
 43
1.0
 76
     1
 77
     6
 78
     2
 67
     7
 79
     5
170
     0
171
     0
290
     0
174
     0
 93
       13
 44
0.0
173
     0
291
     1
 45
0.0
  0
VISUALSTYLE
  5
63AE
102
{ACAD_REACTORS
330
63AB
102
}
330
63AB
100
AcDbVisualStyle
  2
Gouraud
 70
     2
 71
     2
 72
     2
 73
     1
 90
        2
 40
-0.6
 41
30.0
 62
     5
 63
     7
421
 16777215
 74
     0
 91
        4
 64
     7
 65
   257
 75
     1
175
     1
 42
1.0
 92
        0
 66
     7
 43
1.0
 76
     1
 77
     6
 78
     2
 67
     7
 79
     5
170
     0
171
     0
290
     0
174
     0
 93
       13
 44
0.0
173
     0
291
     1
 45
0.0
  0
VISUALSTYLE
  5
63AF
102
{ACAD_REACTORS
330
63AB
102
}
330
63AB
100
AcDbVisualStyle
  2
GouraudWithEdges
 70
     3
 71
     2
 72
     2
 73
     1
 90
        2
 40
-0.6
 41
30.0
 62
     5
 63
     7
421
 16777215
 74
     1
 91
        4
 64
     7
 65
   257
 75
     1
175
     1
 42
1.0
 92
        0
 66
   257
 43
1.0
 76
     1
 77
     6
 78
     2
 67
     7
 79
     5
170
     0
171
     0
290
     0
174
     0
 93
       13
 44
0.0
173
     0
291
     1
 45
0.0
  0
VISUALSTYLE
  5
63B9
102
{ACAD_REACTORS
330
63AB
102
}
330
63AB
100
AcDbVisualStyle
  2
Linepattern
 70
    14
 71
     2
 72
     2
 73
     0
 90
        0
 40
-0.6
 41
-30.0
 62
     5
 63
     7
421
 16777215
 74
     1
 91
        4
 64
     7
 65
   257
 75
     7
175
     7
 42
1.0
 92
        8
 66
     7
 43
1.0
 76
     1
 77
     6
 78
     2
 67
     7
 79
     5
170
     0
171
     0
290
     0
174
     0
 93
        1
 44
0.0
173
     0
291
     1
 45
0.0
  0
VISUALSTYLE
  5
63B5
102
{ACAD_REACTORS
330
63AB
102
}
330
63AB
100
AcDbVisualStyle
  2
Realistic
 70
     8
 71
     2
 72
     2
 73
     0
 90
        0
 40
-0.6
 41
-30.0
 62
     5
 63
     7
421
 16777215
 74
     1
 91
        0
 64
     7
 65
   257
 75
     1
175
     1
 42
1.0
 92
        8
 66
     8
424
  7895160
 43
1.0
 76
     1
 77
     6
 78
     2
 67
     7
 79
     5
170
     0
171
     0
290
     0
174
     0
 93
       13
 44
0.0
173
     0
291
     0
 45
0.0
  0
VISUALSTYLE
  5
63B8
102
{ACAD_REACTORS
330
63AB
102
}
330
63AB
100
AcDbVisualStyle
  2
Thicken
 70
    13
 71
     2
 72
     2
 73
     0
 90
        0
 40
-0.6
 41
-30.0
 62
     5
 63
     7
421
 16777215
 74
     1
 91
        4
 64
     7
 65
   257
 75
     1
175
     1
 42
1.0
 92
       12
 66
     7
 43
1.0
 76
     1
 77
     6
 78
     2
 67
     7
 79
     5
170
     0
171
     0
290
     0
174
     0
 93
        1
 44
0.0
173
     0
291
     1
 45
0.0
  0
DICTIONARYVAR
  5
6516
102
{ACAD_REACTORS
330
562E
102
}
330
562E
100
DictionaryVariables
280
     0
  1
STANDARD
  0
DICTIONARYVAR
  5
62F7
102
{ACAD_REACTORS
330
562E
102
}
330
562E
100
DictionaryVariables
280
     0
  1
1
  0
DICTIONARYVAR
  5
562F
102
{ACAD_REACTORS
330
562E
102
}
330
562E
100
DictionaryVariables
280
     0
  1
96
  0
XRECORD
  5
190A
102
{ACAD_REACTORS
330
1908
102
}
330
1908
100
AcDbXrecord
280
     1
330
0
330
0
330
0
330
0
330
0
330
0
330
0
330
0
330
0
330
0
330
0
330
0
330
0
330
1B5
330
1B6
330
1B7
330
1B8
330
1B9
330
1BA
330
1BB
330
1BC
330
1BD
330
328
330
84A
330
8DC
330
18F0
330
18AB
330
18C7
330
18C9
  0
DICTIONARY
  5
6601
330
18F9
100
AcDbDictionary
280
     1
281
     1
  3
ADSK_XREC_LAYOUTTHUMBNAIL
360
6602
  0
XRECORD
  5
6602
102
{ACAD_REACTORS
330
6601
102
}
330
6601
100
AcDbXrecord
280
     1
310
280000006C0000008C0000000100080000000000103B0000000000000000000000010000000000000000000000000000FFFFFF000000000000000000000000000000000000000000000000000000000000000000330000006600000099000000CC000000FF00000000330000333300006633000099330000CC330000FF3300
310
0000660000336600006666000099660000CC660000FF66000000990000339900006699000099990000CC990000FF99000000CC000033CC000066CC000099CC0000CCCC0000FFCC000000FF000033FF000066FF000099FF0000CCFF0000FFFF000000003300330033006600330099003300CC003300FF003300003333003333
310
33006633330099333300CC333300FF33330000663300336633006666330099663300CC663300FF66330000993300339933006699330099993300CC993300FF99330000CC330033CC330066CC330099CC3300CCCC3300FFCC330000FF330033FF330066FF330099FF3300CCFF3300FFFF330000006600330066006600660099
310
006600CC006600FF00660000336600333366006633660099336600CC336600FF33660000666600336666006666660099666600CC666600FF66660000996600339966006699660099996600CC996600FF99660000CC660033CC660066CC660099CC6600CCCC6600FFCC660000FF660033FF660066FF660099FF6600CCFF6600
310
FFFF660000009900330099006600990099009900CC009900FF00990000339900333399006633990099339900CC339900FF33990000669900336699006666990099669900CC669900FF66990000999900339999006699990099999900CC999900FF99990000CC990033CC990066CC990099CC9900CCCC9900FFCC990000FF99
310
0033FF990066FF990099FF9900CCFF9900FFFF99000000CC003300CC006600CC009900CC00CC00CC00FF00CC000033CC003333CC006633CC009933CC00CC33CC00FF33CC000066CC003366CC006666CC009966CC00CC66CC00FF66CC000099CC003399CC006699CC009999CC00CC99CC00FF99CC0000CCCC0033CCCC0066CC
310
CC0099CCCC00CCCCCC00FFCCCC0000FFCC0033FFCC0066FFCC0099FFCC00CCFFCC00FFFFCC000000FF003300FF006600FF009900FF00CC00FF00FF00FF000033FF003333FF006633FF009933FF00CC33FF00FF33FF000066FF003366FF006666FF009966FF00CC66FF00FF66FF000099FF003399FF006699FF009999FF00CC
310
99FF00FF99FF0000CCFF0033CCFF0066CCFF0099CCFF00CCCCFF00FFCCFF0000FFFF0033FFFF0066FFFF0099FFFF00CCFFFF00FFFFFF00000000000D0D0D001A1A1A00282828003535350043434300505050005D5D5D006B6B6B00787878008686860093939300A1A1A100AEAEAE00BBBBBB00C9C9C900D6D6D600E4E4E400
310
F1F1F100FFFFFF0000000000000000000000000000000000000000000000000000000000000000000000000000000000EFEFEFEFEFEFEFEFEFEFEFEFEFEFEFEFEFEFEFEFEFEFEFEFEFEFEFEFEFEFEFEFEFEFEFEFEFEFEFEFEFEFEFEFEFEFEFEFEFEFEFEFEFEFEFEFEFEFEFEFEFEFEFEFEFEFEFEFEFEFEFEFEFEFEFEFEFEFEF
310
EFEFEFEFEFEFEFEFEFEFEFEFEFEFEFEFEFEFEFEFEFEFEFEFEFEFEFEFEFEFEFEFF5F5F5F5F5F5F5F5F5F5F5F5F5F5F5F5F5F5F5F5F5F5F5F5F5F5F5F5F5F5F5F5F5F5F5F5F5F5F5F5F5F5F5F5F5F5F5F5F5F5F5F5F5F5F5F5F5F5F5F5F5F5F5F5F5F5F5F5F5F5F5F5F5F5F5F5F5F5F5F5F5F5F5F5F5F5F5F5F5F5F5F5F5F5F5
310
F5F5F5F5F5F5F5F5F5F5EFF5F5F5F5F5F5F5F5F5F5F5F5F5F5F5F5F5F5F5F5F5F5F5F5F5F5F5F5F5F5F5F5F5F5F5F5F5F5F5F5F5F5F5F5F5F5F5F5F5F5F5F5F5F5F5F5F5F5F5F5F5F5F5F5F5F5F5F5F5F5F5F5F5F5F5F5F5F5F5F5F5F5F5F5F5F5F5F5F5F5F5F5F5F5F5F5F5F5F5F5F5F5F5F5F5F5F5EFF5E2E2E2E2E2E2E2
310
E2E2E2E2E2E2E2E2E2E2E2E2E2E2E2E2E2E2E2E2E2E2E2E2E2E2E2E2E2E2E2E2E2E2E2E2E2E2E2E2E2E2E2E2E2E2E2E2E2E2E2E2E2E2E2E2E2E2E2E2E2E2E2E2E2E2E2E2E2E2E2E2E2E2E2E2E2E2E2E2E2E2E2E2E2E2E2E2E2E2E2E2E2E2E2E2E2E2F5EFF5E2E2E2E2E2E2E2E2E2E2E2E2E2E2E2E2E2E2E2E2E2E2E2E2E2E2
310
E2E2E2E2E2E2E2E2E2E2E2E2E2E2E2E2E2E2E2E2E2E2E2E2E2E2E2E2E2E2E2E2E2E2E2E2E2E2E2E2E2E2E2E2E2E2E2E2E2E2E2E2E2E2E2E2E2E2E2E2E2E2E2E2E2E2E2E2E2E2E2E2E2E2E2E2E2E2E2F5EFF5E2E2F5F5F5F5F5F5F5F5F5E2E2E2E2E2E2E2E2E2F5F5F5F5F5F5F5F5F5F5F5F5F5F5F5F5E2E2E2E2E2E2E2E2E2
310
F5F5F5F5F5F5F5F5F5F5F5F5F5F5F5F5E2E2E2E2E2E2E2E2E2F5F5F5F5F5F5F5F5F5F5F5F5F5F5F5F5E2E2E2E2E2E2E2E2E2F5F5F5F5F5F5F5F5E2E2F5EFF5E2E2F5E2E2E2E2E2E2E2E2E2E2E2E2E2E2E2E2E2E2E2E2E2E2E2E2E2E2E2E2E2E2E2E2E2E2E2E2E2E2E2E2E2E2E2E2E2E2E2E2E2E2E2E2E2E2E2E2E2E2E2E2E2
310
E2E2E2E2E2E2E2E2E2E2E2E2E2E2E2E2E2E2E2E2E2E2E2E2E2E2E2E2E2E2E2E2E2E2E2E2E2E2F5E2E2F5EFF5E2E2F5E2F5F5F5F5F5F5F5F5F5F5F5F5F5F5F5F5F5F5F5F5F5F5F5F5F5F5F5F5F5F5F5F5F5F5F5F5F5F5F5F5F5F5F5F5F5F5F5F5F5F5F5F5F5F5F5F5F5F5F5F5F5F5F5F5F5F5F5F5F5F5F5F5F5F5F5F5F5F5F5
310
F5F5F5F5F5F5F5F5F5F5F5F5F5F5F5F5F5F5E2F5E2E2F5EFF5E2E2F5E2F5E2E2E2E2E2E2E2E2E2E2E2E2E2E2E2E2E2E2E2E2E2E2E2E2E2E2E2E2E2E2E2E2E2E2E2E2E2E2E2E2E2E2E2E2E2E2E2E2E2E2E2E2E2E2E2E2E2E2E2E2E2E2E2E2E2E2E2E2E2E2E2E2E2E2E2E2E2E2E2E2E2E2E2E2E2E2E2E2E2E2E2E2E2E2E2F5E2
310
F5E2E2F5EFF5E2E2F5E2F5E2E2E2E2E2E2E2E2E2E2E2E2E2E2E2E2E2E2E2E2E2E2E2E2E2E2E2E2E2E2E2E2E2E2E2E2E2E2E2E2E2E2E2E2E2E2E2E2E2E2E2E2E2E2E2E2E2E2E2E2E2E2E2E2E2E2E2E2E2E2E2E2E2E2E2E2E2E2E2E2E2E2E2E2E2E2E2E2E2E2E2E2E2E2E2F5E2F5E2E2F5EFF5E2E2F5E2F5E2E2E2E2E2E2E2E2
310
E2E2E2E2E2E2E2E2E2F5F5F5F5F5F5F5F5F5F5F5F5F5F5F5F5F5F5F5F5F5F5F5F5F5F5F5F5F5F5F5F5F5F5F5F5F5F5F5F5F5F5F5F5F5F5F5F5F5F5F5F5F5F5F5F5F5F5F5F5F5F5F5F5F5F5F5F5F5F5F5F5F5E2E2E2E2E2F5E2F5E2E2F5EFF5E2E2F5E2F5E2E2E2E2E2E2E2E2E2E2E2E2E2E2E2E2E2F5F5F5F5F5F5F5F5F5F5
310
F5F5F5F5F5F5F5F5F5F5F5F5F5F5F5F5F5F5F5F5F5F5F5F5F5F5F5F5F5F5F5F5F5F5F5F5F5F5F5F5F5F5F5F5F5F5F5F5F5F5F5F5F5F5F5F5F5F5F5F5F5F5E2E2E2E2E2E2F5E2F5E2E2F5EFF5E2E2F5E2F5E2E2E2E2E2E2E2E2E2E2E2E2E2E2E2E2E2E2E2E2E2E2E2E2E2E2E2E2E2E2E2E2E2E2E2E2E2E2E2E2E2E2E2E2E2E2
310
E2E2E2E2E2E2E2E2E2E2E2E2E2E2E2E2E2E2E2E2E2E2E2E2E2E2E2E2E2E2E2E2E2E2E2E2E2E2E2E2E2E2E2E2E2E2E2E2E2F5E2F5E2E2F5EFF5E2E2F5E2F5E2E2E2E2E2E2E2E2E2E2E2F5F5F5F5F5F5F5F5F5F5F5F5F5F5F5F5F5F5F5F5F5F5F5F5F5F5F5F5F5F5F5F5F5F5F5F5F5F5F5F5F5F5F5F5F5F5F5F5F5F5F5F5F5F5
310
F5F5F5F5F5F5F5F5F5F5F5F5E2E2E2E2E2E2E2E2E2E2E2E2E2E2E2E2E2E2F5E2F5E2E2F5EFF5E2E2E2E2F5E2E2E2E2E2E2E2E2E2E2E2F5E2E2E2E2E2E2E2E2F5E2E2E2E2E2E2E2F5F5E2E2E2E2E2E2F5F5E2E2E2E2E2F5E2F5F5F5E2E2E2E2E2E2E2E2E2E2F5E2E2E2E2E2E2E2E2E2E2E2E2E2E2E2E2E2E2E2E2E2E2E2E2E2
310
E2E2E2E2E2E2E2E2E2E2E2F5E2E2E2E2F5EFF5E2E2E2E2F5E2E2E2E2E2E2E2E2E2E2E2F5E2E2E2E2E2E2E2F5F5E2E2E2E2E2E2E2F5F5E2E2E2E2E2E2F5F5E2E2E2E2E2F5E2F5F5F5E2E2E2E2E2E2E2E2E2E2F5E2E2E2E2E2E2E2E2E2E2E2E2E2E2E2E2E2E2E2E2E2E2E2E2E2E2E2E2E2E2E2E2E2E2E2E2F5E2E2E2E2F5EFF5
310
E2E2E2E2F5E2E2E2E2E2E2E2E2E2E2E2F5E2E2E2E2E2E2E2E2F5E2E2E2E2E2E2E2F5E2E2E2E2E2E2E2F5E2E2E2E2E2E2F5E2F5F5F5E2E2E2E2E2E2E2E2E2E2F5E2E2E2E2E2E2E2E2E2E2E2E2E2E2E2E2E2E2E2E2E2E2E2E2E2E2E2E2E2E2E2E2E2E2E2E2F5E2E2E2E2F5EFF5E2E2E2E2F5E2E2E2E2E2E2E2E2E2E2E2F5E2E2
310
E2E2E2E2E2E2F5E2E2E2E2E2E2E2F5E2E2E2E2E2E2E2F5E2E2E2E2E2E2F5E2F5F5F5E2E2E2E2E2E2E2E2E2E2F5E2E2E2E2E2E2E2E2E2E2E2E2E2E2E2E2E2E2E2E2E2E2E2E2E2E2E2E2E2E2E2E2E2E2E2E2F5E2E2E2E2F5EFF5E2E2E2E2F5E2E2E2E2E2E2E2E2E2E2E2F5E2E2E2E2E2E2E2E2F5E2E2E2E2E2E2E2F5E2E2E2E2
310
E2E2E2F5E2E2E2E2E2E2F5E2F5F5F5E2E2E2E2E2E2E2E2E2E2F5E2E2E2E2E2E2E2E2E2E2E2E2E2E2E2E2E2E2E2E2E2E2E2E2E2E2E2E2E2E2E2E2E2E2E2E2F5E2E2E2E2F5EFF5E2E2E2E2F5E2E2E2E2E2E2E2E2E2E2E2F5E2E2E2E2E2E2E2E2F5E2E2E2E2E2E2E2F5E2E2E2E2E2E2E2F5E2E2E2E2E2E2F5E2F5F5F5E2E2E2E2
310
E2E2E2E2E2E2F5E2E2E2E2E2E2E2F5F5F5F5F5F5F5F5F5F5E2E2E2E2E2E2E2E2E2E2E2E2E2E2E2E2E2E2E2F5E2E2E2E2F5EFF5E2E2E2E2F5E2E2E2E2E2E2E2E2E2E2E2F5E2E2E2E2E2E2E2E2F5E2E2E2E2E2E2E2F5E2E2E2E2E2E2E2F5E2E2E2E2E2E2F5E2F5F5F5E2E2E2E2E2E2E2E2E2E2F5E2E2E2E2E2E2F5F5F5F5F5F5
310
F5F5F5F5F5F5F5F5F5F5F5F5F5F5F5F5F5E2E2E2E2E2E2E2F5E2E2E2E2F5EFF5E2E2E2E2F5E2E2E2E2E2E2E2E2E2E2E2F5E2E2E2E2E2E2E2E2F5E2E2E2E2E2E2E2F5E2E2E2E2E2E2E2F5E2E2E2E2E2E2F5E2F5F5F5E2E2E2E2E2E2E2E2E2E2F5E2E2E2E2E2E2F5E2E2E2E2E2E2E2F5E2E2E2E2E2E2E2E2E2E2E2E2E2F5E2E2
310
E2E2E2E2E2F5E2E2E2E2F5EFF5E2E2E2E2F5E2E2E2E2E2E2E2E2E2E2E2F5E2E2E2E2E2E2E2E2F5E2E2E2E2E2E2E2F5E2E2E2E2E2E2E2F5E2E2E2E2E2E2F5E2F5F5F5E2E2E2E2E2E2E2E2E2E2F5E2E2E2E2E2E2F5F5F5F5F5F5F5F5F5F5F5F5F5F5F5F5F5F5F5F5F5F5F5E2E2E2E2E2E2E2F5E2E2E2E2F5EFF5E2E2F5E2F5E2
310
E2E2E2E2E2E2E2E2E2E2F5E2E2E2E2E2E2E2E2F5E2E2E2E2E2E2E2F5E2E2E2E2E2E2E2F5E2E2E2E2E2E2F5E2F5F5F5E2E2E2E2E2E2E2E2E2E2F5E2E2E2E2E2E2F5F5F5F5F5F5F5F5F5F5F5F5F5F5F5F5F5F5F5F5F5F5F5E2E2E2E2E2E2E2F5E2F5E2E2F5EFF5E2E2F5E2F5E2E2E2E2E2E2E2E2E2E2E2F5E2E2E2E2E2E2E2E2
310
F5E2E2E2E2E2E2E2F5E2E2E2E2E2E2E2F5E2E2E2E2E2E2F5E2F5F5F5E2E2E2E2E2E2E2E2E2E2F5E2E2E2E2E2E2F5F5F5F5F5F5F5F5F5F5F5F5F5F5F5F5F5F5F5F5F5F5F5E2E2E2E2E2E2E2F5E2F5E2E2F5EFF5E2E2F5E2F5E2E2E2E2E2E2E2E2E2E2E2F5E2E2E2E2E2E2E2E2F5E2E2E2E2E2E2E2F5E2E2E2E2E2E2E2F5E2E2
310
E2E2E2E2F5E2F5F5F5E2E2E2E2E2E2E2E2E2E2F5E2E2E2E2E2E2F5E2F5F5F5E2E2E2F5F5F5F5F5F5F5F5F5F5F5F5F5E2F5E2E2E2E2E2E2E2F5E2F5E2E2F5EFF5E2E2F5E2F5E2E2E2E2E2E2E2E2E2E2E2F5E2E2E2E2E2E2E2E2F5E2E2E2E2E2E2E2F5E2E2E2E2E2E2E2F5E2E2E2E2E2E2F5E2F5F5F5E2E2E2E2E2E2E2E2E2E2
310
F5E2E2E2E2E2E2F5E2E2E2E2E2E2E2F5E2E2E2E2E2E2E2E2E2E2E2E2E2F5E2E2E2E2E2E2E2F5E2F5E2E2F5EFF5E2E2F5E2F5E2E2E2E2E2E2E2E2E2E2E2F5E2E2E2E2E2E2E2E2F5E2E2E2E2E2E2E2F5E2E2E2E2E2E2E2F5E2E2E2E2E2E2F5E2F5F5F5E2E2E2E2E2E2E2E2E2E2F5E2E2E2E2E2E2F5F5F5F5F5F5F5F5F5F5F5F5
310
F5F5F5F5F5F5F5F5F5F5F5E2E2E2E2E2E2E2F5E2F5E2E2F5EFF5E2E2F5E2F5E2E2E2E2E2E2E2E2E2E2E2F5E2E2E2E2E2E2E2E2F5E2E2E2E2E2E2E2F5E2E2E2E2E2E2E2F5E2E2E2E2E2E2F5E2F5F5F5E2E2E2E2E2E2E2E2E2E2F5E2E2E2E2E2E2F5E2E2E2E2F5F5F5F5F5F5F5F5F5F5F5F5E2E2E2E2E2F5E2E2E2E2E2E2E2F5
310
E2F5E2E2F5EFF5E2E2F5E2F5E2E2E2E2E2E2E2E2E2E2E2F5E2E2E2E2E2E2E2E2F5E2E2E2E2E2E2E2F5E2E2E2E2E2E2E2F5E2E2E2E2E2E2F5E2F5F5F5E2E2E2E2E2E2E2E2E2E2F5E2E2E2E2E2E2F5E2F5F5F5F5F5F5F5F5F5F5F5F5F5F5F5F5F5F5F5E2F5E2E2E2E2E2E2E2F5E2F5E2E2F5EFF5E2E2F5E2F5E2E2E2E2E2E2E2
310
E2E2E2E2F5E2E2E2E2E2E2E2E2F5E2E2E2E2E2E2E2F5E2E2E2E2E2E2E2F5E2E2E2E2E2E2F5E2F5F5F5E2E2E2E2E2E2E2E2E2E2F5E2E2E2E2E2E2F5E2F5F5F5F5F5F5F5F5F5F5F5F5F5F5F5F5F5F5F5E2F5E2E2E2E2E2E2E2F5E2F5E2E2F5EFF5E2E2F5E2F5E2E2E2E2E2E2E2E2E2E2E2F5E2E2E2E2E2E2E2E2F5E2E2E2E2E2
310
E2E2F5E2E2E2E2E2E2E2F5E2E2E2E2E2E2F5E2F5F5F5E2E2E2E2E2E2F5F5F5F5F5F5F5F5F5E2E2F5F5F5F5F5F5F5F5F5F5F5F5F5F5F5F5F5F5F5F5F5F5F5E2E2E2E2E2E2E2F5E2F5E2E2F5EFF5E2E2F5E2F5E2E2E2E2E2E2E2E2E2E2E2F5E2E2E2E2E2E2E2E2F5E2E2E2E2E2E2E2F5E2E2E2E2E2E2E2F5E2E2E2E2E2E2F5E2
310
F5F5F5E2E2E2E2E2E2E2E2F5F5F5F5E2E2E2E2E2E2E2E2E2E2E2E2E2E2E2E2E2E2E2E2E2E2E2E2E2E2E2E2E2E2E2E2E2E2E2F5E2F5E2E2F5EFF5E2E2F5E2F5E2E2E2E2E2E2E2E2E2E2E2F5E2E2E2E2E2E2E2E2F5E2E2E2E2E2E2E2F5E2E2E2E2E2E2E2F5E2E2E2E2E2E2F5E2F5F5F5E2E2E2E2E2E2F5F5F5F5F5F5F5F5F5E2
310
E2E2E2E2E2E2E2E2E2E2E2E2E2E2E2E2E2E2E2E2E2E2E2E2E2E2E2E2E2E2E2F5E2F5E2E2F5EFF5E2E2F5E2F5E2E2E2E2E2E2E2E2E2E2E2F5E2E2E2E2E2E2E2E2F5E2E2E2E2E2F5F5F5F5F5E2E2E2E2E2F5E2E2E2E2E2E2F5E2F5F5F5E2E2E2E2E2E2E2E2E2E2F5E2E2E2E2E2E2E2F5F5F5F5F5F5F5F5F5F5F5F5F5F5F5F5F5
310
F5F5F5F5F5E2E2E2E2E2E2E2F5E2F5E2E2F5EFF5E2E2F5E2F5E2E2E2E2E2E2E2E2E2E2E2F5E2E2E2E2E2E2E2E2F5E2E2E2E2E2E2F5F5F5E2E2F5F5F5F5F5F5F5F5F5E2E2F5E2F5F5F5E2E2E2E2E2E2E2E2E2E2F5E2E2E2E2E2E2E2F5F5F5F5F5F5F5F5F5F5F5F5F5F5F5F5F5F5F5F5F5F5E2E2E2E2E2E2E2F5E2F5E2E2F5EF
310
F5E2E2F5E2F5E2E2E2E2E2E2E2E2E2E2E2F5E2E2E2E2E2E2E2E2F5E2E2E2E2E2E2E2F5E2E2E2E2E2E2F5F5F5E2E2E2E2E2F5E2F5F5F5E2E2E2E2E2E2E2E2E2E2F5E2E2E2E2E2E2E2F5E2F5F5F5F5E2F5E2E2E2F5F5F5F5F5F5E2E2E2E2F5E2E2E2E2E2E2E2F5E2F5E2E2F5EFF5E2E2F5E2F5E2E2E2E2E2E2E2E2E2E2E2F5E2
310
E2E2E2E2E2E2E2F5E2E2E2E2E2E2E2F5E2E2E2F5F5F5F5F5F5F5F5F5E2E2F5E2F5F5F5E2E2E2E2E2E2E2E2E2E2F5E2E2E2E2E2E2E2F5E2F5F5F5E2E2F5E2E2E2F5F5F5F5F5E2E2E2E2E2F5E2E2E2E2E2E2E2F5E2F5E2E2F5EFF5E2E2F5E2F5E2E2E2E2E2E2E2E2E2E2E2F5E2E2E2E2E2E2E2E2F5E2E2E2E2E2E2E2F5E2E2E2
310
E2E2E2E2E2E2E2E2E2E2E2F5E2F5F5F5E2E2E2E2E2E2E2E2E2E2F5E2E2E2E2E2E2E2F5F5F5F5F5F5F5F5F5F5F5F5F5F5F5F5F5F5F5F5F5F5E2E2E2E2E2E2E2F5E2F5E2E2F5EFF5E2E2F5E2F5E2E2E2E2E2E2E2E2E2E2E2F5E2E2E2E2E2E2E2E2F5E2E2E2E2E2E2E2F5E2E2E2E2E2E2E2F5E2E2E2E2E2E2F5E2F5F5F5E2E2E2
310
E2E2E2E2E2E2E2F5E2E2E2E2E2E2E2F5E2E2E2F5F5F5F5F5F5F5F5F5F5F5F5E2E2E2E2E2F5E2E2E2E2E2E2E2F5E2F5E2E2F5EFF5E2E2E2E2F5E2E2E2E2E2E2E2E2E2E2E2F5E2E2E2E2E2E2E2E2F5E2E2E2E2E2E2E2F5E2E2E2E2E2E2E2F5E2E2E2E2E2E2F5E2F5F5F5E2E2E2E2E2E2E2E2E2E2F5E2E2E2E2E2E2E2F5E2E2E2
310
E2E2F5F5F5F5F5F5F5F5E2E2E2E2E2E2E2F5E2E2E2E2E2E2E2F5E2E2E2E2F5EFF5E2E2E2E2F5E2E2E2E2E2E2E2E2E2E2E2F5E2E2E2E2E2E2E2E2F5E2E2E2E2E2E2E2F5E2E2E2E2E2E2E2F5E2E2E2E2E2E2F5E2F5F5F5E2E2E2E2E2E2E2E2E2E2F5E2E2E2E2E2E2E2F5E2E2E2E2E2F5F5F5F5F5F5F5F5E2E2E2E2E2E2E2F5E2
310
E2E2E2E2E2E2F5E2E2E2E2F5EFF5E2E2E2E2F5E2E2E2E2E2E2E2E2E2E2E2F5E2E2E2E2E2E2E2E2F5E2E2E2E2E2E2E2F5E2E2E2E2E2E2E2F5E2E2E2E2E2E2F5E2F5F5F5E2E2E2E2E2E2E2E2E2E2F5E2E2E2E2E2E2E2F5F5F5F5F5F5F5F5F5F5F5F5F5F5F5F5F5F5F5F5F5F5E2E2E2E2E2E2E2F5E2E2E2E2F5EFF5E2E2E2E2F5
310
E2E2E2E2E2E2E2E2E2E2E2F5E2E2E2E2E2E2E2E2F5E2E2E2E2E2E2E2F5E2E2E2E2E2E2E2F5E2E2E2E2E2E2F5E2F5F5F5E2E2E2E2E2E2E2E2E2E2F5E2E2E2E2E2E2E2E2E2E2E2E2E2E2E2E2E2E2E2E2E2E2E2E2E2E2E2E2E2E2E2E2E2E2E2E2F5E2E2E2E2F5EFF5E2E2E2E2F5E2E2E2E2E2E2E2E2E2E2E2F5E2E2E2E2E2E2E2
310
E2F5E2E2E2E2E2E2E2F5E2E2E2E2E2E2E2F5E2E2E2E2E2E2F5E2F5F5F5E2E2E2E2E2E2E2E2E2E2F5E2E2E2E2E2E2E2E2E2E2E2E2E2E2E2E2E2E2E2E2E2E2E2E2E2E2E2E2E2E2E2E2E2E2E2E2F5E2E2E2E2F5EFF5E2E2E2E2F5E2E2E2E2E2E2E2E2E2E2E2F5E2E2E2E2E2E2E2E2F5E2E2E2E2E2E2E2F5E2E2E2E2E2E2E2F5E2
310
E2E2E2E2E2F5E2F5F5F5E2E2E2E2E2E2E2E2E2E2F5E2E2E2E2E2E2E2E2E2E2E2E2E2E2E2E2E2E2E2E2E2E2E2E2E2E2E2E2E2E2E2E2E2E2E2E2F5E2E2E2E2F5EFF5E2E2E2E2F5E2E2E2E2E2E2E2E2E2E2E2F5E2E2E2E2E2E2E2E2F5E2E2E2E2E2E2E2F5E2E2E2E2E2E2E2F5E2E2E2E2E2E2F5E2F5F5F5E2E2E2E2E2E2E2E2E2
310
E2F5E2E2E2E2E2E2E2E2E2E2E2E2E2E2E2E2E2E2E2E2E2E2E2E2E2E2E2E2E2E2E2E2E2E2E2E2F5E2E2E2E2F5EFF5E2E2E2E2F5E2E2E2E2E2E2E2E2E2E2E2F5E2E2E2E2E2E2E2E2F5E2E2E2E2E2E2E2F5E2E2E2E2E2E2E2F5E2E2E2E2E2E2F5E2F5F5F5E2E2E2E2E2E2E2E2E2E2F5E2E2E2E2E2E2E2E2E2E2E2E2E2E2E2E2E2
310
E2E2E2E2E2E2E2E2E2E2E2E2E2E2E2E2E2E2E2F5E2E2E2E2F5EFF5E2E2E2E2F5E2E2E2E2E2E2E2E2E2E2E2F5E2E2E2E2E2E2E2E2F5E2E2E2E2E2E2E2F5E2E2E2E2E2E2E2F5E2E2E2E2E2E2F5E2F5F5F5E2E2E2E2E2E2E2E2E2E2F5E2E2E2E2E2E2E2E2E2E2E2E2E2E2E2E2E2E2E2E2E2E2E2E2E2E2E2E2E2E2E2E2E2E2E2E2
310
F5E2E2E2E2F5EFF5E2E2F5E2F5E2E2E2E2E2E2E2E2E2E2E2F5E2E2E2E2E2E2E2E2F5E2E2E2E2E2E2E2F5E2E2E2E2E2E2E2F5E2E2E2E2E2E2F5E2F5F5F5E2E2E2E2E2E2E2E2E2E2F5E2E2E2E2E2E2E2E2E2E2E2E2E2E2E2E2E2E2E2E2E2E2E2E2E2E2E2E2E2E2E2E2E2E2E2E2F5E2F5E2E2F5EFF5E2E2F5E2F5E2E2E2E2E2E2
310
E2E2E2E2E2F5E2E2E2E2E2E2E2E2F5E2E2E2E2E2E2E2F5E2E2E2E2E2E2E2F5E2E2E2E2E2E2F5E2F5F5F5E2E2E2E2E2E2E2E2E2E2F5E2E2E2E2E2E2E2E2E2E2E2E2E2E2E2E2E2E2E2E2E2E2E2E2E2E2E2E2E2E2E2E2E2E2E2E2F5E2F5E2E2F5EFF5E2E2F5E2F5E2E2E2E2E2E2E2E2E2E2E2F5E2E2E2E2E2E2E2E2F5E2E2E2E2
310
E2E2E2F5E2E2E2E2E2E2E2F5E2E2E2E2E2E2F5E2F5F5F5F5F5F5F5F5F5F5F5F5F5F5F5F5F5F5F5F5F5F5F5F5F5F5F5F5F5F5F5F5F5F5E2E2E2E2E2E2E2E2E2E2E2E2E2E2E2E2F5E2F5E2E2F5EFF5E2E2F5E2F5E2E2E2E2E2E2E2E2E2E2E2F5E2E2E2E2E2E2E2E2F5E2E2E2E2E2E2E2F5E2E2E2E2E2E2E2F5E2E2E2E2E2E2F5
310
E2F5F5F5E2E2E2E2E2E2E2E2E2E2E2E2E2E2E2E2E2E2E2E2E2E2E2E2E2E2E2E2E2E2F5E2E2E2E2E2E2E2E2E2E2E2E2E2E2E2E2F5E2F5E2E2F5EFF5E2E2F5E2F5E2E2E2E2E2E2E2E2E2E2E2F5E2E2E2E2E2E2E2E2F5E2E2E2E2E2E2E2F5E2E2E2E2E2E2E2F5E2E2E2E2E2E2F5E2F5F5F5E2E2E2E2E2E2E2E2E2E2E2E2E2E2E2
310
E2E2E2E2E2E2E2E2E2E2E2E2E2E2E2F5E2E2E2E2E2E2E2E2E2E2E2E2E2E2E2E2F5E2F5E2E2F5EFF5E2E2F5E2F5E2E2E2E2E2E2E2E2E2E2E2F5E2E2E2E2F5F5F5F5F5F5F5E2E2E2E2E2F5E2E2E2E2E2E2E2F5E2E2E2E2E2E2F5E2F5F5F5E2E2E2E2E2E2E2E2E2E2E2E2E2E2E2E2E2E2E2E2E2E2E2E2E2E2E2E2E2E2F5E2E2E2
310
E2E2E2E2E2E2E2E2E2E2E2E2E2F5E2F5E2E2F5EFF5E2E2F5E2F5E2E2E2E2E2E2E2E2E2E2E2F5E2E2E2E2E2F5F5F5F5F5E2E2E2E2E2E2F5F5E2E2E2E2E2E2F5E2E2E2E2E2E2F5E2F5F5F5E2E2E2E2E2E2E2E2E2E2E2E2E2E2E2E2E2E2E2E2E2E2E2E2E2E2E2E2E2E2F5E2E2E2E2E2E2E2E2E2E2E2E2E2E2E2E2F5E2F5E2E2F5
310
EFF5E2E2F5E2F5E2E2E2E2E2E2E2E2E2E2E2F5E2E2E2E2E2E2E2E2E2E2E2E2E2E2E2E2F5F5F5F5F5F5F5F5F5F5F5F5F5F5F5F5F5F5F5F5E2E2E2E2E2E2E2E2E2E2E2E2E2E2E2E2E2E2E2E2E2E2E2E2E2E2E2E2E2E2F5E2E2E2E2E2E2E2E2E2E2E2E2E2E2E2E2F5E2F5E2E2F5EFF5E2E2F5E2F5E2E2E2E2E2E2E2E2E2E2E2F5
310
E2E2E2E2E2E2E2E2F5E2E2E2E2E2E2E2F5F5E2E2E2E2E2E2F5E2E2E2E2E2E2F5F5F5F5F5E2E2F5F5F5F5F5F5F5F5F5F5F5F5F5F5E2E2E2E2E2E2E2E2E2E2E2E2E2E2F5E2E2E2E2E2E2E2E2E2E2E2E2E2E2E2E2F5E2F5E2E2F5EFF5E2E2F5E2F5E2E2E2E2E2E2E2E2E2E2E2F5E2E2E2E2E2E2E2E2F5E2E2E2E2E2E2E2F5E2E2
310
E2E2E2E2E2F5E2E2E2E2E2E2F5F5F5F5F5F5F5E2E2E2E2E2E2E2E2E2E2E2E2E2E2E2E2E2E2E2E2E2E2E2E2E2E2E2E2F5E2E2E2E2E2E2E2E2E2E2E2E2E2E2E2E2F5E2F5E2E2F5EFF5E2E2F5E2F5E2E2E2E2E2E2E2E2E2E2E2F5E2E2E2E2E2E2E2E2F5E2E2E2E2E2E2E2F5E2E2E2E2E2E2E2F5F5E2E2E2E2E2F5F5F5F5F5F5E2
310
E2E2E2E2E2E2E2E2E2E2E2E2E2E2E2E2E2E2E2E2E2E2E2E2E2E2E2E2F5E2E2E2E2E2E2E2E2E2E2E2E2E2E2E2E2F5E2F5E2E2F5EFF5E2E2F5E2F5E2E2E2E2E2E2E2E2E2E2E2F5E2E2E2E2E2E2E2E2F5E2E2E2E2E2E2E2F5E2E2E2E2E2E2E2F5F5F5F5F5F5F5F5F5F5F5F5F5E2E2E2E2E2E2E2E2E2E2E2E2E2E2E2E2E2E2E2E2
310
E2E2E2E2E2E2E2E2E2F5E2E2E2E2E2E2E2E2E2E2E2E2E2E2E2E2F5E2F5E2E2F5EFF5E2E2F5E2F5E2E2E2E2E2E2E2E2E2F5F5F5F5E2E2E2E2E2E2E2F5E2E2E2E2E2E2E2F5E2E2E2E2E2E2E2F5F5E2E2E2E2E2F5F5F5F5F5F5E2E2E2E2E2E2E2E2E2E2E2E2E2E2E2E2E2E2E2E2E2E2E2E2E2E2E2E2E2F5E2E2E2E2E2E2E2E2E2
310
E2E2E2E2E2E2E2F5E2F5E2E2F5EFF5E2E2F5E2F5E2E2E2E2E2E2E2F5F5F5F5F5F5F5F5F5E2E2E2E2F5E2E2E2E2E2E2E2F5E2E2E2E2E2E2E2F5E2E2E2E2E2E2F5E2F5F5F5F5E2E2E2E2E2E2E2E2E2E2E2E2E2E2E2E2E2E2E2E2E2E2E2E2E2E2E2E2E2F5E2E2E2E2E2E2E2E2E2E2E2E2E2E2E2E2F5E2F5E2E2F5EFF5E2E2F5E2
310
F5E2E2E2E2E2E2E2E2E2E2E2F5E2E2E2E2E2E2E2E2F5E2E2E2E2E2E2E2F5E2E2E2E2E2E2E2F5E2E2E2E2E2E2F5F5F5F5F5F5E2E2E2E2E2E2E2E2E2E2E2E2E2E2E2E2E2E2E2E2E2E2E2E2E2E2E2E2E2F5E2E2E2E2E2E2E2E2E2E2E2E2E2E2E2E2F5E2F5E2E2F5EFF5E2E2F5E2F5E2E2E2E2E2E2E2E2E2E2E2F5E2E2E2E2E2E2
310
E2E2F5E2E2E2E2E2E2E2F5E2E2E2E2E2E2E2F5E2E2E2E2E2E2F5F5F5F5F5F5E2E2E2E2E2E2E2E2E2E2E2E2E2E2E2E2E2E2E2E2E2E2E2E2E2E2E2E2E2F5E2E2E2E2E2E2E2E2E2E2E2E2E2E2E2E2F5E2F5E2E2F5EFF5E2E2F5E2F5E2E2E2E2E2E2E2E2E2E2E2F5E2E2E2E2E2E2E2E2F5E2E2E2E2E2E2E2F5E2E2E2E2E2E2E2F5
310
E2E2E2E2E2E2F5F5F5F5F5F5E2E2E2E2E2E2E2E2E2E2E2E2E2E2E2E2E2E2E2E2E2E2E2E2E2E2E2E2E2F5E2E2E2E2E2E2E2E2E2E2E2E2E2E2E2E2F5E2F5E2E2F5EFF5E2E2E2E2F5E2E2E2E2E2E2E2E2E2E2E2F5E2E2E2E2E2E2E2E2F5E2E2E2E2E2E2E2F5E2E2E2E2E2E2E2F5E2E2E2E2E2E2F5F5F5F5F5F5E2E2E2E2E2E2E2
310
E2E2E2E2E2E2E2E2E2E2E2E2E2E2E2E2E2E2E2E2E2E2F5E2E2E2E2E2E2E2E2E2E2E2E2E2E2E2E2F5E2E2E2E2F5EFF5E2E2E2E2F5E2E2E2E2E2E2E2E2E2E2E2F5E2E2E2E2E2E2E2E2F5E2E2E2E2E2E2E2F5E2E2E2E2E2E2E2F5E2E2E2E2E2E2F5F5F5F5F5F5E2E2E2E2E2E2E2E2E2E2E2E2E2E2E2E2E2E2E2E2E2E2E2E2E2E2
310
E2E2E2F5E2E2E2E2E2E2E2E2E2E2E2E2E2E2E2E2F5E2E2E2E2F5EFF5E2E2E2E2F5E2E2E2E2E2E2E2E2E2E2E2F5E2E2E2E2E2E2E2E2F5E2E2E2E2E2E2E2F5E2E2E2E2E2E2E2F5E2E2E2E2E2E2F5F5F5F5F5F5E2E2E2E2E2E2E2E2E2E2E2E2E2E2E2E2E2E2E2E2E2E2E2E2E2E2E2E2E2F5E2E2E2E2E2E2E2E2E2E2E2E2E2E2E2
310
E2F5E2E2E2E2F5EFF5E2E2E2E2F5E2E2E2E2E2E2E2E2E2E2E2F5E2E2E2E2E2E2E2E2F5E2E2E2E2E2E2E2F5E2E2E2E2E2E2E2F5E2E2E2E2E2E2F5F5F5F5F5F5E2E2E2E2E2E2E2E2E2E2E2E2E2E2E2E2E2E2E2E2E2E2E2E2E2E2E2E2E2F5E2E2E2E2E2E2E2E2E2E2E2E2E2E2E2E2F5E2E2E2E2F5EFF5E2E2E2E2F5E2E2E2E2E2
310
E2E2E2E2E2E2F5E2E2E2E2E2E2E2E2F5E2E2E2E2E2E2E2F5E2E2E2E2E2E2E2F5E2E2E2E2E2E2F5F5F5F5F5F5F5E2E2E2E2E2E2E2E2E2E2E2E2E2E2E2E2E2E2E2E2E2E2E2E2E2E2E2E2F5E2E2E2E2E2E2E2E2E2E2E2E2E2E2E2E2F5E2E2E2E2F5EFF5E2E2E2E2F5E2E2E2E2E2E2E2E2E2E2E2F5E2E2E2E2E2E2E2E2F5E2E2E2
310
E2E2E2E2F5E2E2E2E2E2E2E2F5E2E2E2E2E2E2F5F5F5F5F5F5F5E2E2E2E2E2E2E2E2E2E2E2E2E2E2E2E2E2E2E2E2E2E2E2E2E2E2E2E2F5E2E2E2E2E2E2E2E2E2E2E2E2E2E2E2E2F5E2E2E2E2F5EFF5E2E2E2E2F5E2E2E2E2E2E2E2E2E2E2E2F5E2E2E2E2E2E2E2E2F5E2E2E2E2E2E2E2F5E2E2E2E2E2E2E2F5E2E2E2E2E2E2
310
F5F5F5F5E2F5F5E2E2E2E2E2E2E2E2E2E2E2E2E2E2E2E2E2E2E2E2E2E2E2E2E2E2E2E2F5E2E2E2E2E2E2E2E2E2E2E2E2E2E2E2E2F5E2E2E2E2F5EFF5E2E2E2E2F5E2E2E2E2E2E2E2E2E2E2E2F5E2E2E2E2E2E2E2E2F5E2E2E2E2E2E2E2F5E2E2E2E2E2E2E2F5E2E2E2E2E2E2F5F5F5F5E2F5F5E2E2E2E2E2E2E2E2E2E2E2E2
310
E2E2E2E2E2E2E2E2E2E2E2E2E2E2E2E2F5E2E2E2E2E2E2E2E2E2E2E2E2E2E2E2E2F5E2E2E2E2F5EFF5E2E2E2E2F5E2E2E2E2E2E2E2E2E2E2E2F5E2E2E2E2E2E2E2E2F5E2E2E2E2E2E2E2F5E2E2E2E2E2E2E2F5E2E2E2E2E2E2F5F5F5F5E2F5F5E2E2E2E2E2E2E2E2E2E2E2E2E2E2E2E2E2E2E2E2E2E2E2E2E2E2E2E2F5E2E2
310
E2E2E2E2E2E2E2E2E2E2E2E2E2E2F5E2E2E2E2F5EFF5E2E2F5E2F5E2E2E2E2E2E2E2E2E2E2E2F5E2E2E2E2E2E2E2E2F5E2E2E2E2E2E2E2F5E2E2E2E2E2E2E2F5E2E2E2E2E2E2F5F5F5F5E2F5F5E2E2E2E2E2E2E2E2E2E2E2E2E2E2E2E2E2E2E2E2E2E2E2E2E2E2E2E2F5E2E2E2E2E2E2E2E2E2E2E2E2E2E2E2E2F5E2F5E2E2
310
F5EFF5E2E2F5E2F5E2E2E2E2E2E2E2E2E2E2E2F5E2E2E2E2E2E2E2E2F5E2E2E2E2E2E2E2F5E2E2E2E2E2E2E2F5E2E2E2E2E2E2F5F5F5F5E2F5F5E2E2E2E2E2E2E2E2E2E2E2E2E2E2E2E2E2E2E2E2E2E2E2E2E2E2E2E2F5E2E2E2E2E2E2E2E2E2E2E2E2E2E2E2E2F5E2F5E2E2F5EFF5E2E2F5E2F5E2E2E2E2E2E2E2E2E2E2E2
310
F5E2E2E2E2E2E2E2E2F5E2E2E2E2E2E2E2F5E2E2E2E2E2E2E2F5E2E2E2E2E2E2F5F5F5F5F5F5F5F5F5F5F5F5F5F5F5F5F5F5F5F5F5F5F5F5E2E2E2E2E2E2E2E2E2E2E2F5E2E2E2E2E2E2E2E2E2E2E2E2E2E2E2E2F5E2F5E2E2F5EFF5E2E2F5E2F5E2E2E2E2E2E2E2E2E2E2E2F5E2E2E2E2E2E2E2E2F5E2E2E2E2E2E2E2F5E2
310
E2E2E2E2E2E2F5E2E2E2E2E2E2F5F5F5F5E2F5F5E2E2E2E2E2E2E2E2E2E2E2E2E2E2E2E2E2E2E2E2E2E2E2E2E2E2E2E2F5E2E2E2E2E2E2E2E2E2E2E2E2E2E2E2E2F5E2F5E2E2F5EFF5E2E2F5E2F5E2E2E2E2E2E2E2E2E2E2E2F5E2E2E2E2E2E2E2E2F5E2E2E2E2E2E2E2F5E2E2E2E2E2E2E2F5E2E2E2E2E2E2F5F5F5F5E2F5
310
F5E2E2E2E2E2E2E2E2E2E2E2E2E2E2E2E2E2E2E2E2E2E2E2E2E2E2E2E2F5E2E2E2E2E2E2E2E2E2E2E2E2E2E2E2E2F5E2F5E2E2F5EFF5E2E2F5E2F5E2E2E2E2E2E2E2E2E2E2E2F5E2E2E2E2E2E2E2E2F5E2E2E2E2E2E2E2F5E2E2E2E2E2E2E2F5E2E2E2E2E2E2F5F5F5F5F5F5F5E2E2E2E2E2E2E2E2E2E2E2E2E2E2E2E2E2E2
310
E2E2E2E2E2F5F5F5F5F5F5F5F5F5F5E2E2E2E2E2E2E2E2E2E2E2E2F5E2F5E2E2F5EFF5E2E2F5E2F5E2E2E2E2E2E2E2E2E2E2E2F5E2E2E2E2E2E2E2E2F5E2E2E2E2E2E2E2F5E2E2E2E2E2E2E2F5E2E2E2E2E2E2F5F5F5F5F5F5F5E2E2E2E2E2E2E2E2E2E2E2E2E2E2E2E2E2E2E2E2E2E2E2E2E2E2F5F5F5F5E2E2E2E2E2E2E2
310
E2E2E2E2E2E2E2E2F5E2F5E2E2F5EFF5E2E2F5E2F5E2E2E2E2E2E2E2E2E2E2E2F5E2E2E2E2E2E2E2E2F5E2E2E2E2E2E2E2F5E2E2E2F5F5F5F5F5F5F5F5F5E2E2F5F5F5F5E2E2F5F5E2E2E2E2E2E2E2E2E2E2E2E2E2E2E2E2E2E2E2E2E2E2E2F5F5F5F5F5F5F5F5E2E2E2E2E2E2E2E2E2E2E2E2E2F5E2F5E2E2F5EFF5E2E2F5
310
E2F5E2E2E2E2E2E2E2E2E2E2E2F5E2E2E2E2E2E2E2E2F5E2E2E2E2F5F5F5F5F5F5E2E2E2E2E2E2E2E2E2E2E2E2F5F5F5F5E2E2F5F5E2E2E2E2E2E2E2E2E2E2E2E2E2E2E2E2E2E2E2E2E2E2E2F5F5F5F5F5F5F5F5E2E2E2E2E2E2E2E2E2E2E2E2E2F5E2F5E2E2F5EFF5E2E2F5E2F5E2E2E2E2E2E2E2E2E2E2E2F5E2E2E2E2E2
310
E2E2E2F5E2E2E2E2E2F5F5F5F5F5E2E2E2E2F5F5F5E2E2E2E2E2F5F5F5F5E2E2F5F5E2E2E2E2E2F5F5F5F5F5F5F5F5F5F5F5F5F5E2E2E2E2E2E2E2E2E2F5E2E2E2E2E2E2E2E2E2E2E2E2E2E2E2E2F5E2F5E2E2F5EFF5E2E2F5E2F5E2E2E2E2E2E2E2E2E2E2E2F5E2E2E2E2E2E2E2E2F5E2E2E2E2E2E2E2F5E2E2E2F5F5F5F5
310
F5F5F5F5F5E2E2F5F5F5F5E2E2F5F5E2E2F5F5F5F5E2E2E2E2E2E2E2E2E2E2E2E2E2E2E2E2E2E2E2E2E2F5E2E2E2E2E2E2E2E2E2E2E2E2E2E2E2E2F5E2F5E2E2F5EFF5E2E2F5E2F5E2E2E2E2E2E2E2E2E2E2E2F5E2E2E2E2E2E2E2E2F5E2E2E2E2E2E2E2F5E2E2E2E2E2E2E2F5E2E2E2E2E2E2F5F5F5F5E2E2F5F5F5F5E2E2
310
E2E2E2E2E2E2E2E2E2E2E2E2E2E2E2E2E2E2E2E2E2E2E2F5E2E2E2E2E2E2E2E2E2E2E2E2E2E2E2E2F5E2F5E2E2F5EFF5E2E2F5E2F5E2E2E2E2E2E2E2E2E2E2E2F5E2E2E2E2E2E2E2E2F5E2E2E2E2E2E2E2F5E2E2E2E2E2E2E2F5E2E2E2E2E2E2F5E2F5F5E2E2F5F5E2E2E2E2E2E2E2E2E2E2E2E2E2E2E2E2E2E2E2E2E2E2E2
310
E2E2E2E2F5E2E2E2E2E2E2E2E2E2E2E2E2E2E2E2E2F5E2F5E2E2F5EFF5E2E2F5E2F5E2E2E2E2E2E2E2E2E2E2E2F5E2E2E2E2E2E2E2E2F5E2E2E2E2E2E2E2F5E2E2E2E2E2E2E2F5E2E2E2E2E2E2F5F5F5F5E2E2F5F5E2E2E2E2E2E2E2E2E2E2E2E2E2E2E2E2E2E2E2E2E2E2E2E2E2E2E2F5E2E2E2E2E2E2E2E2E2E2E2E2E2E2
310
E2E2F5E2F5E2E2F5EFF5E2E2F5E2F5E2E2E2E2E2E2E2E2E2E2E2F5E2E2E2E2E2E2E2E2F5E2E2E2E2E2E2E2F5E2E2E2E2E2E2E2F5E2E2E2E2E2E2F5F5F5F5F5F5F5F5E2E2E2E2E2E2E2E2E2E2E2E2E2E2E2E2E2E2E2E2E2E2E2E2E2E2E2F5E2E2E2E2E2E2E2E2E2E2E2E2E2E2E2E2F5E2F5E2E2F5EFF5E2E2F5E2F5E2E2E2E2
310
E2E2E2E2E2E2E2F5E2E2E2E2E2E2E2E2F5E2E2E2E2E2E2E2F5E2E2E2E2E2E2E2F5E2E2E2E2E2E2F5F5F5F5F5F5F5F5E2E2E2E2E2E2E2E2E2E2E2E2E2E2E2E2E2E2E2E2E2E2E2E2E2E2E2F5E2E2E2E2E2E2E2E2E2E2E2E2E2E2E2E2F5E2F5E2E2F5EFF5E2E2F5E2F5E2E2E2E2E2E2E2E2E2E2E2F5E2E2E2E2E2E2E2E2F5E2E2
310
E2E2E2E2E2F5E2E2E2E2E2E2E2F5E2E2E2E2E2E2F5F5F5F5E2E2F5F5E2E2E2E2E2E2E2E2E2E2E2E2E2E2E2E2E2E2E2E2E2E2E2E2E2E2E2F5E2E2E2E2E2E2E2E2E2E2E2E2E2E2E2E2F5E2F5E2E2F5EFF5E2E2E2E2F5E2E2E2E2E2E2E2E2E2E2E2F5E2E2E2E2E2E2E2E2F5E2E2E2E2E2E2E2F5E2E2E2E2E2E2E2F5E2E2E2E2E2
310
E2F5F5F5F5E2E2F5F5F5E2E2E2E2E2E2E2E2E2E2E2E2E2E2E2E2E2E2E2E2E2E2E2E2E2E2F5E2E2E2E2E2E2E2E2E2E2E2E2E2E2E2E2F5E2E2E2E2F5EFF5E2E2E2E2F5E2E2E2E2E2E2E2E2E2E2E2F5E2E2E2E2E2E2E2E2F5E2E2E2E2E2E2E2F5E2E2E2E2E2E2E2F5E2E2E2E2E2E2F5F5F5F5E2E2F5F5E2F5F5E2E2F5F5F5F5F5
310
F5F5F5F5E2E2E2E2E2E2E2E2E2E2E2E2E2F5E2E2E2E2E2E2E2E2E2E2E2E2E2E2E2E2F5E2E2E2E2F5EFF5E2E2E2E2F5E2E2E2E2E2E2E2E2E2E2E2F5E2E2E2E2E2E2E2E2F5E2E2E2E2E2E2E2F5E2E2E2E2E2E2E2F5E2E2E2E2E2E2F5F5F5F5E2E2E2F5F5E2E2F5F5F5F5F5F5F5F5F5F5E2E2E2E2E2E2E2E2E2E2E2E2E2E2F5E2
310
E2E2E2E2E2E2E2E2E2E2E2E2E2E2E2F5E2E2E2E2F5EFF5E2E2E2E2F5E2E2E2E2E2E2E2E2E2E2E2F5E2E2E2E2E2E2E2E2F5E2E2E2E2E2E2E2F5E2E2E2E2E2E2E2F5E2E2E2E2E2E2F5F5F5F5E2E2E2F5F5E2E2E2E2E2E2E2E2E2E2E2E2E2E2E2E2E2E2E2E2E2E2E2E2E2E2F5E2E2E2E2E2E2E2E2E2E2E2E2E2E2E2E2F5E2E2E2
310
E2F5EFF5E2E2E2E2F5E2E2E2E2E2E2E2E2E2E2E2F5E2E2E2E2E2E2E2E2F5E2E2E2E2E2E2E2F5E2E2E2E2E2E2E2F5E2E2E2E2E2E2F5F5F5F5E2E2E2F5F5E2E2E2E2E2E2E2E2E2E2E2E2E2E2E2E2E2E2E2E2E2E2E2E2E2E2F5E2E2E2E2E2E2E2E2E2E2E2E2E2E2E2E2F5E2E2E2E2F5EFF5E2E2E2E2F5E2E2E2E2E2E2E2E2E2E2
310
E2F5E2E2E2E2E2E2E2E2F5E2E2E2E2E2E2E2F5E2E2E2E2E2E2E2F5E2E2E2E2E2E2F5F5F5F5E2E2E2F5F5E2E2E2E2E2E2E2E2E2E2E2E2E2E2E2E2E2E2E2E2E2E2E2E2E2E2F5E2E2E2E2E2E2E2E2E2E2E2E2E2E2E2E2F5E2E2E2E2F5EFF5E2E2E2E2F5E2E2E2E2E2E2E2E2E2E2E2F5E2E2E2E2E2E2E2E2F5E2E2E2E2E2E2E2F5
310
E2E2E2E2E2E2E2F5E2E2E2E2E2E2F5F5F5F5E2E2E2F5F5E2E2E2E2E2E2E2E2E2E2E2E2E2E2E2E2E2E2E2E2E2E2E2E2E2E2F5E2E2E2E2E2E2E2E2E2E2E2E2E2E2E2E2F5E2E2E2E2F5EFF5E2E2E2E2F5E2E2E2E2E2E2E2E2E2E2E2F5E2E2E2E2E2E2E2E2F5E2E2E2E2E2E2E2F5E2E2E2E2E2E2E2F5E2E2E2E2E2E2F5F5F5F5E2
310
E2E2F5F5E2E2E2E2E2E2E2E2E2E2E2E2E2E2E2E2E2E2E2E2E2E2E2E2E2E2F5E2E2E2E2E2E2E2E2E2E2E2E2E2E2E2E2F5E2E2E2E2F5EFF5E2E2E2E2F5E2E2E2E2E2E2E2E2E2E2E2F5E2E2E2E2E2E2E2E2F5E2E2E2E2E2E2E2F5E2E2E2E2E2E2E2F5E2E2E2E2E2E2F5F5F5F5E2E2E2F5F5E2E2E2E2E2E2E2E2E2E2E2E2E2E2E2
310
E2E2E2E2E2E2E2E2E2E2E2F5E2E2E2E2E2E2E2E2E2E2E2E2E2E2E2E2F5E2E2E2E2F5EFF5E2E2F5E2F5E2E2E2E2E2E2E2E2E2E2E2F5E2E2E2E2E2E2E2E2F5E2E2E2E2E2E2E2F5E2E2E2E2E2E2E2F5E2E2E2E2E2E2F5F5F5F5F5F5F5F5F5E2E2E2E2E2E2E2E2E2E2E2E2E2E2E2E2E2E2E2E2E2E2E2E2E2E2F5E2E2E2E2E2E2E2
310
E2E2E2E2E2E2E2E2E2F5E2F5E2E2F5EFF5E2E2F5E2F5E2E2E2E2E2E2E2E2E2E2E2F5E2E2E2E2E2E2E2E2F5E2E2E2E2E2E2E2F5E2E2E2E2E2E2E2F5E2E2E2E2E2E2F5F5F5F5F5F5F5F5F5E2E2E2E2E2E2E2E2E2E2E2E2E2E2E2E2E2E2E2E2E2E2E2E2E2E2F5E2E2E2E2E2E2E2E2E2E2E2E2E2E2E2E2F5E2F5E2E2F5EFF5E2E2
310
F5E2F5E2E2E2E2E2E2E2E2E2E2E2F5E2E2E2E2E2E2E2E2F5E2E2E2E2E2E2E2F5E2E2E2E2E2E2E2F5E2E2E2E2E2E2F5F5F5F5E2E2E2F5F5E2E2E2E2E2E2E2E2E2E2E2E2E2E2E2E2E2E2E2E2E2E2E2E2E2E2F5E2E2E2E2E2E2E2E2E2E2E2E2E2E2E2E2F5E2F5E2E2F5EFF5E2E2F5E2F5E2E2E2E2E2E2E2E2E2E2E2F5E2E2E2E2
310
E2E2E2E2F5E2E2E2E2E2E2E2F5E2E2E2E2E2E2E2F5E2E2E2E2E2E2F5F5F5F5E2E2E2F5F5E2E2E2E2E2E2E2E2E2E2E2E2E2E2E2E2E2E2E2E2E2E2E2E2E2E2F5E2E2E2E2E2E2E2E2E2E2E2E2E2E2E2E2F5E2F5E2E2F5EFF5E2E2F5E2F5E2E2E2E2E2E2E2E2E2E2E2F5E2E2E2E2E2E2E2E2F5E2E2E2E2E2E2E2F5E2E2E2E2E2E2
310
E2F5E2E2E2E2E2E2F5F5F5F5E2F5F5F5F5E2E2E2E2E2E2E2E2E2E2E2E2E2E2E2E2E2E2E2E2E2E2E2E2E2E2F5E2E2E2E2E2E2E2E2E2E2E2E2E2E2E2E2F5E2F5E2E2F5EFF5E2E2F5E2F5E2E2E2E2E2E2E2E2E2E2E2F5E2E2E2E2E2E2E2E2F5E2E2E2E2E2E2E2F5E2E2E2E2E2E2E2F5E2E2E2E2E2E2F5F5F5F5E2F5F5F5F5F5F5
310
F5F5F5F5F5F5F5F5F5F5F5F5E2E2E2E2E2E2E2E2E2E2E2E2F5E2E2E2E2E2E2E2E2E2E2E2E2E2E2E2E2F5E2F5E2E2F5EFF5E2E2F5E2F5E2E2E2E2E2E2E2E2E2E2E2F5E2E2E2E2E2E2E2E2F5E2E2E2E2E2E2E2F5E2E2E2E2E2E2E2F5F5E2E2E2E2E2F5F5F5F5F5F5F5F5F5F5F5E2E2E2E2E2E2E2E2E2E2E2E2E2E2E2E2E2E2E2
310
E2E2E2E2E2F5E2E2E2E2E2E2E2E2E2E2E2E2E2E2E2E2F5E2F5E2E2F5EFF5E2E2F5E2F5E2E2E2E2E2E2E2E2E2E2E2F5E2E2E2E2E2E2E2E2F5E2E2E2E2E2E2E2F5E2E2E2E2E2E2E2F5F5F5F5F5F5F5F5F5F5F5F5F5F5F5F5F5E2E2E2E2E2E2E2E2E2E2E2E2E2E2E2E2E2E2E2E2E2E2E2E2E2F5E2E2E2E2E2E2E2E2E2E2E2E2E2
310
E2E2E2F5E2F5E2E2F5EFF5E2E2F5E2F5E2E2E2E2E2E2E2E2E2E2E2F5E2E2E2E2E2E2E2F5F5E2E2E2E2E2E2E2F5E2E2E2E2E2E2E2E2E2E2E2E2E2E2F5F5F5F5F5F5E2F5F5F5E2E2E2E2E2E2E2E2E2E2E2E2E2E2E2E2E2E2E2E2E2E2E2E2E2F5E2E2E2E2E2E2E2E2E2E2E2E2E2E2E2E2F5E2F5E2E2F5EFF5E2E2F5E2F5E2E2E2
310
E2E2E2E2E2E2E2E2F5E2E2E2E2E2E2E2F5F5F5F5F5F5F5F5F5F5F5F5F5F5F5F5F5F5F5F5F5F5F5F5F5F5F5F5F5F5F5E2F5F5E2E2E2E2E2E2E2E2E2E2E2E2E2E2E2E2E2E2E2E2E2E2E2E2E2F5E2E2E2E2E2E2E2E2E2E2E2E2E2E2E2E2F5E2F5E2E2F5EFF5E2E2F5E2F5E2E2E2E2E2E2E2E2E2E2E2F5E2E2E2E2E2E2E2E2E2E2
310
E2E2E2E2E2E2F5F5E2E2E2E2E2E2E2E2E2E2E2E2E2F5F5F5F5F5F5E2E2F5F5E2E2E2E2E2E2E2E2E2E2E2E2E2E2E2E2E2E2E2E2E2E2E2E2E2F5E2E2E2E2E2E2E2E2E2E2E2E2E2E2E2E2F5E2F5E2E2F5EFF5E2E2F5E2F5E2E2E2E2E2E2E2E2E2E2E2F5F5F5F5F5F5F5F5F5F5F5F5F5F5F5F5F5F5F5F5F5F5F5F5F5F5F5F5F5F5
310
F5F5F5F5F5F5F5F5F5F5F5F5F5F5F5F5F5F5F5F5F5F5F5F5F5F5F5F5F5F5F5F5F5F5F5F5F5F5E2E2E2E2E2E2E2E2E2E2E2E2E2E2E2E2F5E2F5E2E2F5EFF5E2E2F5E2F5E2E2E2E2E2E2E2E2E2E2E2E2E2E2E2E2E2E2E2E2E2E2E2E2E2E2E2E2E2E2E2E2E2E2E2E2E2E2E2E2E2E2E2F5F5F5F5F5F5E2F5F5F5F5F5F5F5F5F5F5
310
F5F5F5F5F5F5F5F5F5F5E2F5F5F5E2E2E2E2E2E2E2E2E2E2E2E2E2E2E2E2E2E2E2E2E2F5E2F5E2E2F5EFF5E2E2F5E2F5E2E2E2E2E2E2E2E2E2E2E2E2E2E2E2E2E2E2E2E2E2E2E2E2E2E2E2E2E2E2E2E2E2E2E2E2E2E2E2E2E2E2E2F5F5F5F5F5F5F5F5F5F5F5F5F5F5F5F5F5F5F5F5F5F5F5F5F5F5F5F5F5F5F5E2E2E2E2E2
310
E2E2E2E2E2E2E2E2E2E2E2E2E2E2E2E2F5E2F5E2E2F5EFF5E2E2F5E2F5E2E2E2E2E2E2E2E2E2E2E2E2E2E2E2E2E2E2E2E2E2E2E2E2E2E2E2E2E2E2E2E2E2E2E2E2E2E2E2E2E2E2E2E2E2E2E2E2E2E2E2E2E2E2E2F5E2E2E2E2E2E2E2E2E2E2E2E2E2E2E2E2E2E2E2E2E2E2E2E2E2E2E2E2E2E2E2E2E2E2E2E2E2E2E2F5E2F5
310
E2E2F5EFF5E2E2F5E2F5E2E2E2E2E2E2E2E2E2E2E2E2E2E2E2E2E2E2E2E2E2E2E2E2E2E2E2E2E2E2E2E2E2E2E2E2E2E2E2E2E2E2E2E2E2E2E2E2E2E2E2E2E2E2E2F5E2E2E2E2E2E2E2E2E2E2E2E2E2E2E2E2E2E2E2E2E2E2E2E2E2E2E2E2E2E2E2E2E2E2E2E2E2E2E2F5E2F5E2E2F5EFF5E2E2F5E2F5E2E2E2E2E2E2E2E2E2
310
E2E2E2E2E2E2E2E2E2E2E2E2E2E2E2E2E2E2E2E2E2E2E2E2E2E2E2E2E2E2E2E2E2E2E2E2E2E2E2E2E2E2E2E2E2E2E2F5E2E2E2E2E2E2E2E2E2E2E2E2E2E2E2E2E2E2E2E2E2E2E2E2E2E2E2E2E2E2E2E2E2E2E2E2E2E2F5E2F5E2E2F5EFF5E2E2E2E2F5E2E2E2E2E2E2E2E2E2E2E2E2E2E2E2E2E2E2E2E2E2E2E2E2E2E2E2E2
310
E2E2E2E2E2E2E2E2E2E2E2E2E2E2E2E2E2E2E2E2E2E2E2E2E2E2E2E2E2F5F5F5F5F5F5F5F5F5F5F5E2E2E2E2E2E2E2E2E2E2E2E2E2E2E2E2E2E2E2E2E2E2E2E2E2E2E2F5E2E2E2E2F5EFF5E2E2E2E2F5F5F5F5F5F5F5F5F5F5F5F5F5F5F5F5F5F5F5F5F5F5F5F5F5F5F5F5F5F5F5F5F5F5F5F5F5F5F5F5F5F5F5F5F5F5F5F5
310
F5F5F5F5F5F5F5F5F5F5F5F5F5F5F5F5F5F5F5F5F5F5F5F5F5F5F5F5F5F5F5F5F5F5F5F5F5F5F5F5F5F5F5F5F5F5F5F5F5E2E2E2E2F5EFF5E2E2E2E2E2E2E2E2E2E2E2E2E2E2E2E2E2E2E2E2E2E2E2E2E2E2E2E2E2E2E2E2E2E2E2E2E2E2E2E2E2E2E2E2E2E2E2E2E2E2E2E2E2E2E2E2E2E2E2E2E2E2E2E2E2E2E2E2E2E2E2
310
E2E2E2E2E2E2E2E2E2E2E2E2E2E2E2E2E2E2E2E2E2E2E2E2E2E2E2E2E2E2E2E2E2E2F5EFF5E2E2E2E2E2E2E2E2E2E2E2E2E2E2E2E2E2E2E2E2E2E2E2E2E2E2E2E2E2E2E2E2E2E2E2E2E2E2E2E2E2E2E2E2E2E2E2E2E2E2E2E2E2E2E2E2E2E2E2E2E2E2E2E2E2E2E2E2E2E2E2E2E2E2E2E2E2E2E2E2E2E2E2E2E2E2E2E2E2E2
310
E2E2E2E2E2E2E2E2E2E2E2E2E2E2E2F5EFF5E2E2E2E2E2E2E2E2E2E2E2E2E2E2E2E2E2E2E2E2E2E2E2E2E2E2E2E2E2E2E2E2E2E2E2E2E2E2E2E2E2E2E2E2E2E2E2E2E2E2E2E2E2E2E2E2E2E2E2E2E2E2E2E2E2E2E2E2E2E2E2E2E2E2E2E2E2E2E2E2E2E2E2E2E2E2E2E2E2E2E2E2E2E2E2E2E2E2E2E2E2E2E2E2E2F5EFF5E2
310
E2E2E2E2E2E2E2E2E2E2E2E2E2E2E2E2E2E2E2E2E2E2E2E2E2E2E2E2E2E2E2E2E2E2E2E2E2E2E2E2E2E2E2E2E2E2E2E2E2E2E2E2E2E2E2E2E2E2E2E2E2E2E2E2E2E2E2E2E2E2E2E2E2E2E2E2E2E2E2E2E2E2E2E2E2E2E2E2E2E2E2E2E2E2E2E2E2E2E2E2E2E2E2E2F5EFF5E2E2E2E2E2E2E2E2E2E2E2E2E2E2E2E2E2E2E2E2
310
E2E2E2E2E2E2E2E2E2E2E2E2E2E2E2E2E2E2E2E2E2E2E2E2E2E2E2E2E2E2E2E2E2E2E2E2E2E2E2E2E2E2E2E2E2E2E2E2E2E2E2E2E2E2E2E2E2E2E2E2E2E2E2E2E2E2E2E2E2E2E2E2E2E2E2E2E2E2E2E2E2E2E2E2E2F5EFF5E2E2E2E2E2E2E2E2E2E2E2E2E2E2E2E2E2E2E2E2E2E2E2E2E2E2E2E2E2E2E2E2E2E2E2E2E2E2E2
310
E2E2E2E2E2E2E2E2E2E2E2E2E2E2E2E2E2E2E2E2E2E2E2E2E2E2E2E2E2E2E2E2E2E2E2E2E2E2E2E2E2E2E2E2E2E2E2E2E2E2E2E2E2E2E2E2E2E2E2E2E2E2E2E2E2E2F5EFF5E2E2E2E2E2E2E2E2E2E2E2E2E2E2E2E2E2E2E2E2E2E2E2E2E2E2E2E2E2E2E2E2E2E2E2E2E2E2E2E2E2E2E2E2E2E2E2E2E2E2E2E2E2E2E2E2E2E2
310
E2E2E2E2E2E2E2E2E2E2E2E2E2E2E2E2E2E2E2E2E2E2E2E2E2E2E2E2E2E2E2E2E2E2E2E2E2E2E2E2E2E2E2E2E2E2E2F5EFF5E2E2F5E2E2E2E2E2E2E2E2E2E2E2E2E2E2E2E2E2E2E2E2E2E2E2E2E2E2E2E2E2E2E2E2E2E2E2E2E2E2E2E2E2E2E2E2E2E2E2E2E2E2E2E2E2E2E2E2E2E2E2E2E2E2E2E2E2E2E2E2E2E2E2E2E2E2
310
E2E2E2E2E2E2E2E2E2E2E2E2E2E2E2E2E2E2E2E2E2E2E2E2E2F5E2E2F5EFF5E2E2F5E2E2E2E2E2E2E2E2E2E2E2E2E2E2E2E2E2E2E2E2E2E2E2E2E2E2E2E2E2E2E2E2E2E2E2E2E2E2E2E2E2E2E2E2E2E2E2E2E2E2E2E2E2E2E2E2E2E2E2E2E2E2E2E2E2E2E2E2E2E2E2E2E2E2E2E2E2E2E2E2E2E2E2E2E2E2E2E2E2E2E2E2E2
310
E2E2E2E2E2E2F5E2E2F5EFF5E2E2F5E2E2E2E2E2E2E2E2E2E2E2E2E2E2E2E2E2E2E2E2E2E2E2E2E2E2E2E2E2E2E2E2E2E2E2E2E2E2E2E2E2E2E2E2E2E2E2E2E2E2E2E2E2E2E2E2E2E2E2E2E2E2E2E2E2E2E2E2E2E2E2E2E2E2E2E2E2E2E2E2E2E2E2E2E2E2E2E2E2E2E2E2E2E2E2E2E2E2E2F5E2E2F5EFF5E2E2F5E2E2E2E2
310
E2E2E2E2E2E2E2E2E2E2E2E2E2E2E2E2E2E2E2E2E2E2E2E2E2E2E2E2E2E2E2E2E2E2E2E2E2E2E2E2E2E2E2E2E2E2E2E2E2E2E2E2E2E2E2E2E2E2E2E2E2E2E2E2E2E2E2E2E2E2E2E2E2E2E2E2E2E2E2E2E2E2E2E2E2E2E2E2E2E2E2E2E2E2E2F5E2E2F5EFF5E2E2F5E2E2E2E2E2E2E2E2E2E2E2E2E2E2E2E2E2E2E2E2E2E2E2
310
E2E2E2E2E2E2E2E2E2E2E2E2E2E2E2E2E2E2E2E2E2E2E2E2E2E2E2E2E2E2E2E2E2E2E2E2E2E2E2E2E2E2E2E2E2E2E2E2E2E2E2E2E2E2E2E2E2E2E2E2E2E2E2E2E2E2E2E2E2E2E2E2E2E2E2E2F5E2E2F5EFF5E2E2F5E2E2E2E2E2E2E2E2E2E2E2E2E2E2E2E2E2E2E2E2E2E2E2E2E2E2E2E2E2E2E2E2E2E2E2E2E2E2E2E2E2E2
310
E2E2E2E2E2E2E2E2E2E2E2E2E2E2E2E2E2E2E2E2E2E2E2E2E2E2E2E2E2E2E2E2E2E2E2E2E2E2E2E2E2E2E2E2E2E2E2E2E2E2E2E2E2E2E2E2E2F5E2E2F5EFF5E2E2F5E2E2E2E2E2E2E2E2E2E2E2E2E2E2E2E2E2E2E2E2E2E2E2E2E2E2E2E2E2E2E2E2E2E2E2E2E2E2E2E2E2E2E2E2E2E2E2E2E2E2E2E2E2E2E2E2E2E2E2E2E2
310
E2E2E2E2E2E2E2E2E2E2E2E2E2E2E2E2E2E2E2E2E2E2E2E2E2E2E2E2E2E2E2E2E2E2E2E2E2E2F5E2E2F5EFF5E2E2F5E2E2E2E2E2E2E2E2E2E2E2E2E2E2E2E2E2E2E2E2E2E2E2E2E2E2E2E2E2E2E2E2E2E2E2E2E2E2E2E2E2E2E2E2E2E2E2E2E2E2E2E2E2E2E2E2E2E2E2E2E2E2E2E2E2E2E2E2E2E2E2E2E2E2E2E2E2E2E2E2
310
E2E2E2E2E2E2E2E2E2E2E2E2E2E2E2E2E2E2E2F5E2E2F5EFF5E2E2F5F5F5F5F5F5F5F5F5E2E2E2E2E2E2E2E2E2F5F5F5F5F5F5F5F5F5F5F5F5F5F5F5F5E2E2E2E2E2E2E2E2E2F5F5F5F5F5F5F5F5F5F5F5F5F5F5F5F5E2E2E2E2E2E2E2E2E2F5F5F5F5F5F5F5F5F5F5F5F5F5F5F5F5E2E2E2E2E2E2E2E2E2F5F5F5F5F5F5F5
310
F5E2E2F5EFF5E2E2E2E2E2E2E2E2E2E2E2E2E2E2E2E2E2E2E2E2E2E2E2E2E2E2E2E2E2E2E2E2E2E2E2E2E2E2E2E2E2E2E2E2E2E2E2E2E2E2E2E2E2E2E2E2E2E2E2E2E2E2E2E2E2E2E2E2E2E2E2E2E2E2E2E2E2E2E2E2E2E2E2E2E2E2E2E2E2E2E2E2E2E2E2E2E2E2E2E2E2E2E2E2E2F5EFF5E2E2E2E2E2E2E2E2E2E2E2E2E2
310
E2E2E2E2E2E2E2E2E2E2E2E2E2E2E2E2E2E2E2E2E2E2E2E2E2E2E2E2E2E2E2E2E2E2E2E2E2E2E2E2E2E2E2E2E2E2E2E2E2E2E2E2E2E2E2E2E2E2E2E2E2E2E2E2E2E2E2E2E2E2E2E2E2E2E2E2E2E2E2E2E2E2E2E2E2E2E2E2E2E2E2E2F5EFF5E2E2E2E2E2E2E2E2E2E2E2E2E2E2E2E2E2E2E2E2E2E2E2E2E2E2E2E2E2E2E2E2
310
E2E2E2E2E2E2E2E2E2E2E2E2E2E2E2E2E2E2E2E2E2E2E2E2E2E2E2E2E2E2E2E2E2E2E2E2E2E2E2E2E2E2E2E2E2E2E2E2E2E2E2E2E2E2E2E2E2E2E2E2E2E2E2E2E2E2E2E2E2E2E2E2E2F5EFF5F5F5F5F5F5F5F5F5F5F5F5F5F5F5F5F5F5F5F5F5F5F5F5F5F5F5F5F5F5F5F5F5F5F5F5F5F5F5F5F5F5F5F5F5F5F5F5F5F5F5F5
310
F5F5F5F5F5F5F5F5F5F5F5F5F5F5F5F5F5F5F5F5F5F5F5F5F5F5F5F5F5F5F5F5F5F5F5F5F5F5F5F5F5F5F5F5F5F5F5F5F5F5F5F5F5F5F5
  0
ENDSEC
  0
EOF
