  0
SECTION
  2
HEADER
  9
$ACADVER
  1
AC1021
  9
$ACADMAINTVER
 70
     1
  9
$DWGCODEPAGE
  3
ANSI_1252
  9
$LASTSAVEDBY
  1
RSutcliffe
  9
$INSBASE
 10
299.1280711153836
 20
505.9361356312583
 30
0.0
  9
$EXTMIN
 10
-295.9105334007682
 20
80.69440375951694
 30
-0.0015258207003583
  9
$EXTMAX
 10
-89.30725392786996
 20
346.0413391968852
 30
0.0000000349246037
  9
$LIMMIN
 10
0.0
 20
0.0
  9
$LIMMAX
 10
12.0
 20
9.0
  9
$ORTHOMODE
 70
     0
  9
$REGENMODE
 70
     1
  9
$FILLMODE
 70
     1
  9
$QTEXTMODE
 70
     0
  9
$MIRRTEXT
 70
     1
  9
$LTSCALE
 40
1.0
  9
$ATTMODE
 70
     1
  9
$TEXTSIZE
 40
2.0
  9
$TRACEWID
 40
0.05
  9
$TEXTSTYLE
  7
WEB PAGE
  9
$CLAYER
  8
0
  9
$CELTYPE
  6
BYLAYER
  9
$CECOLOR
 62
   256
  9
$CELTSCALE
 40
1.0
  9
$DISPSILH
 70
     0
  9
$DIMSCALE
 40
1.0
  9
$DIMASZ
 40
3.0
  9
$DIMEXO
 40
2.0
  9
$DIMDLI
 40
1.0
  9
$DIMRND
 40
0.0
  9
$DIMDLE
 40
0.0
  9
$DIMEXE
 40
1.0
  9
$DIMTP
 40
0.0
  9
$DIMTM
 40
0.0
  9
$DIMTXT
 40
1.75
  9
$DIMCEN
 40
1.0
  9
$DIMTSZ
 40
0.0
  9
$DIMTOL
 70
     0
  9
$DIMLIM
 70
     0
  9
$DIMTIH
 70
     1
  9
$DIMTOH
 70
     1
  9
$DIMSE1
 70
     0
  9
$DIMSE2
 70
     0
  9
$DIMTAD
 70
     0
  9
$DIMZIN
 70
     0
  9
$DIMBLK
  1

  9
$DIMASO
 70
     1
  9
$DIMSHO
 70
     1
  9
$DIMPOST
  1

  9
$DIMAPOST
  1

  9
$DIMALT
 70
     0
  9
$DIMALTD
 70
     2
  9
$DIMALTF
 40
25.4
  9
$DIMLFAC
 40
1.0
  9
$DIMTOFL
 70
     0
  9
$DIMTVP
 40
0.0
  9
$DIMTIX
 70
     0
  9
$DIMSOXD
 70
     0
  9
$DIMSAH
 70
     0
  9
$DIMBLK1
  1

  9
$DIMBLK2
  1

  9
$DIMSTYLE
  2
STANDARD
  9
$DIMCLRD
 70
     0
  9
$DIMCLRE
 70
     0
  9
$DIMCLRT
 70
     0
  9
$DIMTFAC
 40
1.0
  9
$DIMGAP
 40
1.0
  9
$DIMJUST
 70
     0
  9
$DIMSD1
 70
     0
  9
$DIMSD2
 70
     0
  9
$DIMTOLJ
 70
     1
  9
$DIMTZIN
 70
     0
  9
$DIMALTZ
 70
     0
  9
$DIMALTTZ
 70
     0
  9
$DIMUPT
 70
     0
  9
$DIMDEC
 70
     4
  9
$DIMTDEC
 70
     4
  9
$DIMALTU
 70
     2
  9
$DIMALTTD
 70
     2
  9
$DIMTXSTY
  7
WEB PAGE
  9
$DIMAUNIT
 70
     0
  9
$DIMADEC
 70
     4
  9
$DIMALTRND
 40
0.0
  9
$DIMAZIN
 70
     1
  9
$DIMDSEP
 70
    46
  9
$DIMATFIT
 70
     3
  9
$DIMFRAC
 70
     0
  9
$DIMLDRBLK
  1

  9
$DIMLUNIT
 70
     4
  9
$DIMLWD
 70
    -2
  9
$DIMLWE
 70
    -2
  9
$DIMTMOVE
 70
     0
  9
$DIMFXL
 40
1.0
  9
$DIMFXLON
 70
     0
  9
$DIMJOGANG
 40
0.7853981633974483
  9
$DIMTFILL
 70
     0
  9
$DIMTFILLCLR
 70
     0
  9
$DIMARCSYM
 70
     0
  9
$DIMLTYPE
  6

  9
$DIMLTEX1
  6

  9
$DIMLTEX2
  6

  9
$LUNITS
 70
     4
  9
$LUPREC
 70
     4
  9
$SKETCHINC
 40
0.1
  9
$FILLETRAD
 40
0.0
  9
$AUNITS
 70
     0
  9
$AUPREC
 70
     3
  9
$MENU
  1
.
  9
$ELEVATION
 40
0.0
  9
$PELEVATION
 40
0.0
  9
$THICKNESS
 40
0.0
  9
$LIMCHECK
 70
     0
  9
$CHAMFERA
 40
0.5
  9
$CHAMFERB
 40
0.5
  9
$CHAMFERC
 40
1.0
  9
$CHAMFERD
 40
0.0
  9
$SKPOLY
 70
     1
  9
$TDCREATE
 40
2451409.294489352
  9
$TDUCREATE
 40
2451409.502822685
  9
$TDUPDATE
 40
2454083.476605174
  9
$TDUUPDATE
 40
2454083.684938507
  9
$TDINDWG
 40
1.1677875231
  9
$TDUSRTIMER
 40
1.1677875231
  9
$USRTIMER
 70
     1
  9
$ANGBASE
 50
0.0
  9
$ANGDIR
 70
     0
  9
$PDMODE
 70
     0
  9
$PDSIZE
 40
0.0
  9
$PLINEWID
 40
0.0
  9
$SPLFRAME
 70
     0
  9
$SPLINETYPE
 70
     6
  9
$SPLINESEGS
 70
     8
  9
$HANDSEED
  5
455D
  9
$SURFTAB1
 70
     6
  9
$SURFTAB2
 70
     6
  9
$SURFTYPE
 70
     6
  9
$SURFU
 70
     6
  9
$SURFV
 70
     6
  9
$UCSBASE
  2

  9
$UCSNAME
  2

  9
$UCSORG
 10
0.0
 20
0.0
 30
0.0
  9
$UCSXDIR
 10
1.0
 20
0.0
 30
0.0
  9
$UCSYDIR
 10
0.0
 20
1.0
 30
0.0
  9
$UCSORTHOREF
  2

  9
$UCSORTHOVIEW
 70
     0
  9
$UCSORGTOP
 10
0.0
 20
0.0
 30
0.0
  9
$UCSORGBOTTOM
 10
0.0
 20
0.0
 30
0.0
  9
$UCSORGLEFT
 10
0.0
 20
0.0
 30
0.0
  9
$UCSORGRIGHT
 10
0.0
 20
0.0
 30
0.0
  9
$UCSORGFRONT
 10
0.0
 20
0.0
 30
0.0
  9
$UCSORGBACK
 10
0.0
 20
0.0
 30
0.0
  9
$PUCSBASE
  2

  9
$PUCSNAME
  2

  9
$PUCSORG
 10
0.0
 20
0.0
 30
0.0
  9
$PUCSXDIR
 10
1.0
 20
0.0
 30
0.0
  9
$PUCSYDIR
 10
0.0
 20
1.0
 30
0.0
  9
$PUCSORTHOREF
  2

  9
$PUCSORTHOVIEW
 70
     0
  9
$PUCSORGTOP
 10
0.0
 20
0.0
 30
0.0
  9
$PUCSORGBOTTOM
 10
0.0
 20
0.0
 30
0.0
  9
$PUCSORGLEFT
 10
0.0
 20
0.0
 30
0.0
  9
$PUCSORGRIGHT
 10
0.0
 20
0.0
 30
0.0
  9
$PUCSORGFRONT
 10
0.0
 20
0.0
 30
0.0
  9
$PUCSORGBACK
 10
0.0
 20
0.0
 30
0.0
  9
$USERI1
 70
     0
  9
$USERI2
 70
     0
  9
$USERI3
 70
     0
  9
$USERI4
 70
     0
  9
$USERI5
 70
     0
  9
$USERR1
 40
0.0
  9
$USERR2
 40
0.0
  9
$USERR3
 40
0.0
  9
$USERR4
 40
0.0
  9
$USERR5
 40
0.0
  9
$WORLDVIEW
 70
     1
  9
$SHADEDGE
 70
     3
  9
$SHADEDIF
 70
    70
  9
$TILEMODE
 70
     1
  9
$MAXACTVP
 70
    48
  9
$PINSBASE
 10
0.0
 20
0.0
 30
0.0
  9
$PLIMCHECK
 70
     0
  9
$PEXTMIN
 10
-444.5861207219528
 20
-347.4200259237878
 30
0.0
  9
$PEXTMAX
 10
-436.7882727881392
 20
-337.1414877142713
 30
0.0
  9
$PLIMMIN
 10
-444.914936816329
 20
-347.7048673536224
  9
$PLIMMAX
 10
-436.4149370566249
 20
-336.7048675939183
  9
$UNITMODE
 70
     0
  9
$VISRETAIN
 70
     1
  9
$PLINEGEN
 70
     0
  9
$PSLTSCALE
 70
     1
  9
$TREEDEPTH
 70
  3020
  9
$CMLSTYLE
  2
STANDARD
  9
$CMLJUST
 70
     0
  9
$CMLSCALE
 40
1.0
  9
$PROXYGRAPHICS
 70
     1
  9
$MEASUREMENT
 70
     0
  9
$CELWEIGHT
370
    -1
  9
$ENDCAPS
280
     0
  9
$JOINSTYLE
280
     0
  9
$LWDISPLAY
290
     0
  9
$INSUNITS
 70
     1
  9
$HYPERLINKBASE
  1

  9
$STYLESHEET
  1

  9
$XEDIT
290
     1
  9
$CEPSNTYPE
380
     0
  9
$PSTYLEMODE
290
     1
  9
$FINGERPRINTGUID
  2
{FA58D727-120E-42BE-8B60-FFE027A29EF8}
  9
$VERSIONGUID
  2
{793DFFEB-3623-459B-92D0-C35D7620F5DA}
  9
$EXTNAMES
290
     1
  9
$PSVPSCALE
 40
0.0
  9
$OLESTARTUP
290
     0
  9
$SORTENTS
280
   127
  9
$INDEXCTL
280
     0
  9
$HIDETEXT
280
     0
  9
$XCLIPFRAME
290
     0
  9
$HALOGAP
280
     0
  9
$OBSCOLOR
 70
   257
  9
$OBSLTYPE
280
     0
  9
$INTERSECTIONDISPLAY
280
     0
  9
$INTERSECTIONCOLOR
 70
   257
  9
$DIMASSOC
280
     1
  9
$PROJECTNAME
  1

  9
$CAMERADISPLAY
290
     0
  9
$LENSLENGTH
 40
50.0
  9
$CAMERAHEIGHT
 40
0.0
  9
$STEPSPERSEC
 40
2.0
  9
$STEPSIZE
 40
6.0
  9
$3DDWFPREC
 40
2.0
  9
$PSOLWIDTH
 40
0.25
  9
$PSOLHEIGHT
 40
4.0
  9
$LOFTANG1
 40
1.570796326794896
  9
$LOFTANG2
 40
1.570796326794896
  9
$LOFTMAG1
 40
0.0
  9
$LOFTMAG2
 40
0.0
  9
$LOFTPARAM
 70
     7
  9
$LOFTNORMALS
280
     1
  9
$LATITUDE
 40
37.795
  9
$LONGITUDE
 40
-122.394
  9
$NORTHDIRECTION
 40
0.0
  9
$TIMEZONE
 70
 -8000
  9
$LIGHTGLYPHDISPLAY
280
     1
  9
$TILEMODELIGHTSYNCH
280
     1
  9
$CMATERIAL
347
4004
  9
$SOLIDHIST
280
     1
  9
$SHOWHIST
280
     1
  9
$DWFFRAME
280
     2
  9
$DGNFRAME
280
     0
  9
$REALWORLDSCALE
290
     1
  9
$INTERFERECOLOR
 62
     1
  9
$INTERFEREOBJVS
345
4011
  9
$INTERFEREVPVS
346
400E
  9
$CSHADOW
280
     0
  9
$SHADOWPLANELOCATION
 40
0.0
  0
ENDSEC
  0
SECTION
  2
CLASSES
  0
CLASS
  1
ACDBDICTIONARYWDFLT
  2
AcDbDictionaryWithDefault
  3
ObjectDBX Classes
 90
        0
 91
        1
280
     0
281
     0
  0
CLASS
  1
DICTIONARYVAR
  2
AcDbDictionaryVar
  3
ObjectDBX Classes
 90
        0
 91
        2
280
     0
281
     0
  0
CLASS
  1
MATERIAL
  2
AcDbMaterial
  3
ObjectDBX Classes
 90
     1024
 91
        3
280
     0
281
     0
  0
CLASS
  1
VISUALSTYLE
  2
AcDbVisualStyle
  3
ObjectDBX Classes
 90
     4095
 91
       16
280
     0
281
     0
  0
CLASS
  1
TABLESTYLE
  2
AcDbTableStyle
  3
ObjectDBX Classes
 90
     4095
 91
        1
280
     0
281
     0
  0
CLASS
  1
SORTENTSTABLE
  2
AcDbSortentsTable
  3
ObjectDBX Classes
 90
        0
 91
        2
280
     0
281
     0
  0
ENDSEC
  0
SECTION
  2
TABLES
  0
TABLE
  2
VPORT
  5
13
102
{ACAD_XDICTIONARY
360
43C0
102
}
330
0
100
AcDbSymbolTable
 70
     1
  0
VPORT
  5
4002
330
13
100
AcDbSymbolTableRecord
100
AcDbViewportTableRecord
  2
*Active
 70
     0
 10
0.0
 20
0.0
 11
1.0
 21
1.0
 12
-192.6088936643191
 22
213.3678714782011
 13
0.0
 23
0.0
 14
0.5
 24
0.5
 15
0.5
 25
0.5
 16
0.0
 26
0.0
 36
1.0
 17
0.0
 27
0.0
 37
0.0
 40
267.3959465218266
 41
1.542525773195876
 42
50.0
 43
0.0
 44
0.0
 50
90.0
 51
0.0
 71
     0
 72
   100
 73
     1
 74
     0
 75
     0
 76
     0
 77
     0
 78
     0
281
     0
 65
     1
110
0.0
120
0.0
130
0.0
111
1.0
121
0.0
131
0.0
112
0.0
122
1.0
132
0.0
 79
     0
146
0.0
348
400D
 60
     3
 61
     5
292
     1
282
     1
141
0.0
142
0.0
 63
   250
421
  3355443
  0
ENDTAB
  0
TABLE
  2
LTYPE
  5
E
330
0
100
AcDbSymbolTable
 70
     2
  0
LTYPE
  5
F
330
E
100
AcDbSymbolTableRecord
100
AcDbLinetypeTableRecord
  2
BYBLOCK
 70
     0
  3

 72
    65
 73
     0
 40
0.0
  0
LTYPE
  5
10
330
E
100
AcDbSymbolTableRecord
100
AcDbLinetypeTableRecord
  2
BYLAYER
 70
     0
  3

 72
    65
 73
     0
 40
0.0
  0
LTYPE
  5
5
330
E
100
AcDbSymbolTableRecord
100
AcDbLinetypeTableRecord
  2
CONTINUOUS
 70
     0
  3
Solid line
 72
    65
 73
     0
 40
0.0
  0
LTYPE
  5
8A
330
E
100
AcDbSymbolTableRecord
100
AcDbLinetypeTableRecord
  2
HIDDEN
 70
     0
  3
__ __ __ __ __ __ __ __ __ __ __ __ __ __ __ __
 72
    65
 73
     2
 40
0.375
 49
0.25
 74
     0
 49
-0.125
 74
     0
  0
ENDTAB
  0
TABLE
  2
LAYER
  5
A
102
{ACAD_XDICTIONARY
360
4418
102
}
330
0
100
AcDbSymbolTable
 70
    13
  0
LAYER
  5
4
330
A
100
AcDbSymbolTableRecord
100
AcDbLayerTableRecord
  2
0
 70
     0
 62
     7
  6
CONTINUOUS
370
    -3
390
1896
347
4006
  0
LAYER
  5
106
330
A
100
AcDbSymbolTableRecord
100
AcDbLayerTableRecord
  2
REVERSE-ANGLE
 70
     0
 62
     4
  6
CONTINUOUS
370
    -3
390
1896
347
4006
  0
LAYER
  5
11D
330
A
100
AcDbSymbolTableRecord
100
AcDbLayerTableRecord
  2
OUTSIDE
 70
     0
 62
     7
  6
CONTINUOUS
370
    -3
390
1896
347
4006
  0
LAYER
  5
A7
330
A
100
AcDbSymbolTableRecord
100
AcDbLayerTableRecord
  2
6
 70
     0
 62
   150
  6
CONTINUOUS
370
    -3
390
1896
347
4006
  0
LAYER
  5
2E
330
A
100
AcDbSymbolTableRecord
100
AcDbLayerTableRecord
  2
DEFPOINTS
 70
     0
 62
     7
  6
CONTINUOUS
290
     0
370
    -3
390
1896
347
4006
  0
LAYER
  5
15E
330
A
100
AcDbSymbolTableRecord
100
AcDbLayerTableRecord
  2
5
 70
     0
 62
   150
  6
CONTINUOUS
370
    -3
390
1896
347
4006
  0
LAYER
  5
169
330
A
100
AcDbSymbolTableRecord
100
AcDbLayerTableRecord
  2
HIDDEN
 70
     0
 62
     2
  6
HIDDEN
370
    -3
390
1896
347
4006
  0
LAYER
  5
6B
330
A
100
AcDbSymbolTableRecord
100
AcDbLayerTableRecord
  2
ANGLE
 70
     0
 62
     7
  6
CONTINUOUS
370
    -3
390
1896
347
4006
  0
LAYER
  5
21E
330
A
100
AcDbSymbolTableRecord
100
AcDbLayerTableRecord
  2
JAMB
 70
     0
 62
     1
  6
CONTINUOUS
370
    -3
390
1896
347
4006
  0
LAYER
  5
21F
330
A
100
AcDbSymbolTableRecord
100
AcDbLayerTableRecord
  2
UPPER-ANGLE
 70
     0
 62
     7
  6
CONTINUOUS
370
    -3
390
1896
347
4006
  0
LAYER
  5
EB7
330
A
100
AcDbSymbolTableRecord
100
AcDbLayerTableRecord
  2
SPLICE-PLATE
 70
     0
 62
     3
  6
CONTINUOUS
370
    -3
390
1896
347
4006
  0
LAYER
  5
30C9
330
A
100
AcDbSymbolTableRecord
100
AcDbLayerTableRecord
  2
TEXT
 70
     0
 62
     7
  6
CONTINUOUS
370
    25
390
1896
347
4006
  0
ENDTAB
  0
TABLE
  2
STYLE
  5
B
330
0
100
AcDbSymbolTable
 70
     3
  0
STYLE
  5
C
330
B
100
AcDbSymbolTableRecord
100
AcDbTextStyleTableRecord
  2
STANDARD
 70
     0
 40
0.0
 41
1.0
 50
0.0
 71
     0
 42
4.0
  3
TIMES.TTF
  4

1001
ACAD
1000
Times New Roman
1071
       18
  0
STYLE
  5
30D2
330
B
100
AcDbSymbolTableRecord
100
AcDbTextStyleTableRecord
  2
WEB PAGE
 70
     0
 40
0.0
 41
1.0
 50
0.0
 71
     0
 42
2.0
  3
TIMES.TTF
  4

1001
ACAD
1000
Times New Roman
1071
       18
  0
ENDTAB
  0
TABLE
  2
VIEW
  5
11
330
0
100
AcDbSymbolTable
 70
     1
  0
ENDTAB
  0
TABLE
  2
UCS
  5
12
330
0
100
AcDbSymbolTable
 70
     0
  0
ENDTAB
  0
TABLE
  2
APPID
  5
15
330
0
100
AcDbSymbolTable
 70
     9
  0
APPID
  5
D
330
15
100
AcDbSymbolTableRecord
100
AcDbRegAppTableRecord
  2
ACAD
 70
     0
  0
APPID
  5
222
330
15
100
AcDbSymbolTableRecord
100
AcDbRegAppTableRecord
  2
AVE_RENDER
 70
     0
  0
APPID
  5
223
330
15
100
AcDbSymbolTableRecord
100
AcDbRegAppTableRecord
  2
AVE_ENTITY_MATERIAL
 70
     0
  0
APPID
  5
224
330
15
100
AcDbSymbolTableRecord
100
AcDbRegAppTableRecord
  2
AVE_FINISH
 70
     0
  0
APPID
  5
225
330
15
100
AcDbSymbolTableRecord
100
AcDbRegAppTableRecord
  2
AVE_MATERIAL
 70
     0
  0
APPID
  5
226
330
15
100
AcDbSymbolTableRecord
100
AcDbRegAppTableRecord
  2
AVE_GLOBAL
 70
     0
  0
APPID
  5
30D4
330
15
100
AcDbSymbolTableRecord
100
AcDbRegAppTableRecord
  2
AME_SOL
 70
     0
  0
APPID
  5
30D5
330
15
100
AcDbSymbolTableRecord
100
AcDbRegAppTableRecord
  2
DCO15
 70
     0
  0
APPID
  5
44C8
330
15
100
AcDbSymbolTableRecord
100
AcDbRegAppTableRecord
  2
ACAD_EXEMPT_FROM_CAD_STANDARDS
 70
     0
  0
ENDTAB
  0
TABLE
  2
DIMSTYLE
  5
16
330
0
100
AcDbSymbolTable
 70
     1
100
AcDbDimStyleTable
 71
     1
340
1C
  0
DIMSTYLE
105
1C
102
{ACAD_REACTORS
330
413B
330
413C
330
413F
330
4140
330
4142
330
41B2
330
41B3
102
}
330
16
100
AcDbSymbolTableRecord
100
AcDbDimStyleTableRecord
  2
STANDARD
 70
     0
 41
3.0
 42
2.0
 43
1.0
 44
1.0
 79
     1
140
1.75
141
1.0
147
1.0
179
     4
277
     4
340
30D2
  0
ENDTAB
  0
TABLE
  2
BLOCK_RECORD
  5
1
330
0
100
AcDbSymbolTable
 70
    35
  0
BLOCK_RECORD
  5
2
102
{ACAD_XDICTIONARY
360
43BB
102
}
330
1
100
AcDbSymbolTableRecord
100
AcDbBlockTableRecord
  2
*MODEL_SPACE
340
1899
 70
     0
280
     1
281
     0
  0
BLOCK_RECORD
  5
7
330
1
100
AcDbSymbolTableRecord
100
AcDbBlockTableRecord
  2
*PAPER_SPACE
340
189A
 70
     0
280
     1
281
     0
  0
BLOCK_RECORD
  5
A5
330
1
100
AcDbSymbolTableRecord
100
AcDbBlockTableRecord
  2
J-4
340
0
102
{BLKREFS
331
1183
102
}
 70
     0
280
     1
281
     0
  0
BLOCK_RECORD
  5
B9
330
1
100
AcDbSymbolTableRecord
100
AcDbBlockTableRecord
  2
J-5
340
0
102
{BLKREFS
331
118A
102
}
 70
     0
280
     1
281
     0
  0
BLOCK_RECORD
  5
15C
330
1
100
AcDbSymbolTableRecord
100
AcDbBlockTableRecord
  2
SPRING-BUMPER
340
0
102
{BLKREFS
331
4156
102
}
 70
     0
280
     1
281
     0
  0
BLOCK_RECORD
  5
145
330
1
100
AcDbSymbolTableRecord
100
AcDbBlockTableRecord
  2
EBP5
340
0
102
{BLKREFS
331
4155
102
}
 70
     0
280
     1
281
     0
  0
BLOCK_RECORD
  5
69
330
1
100
AcDbSymbolTableRecord
100
AcDbBlockTableRecord
  2
19A
340
0
102
{BLKREFS
331
4141
102
}
 70
     0
280
     1
281
     0
  0
BLOCK_RECORD
  5
725
330
1
100
AcDbSymbolTableRecord
100
AcDbBlockTableRecord
  2
OTC-6
340
0
102
{BLKREFS
331
4176
102
}
 70
     0
280
     1
281
     0
  0
BLOCK_RECORD
  5
731
330
1
100
AcDbSymbolTableRecord
100
AcDbBlockTableRecord
  2
OTC-8
340
0
102
{BLKREFS
331
417F
102
}
 70
     0
280
     1
281
     0
  0
BLOCK_RECORD
  5
740
330
1
100
AcDbSymbolTableRecord
100
AcDbBlockTableRecord
  2
OTC-10
340
0
102
{BLKREFS
331
4180
102
}
 70
     0
280
     1
281
     0
  0
BLOCK_RECORD
  5
75E
330
1
100
AcDbSymbolTableRecord
100
AcDbBlockTableRecord
  2
OTC-12
340
0
102
{BLKREFS
331
4181
102
}
 70
     0
280
     1
281
     0
  0
BLOCK_RECORD
  5
76D
330
1
100
AcDbSymbolTableRecord
100
AcDbBlockTableRecord
  2
OTC-14
340
0
102
{BLKREFS
331
4182
102
}
 70
     0
280
     1
281
     0
  0
BLOCK_RECORD
  5
78E
330
1
100
AcDbSymbolTableRecord
100
AcDbBlockTableRecord
  2
J-3
340
0
102
{BLKREFS
331
1164
102
}
 70
     0
280
     1
281
     0
  0
BLOCK_RECORD
  5
79D
330
1
100
AcDbSymbolTableRecord
100
AcDbBlockTableRecord
  2
J-1
340
0
102
{BLKREFS
331
115D
102
}
 70
     0
280
     1
281
     0
  0
BLOCK_RECORD
  5
914
330
1
100
AcDbSymbolTableRecord
100
AcDbBlockTableRecord
  2
SP-8-38
340
0
102
{BLKREFS
331
417B
102
}
 70
     0
280
     1
281
     0
  0
BLOCK_RECORD
  5
1157
330
1
100
AcDbSymbolTableRecord
100
AcDbBlockTableRecord
  2
A$C1EE715DA
340
0
102
{BLKREFS
331
417C
102
}
 70
     0
280
     1
281
     0
  0
BLOCK_RECORD
  5
19BC
330
1
100
AcDbSymbolTableRecord
100
AcDbBlockTableRecord
  2
A$C5B4218C3
340
0
102
{BLKREFS
331
417D
102
}
 70
     0
280
     1
281
     0
  0
BLOCK_RECORD
  5
1AA7
330
1
100
AcDbSymbolTableRecord
100
AcDbBlockTableRecord
  2
A$C54941077
340
0
102
{BLKREFS
331
417E
102
}
 70
     0
280
     1
281
     0
  0
BLOCK_RECORD
  5
1C38
330
1
100
AcDbSymbolTableRecord
100
AcDbBlockTableRecord
  2
A$C65C916B7
340
0
102
{BLKREFS
331
4185
102
}
 70
     0
280
     1
281
     0
  0
BLOCK_RECORD
  5
41B4
330
1
100
AcDbSymbolTableRecord
100
AcDbBlockTableRecord
  2
*D27
340
0
 70
     0
280
     1
281
     0
  0
BLOCK_RECORD
  5
41C1
330
1
100
AcDbSymbolTableRecord
100
AcDbBlockTableRecord
  2
*D28
340
0
 70
     0
280
     1
281
     0
  0
BLOCK_RECORD
  5
41CE
330
1
100
AcDbSymbolTableRecord
100
AcDbBlockTableRecord
  2
*D29
340
0
 70
     0
280
     1
281
     0
  0
BLOCK_RECORD
  5
41DB
330
1
100
AcDbSymbolTableRecord
100
AcDbBlockTableRecord
  2
*D30
340
0
 70
     0
280
     1
281
     0
  0
BLOCK_RECORD
  5
41E8
330
1
100
AcDbSymbolTableRecord
100
AcDbBlockTableRecord
  2
*D31
340
0
 70
     0
280
     1
281
     0
  0
BLOCK_RECORD
  5
41F5
330
1
100
AcDbSymbolTableRecord
100
AcDbBlockTableRecord
  2
*D32
340
0
 70
     0
280
     1
281
     0
  0
BLOCK_RECORD
  5
4202
330
1
100
AcDbSymbolTableRecord
100
AcDbBlockTableRecord
  2
*D33
340
0
 70
     0
280
     1
281
     0
  0
ENDTAB
  0
ENDSEC
  0
SECTION
  2
BLOCKS
  0
BLOCK
  5
3
330
2
100
AcDbEntity
  8
0
100
AcDbBlockBegin
  2
*MODEL_SPACE
 70
     0
 10
0.0
 20
0.0
 30
0.0
  3
*MODEL_SPACE
  1

  0
ENDBLK
  5
6
330
2
100
AcDbEntity
  8
0
100
AcDbBlockEnd
  0
BLOCK
  5
8
330
7
100
AcDbEntity
 67
     1
  8
0
100
AcDbBlockBegin
  2
*PAPER_SPACE
 70
     0
 10
0.0
 20
0.0
 30
0.0
  3
*PAPER_SPACE
  1

  0
ENDBLK
  5
9
330
7
100
AcDbEntity
 67
     1
  8
0
100
AcDbBlockEnd
  0
BLOCK
  5
B3
330
A5
100
AcDbEntity
  8
0
100
AcDbBlockBegin
  2
J-4
 70
     0
 10
0.0
 20
0.0
 30
0.0
  3
J-4
  1

  0
LINE
  5
A6
330
A5
100
AcDbEntity
  8
6
100
AcDbLine
 10
2.875000000000003
 20
-1.125
 30
0.0
 11
0.0
 21
-1.125
 31
0.0
  0
LINE
  5
A8
330
A5
100
AcDbEntity
  8
6
100
AcDbLine
 10
0.0
 20
1.125
 30
0.0
 11
2.875000000000003
 21
1.125
 31
0.0
  0
TEXT
  5
A9
330
A5
100
AcDbEntity
  8
6
 62
    10
100
AcDbText
 10
0.8331828303452972
 20
-0.8025466262900238
 30
0.0
 40
0.4
  1
J-4
100
AcDbText
  0
LINE
  5
AA
330
A5
100
AcDbEntity
  8
6
100
AcDbLine
 10
0.1000000000000014
 20
-1.125
 30
0.0
 11
0.1000000000000014
 21
1.125
 31
0.0
  0
LINE
  5
AB
330
A5
100
AcDbEntity
  8
6
100
AcDbLine
 10
0.0
 20
-1.125
 30
0.0
 11
0.0
 21
1.125
 31
0.0
  0
LINE
  5
AC
330
A5
100
AcDbEntity
  8
6
100
AcDbLine
 10
2.875
 20
-1.125
 30
0.0
 11
2.875
 21
1.125
 31
0.0
  0
CIRCLE
  5
AD
330
A5
100
AcDbEntity
  8
6
100
AcDbCircle
 10
2.500000000000003
 20
-0.75
 30
0.0
 40
0.1325
  0
ARC
  5
AE
330
A5
100
AcDbEntity
  8
6
100
AcDbCircle
 10
2.585900000000002
 20
0.0000000000000036
 30
0.0
 40
0.1327999999999977
100
AcDbArc
 50
270.0
 51
90.0
  0
CIRCLE
  5
AF
330
A5
100
AcDbEntity
  8
6
100
AcDbCircle
 10
2.500000000000003
 20
0.75
 30
0.0
 40
0.1325
  0
ARC
  5
B0
330
A5
100
AcDbEntity
  8
6
100
AcDbCircle
 10
1.226500000000001
 20
0.0000000000000036
 30
0.0
 40
0.1327999999999977
100
AcDbArc
 50
90.0
 51
270.0
  0
LINE
  5
B1
330
A5
100
AcDbEntity
  8
6
100
AcDbLine
 10
1.226500000000001
 20
-0.1327999999999996
 30
0.0
 11
2.585900000000002
 21
-0.1327999999999996
 31
0.0
  0
LINE
  5
B2
330
A5
100
AcDbEntity
  8
6
100
AcDbLine
 10
1.226500000000001
 20
0.1327999999999996
 30
0.0
 11
2.585900000000002
 21
0.1327999999999996
 31
0.0
  0
ENDBLK
  5
B4
330
A5
100
AcDbEntity
  8
0
100
AcDbBlockEnd
  0
BLOCK
  5
C7
330
B9
100
AcDbEntity
  8
0
100
AcDbBlockBegin
  2
J-5
 70
     0
 10
0.0
 20
0.0
 30
0.0
  3
J-5
  1

  0
LINE
  5
BA
330
B9
100
AcDbEntity
  8
6
100
AcDbLine
 10
0.1000000000000014
 20
-1.125
 30
0.0
 11
0.1000000000000014
 21
1.125
 31
0.0
  0
LINE
  5
BB
330
B9
100
AcDbEntity
  8
6
100
AcDbLine
 10
0.0
 20
-1.125
 30
0.0
 11
0.0
 21
1.125
 31
0.0
  0
CIRCLE
  5
BC
330
B9
100
AcDbEntity
  8
6
100
AcDbCircle
 10
2.75
 20
0.75
 30
0.0
 40
0.1325
  0
LINE
  5
BD
330
B9
100
AcDbEntity
  8
6
100
AcDbLine
 10
3.125
 20
-1.125
 30
0.0
 11
3.125
 21
1.125
 31
0.0
  0
LINE
  5
BE
330
B9
100
AcDbEntity
  8
6
100
AcDbLine
 10
3.125
 20
-1.125
 30
0.0
 11
3.125
 21
1.125
 31
0.0
  0
LINE
  5
BF
330
B9
100
AcDbEntity
  8
6
100
AcDbLine
 10
1.476499999999994
 20
0.1327999999999996
 30
0.0
 11
2.835899999999995
 21
0.1327999999999996
 31
0.0
  0
LINE
  5
C0
330
B9
100
AcDbEntity
  8
6
100
AcDbLine
 10
1.476499999999994
 20
-0.1327999999999996
 30
0.0
 11
2.835899999999995
 21
-0.1327999999999996
 31
0.0
  0
LINE
  5
C1
330
B9
100
AcDbEntity
  8
6
100
AcDbLine
 10
3.125
 20
-1.125
 30
0.0
 11
0.0
 21
-1.125
 31
0.0
  0
TEXT
  5
C2
330
B9
100
AcDbEntity
  8
6
 62
    10
100
AcDbText
 10
0.7596062631773393
 20
-0.8551374061173966
 30
0.0
 40
0.4
  1
J-5
100
AcDbText
  0
ARC
  5
C3
330
B9
100
AcDbEntity
  8
6
100
AcDbCircle
 10
1.476499999999994
 20
0.0000000000000036
 30
0.0
 40
0.1327999999999977
100
AcDbArc
 50
90.0
 51
270.0
  0
CIRCLE
  5
C4
330
B9
100
AcDbEntity
  8
6
100
AcDbCircle
 10
2.75
 20
-0.75
 30
0.0
 40
0.1325
  0
ARC
  5
C5
330
B9
100
AcDbEntity
  8
6
100
AcDbCircle
 10
2.835899999999995
 20
0.0000000000000036
 30
0.0
 40
0.1327999999999977
100
AcDbArc
 50
270.0
 51
90.0
  0
LINE
  5
C6
330
B9
100
AcDbEntity
  8
6
100
AcDbLine
 10
0.0
 20
1.125
 30
0.0
 11
3.125
 21
1.125
 31
0.0
  0
ENDBLK
  5
C8
330
B9
100
AcDbEntity
  8
0
100
AcDbBlockEnd
  0
BLOCK
  5
16B
330
15C
100
AcDbEntity
  8
0
100
AcDbBlockBegin
  2
SPRING-BUMPER
 70
     0
 10
0.0
 20
0.0
 30
0.0
  3
SPRING-BUMPER
  1

  0
ARC
  5
15D
330
15C
100
AcDbEntity
  8
5
 62
     7
100
AcDbCircle
 10
0.0
 20
0.0
 30
0.0
 40
2.832
100
AcDbArc
 50
270.0
 51
90.0
  0
ARC
  5
15F
330
15C
100
AcDbEntity
  8
5
 62
     7
100
AcDbCircle
 10
0.0
 20
0.0
 30
0.0
 40
2.696
100
AcDbArc
 50
270.0
 51
90.0
  0
LINE
  5
160
330
15C
100
AcDbEntity
  8
5
 62
     7
100
AcDbLine
 10
0.0
 20
2.832
 30
0.0
 11
-9.088999999999984
 21
2.832
 31
0.0
  0
LINE
  5
161
330
15C
100
AcDbEntity
  8
5
 62
     7
100
AcDbLine
 10
0.0
 20
2.695999999999997
 30
0.0
 11
-9.088999999999984
 21
2.695999999999997
 31
0.0
  0
LINE
  5
162
330
15C
100
AcDbEntity
  8
5
 62
     7
100
AcDbLine
 10
-9.088999999999984
 20
2.695999999999997
 30
0.0
 11
-9.088999999999984
 21
2.832000000000007
 31
0.0
  0
POINT
  5
163
330
15C
100
AcDbEntity
  8
DEFPOINTS
  6
ByBlock
 62
     7
100
AcDbPoint
 10
-9.088999999999984
 20
2.695999999999997
 30
0.0
  0
POINT
  5
164
330
15C
100
AcDbEntity
  8
DEFPOINTS
  6
ByBlock
 62
     7
100
AcDbPoint
 10
-9.088999999999984
 20
2.832
 30
0.0
  0
LINE
  5
165
330
15C
100
AcDbEntity
  8
5
 62
     7
100
AcDbLine
 10
0.0
 20
-2.832
 30
0.0
 11
-1.838999999999984
 21
-2.832
 31
0.0
  0
LINE
  5
166
330
15C
100
AcDbEntity
  8
5
 62
     7
100
AcDbLine
 10
0.0
 20
-2.695999999999997
 30
0.0
 11
-1.838999999999984
 21
-2.695999999999997
 31
0.0
  0
LINE
  5
167
330
15C
100
AcDbEntity
  8
5
 62
     7
100
AcDbLine
 10
-1.838999999999998
 20
-2.832
 30
0.0
 11
-1.838999999999998
 21
-2.695999999999997
 31
0.0
  0
LINE
  5
168
330
15C
100
AcDbEntity
  8
HIDDEN
 62
     7
100
AcDbLine
 10
-0.9065000000000011
 20
-2.832
 30
0.0
 11
-0.9065000000000011
 21
-2.695999999999997
 31
0.0
  0
LINE
  5
16A
330
15C
100
AcDbEntity
  8
HIDDEN
 62
     7
100
AcDbLine
 10
-0.5215000000000032
 20
-2.832
 30
0.0
 11
-0.5215000000000032
 21
-2.695999999999997
 31
0.0
  0
ENDBLK
  5
16C
330
15C
100
AcDbEntity
  8
0
100
AcDbBlockEnd
  0
BLOCK
  5
157
330
145
100
AcDbEntity
  8
0
100
AcDbBlockBegin
  2
EBP5
 70
     0
 10
0.0
 20
0.0
 30
0.0
  3
EBP5
  1

  0
LINE
  5
146
330
145
100
AcDbEntity
  8
0
100
AcDbLine
 10
0.625
 20
-0.5625
 30
0.0
 11
-3.75
 21
-0.5625
 31
0.0
  0
LINE
  5
147
330
145
100
AcDbEntity
  8
0
100
AcDbLine
 10
-3.75
 20
-0.5625
 30
0.0
 11
-3.75
 21
1.5
 31
0.0
  0
LINE
  5
148
330
145
100
AcDbEntity
  8
0
100
AcDbLine
 10
-3.75
 20
1.5
 30
0.0
 11
-5.9375
 21
1.5
 31
0.0
  0
LINE
  5
149
330
145
100
AcDbEntity
  8
0
100
AcDbLine
 10
-5.9375
 20
7.375
 30
0.0
 11
0.625
 21
7.375
 31
0.0
  0
LINE
  5
14A
330
145
100
AcDbEntity
  8
0
100
AcDbLine
 10
-5.823300000000003
 20
7.375
 30
0.0
 11
-5.823300000000003
 21
1.5
 31
0.0
  0
LINE
  5
14B
330
145
100
AcDbEntity
  8
0
100
AcDbLine
 10
-5.9375
 20
7.375
 30
0.0
 11
-5.9375
 21
1.5
 31
0.0
  0
LINE
  5
14C
330
145
100
AcDbEntity
  8
0
100
AcDbLine
 10
0.625
 20
7.375
 30
0.0
 11
0.625
 21
-0.5625
 31
0.0
  0
CIRCLE
  5
14D
330
145
100
AcDbEntity
  8
0
100
AcDbCircle
 10
-0.9375
 20
6.0
 30
0.0
 40
0.5
  0
CIRCLE
  5
14E
330
145
100
AcDbEntity
  8
0
100
AcDbCircle
 10
-0.9375
 20
6.0
 30
0.0
 40
0.75
  0
ARC
  5
14F
330
145
100
AcDbEntity
  8
0
100
AcDbCircle
 10
-1.25
 20
0.0
 30
0.0
 40
0.1875
100
AcDbArc
 50
90.0
 51
270.0
  0
ARC
  5
150
330
145
100
AcDbEntity
  8
0
100
AcDbCircle
 10
-1.875
 20
0.0
 30
0.0
 40
0.1875
100
AcDbArc
 50
270.0
 51
90.0
  0
LINE
  5
151
330
145
100
AcDbEntity
  8
0
100
AcDbLine
 10
0.0
 20
0.1875
 30
0.0
 11
-1.25
 21
0.1875
 31
0.0
  0
LINE
  5
152
330
145
100
AcDbEntity
  8
0
100
AcDbLine
 10
0.0
 20
-0.1875
 30
0.0
 11
-1.25
 21
-0.1875
 31
0.0
  0
ARC
  5
153
330
145
100
AcDbEntity
  8
0
100
AcDbCircle
 10
-3.3125
 20
0.0
 30
0.0
 40
0.1875000000000002
100
AcDbArc
 50
90.0
 51
270.0
  0
LINE
  5
154
330
145
100
AcDbEntity
  8
0
100
AcDbLine
 10
-1.875
 20
-0.1875
 30
0.0
 11
-3.3125
 21
-0.1875
 31
0.0
  0
LINE
  5
155
330
145
100
AcDbEntity
  8
0
100
AcDbLine
 10
-1.875
 20
0.1875
 30
0.0
 11
-3.3125
 21
0.1875
 31
0.0
  0
ARC
  5
156
330
145
100
AcDbEntity
  8
0
100
AcDbCircle
 10
0.0
 20
0.0
 30
0.0
 40
0.1875
100
AcDbArc
 50
270.0
 51
90.0
  0
ENDBLK
  5
158
330
145
100
AcDbEntity
  8
0
100
AcDbBlockEnd
  0
BLOCK
  5
8B
330
69
100
AcDbEntity
  8
0
100
AcDbBlockBegin
  2
19A
 70
     0
 10
0.0
 20
0.0
 30
0.0
  3
19A
  1

  0
LINE
  5
6A
330
69
100
AcDbEntity
  8
ANGLE
100
AcDbLine
 10
6.197361521858809
 20
22.0780201304732
 30
0.0
 11
6.19736152185881
 21
3.453020130473202
 31
0.0
  0
LINE
  5
6C
330
69
100
AcDbEntity
  8
ANGLE
100
AcDbLine
 10
6.19736152185881
 20
3.453020130473202
 30
0.0
 11
7.69736152185881
 21
3.453020130473202
 31
0.0
  0
LINE
  5
6D
330
69
100
AcDbEntity
  8
ANGLE
100
AcDbLine
 10
7.69736152185881
 20
3.453020130473202
 30
0.0
 11
7.697361521858806
 21
22.0780201304732
 31
0.0
  0
LINE
  5
6E
330
69
100
AcDbEntity
  8
ANGLE
100
AcDbLine
 10
7.697361521858806
 20
22.0780201304732
 30
0.0
 11
6.197361521858809
 21
22.0780201304732
 31
0.0
  0
CIRCLE
  5
6F
330
69
100
AcDbEntity
  8
ANGLE
100
AcDbCircle
 10
7.35436152185881
 20
4.140520130473202
 30
0.0
 40
0.125
  0
LINE
  5
70
330
69
100
AcDbEntity
  8
ANGLE
100
AcDbLine
 10
6.75986152185881
 20
4.890520130473202
 30
0.0
 11
7.134861521858808
 21
4.890520130473202
 31
0.0
  0
LINE
  5
71
330
69
100
AcDbEntity
  8
ANGLE
100
AcDbLine
 10
6.75986152185881
 20
5.265520130473202
 30
0.0
 11
7.134861521858808
 21
5.265520130473202
 31
0.0
  0
ARC
  5
72
330
69
100
AcDbEntity
  8
ANGLE
100
AcDbCircle
 10
6.75986152185881
 20
5.078020130473205
 30
0.0
 40
0.1875000000000023
100
AcDbArc
 50
90.00000000000003
 51
270.0
  0
ARC
  5
73
330
69
100
AcDbEntity
  8
ANGLE
100
AcDbCircle
 10
7.134861521858808
 20
5.078020130473205
 30
0.0
 40
0.1875000000000023
100
AcDbArc
 50
270.0
 51
90.00000000000003
  0
CIRCLE
  5
74
330
69
100
AcDbEntity
  8
ANGLE
100
AcDbCircle
 10
7.35436152185881
 20
5.921770130473202
 30
0.0
 40
0.125
  0
LINE
  5
75
330
69
100
AcDbEntity
  8
ANGLE
100
AcDbLine
 10
6.759861521858808
 20
11.8905201304732
 30
0.0
 11
7.134861521858806
 21
11.8905201304732
 31
0.0
  0
LINE
  5
76
330
69
100
AcDbEntity
  8
ANGLE
100
AcDbLine
 10
6.759861521858808
 20
12.2655201304732
 30
0.0
 11
7.134861521858806
 21
12.2655201304732
 31
0.0
  0
ARC
  5
77
330
69
100
AcDbEntity
  8
ANGLE
100
AcDbCircle
 10
6.759861521858808
 20
12.0780201304732
 30
0.0
 40
0.1875000000000023
100
AcDbArc
 50
90.00000000000003
 51
270.0
  0
ARC
  5
78
330
69
100
AcDbEntity
  8
ANGLE
100
AcDbCircle
 10
7.134861521858806
 20
12.0780201304732
 30
0.0
 40
0.1875000000000023
100
AcDbArc
 50
270.0
 51
90.00000000000003
  0
LINE
  5
79
330
69
100
AcDbEntity
  8
ANGLE
100
AcDbLine
 10
7.509861521858806
 20
15.7030201304732
 30
0.0
 11
7.509861521858806
 21
16.2655201304732
 31
0.0
  0
LINE
  5
7A
330
69
100
AcDbEntity
  8
ANGLE
100
AcDbLine
 10
7.134861521858805
 20
15.7030201304732
 30
0.0
 11
7.134861521858806
 21
16.2655201304732
 31
0.0
  0
ARC
  5
7B
330
69
100
AcDbEntity
  8
ANGLE
100
AcDbCircle
 10
7.322361521858808
 20
15.7030201304732
 30
0.0
 40
0.1875000000000015
100
AcDbArc
 50
180.0
 51
0.0
  0
ARC
  5
7C
330
69
100
AcDbEntity
  8
ANGLE
100
AcDbCircle
 10
7.322361521858808
 20
16.2655201304732
 30
0.0
 40
0.1875000000000015
100
AcDbArc
 50
0.0
 51
180.0
  0
LINE
  5
7D
330
69
100
AcDbEntity
  8
ANGLE
100
AcDbLine
 10
7.134861521858805
 20
17.1405201304732
 30
0.0
 11
7.134861521858806
 21
18.5155201304732
 31
0.0
  0
LINE
  5
7E
330
69
100
AcDbEntity
  8
ANGLE
100
AcDbLine
 10
7.509861521858806
 20
17.1405201304732
 30
0.0
 11
7.509861521858806
 21
18.5155201304732
 31
0.0
  0
ARC
  5
7F
330
69
100
AcDbEntity
  8
ANGLE
100
AcDbCircle
 10
7.322361521858808
 20
18.5155201304732
 30
0.0
 40
0.1875000000000015
100
AcDbArc
 50
0.0
 51
180.0
  0
ARC
  5
80
330
69
100
AcDbEntity
  8
ANGLE
100
AcDbCircle
 10
7.322361521858808
 20
17.1405201304732
 30
0.0
 40
0.1875000000000015
100
AcDbArc
 50
180.0
 51
0.0
  0
LINE
  5
81
330
69
100
AcDbEntity
  8
ANGLE
100
AcDbLine
 10
7.509861521858806
 20
19.8280201304732
 30
0.0
 11
7.509861521858806
 21
21.6405201304732
 31
0.0
  0
LINE
  5
82
330
69
100
AcDbEntity
  8
ANGLE
100
AcDbLine
 10
7.134861521858805
 20
19.8280201304732
 30
0.0
 11
7.134861521858806
 21
21.6405201304732
 31
0.0
  0
ARC
  5
83
330
69
100
AcDbEntity
  8
ANGLE
100
AcDbCircle
 10
7.322361521858808
 20
21.6405201304732
 30
0.0
 40
0.1875000000000015
100
AcDbArc
 50
0.0
 51
180.0
  0
ARC
  5
84
330
69
100
AcDbEntity
  8
ANGLE
100
AcDbCircle
 10
7.322361521858808
 20
19.8280201304732
 30
0.0
 40
0.1875000000000015
100
AcDbArc
 50
180.0
 51
0.0
  0
LINE
  5
85
330
69
100
AcDbEntity
  8
ANGLE
100
AcDbLine
 10
7.134861521858808
 20
18.9842701304732
 30
0.0
 11
6.884861521858805
 21
18.9842701304732
 31
0.0
  0
LINE
  5
86
330
69
100
AcDbEntity
  8
ANGLE
100
AcDbLine
 10
7.134861521858808
 20
19.3592701304732
 30
0.0
 11
6.884861521858805
 21
19.3592701304732
 31
0.0
  0
ARC
  5
87
330
69
100
AcDbEntity
  8
ANGLE
100
AcDbCircle
 10
6.884861521858805
 20
19.1717701304732
 30
0.0
 40
0.1874999999999998
100
AcDbArc
 50
90.00000000000003
 51
270.0
  0
ARC
  5
88
330
69
100
AcDbEntity
  8
ANGLE
100
AcDbCircle
 10
7.134861521858808
 20
19.1717701304732
 30
0.0
 40
0.1874999999999998
100
AcDbArc
 50
270.0
 51
90.00000000000003
  0
LINE
  5
89
330
69
100
AcDbEntity
  8
ANGLE
  6
HIDDEN
100
AcDbLine
 10
6.284861521858809
 20
22.0780201304732
 30
0.0
 11
6.28486152185881
 21
3.453020130473202
 31
0.0
  0
ENDBLK
  5
8C
330
69
100
AcDbEntity
  8
0
100
AcDbBlockEnd
  0
BLOCK
  5
72E
330
725
100
AcDbEntity
  8
0
100
AcDbBlockBegin
  2
OTC-6
 70
     0
 10
0.0
 20
0.0
 30
0.0
  3
OTC-6
  1

  0
LWPOLYLINE
  5
726
330
725
100
AcDbEntity
  8
0
100
AcDbPolyline
 90
        4
 70
     1
 43
0.0
 10
-0.5
 20
-2.0
 10
5.499999999999985
 20
-2.0
 10
5.499999999999985
 20
0.5
 10
-0.5
 20
0.5
  0
ARC
  5
727
330
725
100
AcDbEntity
  8
OUTSIDE
100
AcDbCircle
 10
4.796874999999985
 20
-0.71875
 30
0.0
 40
0.140625
100
AcDbArc
 50
270.0
 51
90.0
  0
CIRCLE
  5
728
330
725
100
AcDbEntity
  8
0
100
AcDbCircle
 10
0.0
 20
0.0
 30
0.0
 40
0.136
  0
CIRCLE
  5
729
330
725
100
AcDbEntity
  8
0
100
AcDbCircle
 10
0.0
 20
-1.5
 30
0.0
 40
0.136
  0
TEXT
  5
72A
330
725
100
AcDbEntity
  8
0
100
AcDbText
 10
0.2258530993734666
 20
-0.8627655840508623
 30
0.0
 40
0.25
  1
6
100
AcDbText
  0
LINE
  5
72B
330
725
100
AcDbEntity
  8
OUTSIDE
100
AcDbLine
 10
3.703124999999985
 20
-0.578125
 30
0.0
 11
4.796874999999985
 21
-0.578125
 31
0.0
  0
LINE
  5
72C
330
725
100
AcDbEntity
  8
OUTSIDE
100
AcDbLine
 10
3.703124999999985
 20
-0.859375
 30
0.0
 11
4.796874999999985
 21
-0.859375
 31
0.0
  0
ARC
  5
72D
330
725
100
AcDbEntity
  8
OUTSIDE
100
AcDbCircle
 10
3.703124999999985
 20
-0.71875
 30
0.0
 40
0.140625
100
AcDbArc
 50
90.0
 51
270.0
  0
ENDBLK
  5
72F
330
725
100
AcDbEntity
  8
0
100
AcDbBlockEnd
  0
BLOCK
  5
73D
330
731
100
AcDbEntity
  8
0
100
AcDbBlockBegin
  2
OTC-8
 70
     0
 10
0.0
 20
0.0
 30
0.0
  3
OTC-8
  1

  0
LINE
  5
732
330
731
100
AcDbEntity
  8
OUTSIDE
100
AcDbLine
 10
5.703125
 20
-0.578125
 30
0.0
 11
6.796875
 21
-0.578125
 31
0.0
  0
LINE
  5
733
330
731
100
AcDbEntity
  8
OUTSIDE
100
AcDbLine
 10
5.703125
 20
-0.859375
 30
0.0
 11
6.796875
 21
-0.859375
 31
0.0
  0
LINE
  5
734
330
731
100
AcDbEntity
  8
OUTSIDE
100
AcDbLine
 10
-0.5
 20
0.5
 30
0.0
 11
7.5
 21
0.5
 31
0.0
  0
LINE
  5
735
330
731
100
AcDbEntity
  8
OUTSIDE
100
AcDbLine
 10
7.5
 20
-1.9375
 30
0.0
 11
-0.5
 21
-1.9375
 31
0.0
  0
TEXT
  5
736
330
731
100
AcDbEntity
  8
0
100
AcDbText
 10
0.2258530993734666
 20
-0.8627655840508623
 30
0.0
 40
0.25
  1
8
100
AcDbText
  0
ARC
  5
737
330
731
100
AcDbEntity
  8
OUTSIDE
100
AcDbCircle
 10
5.703125
 20
-0.71875
 30
0.0
 40
0.140625
100
AcDbArc
 50
90.0
 51
270.0
  0
LINE
  5
738
330
731
100
AcDbEntity
  8
0
100
AcDbLine
 10
-0.5
 20
0.5
 30
0.0
 11
-0.5
 21
-1.9375
 31
0.0
  0
CIRCLE
  5
739
330
731
100
AcDbEntity
  8
0
100
AcDbCircle
 10
0.0
 20
-1.5
 30
0.0
 40
0.136
  0
CIRCLE
  5
73A
330
731
100
AcDbEntity
  8
0
100
AcDbCircle
 10
0.0
 20
0.0
 30
0.0
 40
0.136
  0
ARC
  5
73B
330
731
100
AcDbEntity
  8
OUTSIDE
100
AcDbCircle
 10
6.796875
 20
-0.71875
 30
0.0
 40
0.140625
100
AcDbArc
 50
270.0
 51
90.0
  0
LINE
  5
73C
330
731
100
AcDbEntity
  8
OUTSIDE
100
AcDbLine
 10
7.5
 20
-1.9375
 30
0.0
 11
7.5
 21
0.5
 31
0.0
  0
ENDBLK
  5
73E
330
731
100
AcDbEntity
  8
0
100
AcDbBlockEnd
  0
BLOCK
  5
74C
330
740
100
AcDbEntity
  8
0
100
AcDbBlockBegin
  2
OTC-10
 70
     0
 10
0.0
 20
0.0
 30
0.0
  3
OTC-10
  1

  0
LINE
  5
741
330
740
100
AcDbEntity
  8
OUTSIDE
100
AcDbLine
 10
-0.5
 20
0.5
 30
0.0
 11
9.5
 21
0.5
 31
0.0
  0
LINE
  5
742
330
740
100
AcDbEntity
  8
OUTSIDE
100
AcDbLine
 10
9.5
 20
-1.9375
 30
0.0
 11
-0.5
 21
-1.9375
 31
0.0
  0
TEXT
  5
743
330
740
100
AcDbEntity
  8
0
100
AcDbText
 10
0.2258530993734666
 20
-0.8627655840508623
 30
0.0
 40
0.25
  1
10
100
AcDbText
  0
LINE
  5
744
330
740
100
AcDbEntity
  8
0
100
AcDbLine
 10
-0.5
 20
0.5
 30
0.0
 11
-0.5
 21
-1.9375
 31
0.0
  0
CIRCLE
  5
745
330
740
100
AcDbEntity
  8
0
100
AcDbCircle
 10
0.0
 20
-1.5
 30
0.0
 40
0.136
  0
CIRCLE
  5
746
330
740
100
AcDbEntity
  8
0
100
AcDbCircle
 10
0.0
 20
0.0
 30
0.0
 40
0.136
  0
ARC
  5
747
330
740
100
AcDbEntity
  8
OUTSIDE
100
AcDbCircle
 10
8.796875
 20
-0.71875
 30
0.0
 40
0.140625
100
AcDbArc
 50
270.0
 51
90.0
  0
ARC
  5
748
330
740
100
AcDbEntity
  8
OUTSIDE
100
AcDbCircle
 10
7.703125
 20
-0.71875
 30
0.0
 40
0.140625
100
AcDbArc
 50
90.0
 51
270.0
  0
LINE
  5
749
330
740
100
AcDbEntity
  8
OUTSIDE
100
AcDbLine
 10
9.5
 20
-1.9375
 30
0.0
 11
9.5
 21
0.5
 31
0.0
  0
LINE
  5
74A
330
740
100
AcDbEntity
  8
OUTSIDE
100
AcDbLine
 10
7.703125
 20
-0.859375
 30
0.0
 11
8.796875
 21
-0.859375
 31
0.0
  0
LINE
  5
74B
330
740
100
AcDbEntity
  8
OUTSIDE
100
AcDbLine
 10
7.703125
 20
-0.578125
 30
0.0
 11
8.796875
 21
-0.578125
 31
0.0
  0
ENDBLK
  5
74D
330
740
100
AcDbEntity
  8
0
100
AcDbBlockEnd
  0
BLOCK
  5
76A
330
75E
100
AcDbEntity
  8
0
100
AcDbBlockBegin
  2
OTC-12
 70
     0
 10
0.0
 20
0.0
 30
0.0
  3
OTC-12
  1

  0
LINE
  5
75F
330
75E
100
AcDbEntity
  8
OUTSIDE
100
AcDbLine
 10
-0.5
 20
0.5
 30
0.0
 11
11.5
 21
0.5
 31
0.0
  0
LINE
  5
760
330
75E
100
AcDbEntity
  8
OUTSIDE
100
AcDbLine
 10
11.5
 20
-1.9375
 30
0.0
 11
-0.5
 21
-1.9375
 31
0.0
  0
CIRCLE
  5
761
330
75E
100
AcDbEntity
  8
0
100
AcDbCircle
 10
0.0
 20
0.0
 30
0.0
 40
0.136
  0
CIRCLE
  5
762
330
75E
100
AcDbEntity
  8
0
100
AcDbCircle
 10
0.0
 20
-1.5
 30
0.0
 40
0.136
  0
TEXT
  5
763
330
75E
100
AcDbEntity
  8
0
100
AcDbText
 10
0.2258530993734666
 20
-0.8627655840508623
 30
0.0
 40
0.25
  1
12
100
AcDbText
  0
LINE
  5
764
330
75E
100
AcDbEntity
  8
0
100
AcDbLine
 10
-0.5
 20
0.5
 30
0.0
 11
-0.5
 21
-1.9375
 31
0.0
  0
LINE
  5
765
330
75E
100
AcDbEntity
  8
OUTSIDE
100
AcDbLine
 10
9.703125
 20
-0.859375
 30
0.0
 11
10.796875
 21
-0.859375
 31
0.0
  0
LINE
  5
766
330
75E
100
AcDbEntity
  8
OUTSIDE
100
AcDbLine
 10
9.703125
 20
-0.578125
 30
0.0
 11
10.796875
 21
-0.578125
 31
0.0
  0
ARC
  5
767
330
75E
100
AcDbEntity
  8
OUTSIDE
100
AcDbCircle
 10
9.703125
 20
-0.71875
 30
0.0
 40
0.140625
100
AcDbArc
 50
90.0
 51
270.0
  0
ARC
  5
768
330
75E
100
AcDbEntity
  8
OUTSIDE
100
AcDbCircle
 10
10.796875
 20
-0.71875
 30
0.0
 40
0.140625
100
AcDbArc
 50
270.0
 51
90.0
  0
LINE
  5
769
330
75E
100
AcDbEntity
  8
OUTSIDE
100
AcDbLine
 10
11.5
 20
-1.9375
 30
0.0
 11
11.5
 21
0.5
 31
0.0
  0
ENDBLK
  5
76B
330
75E
100
AcDbEntity
  8
0
100
AcDbBlockEnd
  0
BLOCK
  5
779
330
76D
100
AcDbEntity
  8
0
100
AcDbBlockBegin
  2
OTC-14
 70
     0
 10
0.0
 20
0.0
 30
0.0
  3
OTC-14
  1

  0
LINE
  5
76E
330
76D
100
AcDbEntity
  8
OUTSIDE
100
AcDbLine
 10
-0.5
 20
0.5
 30
0.0
 11
13.5
 21
0.5
 31
0.0
  0
LINE
  5
76F
330
76D
100
AcDbEntity
  8
OUTSIDE
100
AcDbLine
 10
13.5
 20
-1.9375
 30
0.0
 11
-0.5
 21
-1.9375
 31
0.0
  0
LINE
  5
770
330
76D
100
AcDbEntity
  8
0
100
AcDbLine
 10
-0.5
 20
0.5
 30
0.0
 11
-0.5
 21
-1.9375
 31
0.0
  0
CIRCLE
  5
771
330
76D
100
AcDbEntity
  8
0
100
AcDbCircle
 10
0.0
 20
-1.5
 30
0.0
 40
0.136
  0
TEXT
  5
772
330
76D
100
AcDbEntity
  8
0
100
AcDbText
 10
0.2258530993734666
 20
-0.8627655840508623
 30
0.0
 40
0.25
  1
14
100
AcDbText
  0
CIRCLE
  5
773
330
76D
100
AcDbEntity
  8
0
100
AcDbCircle
 10
0.0
 20
0.0
 30
0.0
 40
0.136
  0
LINE
  5
774
330
76D
100
AcDbEntity
  8
OUTSIDE
100
AcDbLine
 10
13.5
 20
-1.9375
 30
0.0
 11
13.5
 21
0.5
 31
0.0
  0
LINE
  5
775
330
76D
100
AcDbEntity
  8
OUTSIDE
100
AcDbLine
 10
11.703125
 20
-0.578125
 30
0.0
 11
12.796875
 21
-0.578125
 31
0.0
  0
LINE
  5
776
330
76D
100
AcDbEntity
  8
OUTSIDE
100
AcDbLine
 10
11.703125
 20
-0.859375
 30
0.0
 11
12.796875
 21
-0.859375
 31
0.0
  0
ARC
  5
777
330
76D
100
AcDbEntity
  8
OUTSIDE
100
AcDbCircle
 10
11.703125
 20
-0.71875
 30
0.0
 40
0.140625
100
AcDbArc
 50
90.0
 51
270.0
  0
ARC
  5
778
330
76D
100
AcDbEntity
  8
OUTSIDE
100
AcDbCircle
 10
12.796875
 20
-0.71875
 30
0.0
 40
0.140625
100
AcDbArc
 50
270.0
 51
90.0
  0
ENDBLK
  5
77A
330
76D
100
AcDbEntity
  8
0
100
AcDbBlockEnd
  0
BLOCK
  5
79B
330
78E
100
AcDbEntity
  8
0
100
AcDbBlockBegin
  2
J-3
 70
     0
 10
0.0
 20
0.0
 30
0.0
  3
J-3
  1

  0
LINE
  5
78F
330
78E
100
AcDbEntity
  8
6
100
AcDbLine
 10
2.625
 20
-1.124999999999999
 30
0.0
 11
2.625
 21
1.125
 31
0.0
  0
CIRCLE
  5
790
330
78E
100
AcDbEntity
  8
6
100
AcDbCircle
 10
2.25
 20
-0.7499999999999992
 30
0.0
 40
0.1325
  0
LINE
  5
791
330
78E
100
AcDbEntity
  8
6
100
AcDbLine
 10
0.0
 20
-1.124999999999999
 30
0.0
 11
0.0
 21
1.125
 31
0.0
  0
LINE
  5
792
330
78E
100
AcDbEntity
  8
6
100
AcDbLine
 10
0.1000000000000014
 20
-1.124999999999999
 30
0.0
 11
0.1000000000000014
 21
1.125
 31
0.0
  0
LINE
  5
793
330
78E
100
AcDbEntity
  8
6
100
AcDbLine
 10
2.625
 20
-1.124999999999999
 30
0.0
 11
0.0
 21
-1.124999999999999
 31
0.0
  0
TEXT
  5
794
330
78E
100
AcDbEntity
  8
6
 62
    10
100
AcDbText
 10
0.5831828303452938
 20
-0.8025466262900247
 30
0.0
 40
0.4
  1
J-3
100
AcDbText
  0
LINE
  5
795
330
78E
100
AcDbEntity
  8
6
100
AcDbLine
 10
0.9764999999999979
 20
-0.1327999999999987
 30
0.0
 11
2.335899999999998
 21
-0.1327999999999987
 31
0.0
  0
LINE
  5
796
330
78E
100
AcDbEntity
  8
6
100
AcDbLine
 10
0.9764999999999979
 20
0.1328000000000005
 30
0.0
 11
2.335899999999998
 21
0.1328000000000005
 31
0.0
  0
LINE
  5
797
330
78E
100
AcDbEntity
  8
6
100
AcDbLine
 10
0.0
 20
1.125
 30
0.0
 11
2.625
 21
1.125
 31
0.0
  0
ARC
  5
798
330
78E
100
AcDbEntity
  8
6
100
AcDbCircle
 10
0.9764999999999979
 20
0.0000000000000027
 30
0.0
 40
0.1327999999999977
100
AcDbArc
 50
90.0
 51
270.0
  0
ARC
  5
799
330
78E
100
AcDbEntity
  8
6
100
AcDbCircle
 10
2.335899999999998
 20
0.0000000000000027
 30
0.0
 40
0.1327999999999977
100
AcDbArc
 50
270.0
 51
90.0
  0
CIRCLE
  5
79A
330
78E
100
AcDbEntity
  8
6
100
AcDbCircle
 10
2.25
 20
0.7500000000000009
 30
0.0
 40
0.1325
  0
ENDBLK
  5
79C
330
78E
100
AcDbEntity
  8
0
100
AcDbBlockEnd
  0
BLOCK
  5
7AA
330
79D
100
AcDbEntity
  8
0
100
AcDbBlockBegin
  2
J-1
 70
     0
 10
0.0
 20
0.0
 30
0.0
  3
J-1
  1

  0
CIRCLE
  5
79E
330
79D
100
AcDbEntity
  8
6
100
AcDbCircle
 10
1.875
 20
0.75
 30
0.0
 40
0.1325
  0
LINE
  5
79F
330
79D
100
AcDbEntity
  8
6
100
AcDbLine
 10
2.25
 20
-1.125
 30
0.0
 11
2.25
 21
1.125
 31
0.0
  0
LINE
  5
7A0
330
79D
100
AcDbEntity
  8
6
100
AcDbLine
 10
0.1000000000000014
 20
-1.125
 30
0.0
 11
0.1000000000000014
 21
1.125
 31
0.0
  0
LINE
  5
7A1
330
79D
100
AcDbEntity
  8
6
100
AcDbLine
 10
0.0
 20
-1.125
 30
0.0
 11
0.0
 21
1.125
 31
0.0
  0
ARC
  5
7A2
330
79D
100
AcDbEntity
  8
6
100
AcDbCircle
 10
0.601499999999998
 20
0.0
 30
0.0
 40
0.1327999999999977
100
AcDbArc
 50
90.0
 51
270.0
  0
TEXT
  5
7A3
330
79D
100
AcDbEntity
  8
6
 62
    10
100
AcDbText
 10
0.4590441626977722
 20
-0.8654942851065055
 30
0.0
 40
0.4
  1
J-1
100
AcDbText
  0
LINE
  5
7A4
330
79D
100
AcDbEntity
  8
6
100
AcDbLine
 10
2.25
 20
-1.125
 30
0.0
 11
0.0
 21
-1.125
 31
0.0
  0
CIRCLE
  5
7A5
330
79D
100
AcDbEntity
  8
6
100
AcDbCircle
 10
1.875
 20
-0.75
 30
0.0
 40
0.1325
  0
LINE
  5
7A6
330
79D
100
AcDbEntity
  8
6
100
AcDbLine
 10
0.601499999999998
 20
-0.1327999999999996
 30
0.0
 11
1.960899999999998
 21
-0.1327999999999996
 31
0.0
  0
LINE
  5
7A7
330
79D
100
AcDbEntity
  8
6
100
AcDbLine
 10
0.601499999999998
 20
0.1327999999999996
 30
0.0
 11
1.960899999999998
 21
0.1327999999999996
 31
0.0
  0
ARC
  5
7A8
330
79D
100
AcDbEntity
  8
6
100
AcDbCircle
 10
1.960899999999998
 20
0.0
 30
0.0
 40
0.1327999999999977
100
AcDbArc
 50
270.0
 51
90.0
  0
LINE
  5
7A9
330
79D
100
AcDbEntity
  8
6
100
AcDbLine
 10
0.0
 20
1.125
 30
0.0
 11
2.25
 21
1.125
 31
0.0
  0
ENDBLK
  5
7AB
330
79D
100
AcDbEntity
  8
0
100
AcDbBlockEnd
  0
BLOCK
  5
925
330
914
100
AcDbEntity
  8
0
100
AcDbBlockBegin
  2
SP-8-38
 70
     0
 10
0.0
 20
0.0
 30
0.0
  3
SP-8-38
  1

  0
LINE
  5
10EA
330
914
100
AcDbEntity
  8
0
100
AcDbLine
 10
2.755000000000009
 20
-2.062000000000011
 30
0.0
 11
2.755000000000009
 21
0.3129999999999882
 31
0.0
  0
CIRCLE
  5
10EB
330
914
100
AcDbEntity
  8
0
100
AcDbCircle
 10
0.0
 20
0.0
 30
0.0
 40
0.135
  0
ARC
  5
10EC
330
914
100
AcDbEntity
  8
0
100
AcDbCircle
 10
2.290000000000006
 20
-0.1820000000000164
 30
0.0
 40
0.135
100
AcDbArc
 50
0.0
 51
180.0
  0
LINE
  5
10ED
330
914
100
AcDbEntity
  8
0
100
AcDbLine
 10
2.155000000000001
 20
-0.4320000000000164
 30
0.0
 11
2.155000000000001
 21
-0.1820000000000448
 31
0.0
  0
LINE
  5
10EE
330
914
100
AcDbEntity
  8
0
100
AcDbLine
 10
2.425000000000011
 20
-0.1820000000000164
 30
0.0
 11
2.425000000000011
 21
-0.4320000000000164
 31
0.0
  0
ARC
  5
10EF
330
914
100
AcDbEntity
  8
0
100
AcDbCircle
 10
2.290000000000006
 20
-0.4320000000000164
 30
0.0
 40
0.135
100
AcDbArc
 50
180.0
 51
0.0
  0
CIRCLE
  5
10F0
330
914
100
AcDbEntity
  8
0
100
AcDbCircle
 10
2.290000000000006
 20
-1.494000000000028
 30
0.0
 40
0.135
  0
ARC
  5
10F1
330
914
100
AcDbEntity
  8
0
100
AcDbCircle
 10
1.540000000000006
 20
-0.1820000000000164
 30
0.0
 40
0.135
100
AcDbArc
 50
0.0
 51
180.0
  0
LINE
  5
10F2
330
914
100
AcDbEntity
  8
0
100
AcDbLine
 10
1.675000000000011
 20
-0.1820000000000164
 30
0.0
 11
1.675000000000011
 21
-0.4320000000000164
 31
0.0
  0
LINE
  5
10F3
330
914
100
AcDbEntity
  8
0
100
AcDbLine
 10
1.405000000000001
 20
-0.4320000000000164
 30
0.0
 11
1.405000000000001
 21
-0.1820000000000448
 31
0.0
  0
ARC
  5
10F4
330
914
100
AcDbEntity
  8
0
100
AcDbCircle
 10
1.540000000000006
 20
-0.4320000000000164
 30
0.0
 40
0.135
100
AcDbArc
 50
180.0
 51
0.0
  0
CIRCLE
  5
10F5
330
914
100
AcDbEntity
  8
0
100
AcDbCircle
 10
1.540000000000006
 20
-1.494000000000028
 30
0.0
 40
0.135
  0
CIRCLE
  5
10F6
330
914
100
AcDbEntity
  8
0
100
AcDbCircle
 10
0.0
 20
-1.75
 30
0.0
 40
0.135
  0
LINE
  5
10F7
330
914
100
AcDbEntity
  8
0
100
AcDbLine
 10
-0.681999999999988
 20
-2.062000000000011
 30
0.0
 11
-0.681999999999988
 21
0.3129999999999882
 31
0.0
  0
LINE
  5
10F8
330
914
100
AcDbEntity
  8
0
100
AcDbLine
 10
2.755000000000009
 20
-2.062000000000011
 30
0.0
 11
-0.681999999999988
 21
-2.062000000000011
 31
0.0
  0
LINE
  5
10F9
330
914
100
AcDbEntity
  8
0
100
AcDbLine
 10
-0.681999999999988
 20
0.3129999999999882
 30
0.0
 11
2.755000000000009
 21
0.3129999999999882
 31
0.0
  0
ENDBLK
  5
926
330
914
100
AcDbEntity
  8
0
100
AcDbBlockEnd
  0
BLOCK
  5
1195
330
1157
100
AcDbEntity
  8
0
100
AcDbBlockBegin
  2
A$C1EE715DA
 70
     0
 10
0.0
 20
0.0
 30
0.0
  3
A$C1EE715DA
  1

  0
LINE
  5
1158
330
1157
100
AcDbEntity
  8
5
 62
     7
100
AcDbLine
 10
1.075399869236207
 20
0.0258239751611882
 30
0.0
 11
2.290642713927297
 21
100.0184396266603
 31
0.0
  0
LINE
  5
1159
330
1157
100
AcDbEntity
  8
5
 62
     7
100
AcDbLine
 10
4.415485796521579
 20
99.9926157162106
 30
0.0
 11
3.200242951830489
 21
0.0000000647114575
 31
0.0
  0
LINE
  5
115A
330
1157
100
AcDbEntity
  8
HIDDEN
 62
     7
100
AcDbLine
 10
3.978018103046224
 20
99.99793240365614
 30
0.0
 11
2.762775258355134
 21
0.0053167521570003
 31
0.0
  0
LINE
  5
115B
330
1157
100
AcDbEntity
  8
5
 62
     7
100
AcDbLine
 10
1.833086660794606
 20
9.746584055442781
 30
0.0
 11
1.839667200798601
 21
10.28804406919573
 31
0.0
  0
LINE
  5
115C
330
1157
100
AcDbEntity
  8
5
 62
     7
100
AcDbLine
 10
2.110647189214148
 20
10.28475076108657
 30
0.0
 11
2.10406664921021
 21
9.74329074733373
 31
0.0
  0
INSERT
  5
115D
330
1157
100
AcDbEntity
  8
0
100
AcDbBlockReference
  2
J-1
 10
0.0970053815388497
 20
10.0384532116027
 30
0.0
 41
0.9999999999999998
 42
0.9999999999999998
 50
359.3037
  0
CIRCLE
  5
115E
330
1157
100
AcDbEntity
  8
5
 62
     7
100
AcDbCircle
 10
1.520083674723252
 20
0.6142634394542484
 30
0.0
 40
0.1405
  0
CIRCLE
  5
115F
330
1157
100
AcDbEntity
  8
5
 62
     7
100
AcDbCircle
 10
2.270028292109486
 20
0.6051491181190159
 30
0.0
 40
0.1405
  0
LINE
  5
1160
330
1157
100
AcDbEntity
  8
5
 62
     7
100
AcDbLine
 10
3.200242951830489
 20
0.0000000647114575
 30
0.0
 11
1.075399869236207
 21
0.0258239751611882
 31
0.0
  0
CIRCLE
  5
1161
330
1157
100
AcDbEntity
  8
5
 62
     7
100
AcDbCircle
 10
1.903030406963353
 20
1.265857822691828
 30
0.0
 40
0.203
  0
CIRCLE
  5
1162
330
1157
100
AcDbEntity
  8
5
 62
     7
100
AcDbCircle
 10
1.96275260366923
 20
9.265722790878498
 30
0.0
 40
0.1405
  0
ARC
  5
1163
330
1157
100
AcDbEntity
  8
5
 62
     7
100
AcDbCircle
 10
1.968576655002493
 20
9.744937401388256
 30
0.0
 40
0.1355
100
AcDbArc
 50
179.3037000000001
 51
359.3037000000001
  0
INSERT
  5
1164
330
1157
100
AcDbEntity
  8
0
100
AcDbBlockReference
  2
J-3
 10
0.0136715269306933
 20
34.03960658833762
 30
0.0
 41
0.9999999999999998
 42
0.9999999999999998
 50
359.3037
  0
ARC
  5
1165
330
1157
100
AcDbEntity
  8
5
 62
     7
100
AcDbCircle
 10
1.975157195006488
 20
10.28639741514109
 30
0.0
 40
0.1355
100
AcDbArc
 50
359.3037000000001
 51
179.3037000000001
  0
CIRCLE
  5
1166
330
1157
100
AcDbEntity
  8
5
 62
     7
100
AcDbCircle
 10
1.980981246339638
 20
10.76561202565097
 30
0.0
 40
0.1405
  0
LINE
  5
1167
330
1157
100
AcDbEntity
  8
5
 62
     7
100
AcDbLine
 10
1.708699282017164
 20
32.08136328131809
 30
0.0
 11
1.695027800014372
 21
30.95644635523877
 31
0.0
  0
LINE
  5
1168
330
1157
100
AcDbEntity
  8
5
 62
     7
100
AcDbLine
 10
2.708625438532124
 20
32.06921085287115
 30
0.0
 11
2.694953956529218
 21
30.94429392679183
 31
0.0
  0
ARC
  5
1169
330
1157
100
AcDbEntity
  8
5
 62
     7
100
AcDbCircle
 10
1.757523184796582
 20
30.95568682846078
 30
0.0
 40
0.0625
100
AcDbArc
 50
179.3037000000001
 51
269.3037
  0
ARC
  5
116A
330
1157
100
AcDbEntity
  8
5
 62
     7
100
AcDbCircle
 10
2.632458571747179
 20
30.94505345356981
 30
0.0
 40
0.0625
100
AcDbArc
 50
269.3037
 51
359.3037000000001
  0
LINE
  5
116B
330
1157
100
AcDbEntity
  8
5
 62
     7
100
AcDbLine
 10
2.631699044969252
 20
30.8825580687876
 30
0.0
 11
1.756763658018599
 21
30.89319144367858
 31
0.0
  0
CIRCLE
  5
116C
330
1157
100
AcDbEntity
  8
5
 62
     7
100
AcDbCircle
 10
2.176381864591121
 20
29.41918321754383
 30
0.0
 40
0.1325
  0
CIRCLE
  5
116D
330
1157
100
AcDbEntity
  8
5
 62
     7
100
AcDbCircle
 10
2.190814088614558
 20
30.60669552102104
 30
0.0
 40
0.1325
  0
LINE
  5
116E
330
1157
100
AcDbEntity
  8
5
 62
     7
100
AcDbLine
 10
2.13130565488359
 20
34.2846402852631
 30
0.0
 11
2.124725114879652
 21
33.74318027151014
 31
0.0
  0
LINE
  5
116F
330
1157
100
AcDbEntity
  8
5
 62
     7
100
AcDbLine
 10
2.395705103295142
 20
33.73988696340109
 30
0.0
 11
2.402285643299137
 21
34.28134697715393
 31
0.0
  0
ARC
  5
1170
330
1157
100
AcDbEntity
  8
5
 62
     7
100
AcDbCircle
 10
1.77119466679926
 20
32.08060375454022
 30
0.0
 40
0.0625
100
AcDbArc
 50
89.30370000000007
 51
179.3037000000001
  0
CIRCLE
  5
1171
330
1157
100
AcDbEntity
  8
5
 62
     7
100
AcDbCircle
 10
2.254391057754276
 20
33.26231900694586
 30
0.0
 40
0.1405
  0
ARC
  5
1172
330
1157
100
AcDbEntity
  8
5
 62
     7
100
AcDbCircle
 10
2.646130053749971
 20
32.06997037964914
 30
0.0
 40
0.0625
100
AcDbArc
 50
359.3037000000001
 51
89.30370000000007
  0
CIRCLE
  5
1173
330
1157
100
AcDbEntity
  8
5
 62
     7
100
AcDbCircle
 10
2.212839149931767
 20
32.41896168708888
 30
0.0
 40
0.1325
  0
ARC
  5
1174
330
1157
100
AcDbEntity
  8
5
 62
     7
100
AcDbCircle
 10
2.260215109087425
 20
33.74153361745562
 30
0.0
 40
0.1355
100
AcDbArc
 50
179.3037000000001
 51
359.3037000000001
  0
LINE
  5
1175
330
1157
100
AcDbEntity
  8
5
 62
     7
100
AcDbLine
 10
2.64688958052784
 20
32.13246576443135
 30
0.0
 11
1.771954193577244
 21
32.14309913932243
 31
0.0
  0
ARC
  5
1176
330
1157
100
AcDbEntity
  8
5
 62
     7
100
AcDbCircle
 10
1.818285327031105
 20
35.95531761103575
 30
0.0
 40
0.0625
100
AcDbArc
 50
179.3037000000001
 51
269.3037
  0
ARC
  5
1177
330
1157
100
AcDbEntity
  8
5
 62
     7
100
AcDbCircle
 10
1.83195680903384
 20
37.08023453711508
 30
0.0
 40
0.0625
100
AcDbArc
 50
89.30370000000007
 51
179.3037000000001
  0
LINE
  5
1178
330
1157
100
AcDbEntity
  8
5
 62
     7
100
AcDbLine
 10
1.755789942248952
 20
35.95607713781374
 30
0.0
 11
1.769461424251687
 21
37.08099406389306
 31
0.0
  0
ARC
  5
1179
330
1157
100
AcDbEntity
  8
5
 62
     7
100
AcDbCircle
 10
2.693220713981645
 20
35.94468423614467
 30
0.0
 40
0.0625
100
AcDbArc
 50
269.3037
 51
359.3037000000001
  0
ARC
  5
117A
330
1157
100
AcDbEntity
  8
5
 62
     7
100
AcDbCircle
 10
2.706892195984494
 20
37.0696011622241
 30
0.0
 40
0.0625
100
AcDbArc
 50
359.3037000000001
 51
89.30370000000007
  0
LINE
  5
117B
330
1157
100
AcDbEntity
  8
5
 62
     7
100
AcDbLine
 10
2.755716098763855
 20
35.9439247093668
 30
0.0
 11
2.76938758076659
 21
37.06884163544612
 31
0.0
  0
CIRCLE
  5
117C
330
1157
100
AcDbEntity
  8
5
 62
     7
100
AcDbCircle
 10
2.251576230849082
 20
35.60632630359601
 30
0.0
 40
0.1325
  0
ARC
  5
117D
330
1157
100
AcDbEntity
  8
5
 62
     7
100
AcDbCircle
 10
2.266795649091363
 20
34.28299363120846
 30
0.0
 40
0.1355
100
AcDbArc
 50
359.3037000000001
 51
179.3037000000001
  0
CIRCLE
  5
117E
330
1157
100
AcDbEntity
  8
5
 62
     7
100
AcDbCircle
 10
2.272619700424627
 20
34.76220824171833
 30
0.0
 40
0.1405
  0
CIRCLE
  5
117F
330
1157
100
AcDbEntity
  8
5
 62
     7
100
AcDbCircle
 10
2.288033516189955
 20
38.60610477314106
 30
0.0
 40
0.1325
  0
CIRCLE
  5
1180
330
1157
100
AcDbEntity
  8
5
 62
     7
100
AcDbCircle
 10
2.273601292166347
 20
37.41859246966385
 30
0.0
 40
0.1325
  0
LINE
  5
1181
330
1157
100
AcDbEntity
  8
5
 62
     7
100
AcDbLine
 10
2.692461187203775
 20
35.88218885136257
 30
0.0
 11
1.817525800253008
 21
35.89282222625354
 31
0.0
  0
LINE
  5
1182
330
1157
100
AcDbEntity
  8
5
 62
     7
100
AcDbLine
 10
2.707651722762477
 20
37.13209654700631
 30
0.0
 11
1.83271633581171
 21
37.14272992189729
 31
0.0
  0
INSERT
  5
1183
330
1157
100
AcDbEntity
  8
0
100
AcDbBlockReference
  2
J-4
 10
0.0553680991686747
 20
58.04250399210161
 30
0.0
 41
0.9999999999999998
 42
0.9999999999999998
 50
359.3037
  0
ARC
  5
1184
330
1157
100
AcDbEntity
  8
5
 62
     7
100
AcDbCircle
 10
2.558473760458127
 20
58.28285292786074
 30
0.0
 40
0.1355
100
AcDbArc
 50
359.3037000000001
 51
179.3037000000001
  0
CIRCLE
  5
1185
330
1157
100
AcDbEntity
  8
5
 62
     7
100
AcDbCircle
 10
2.564297811791334
 20
58.7620675383705
 30
0.0
 40
0.1405
  0
LINE
  5
1186
330
1157
100
AcDbEntity
  8
5
 62
     7
100
AcDbLine
 10
2.687383214661963
 20
57.73974626005326
 30
0.0
 11
2.693963754665901
 21
58.28120627380622
 31
0.0
  0
LINE
  5
1187
330
1157
100
AcDbEntity
  8
5
 62
     7
100
AcDbLine
 10
2.422983766250354
 20
58.28449958191527
 30
0.0
 11
2.416403226246302
 21
57.74303956816243
 31
0.0
  0
CIRCLE
  5
1188
330
1157
100
AcDbEntity
  8
5
 62
     7
100
AcDbCircle
 10
2.546069169121039
 20
57.26217830359804
 30
0.0
 40
0.1405
  0
ARC
  5
1189
330
1157
100
AcDbEntity
  8
5
 62
     7
100
AcDbCircle
 10
2.551893220454189
 20
57.74139291410779
 30
0.0
 40
0.1355
100
AcDbArc
 50
179.3037000000001
 51
359.3037000000001
  0
INSERT
  5
118A
330
1157
100
AcDbEntity
  8
0
100
AcDbBlockReference
  2
J-5
 10
0.0970448427657971
 20
82.04376985557315
 30
0.0
 41
0.9999999999999998
 42
0.9999999999999998
 50
359.3037
  0
ARC
  5
118B
330
1157
100
AcDbEntity
  8
5
 62
     7
100
AcDbCircle
 10
2.843551503180094
 20
81.73962067046762
 30
0.0
 40
0.1355
100
AcDbArc
 50
179.3037000000001
 51
359.3037000000001
  0
CIRCLE
  5
118C
330
1157
100
AcDbEntity
  8
5
 62
     7
100
AcDbCircle
 10
2.837727451846888
 20
81.26040605995786
 30
0.0
 40
0.1405
  0
LINE
  5
118D
330
1157
100
AcDbEntity
  8
5
 62
     7
100
AcDbLine
 10
2.979041497387925
 20
81.73797401641309
 30
0.0
 11
2.98562203739192
 21
82.27943403016594
 31
0.0
  0
LINE
  5
118E
330
1157
100
AcDbEntity
  8
5
 62
     7
100
AcDbLine
 10
2.714642048976315
 20
82.28272733827509
 30
0.0
 11
2.708061508972377
 21
81.74126732452226
 31
0.0
  0
ARC
  5
118F
330
1157
100
AcDbEntity
  8
5
 62
     7
100
AcDbCircle
 10
2.850132043184146
 20
82.28108068422045
 30
0.0
 40
0.1355
100
AcDbArc
 50
359.3037000000001
 51
179.3037000000001
  0
CIRCLE
  5
1190
330
1157
100
AcDbEntity
  8
5
 62
     7
100
AcDbCircle
 10
2.855956094517182
 20
82.76029529473033
 30
0.0
 40
0.1405
  0
LINE
  5
1191
330
1157
100
AcDbEntity
  8
5
 62
     7
100
AcDbLine
 10
2.290642713927297
 20
100.0184396266603
 30
0.0
 11
4.415485796521579
 21
99.9926157162106
 31
0.0
  0
CIRCLE
  5
1192
330
1157
100
AcDbEntity
  8
5
 62
     7
100
AcDbCircle
 10
3.08789218053721
 20
98.75865808290337
 30
0.0
 40
0.203
  0
CIRCLE
  5
1193
330
1157
100
AcDbEntity
  8
5
 62
     7
100
AcDbCircle
 10
2.720894295390905
 20
99.41936678747618
 30
0.0
 40
0.1405
  0
CIRCLE
  5
1194
330
1157
100
AcDbEntity
  8
5
 62
     7
100
AcDbCircle
 10
3.470838912777082
 20
99.41025246614096
 30
0.0
 40
0.1405
  0
ENDBLK
  5
1196
330
1157
100
AcDbEntity
  8
0
100
AcDbBlockEnd
  0
BLOCK
  5
19EB
330
19BC
100
AcDbEntity
  8
0
100
AcDbBlockBegin
  2
A$C5B4218C3
 70
     0
 10
0.0
 20
0.0
 30
0.0
  3
A$C5B4218C3
  1

  0
LINE
  5
19BD
330
19BC
100
AcDbEntity
  8
JAMB
 62
     7
100
AcDbLine
 10
-0.0000000487227254
 20
123.0000002609122
 30
0.0
 11
-0.0000000487227467
 21
0.0000002609122021
 31
0.0
  0
LINE
  5
19BE
330
19BC
100
AcDbEntity
  8
REVERSE-ANGLE
 62
     7
100
AcDbLine
 10
-0.0000000487227538
 20
0.0000002609122021
 30
0.0
 11
-0.000000048722768
 21
123.0000002609122
 31
0.0
  0
LINE
  5
19BF
330
19BC
100
AcDbEntity
  8
REVERSE-ANGLE
 62
     7
100
AcDbLine
 10
0.0999999512772405
 20
0.0000002609122021
 30
0.0
 11
0.0999999512772263
 21
123.0000002609122
 31
0.0
  0
LINE
  5
19C0
330
19BC
100
AcDbEntity
  8
REVERSE-ANGLE
 62
     7
100
AcDbLine
 10
1.624999951277253
 20
83.50000026091221
 30
0.0
 11
1.62499995127726
 21
110.5000002609122
 31
0.0
  0
LINE
  5
19C1
330
19BC
100
AcDbEntity
  8
REVERSE-ANGLE
 62
     7
100
AcDbLine
 10
1.624999951277231
 20
35.50000026091221
 30
0.0
 11
1.624999951277239
 21
56.5000002609122
 31
0.0
  0
LINE
  5
19C2
330
19BC
100
AcDbEntity
  8
REVERSE-ANGLE
 62
     7
100
AcDbLine
 10
1.624999951277231
 20
11.5000002609122
 30
0.0
 11
1.624999951277246
 21
32.5000002609122
 31
0.0
  0
LINE
  5
19C3
330
19BC
100
AcDbEntity
  8
UPPER-ANGLE
100
AcDbLine
 10
1.624999951277224
 20
0.0000002609122021
 30
0.0
 11
1.624999951277246
 21
8.500000260912202
 31
0.0
  0
LINE
  5
19C4
330
19BC
100
AcDbEntity
  8
UPPER-ANGLE
100
AcDbLine
 10
-0.0000000487227538
 20
0.0000002609122021
 30
0.0
 11
1.624999951277224
 21
0.0000002609122021
 31
0.0
  0
LINE
  5
19C5
330
19BC
100
AcDbEntity
  8
REVERSE-ANGLE
 62
     7
100
AcDbLine
 10
-0.0000000487227538
 20
9.807500260912206
 30
0.0
 11
0.0999999512772405
 21
9.807500260912206
 31
0.0
  0
LINE
  5
19C6
330
19BC
100
AcDbEntity
  8
REVERSE-ANGLE
 62
     7
100
AcDbLine
 10
-0.0000000487227538
 20
10.1925002609122
 30
0.0
 11
0.0999999512772405
 21
10.1925002609122
 31
0.0
  0
CIRCLE
  5
19C7
330
19BC
100
AcDbEntity
  8
REVERSE-ANGLE
 62
     7
100
AcDbCircle
 10
0.7749999512772377
 20
10.7500002609122
 30
0.0
 40
0.1325
  0
LINE
  5
19C8
330
19BC
100
AcDbEntity
  8
REVERSE-ANGLE
 62
     7
100
AcDbLine
 10
1.204999951277244
 20
11.5000002609122
 30
0.0
 11
1.624999951277246
 21
11.5000002609122
 31
0.0
  0
LINE
  5
19C9
330
19BC
100
AcDbEntity
  8
REVERSE-ANGLE
 62
     7
100
AcDbLine
 10
1.204999951277244
 20
8.500000260912202
 30
0.0
 11
1.624999951277246
 21
8.500000260912202
 31
0.0
  0
LINE
  5
19CA
330
19BC
100
AcDbEntity
  8
REVERSE-ANGLE
 62
     7
100
AcDbLine
 10
1.204999951277244
 20
8.500000260912202
 30
0.0
 11
1.204999951277244
 21
11.5000002609122
 31
0.0
  0
CIRCLE
  5
19CB
330
19BC
100
AcDbEntity
  8
REVERSE-ANGLE
 62
     7
100
AcDbCircle
 10
0.7749999512772377
 20
9.250000260912202
 30
0.0
 40
0.1325
  0
LINE
  5
19CC
330
19BC
100
AcDbEntity
  8
REVERSE-ANGLE
 62
     7
100
AcDbLine
 10
-0.0000000487227538
 20
34.1925002609122
 30
0.0
 11
0.0999999512772405
 21
34.1925002609122
 31
0.0
  0
LINE
  5
19CD
330
19BC
100
AcDbEntity
  8
REVERSE-ANGLE
 62
     7
100
AcDbLine
 10
-0.0000000487227538
 20
33.80750026091221
 30
0.0
 11
0.0999999512772405
 21
33.80750026091221
 31
0.0
  0
CIRCLE
  5
19CE
330
19BC
100
AcDbEntity
  8
REVERSE-ANGLE
 62
     7
100
AcDbCircle
 10
0.7749999512772377
 20
34.7500002609122
 30
0.0
 40
0.1325
  0
CIRCLE
  5
19CF
330
19BC
100
AcDbEntity
  8
REVERSE-ANGLE
 62
     7
100
AcDbCircle
 10
0.7749999512772377
 20
33.2500002609122
 30
0.0
 40
0.1325
  0
LINE
  5
19D0
330
19BC
100
AcDbEntity
  8
REVERSE-ANGLE
 62
     7
100
AcDbLine
 10
1.204999951277244
 20
32.5000002609122
 30
0.0
 11
1.204999951277244
 21
35.50000026091221
 31
0.0
  0
LINE
  5
19D1
330
19BC
100
AcDbEntity
  8
REVERSE-ANGLE
 62
     7
100
AcDbLine
 10
1.204999951277244
 20
32.5000002609122
 30
0.0
 11
1.624999951277246
 21
32.5000002609122
 31
0.0
  0
LINE
  5
19D2
330
19BC
100
AcDbEntity
  8
REVERSE-ANGLE
 62
     7
100
AcDbLine
 10
1.204999951277244
 20
35.50000026091221
 30
0.0
 11
1.624999951277246
 21
35.50000026091221
 31
0.0
  0
LINE
  5
19D3
330
19BC
100
AcDbEntity
  8
REVERSE-ANGLE
 62
     7
100
AcDbLine
 10
1.624999951277239
 20
59.5000002609122
 30
0.0
 11
1.624999951277253
 21
80.5000002609122
 31
0.0
  0
LINE
  5
19D4
330
19BC
100
AcDbEntity
  8
REVERSE-ANGLE
 62
     7
100
AcDbLine
 10
1.204999951277244
 20
56.5000002609122
 30
0.0
 11
1.204999951277244
 21
59.5000002609122
 31
0.0
  0
LINE
  5
19D5
330
19BC
100
AcDbEntity
  8
REVERSE-ANGLE
 62
     7
100
AcDbLine
 10
-0.0000000487227538
 20
57.80750026091221
 30
0.0
 11
0.0999999512772405
 21
57.80750026091221
 31
0.0
  0
LINE
  5
19D6
330
19BC
100
AcDbEntity
  8
REVERSE-ANGLE
 62
     7
100
AcDbLine
 10
-0.0000000487227538
 20
58.1925002609122
 30
0.0
 11
0.0999999512772405
 21
58.1925002609122
 31
0.0
  0
LINE
  5
19D7
330
19BC
100
AcDbEntity
  8
REVERSE-ANGLE
 62
     7
100
AcDbLine
 10
1.204999951277244
 20
56.5000002609122
 30
0.0
 11
1.624999951277246
 21
56.5000002609122
 31
0.0
  0
CIRCLE
  5
19D8
330
19BC
100
AcDbEntity
  8
REVERSE-ANGLE
 62
     7
100
AcDbCircle
 10
0.7749999512772377
 20
57.2500002609122
 30
0.0
 40
0.1325
  0
LINE
  5
19D9
330
19BC
100
AcDbEntity
  8
REVERSE-ANGLE
 62
     7
100
AcDbLine
 10
1.204999951277244
 20
59.5000002609122
 30
0.0
 11
1.624999951277246
 21
59.5000002609122
 31
0.0
  0
CIRCLE
  5
19DA
330
19BC
100
AcDbEntity
  8
REVERSE-ANGLE
 62
     7
100
AcDbCircle
 10
0.7749999512772377
 20
58.7500002609122
 30
0.0
 40
0.1325
  0
LINE
  5
19DB
330
19BC
100
AcDbEntity
  8
REVERSE-ANGLE
 62
     7
100
AcDbLine
 10
-0.0000000487227538
 20
82.1925002609122
 30
0.0
 11
0.0999999512772405
 21
82.1925002609122
 31
0.0
  0
LINE
  5
19DC
330
19BC
100
AcDbEntity
  8
REVERSE-ANGLE
 62
     7
100
AcDbLine
 10
-0.0000000487227538
 20
81.80750026091221
 30
0.0
 11
0.0999999512772405
 21
81.80750026091221
 31
0.0
  0
LINE
  5
19DD
330
19BC
100
AcDbEntity
  8
REVERSE-ANGLE
 62
     7
100
AcDbLine
 10
1.204999951277244
 20
83.50000026091221
 30
0.0
 11
1.624999951277246
 21
83.50000026091221
 31
0.0
  0
LINE
  5
19DE
330
19BC
100
AcDbEntity
  8
REVERSE-ANGLE
 62
     7
100
AcDbLine
 10
1.204999951277244
 20
80.5000002609122
 30
0.0
 11
1.624999951277246
 21
80.5000002609122
 31
0.0
  0
CIRCLE
  5
19DF
330
19BC
100
AcDbEntity
  8
REVERSE-ANGLE
 62
     7
100
AcDbCircle
 10
0.7749999512772377
 20
82.7500002609122
 30
0.0
 40
0.1325
  0
CIRCLE
  5
19E0
330
19BC
100
AcDbEntity
  8
REVERSE-ANGLE
 62
     7
100
AcDbCircle
 10
0.7749999512772377
 20
81.25000026091219
 30
0.0
 40
0.1325
  0
LINE
  5
19E1
330
19BC
100
AcDbEntity
  8
REVERSE-ANGLE
 62
     7
100
AcDbLine
 10
1.204999951277244
 20
80.5000002609122
 30
0.0
 11
1.204999951277244
 21
83.50000026091221
 31
0.0
  0
LINE
  5
19E2
330
19BC
100
AcDbEntity
  8
REVERSE-ANGLE
 62
     7
100
AcDbLine
 10
1.62499995127726
 20
113.5000002609122
 30
0.0
 11
1.624999951277267
 21
123.0000002609122
 31
0.0
  0
LINE
  5
19E3
330
19BC
100
AcDbEntity
  8
REVERSE-ANGLE
 62
     7
100
AcDbLine
 10
-0.0000000487227538
 20
105.8075002609122
 30
0.0
 11
0.0999999512772405
 21
105.8075002609122
 31
0.0
  0
LINE
  5
19E4
330
19BC
100
AcDbEntity
  8
REVERSE-ANGLE
 62
     7
100
AcDbLine
 10
-0.0000000487227538
 20
106.1925002609122
 30
0.0
 11
0.0999999512772405
 21
106.1925002609122
 31
0.0
  0
LINE
  5
19E5
330
19BC
100
AcDbEntity
  8
REVERSE-ANGLE
 62
     7
100
AcDbLine
 10
1.204999951277244
 20
113.5000002609122
 30
0.0
 11
1.624999951277246
 21
113.5000002609122
 31
0.0
  0
LINE
  5
19E6
330
19BC
100
AcDbEntity
  8
REVERSE-ANGLE
 62
     7
100
AcDbLine
 10
1.204999951277244
 20
110.5000002609122
 30
0.0
 11
1.624999951277246
 21
110.5000002609122
 31
0.0
  0
LINE
  5
19E7
330
19BC
100
AcDbEntity
  8
REVERSE-ANGLE
 62
     7
100
AcDbLine
 10
1.204999951277244
 20
110.5000002609122
 30
0.0
 11
1.204999951277244
 21
113.5000002609122
 31
0.0
  0
CIRCLE
  5
19E8
330
19BC
100
AcDbEntity
  8
REVERSE-ANGLE
 62
     7
100
AcDbCircle
 10
0.7749999512772377
 20
111.2500002609122
 30
0.0
 40
0.1325
  0
CIRCLE
  5
19E9
330
19BC
100
AcDbEntity
  8
REVERSE-ANGLE
 62
     7
100
AcDbCircle
 10
0.7749999512772377
 20
112.7500002609122
 30
0.0
 40
0.1325
  0
LINE
  5
19EA
330
19BC
100
AcDbEntity
  8
UPPER-ANGLE
100
AcDbLine
 10
-0.0000000487226899
 20
123.0000002609122
 30
0.0
 11
1.624999951277288
 21
123.0000002609122
 31
0.0
  0
ENDBLK
  5
19EC
330
19BC
100
AcDbEntity
  8
0
100
AcDbBlockEnd
  0
BLOCK
  5
1AFC
330
1AA7
100
AcDbEntity
  8
0
100
AcDbBlockBegin
  2
A$C54941077
 70
     0
 10
0.0
 20
0.0
 30
0.0
  3
A$C54941077
  1

  0
LINE
  5
1AA8
330
1AA7
100
AcDbEntity
  8
HIDDEN
 62
     7
100
AcDbLine
 10
3.428980130029287
 20
151.9950349655559
 30
0.0
 11
1.687389084893652
 21
0.0050127251749359
 31
0.0
  0
LINE
  5
1AA9
330
1AA7
100
AcDbEntity
  8
5
 62
     7
100
AcDbLine
 10
3.86645141114883
 20
151.9900221623832
 30
0.0
 11
2.124860366013194
 21
-0.000000077997754
 31
0.0
  0
LINE
  5
1AAA
330
1AA7
100
AcDbEntity
  8
5
 62
     7
100
AcDbLine
 10
-0.0000001422816354
 20
0.024347823126675
 30
0.0
 11
1.741590902853999
 21
152.0143700635076
 31
0.0
  0
LINE
  5
1AAB
330
1AA7
100
AcDbEntity
  8
0
100
AcDbLine
 10
2.124860366013194
 20
-0.000000077997754
 30
0.0
 11
-0.0000001422815785
 21
0.024347823126675
 31
0.0
  0
CIRCLE
  5
1AAC
330
1AA7
100
AcDbEntity
  8
5
 62
     7
100
AcDbCircle
 10
0.8007291148752528
 20
2.265320303264047
 30
0.0
 40
0.1405
  0
LINE
  5
1AAD
330
1AA7
100
AcDbEntity
  8
5
 62
     7
100
AcDbLine
 10
0.6707291773411157
 20
2.746091380535858
 30
0.0
 11
0.6769335954394365
 21
3.287555834767317
 31
0.0
  0
LINE
  5
1AAE
330
1AA7
100
AcDbEntity
  8
5
 62
     7
100
AcDbLine
 10
0.9479158061442376
 20
3.284450761259222
 30
0.0
 11
0.9417113880459737
 21
2.742986307027763
 31
0.0
  0
ARC
  5
1AAF
330
1AA7
100
AcDbEntity
  8
5
 62
     7
100
AcDbCircle
 10
0.8062202826935163
 20
2.744538843781811
 30
0.0
 40
0.1355
100
AcDbArc
 50
179.3434999999973
 51
359.3434999999973
  0
ARC
  5
1AB0
330
1AA7
100
AcDbEntity
  8
5
 62
     7
100
AcDbCircle
 10
0.8124247007917801
 20
3.28600329801327
 30
0.0
 40
0.1355
100
AcDbArc
 50
359.3434999999973
 51
179.3434999999973
  0
CIRCLE
  5
1AB1
330
1AA7
100
AcDbEntity
  8
5
 62
     7
100
AcDbCircle
 10
0.8179158686101573
 20
3.765221838531033
 30
0.0
 40
0.1405
  0
LINE
  5
1AB2
330
1AA7
100
AcDbEntity
  8
5
 62
     7
100
AcDbLine
 10
1.492175688685279
 20
23.88381692827397
 30
0.0
 11
0.6172331264463083
 21
23.89384253461935
 31
0.0
  0
LINE
  5
1AB3
330
1AA7
100
AcDbEntity
  8
5
 62
     7
100
AcDbLine
 10
1.506497983464385
 20
25.13373487432978
 30
0.0
 11
0.6315554212254142
 21
25.14376048067516
 31
0.0
  0
LINE
  5
1AB4
330
1AA7
100
AcDbEntity
  8
5
 62
     7
100
AcDbLine
 10
1.549464867801589
 20
28.88348871249707
 30
0.0
 11
0.6745223055626184
 21
28.89351431884245
 31
0.0
  0
LINE
  5
1AB5
330
1AA7
100
AcDbEntity
  8
5
 62
     7
100
AcDbLine
 10
1.563787162580695
 20
30.13340665855287
 30
0.0
 11
0.6888446003416675
 21
30.14343226489814
 31
0.0
  0
LINE
  5
1AB6
330
1AA7
100
AcDbEntity
  8
5
 62
     7
100
AcDbLine
 10
1.472124475994576
 20
22.13393180379592
 30
0.0
 11
0.5971819137556622
 21
22.1439574101413
 31
0.0
  0
LINE
  5
1AB7
330
1AA7
100
AcDbEntity
  8
5
 62
     7
100
AcDbLine
 10
1.457802181215527
 20
20.88401385774023
 30
0.0
 11
0.5828596189765563
 21
20.8940394640855
 31
0.0
  0
CIRCLE
  5
1AB8
330
1AA7
100
AcDbEntity
  8
5
 62
     7
100
AcDbCircle
 10
1.017108956662525
 20
20.60784511976817
 30
0.0
 40
0.1325
  0
CIRCLE
  5
1AB9
330
1AA7
100
AcDbEntity
  8
5
 62
     7
100
AcDbCircle
 10
1.0929039283684
 20
27.76364640280156
 30
0.0
 40
0.1405
  0
LINE
  5
1ABA
330
1AA7
100
AcDbEntity
  8
5
 62
     7
100
AcDbLine
 10
0.9519216551976796
 20
27.28598039903784
 30
0.0
 11
0.9457172370994157
 21
26.74451594480649
 31
0.0
  0
LINE
  5
1ABB
330
1AA7
100
AcDbEntity
  8
5
 62
     7
100
AcDbLine
 10
1.216699447804217
 20
26.7414108712984
 30
0.0
 11
1.222903865902537
 21
27.28287532552974
 31
0.0
  0
CIRCLE
  5
1ABC
330
1AA7
100
AcDbEntity
  8
5
 62
     7
100
AcDbCircle
 10
1.075717174633496
 20
26.26374486753468
 30
0.0
 40
0.1405
  0
CIRCLE
  5
1ABD
330
1AA7
100
AcDbEntity
  8
5
 62
     7
100
AcDbCircle
 10
1.072248645778358
 20
25.41992921864721
 30
0.0
 40
0.1325
  0
ARC
  5
1ABE
330
1AA7
100
AcDbEntity
  8
5
 62
     7
100
AcDbCircle
 10
0.6179492411852721
 20
23.95633843192218
 30
0.0
 40
0.0625
100
AcDbArc
 50
179.3434999999973
 51
269.3435000000006
  0
ARC
  5
1ABF
330
1AA7
100
AcDbEntity
  8
5
 62
     7
100
AcDbCircle
 10
0.6308393064864504
 20
25.08126458337233
 30
0.0
 40
0.0625
100
AcDbArc
 50
89.34350000000057
 51
179.3434999999973
  0
LINE
  5
1AC0
330
1AA7
100
AcDbEntity
  8
5
 62
     7
100
AcDbLine
 10
0.5683434091836262
 20
25.08198069811135
 30
0.0
 11
0.555453343882391
 21
23.95705454666108
 31
0.0
  0
ARC
  5
1AC1
330
1AA7
100
AcDbEntity
  8
5
 62
     7
100
AcDbCircle
 10
1.081208342451759
 20
26.74296340805245
 30
0.0
 40
0.1355
100
AcDbArc
 50
179.3434999999973
 51
359.3434999999973
  0
ARC
  5
1AC2
330
1AA7
100
AcDbEntity
  8
5
 62
     7
100
AcDbCircle
 10
1.087412760550137
 20
27.28442786228379
 30
0.0
 40
0.1355
100
AcDbArc
 50
359.3434999999973
 51
179.3434999999973
  0
CIRCLE
  5
1AC3
330
1AA7
100
AcDbEntity
  8
5
 62
     7
100
AcDbCircle
 10
1.037875138308606
 20
22.42012614811335
 30
0.0
 40
0.1325
  0
LINE
  5
1AC4
330
1AA7
100
AcDbEntity
  8
5
 62
     7
100
AcDbLine
 10
0.5339699017138173
 20
22.08217762757749
 30
0.0
 11
0.5210798364126959
 21
20.95725147612734
 31
0.0
  0
ARC
  5
1AC5
330
1AA7
100
AcDbEntity
  8
5
 62
     7
100
AcDbCircle
 10
0.5835757337154633
 20
20.95653536138832
 30
0.0
 40
0.0625
100
AcDbArc
 50
179.3434999999973
 51
269.3435000000006
  0
ARC
  5
1AC6
330
1AA7
100
AcDbEntity
  8
5
 62
     7
100
AcDbCircle
 10
0.5964657990166416
 20
22.08146151283859
 30
0.0
 40
0.0625
100
AcDbArc
 50
89.34350000000057
 51
179.3434999999973
  0
CIRCLE
  5
1AC7
330
1AA7
100
AcDbEntity
  8
5
 62
     7
100
AcDbCircle
 10
1.051482464132277
 20
23.60764819030203
 30
0.0
 40
0.1325
  0
CIRCLE
  5
1AC8
330
1AA7
100
AcDbEntity
  8
5
 62
     7
100
AcDbCircle
 10
1.129537824894669
 20
30.4196010028702
 30
0.0
 40
0.1325
  0
CIRCLE
  5
1AC9
330
1AA7
100
AcDbEntity
  8
5
 62
     7
100
AcDbCircle
 10
1.108771643248587
 20
28.60731997452501
 30
0.0
 40
0.1325
  0
ARC
  5
1ACA
330
1AA7
100
AcDbEntity
  8
5
 62
     7
100
AcDbCircle
 10
0.6752384203015822
 20
28.95601021614528
 30
0.0
 40
0.0625
100
AcDbArc
 50
179.3434999999973
 51
269.3435000000006
  0
ARC
  5
1ACB
330
1AA7
100
AcDbEntity
  8
5
 62
     7
100
AcDbCircle
 10
0.6881284856027606
 20
30.08093636759543
 30
0.0
 40
0.0625
100
AcDbArc
 50
89.34350000000057
 51
179.3434999999973
  0
LINE
  5
1ACC
330
1AA7
100
AcDbEntity
  8
5
 62
     7
100
AcDbLine
 10
0.612742522998758
 20
28.95672633088418
 30
0.0
 11
0.6256325882999363
 21
30.08165248233434
 31
0.0
  0
ARC
  5
1ACD
330
1AA7
100
AcDbEntity
  8
5
 62
     7
100
AcDbCircle
 10
1.492891803424299
 20
23.9463128255768
 30
0.0
 40
0.0625
100
AcDbArc
 50
269.3435000000006
 51
359.3434999999973
  0
LINE
  5
1ACE
330
1AA7
100
AcDbEntity
  8
5
 62
     7
100
AcDbLine
 10
1.568277766028245
 20
25.07052286228804
 30
0.0
 11
1.555387700727067
 21
23.94559671083789
 31
0.0
  0
ARC
  5
1ACF
330
1AA7
100
AcDbEntity
  8
5
 62
     7
100
AcDbCircle
 10
1.505781868725421
 20
25.07123897702707
 30
0.0
 40
0.0625
100
AcDbArc
 50
359.3434999999973
 51
89.34350000000057
  0
LINE
  5
1AD0
330
1AA7
100
AcDbEntity
  8
5
 62
     7
100
AcDbLine
 10
1.533904258558436
 20
22.07071979175418
 30
0.0
 11
1.521014193257258
 21
20.94579364030403
 31
0.0
  0
ARC
  5
1AD1
330
1AA7
100
AcDbEntity
  8
5
 62
     7
100
AcDbCircle
 10
1.45851829595449
 20
20.94650975504294
 30
0.0
 40
0.0625
100
AcDbArc
 50
269.3435000000006
 51
359.3434999999973
  0
ARC
  5
1AD2
330
1AA7
100
AcDbEntity
  8
5
 62
     7
100
AcDbCircle
 10
1.471408361255669
 20
22.07143590649321
 30
0.0
 40
0.0625
100
AcDbArc
 50
359.3434999999973
 51
89.34350000000057
  0
ARC
  5
1AD3
330
1AA7
100
AcDbEntity
  8
5
 62
     7
100
AcDbCircle
 10
1.550180982540609
 20
28.9459846097999
 30
0.0
 40
0.0625
100
AcDbArc
 50
269.3435000000006
 51
359.3434999999973
  0
ARC
  5
1AD4
330
1AA7
100
AcDbEntity
  8
5
 62
     7
100
AcDbCircle
 10
1.563071047841731
 20
30.07091076125005
 30
0.0
 40
0.0625
100
AcDbArc
 50
359.3434999999973
 51
89.34350000000057
  0
LINE
  5
1AD5
330
1AA7
100
AcDbEntity
  8
5
 62
     7
100
AcDbLine
 10
1.61267687984332
 20
28.94526849506087
 30
0.0
 11
1.625566945144555
 21
30.07019464651114
 31
0.0
  0
ARC
  5
1AD6
330
1AA7
100
AcDbEntity
  8
5
 62
     7
100
AcDbCircle
 10
1.356196402210059
 20
50.74138797232319
 30
0.0
 40
0.1355
100
AcDbArc
 50
179.3434999999973
 51
359.3434999999973
  0
CIRCLE
  5
1AD7
330
1AA7
100
AcDbEntity
  8
5
 62
     7
100
AcDbCircle
 10
1.350705234391739
 20
50.26216943180543
 30
0.0
 40
0.1405
  0
CIRCLE
  5
1AD8
330
1AA7
100
AcDbEntity
  8
5
 62
     7
100
AcDbCircle
 10
1.367891988126643
 20
51.76207096707241
 30
0.0
 40
0.1405
  0
ARC
  5
1AD9
330
1AA7
100
AcDbEntity
  8
5
 62
     7
100
AcDbCircle
 10
1.36240082030838
 20
51.28285242655465
 30
0.0
 40
0.1355
100
AcDbArc
 50
359.3434999999973
 51
179.3434999999973
  0
CIRCLE
  5
1ADA
330
1AA7
100
AcDbEntity
  8
5
 62
     7
100
AcDbCircle
 10
1.244116183127232
 20
40.41894457131627
 30
0.0
 40
0.1325
  0
LINE
  5
1ADB
330
1AA7
100
AcDbEntity
  8
5
 62
     7
100
AcDbLine
 10
1.664043226034152
 20
38.88283228094315
 30
0.0
 11
0.7891006637951819
 21
38.89285788728841
 31
0.0
  0
LINE
  5
1ADC
330
1AA7
100
AcDbEntity
  8
5
 62
     7
100
AcDbLine
 10
1.678365520813258
 20
40.13275022699883
 30
0.0
 11
0.8034229585742878
 21
40.14277583334421
 31
0.0
  0
CIRCLE
  5
1ADD
330
1AA7
100
AcDbEntity
  8
5
 62
     7
100
AcDbCircle
 10
1.223350001481151
 20
38.60666354297109
 30
0.0
 40
0.1325
  0
ARC
  5
1ADE
330
1AA7
100
AcDbEntity
  8
5
 62
     7
100
AcDbCircle
 10
0.7898167785341457
 20
38.95535378459124
 30
0.0
 40
0.0625
100
AcDbArc
 50
179.3434999999973
 51
269.3435000000006
  0
ARC
  5
1ADF
330
1AA7
100
AcDbEntity
  8
5
 62
     7
100
AcDbCircle
 10
0.8027068438353239
 20
40.08027993604139
 30
0.0
 40
0.0625
100
AcDbArc
 50
89.34350000000057
 51
179.3434999999973
  0
LINE
  5
1AE0
330
1AA7
100
AcDbEntity
  8
5
 62
     7
100
AcDbLine
 10
0.7273208812313215
 20
38.95606989933026
 30
0.0
 11
0.7402109465324998
 21
40.08099605078041
 31
0.0
  0
LINE
  5
1AE1
330
1AA7
100
AcDbEntity
  8
5
 62
     7
100
AcDbLine
 10
1.226909714955922
 20
51.2844049633087
 30
0.0
 11
1.220705296857659
 21
50.74294050907724
 31
0.0
  0
LINE
  5
1AE2
330
1AA7
100
AcDbEntity
  8
5
 62
     7
100
AcDbLine
 10
1.72725523807594
 20
38.94461206350695
 30
0.0
 11
1.740145303377062
 21
40.0695382149571
 31
0.0
  0
ARC
  5
1AE3
330
1AA7
100
AcDbEntity
  8
5
 62
     7
100
AcDbCircle
 10
1.664759340773116
 20
38.94532817824586
 30
0.0
 40
0.0625
100
AcDbArc
 50
269.3435000000006
 51
359.3434999999973
  0
ARC
  5
1AE4
330
1AA7
100
AcDbEntity
  8
5
 62
     7
100
AcDbCircle
 10
1.677649406074294
 20
40.07025432969612
 30
0.0
 40
0.0625
100
AcDbArc
 50
359.3434999999973
 51
89.34350000000057
  0
LINE
  5
1AE5
330
1AA7
100
AcDbEntity
  8
5
 62
     7
100
AcDbLine
 10
1.49168750756246
 20
50.73983543556915
 30
0.0
 11
1.49789192566078
 21
51.2812998898006
 31
0.0
  0
ARC
  5
1AE6
330
1AA7
100
AcDbEntity
  8
5
 62
     7
100
AcDbCircle
 10
1.637388880066509
 20
75.28127699082517
 30
0.0
 40
0.1355
100
AcDbArc
 50
359.3434999999973
 51
179.3434999999973
  0
LINE
  5
1AE7
330
1AA7
100
AcDbEntity
  8
5
 62
     7
100
AcDbLine
 10
1.501897774714166
 20
75.28282952757923
 30
0.0
 11
1.495693356615845
 21
74.74136507334788
 31
0.0
  0
LINE
  5
1AE8
330
1AA7
100
AcDbEntity
  8
5
 62
     7
100
AcDbLine
 10
1.766675567320703
 20
74.73825999983978
 30
0.0
 11
1.772879985418967
 21
75.27972445407113
 31
0.0
  0
CIRCLE
  5
1AE9
330
1AA7
100
AcDbEntity
  8
5
 62
     7
100
AcDbCircle
 10
1.625693294149982
 20
74.26059399607606
 30
0.0
 40
0.1405
  0
ARC
  5
1AEA
330
1AA7
100
AcDbEntity
  8
5
 62
     7
100
AcDbCircle
 10
1.631184461968246
 20
74.73981253659383
 30
0.0
 40
0.1355
100
AcDbArc
 50
179.3434999999973
 51
359.3434999999973
  0
CIRCLE
  5
1AEB
330
1AA7
100
AcDbEntity
  8
5
 62
     7
100
AcDbCircle
 10
1.64288004788483
 20
75.76049553134294
 30
0.0
 40
0.1405
  0
CIRCLE
  5
1AEC
330
1AA7
100
AcDbEntity
  8
5
 62
     7
100
AcDbCircle
 10
2.539715273011154
 20
150.7551426258454
 30
0.0
 40
0.203
  0
LINE
  5
1AED
330
1AA7
100
AcDbEntity
  8
5
 62
     7
100
AcDbLine
 10
1.776885834472466
 20
99.28125409184998
 30
0.0
 11
1.770681416374145
 21
98.73978963761864
 31
0.0
  0
LINE
  5
1AEE
330
1AA7
100
AcDbEntity
  8
5
 62
     7
100
AcDbLine
 10
2.041663627079003
 20
98.73668456411053
 30
0.0
 11
2.047868045177324
 21
99.27814901834189
 31
0.0
  0
ARC
  5
1AEF
330
1AA7
100
AcDbEntity
  8
5
 62
     7
100
AcDbCircle
 10
1.906172521726603
 20
98.73823710086458
 30
0.0
 40
0.1355
100
AcDbArc
 50
179.3434999999973
 51
359.3434999999973
  0
CIRCLE
  5
1AF0
330
1AA7
100
AcDbEntity
  8
5
 62
     7
100
AcDbCircle
 10
1.900681353908225
 20
98.25901856034683
 30
0.0
 40
0.1405
  0
ARC
  5
1AF1
330
1AA7
100
AcDbEntity
  8
5
 62
     7
100
AcDbCircle
 10
1.912376939824866
 20
99.27970155509592
 30
0.0
 40
0.1355
100
AcDbArc
 50
359.3434999999973
 51
179.3434999999973
  0
CIRCLE
  5
1AF2
330
1AA7
100
AcDbEntity
  8
5
 62
     7
100
AcDbCircle
 10
1.91786810764313
 20
99.7589200956137
 30
0.0
 40
0.1405
  0
LINE
  5
1AF3
330
1AA7
100
AcDbEntity
  8
5
 62
     7
100
AcDbLine
 10
2.051873894230652
 20
123.2796786561206
 30
0.0
 11
2.045669476132388
 21
122.7382142018892
 31
0.0
  0
LINE
  5
1AF4
330
1AA7
100
AcDbEntity
  8
5
 62
     7
100
AcDbLine
 10
2.31665168683719
 20
122.7351091283811
 30
0.0
 11
2.322856104935567
 21
123.2765735826125
 31
0.0
  0
CIRCLE
  5
1AF5
330
1AA7
100
AcDbEntity
  8
5
 62
     7
100
AcDbCircle
 10
2.175669413666469
 20
122.2574431246173
 30
0.0
 40
0.1405
  0
CIRCLE
  5
1AF6
330
1AA7
100
AcDbEntity
  8
5
 62
     7
100
AcDbCircle
 10
2.192856167401373
 20
123.7573446598843
 30
0.0
 40
0.1405
  0
ARC
  5
1AF7
330
1AA7
100
AcDbEntity
  8
5
 62
     7
100
AcDbCircle
 10
2.18736499958311
 20
123.2781261193665
 30
0.0
 40
0.1355
100
AcDbArc
 50
359.3434999999973
 51
179.3434999999973
  0
ARC
  5
1AF8
330
1AA7
100
AcDbEntity
  8
5
 62
     7
100
AcDbCircle
 10
2.181160581484789
 20
122.7366616651352
 30
0.0
 40
0.1355
100
AcDbArc
 50
179.3434999999973
 51
359.3434999999973
  0
CIRCLE
  5
1AF9
330
1AA7
100
AcDbEntity
  8
5
 62
     7
100
AcDbCircle
 10
2.172258521061678
 20
151.4155962392406
 30
0.0
 40
0.1405
  0
CIRCLE
  5
1AFA
330
1AA7
100
AcDbEntity
  8
5
 62
     7
100
AcDbCircle
 10
2.922209288695114
 20
151.4070028623731
 30
0.0
 40
0.1405
  0
LINE
  5
1AFB
330
1AA7
100
AcDbEntity
  8
5
 62
     7
100
AcDbLine
 10
1.741590902853999
 20
152.0143700635076
 30
0.0
 11
3.86645141114883
 21
151.9900221623832
 31
0.0
  0
ENDBLK
  5
1AFD
330
1AA7
100
AcDbEntity
  8
0
100
AcDbBlockEnd
  0
BLOCK
  5
1C58
330
1C38
100
AcDbEntity
  8
0
100
AcDbBlockBegin
  2
A$C65C916B7
 70
     0
 10
0.0
 20
0.0
 30
0.0
  3
A$C65C916B7
  1

  0
LINE
  5
1C39
330
1C38
100
AcDbEntity
  8
SPLICE-PLATE
 62
     7
100
AcDbLine
 10
5.000000008773017
 20
2.499999998094613
 30
0.0
 11
0.0000000087730179
 21
2.499999998094613
 31
0.0
  0
LINE
  5
1C3A
330
1C38
100
AcDbEntity
  8
SPLICE-PLATE
 62
     7
100
AcDbLine
 10
5.000000008773017
 20
-0.0000000019053856
 30
0.0
 11
0.0000000087730179
 21
-0.0000000019053861
 31
0.0
  0
LINE
  5
1C3B
330
1C38
100
AcDbEntity
  8
SPLICE-PLATE
 62
     7
100
AcDbLine
 10
0.0000000087730179
 20
2.499999998094613
 30
0.0
 11
0.0000000087730179
 21
-0.0000000019054429
 31
0.0
  0
LINE
  5
1C3C
330
1C38
100
AcDbEntity
  8
UPPER-ANGLE
100
AcDbLine
 10
0.5937500087730179
 20
0.3749999980945002
 30
0.0
 11
1.031250008773017
 21
0.3749999980945002
 31
0.0
  0
LINE
  5
1C3D
330
1C38
100
AcDbEntity
  8
UPPER-ANGLE
100
AcDbLine
 10
0.5937500087730179
 20
0.6874999980945003
 30
0.0
 11
1.031250008773017
 21
0.6874999980945003
 31
0.0
  0
ARC
  5
1C3E
330
1C38
100
AcDbEntity
  8
UPPER-ANGLE
100
AcDbCircle
 10
0.5937500087730179
 20
0.5312499980945003
 30
0.0
 40
0.1562500000000343
100
AcDbArc
 50
90.0
 51
270.0
  0
ARC
  5
1C3F
330
1C38
100
AcDbEntity
  8
UPPER-ANGLE
100
AcDbCircle
 10
1.031250008773017
 20
0.5312499980945003
 30
0.0
 40
0.1562500000000379
100
AcDbArc
 50
270.0
 51
90.0
  0
LINE
  5
1C40
330
1C38
100
AcDbEntity
  8
UPPER-ANGLE
100
AcDbLine
 10
0.5937500087730179
 20
1.406249998094613
 30
0.0
 11
1.031250008773017
 21
1.406249998094613
 31
0.0
  0
LINE
  5
1C41
330
1C38
100
AcDbEntity
  8
UPPER-ANGLE
100
AcDbLine
 10
0.5937500087730179
 20
1.093749998094613
 30
0.0
 11
1.031250008773017
 21
1.093749998094613
 31
0.0
  0
LINE
  5
1C42
330
1C38
100
AcDbEntity
  8
UPPER-ANGLE
100
AcDbLine
 10
0.5937500087730179
 20
1.81249999809467
 30
0.0
 11
1.031250008773017
 21
1.81249999809467
 31
0.0
  0
LINE
  5
1C43
330
1C38
100
AcDbEntity
  8
UPPER-ANGLE
100
AcDbLine
 10
0.5937500087730179
 20
2.12499999809467
 30
0.0
 11
1.031250008773017
 21
2.12499999809467
 31
0.0
  0
ARC
  5
1C44
330
1C38
100
AcDbEntity
  8
UPPER-ANGLE
100
AcDbCircle
 10
0.5937500087730179
 20
1.249999998094613
 30
0.0
 40
0.1562500000000343
100
AcDbArc
 50
90.0
 51
270.0
  0
ARC
  5
1C45
330
1C38
100
AcDbEntity
  8
UPPER-ANGLE
100
AcDbCircle
 10
0.5937500087730179
 20
1.968749998094727
 30
0.0
 40
0.1562500000000343
100
AcDbArc
 50
89.99999999999998
 51
270.0
  0
ARC
  5
1C46
330
1C38
100
AcDbEntity
  8
UPPER-ANGLE
100
AcDbCircle
 10
1.031250008773017
 20
1.249999998094613
 30
0.0
 40
0.1562500000000379
100
AcDbArc
 50
270.0
 51
90.0
  0
ARC
  5
1C47
330
1C38
100
AcDbEntity
  8
UPPER-ANGLE
100
AcDbCircle
 10
1.031250008773017
 20
1.968749998094613
 30
0.0
 40
0.1562500000000379
100
AcDbArc
 50
270.0
 51
89.99999999999998
  0
ARC
  5
1C48
330
1C38
100
AcDbEntity
  8
UPPER-ANGLE
100
AcDbCircle
 10
4.500000008773017
 20
0.8124999980946142
 30
0.0
 40
0.125
100
AcDbArc
 50
0.0000000000000064
 51
180.0
  0
ARC
  5
1C49
330
1C38
100
AcDbEntity
  8
UPPER-ANGLE
100
AcDbCircle
 10
3.750000008773017
 20
0.8124999980946142
 30
0.0
 40
0.125
100
AcDbArc
 50
0.0000000000000064
 51
180.0
  0
LINE
  5
1C4A
330
1C38
100
AcDbEntity
  8
SPLICE-PLATE
 62
     7
100
AcDbLine
 10
5.000000008773017
 20
2.499999998094613
 30
0.0
 11
5.000000008773017
 21
-0.0000000019053856
 31
0.0
  0
ARC
  5
1C4B
330
1C38
100
AcDbEntity
  8
UPPER-ANGLE
100
AcDbCircle
 10
3.750000008773017
 20
0.5624999980946144
 30
0.0
 40
0.125
100
AcDbArc
 50
180.0
 51
0.0000000000000064
  0
LINE
  5
1C4C
330
1C38
100
AcDbEntity
  8
UPPER-ANGLE
100
AcDbLine
 10
3.625000008773017
 20
0.8124999980946142
 30
0.0
 11
3.625000008773017
 21
0.5624999980946144
 31
0.0
  0
LINE
  5
1C4D
330
1C38
100
AcDbEntity
  8
UPPER-ANGLE
100
AcDbLine
 10
3.875000008773017
 20
0.8124999980946142
 30
0.0
 11
3.875000008773017
 21
0.5624999980946144
 31
0.0
  0
ARC
  5
1C4E
330
1C38
100
AcDbEntity
  8
UPPER-ANGLE
100
AcDbCircle
 10
4.500000008773017
 20
0.5624999980946144
 30
0.0
 40
0.125
100
AcDbArc
 50
180.0
 51
0.0000000000000064
  0
LINE
  5
1C4F
330
1C38
100
AcDbEntity
  8
UPPER-ANGLE
100
AcDbLine
 10
4.375000008773017
 20
0.8124999980946142
 30
0.0
 11
4.375000008773017
 21
0.5624999980946144
 31
0.0
  0
LINE
  5
1C50
330
1C38
100
AcDbEntity
  8
UPPER-ANGLE
100
AcDbLine
 10
4.625000008773017
 20
0.8124999980946142
 30
0.0
 11
4.625000008773017
 21
0.5624999980946144
 31
0.0
  0
LINE
  5
1C51
330
1C38
100
AcDbEntity
  8
UPPER-ANGLE
100
AcDbLine
 10
3.156250008773053
 20
1.093749998094614
 30
0.0
 11
4.593750008772982
 21
1.093749998094557
 31
0.0
  0
LINE
  5
1C52
330
1C38
100
AcDbEntity
  8
UPPER-ANGLE
100
AcDbLine
 10
3.156250008773053
 20
1.406249998094613
 30
0.0
 11
4.593750008772982
 21
1.406249998094557
 31
0.0
  0
TEXT
  5
1C53
330
1C38
100
AcDbEntity
  8
SPLICE-PLATE
 62
     7
100
AcDbText
 10
2.176615682921369
 20
1.162239745643665
 30
0.0
 40
0.3
  1
5
 50
90.0
100
AcDbText
  0
ARC
  5
1C54
330
1C38
100
AcDbEntity
  8
UPPER-ANGLE
100
AcDbCircle
 10
3.156250008773053
 20
1.249999998094613
 30
0.0
 40
0.1562500000000343
100
AcDbArc
 50
90.0
 51
270.0
  0
CIRCLE
  5
1C55
330
1C38
100
AcDbEntity
  8
UPPER-ANGLE
100
AcDbCircle
 10
3.750000008773017
 20
1.906199998094626
 30
0.0
 40
0.125
  0
ARC
  5
1C56
330
1C38
100
AcDbEntity
  8
UPPER-ANGLE
100
AcDbCircle
 10
4.593750008772982
 20
1.249999998094613
 30
0.0
 40
0.1562500000000379
100
AcDbArc
 50
270.0
 51
90.0
  0
CIRCLE
  5
1C57
330
1C38
100
AcDbEntity
  8
UPPER-ANGLE
100
AcDbCircle
 10
4.500000008773017
 20
1.906199998094626
 30
0.0
 40
0.125
  0
ENDBLK
  5
1C59
330
1C38
100
AcDbEntity
  8
0
100
AcDbBlockEnd
  0
BLOCK
  5
41BF
330
41B4
100
AcDbEntity
  8
0
100
AcDbBlockBegin
  2
*D27
 70
     1
 10
0.0
 20
0.0
 30
0.0
  3
*D27
  1

  0
LINE
  5
420F
330
41B4
100
AcDbEntity
  8
TEXT
 62
     0
370
    -2
100
AcDbLine
 10
-207.8322805643951
 20
333.2432783698945
 30
0.0
 11
-263.7247461426401
 21
333.2432783698945
 31
0.0
  0
LINE
  5
4210
330
41B4
100
AcDbEntity
  8
TEXT
 62
     0
370
    -2
100
AcDbLine
 10
-247.0879950581824
 20
88.0307783698945
 30
0.0
 11
-263.7247461426402
 21
88.0307783698945
 31
0.0
  0
LINE
  5
4211
330
41B4
100
AcDbEntity
  8
TEXT
 62
     0
370
    -2
100
AcDbLine
 10
-262.7247461426401
 20
330.2432783698945
 30
0.0
 11
-262.7247461426401
 21
213.9899183001997
 31
0.0
  0
LINE
  5
4212
330
41B4
100
AcDbEntity
  8
TEXT
 62
     0
370
    -2
100
AcDbLine
 10
-262.7247461426402
 20
91.0307783698945
 30
0.0
 11
-262.7247461426401
 21
207.2841384395893
 31
0.0
  0
SOLID
  5
4213
330
41B4
100
AcDbEntity
  8
TEXT
 62
     0
100
AcDbTrace
 10
-263.2247461426401
 20
330.2432783698945
 30
0.0
 11
-262.2247461426401
 21
330.2432783698945
 31
0.0
 12
-262.7247461426401
 22
333.2432783698945
 32
0.0
 13
-262.7247461426401
 23
333.2432783698945
 33
0.0
  0
SOLID
  5
4214
330
41B4
100
AcDbEntity
  8
TEXT
 62
     0
100
AcDbTrace
 10
-263.2247461426402
 20
91.0307783698945
 30
0.0
 11
-262.2247461426402
 21
91.0307783698945
 31
0.0
 12
-262.7247461426402
 22
88.0307783698945
 32
0.0
 13
-262.7247461426402
 23
88.0307783698945
 33
0.0
  0
MTEXT
  5
4215
330
41B4
100
AcDbEntity
  8
TEXT
 62
     0
100
AcDbMText
 10
-262.7247461426402
 20
210.6370283698945
 30
0.0
 40
1.75
 41
0.0
 46
0.0
 71
     5
 72
     1
  1
\A1;FLOOR TO\PSHAFT CENTER
  7
WEB PAGE
 73
     1
 44
1.0
  0
POINT
  5
4216
330
41B4
100
AcDbEntity
  8
DEFPOINTS
 62
     0
100
AcDbPoint
 10
-205.8322805643951
 20
333.2432783698945
 30
0.0
  0
POINT
  5
4217
330
41B4
100
AcDbEntity
  8
DEFPOINTS
 62
     0
100
AcDbPoint
 10
-245.0879950581825
 20
88.0307783698945
 30
0.0
  0
POINT
  5
4218
330
41B4
100
AcDbEntity
  8
DEFPOINTS
 62
     0
100
AcDbPoint
 10
-262.7247461426402
 20
88.0307783698945
 30
0.0
  0
ENDBLK
  5
41C0
330
41B4
100
AcDbEntity
  8
0
100
AcDbBlockEnd
  0
BLOCK
  5
41CC
330
41C1
100
AcDbEntity
  8
0
100
AcDbBlockBegin
  2
*D28
 70
     1
 10
0.0
 20
0.0
 30
0.0
  3
*D28
  1

  0
LINE
  5
4269
330
41C1
100
AcDbEntity
  8
TEXT
 62
     0
370
    -2
100
AcDbLine
 10
-212.8322805643951
 20
340.0307783698945
 30
0.0
 11
-246.0879950581824
 21
340.0307783698945
 31
0.0
  0
LINE
  5
426A
330
41C1
100
AcDbEntity
  8
TEXT
 62
     0
370
    -2
100
AcDbLine
 10
-247.0879950581824
 20
196.0307783698945
 30
0.0
 11
-246.0879950581825
 21
196.0307783698945
 31
0.0
  0
LINE
  5
426B
330
41C1
100
AcDbEntity
  8
TEXT
 62
     0
370
    -2
100
AcDbLine
 10
-245.0879950581824
 20
337.0307783698945
 30
0.0
 11
-245.0879950581825
 21
271.3836683001997
 31
0.0
  0
LINE
  5
426C
330
41C1
100
AcDbEntity
  8
TEXT
 62
     0
370
    -2
100
AcDbLine
 10
-245.0879950581825
 20
199.0307783698945
 30
0.0
 11
-245.0879950581825
 21
264.6778884395893
 31
0.0
  0
SOLID
  5
426D
330
41C1
100
AcDbEntity
  8
TEXT
 62
     0
100
AcDbTrace
 10
-245.5879950581824
 20
337.0307783698945
 30
0.0
 11
-244.5879950581824
 21
337.0307783698945
 31
0.0
 12
-245.0879950581824
 22
340.0307783698945
 32
0.0
 13
-245.0879950581824
 23
340.0307783698945
 33
0.0
  0
SOLID
  5
426E
330
41C1
100
AcDbEntity
  8
TEXT
 62
     0
100
AcDbTrace
 10
-245.5879950581825
 20
199.0307783698945
 30
0.0
 11
-244.5879950581824
 21
199.0307783698945
 31
0.0
 12
-245.0879950581825
 22
196.0307783698945
 32
0.0
 13
-245.0879950581825
 23
196.0307783698945
 33
0.0
  0
MTEXT
  5
426F
330
41C1
100
AcDbEntity
  8
TEXT
 62
     0
100
AcDbMText
 10
-245.0879950581825
 20
268.0307783698944
 30
0.0
 40
1.75
 41
0.0
 46
0.0
 71
     5
 72
     1
  1
\A1;MINIMUM\PHEADROOM
  7
WEB PAGE
 73
     1
 44
1.0
  0
POINT
  5
4270
330
41C1
100
AcDbEntity
  8
DEFPOINTS
 62
     0
100
AcDbPoint
 10
-210.8322805643951
 20
340.0307783698945
 30
0.0
  0
POINT
  5
4271
330
41C1
100
AcDbEntity
  8
DEFPOINTS
 62
     0
100
AcDbPoint
 10
-245.0879950581825
 20
196.0307783698945
 30
0.0
  0
POINT
  5
4272
330
41C1
100
AcDbEntity
  8
DEFPOINTS
 62
     0
100
AcDbPoint
 10
-245.0879950581825
 20
196.0307783698945
 30
0.0
  0
ENDBLK
  5
41CD
330
41C1
100
AcDbEntity
  8
0
100
AcDbBlockEnd
  0
BLOCK
  5
41D9
330
41CE
100
AcDbEntity
  8
0
100
AcDbBlockBegin
  2
*D29
 70
     1
 10
0.0
 20
0.0
 30
0.0
  3
*D29
  1

  0
LINE
  5
4223
330
41CE
100
AcDbEntity
  8
TEXT
 62
     0
370
    -2
100
AcDbLine
 10
-247.0879950581824
 20
340.0307783698945
 30
0.0
 11
-285.2353121979094
 21
340.0307783698945
 31
0.0
  0
LINE
  5
4224
330
41CE
100
AcDbEntity
  8
TEXT
 62
     0
370
    -2
100
AcDbLine
 10
-264.7247461426402
 20
88.0307783698945
 30
0.0
 11
-285.2353121979094
 21
88.0307783698945
 31
0.0
  0
LINE
  5
4225
330
41CE
100
AcDbEntity
  8
TEXT
 62
     0
370
    -2
100
AcDbLine
 10
-284.2353121979094
 20
337.0307783698945
 30
0.0
 11
-284.2353121979094
 21
227.8538034435018
 31
0.0
  0
LINE
  5
4226
330
41CE
100
AcDbEntity
  8
TEXT
 62
     0
370
    -2
100
AcDbLine
 10
-284.2353121979094
 20
91.0307783698945
 30
0.0
 11
-284.2353121979094
 21
221.1480235828914
 31
0.0
  0
SOLID
  5
4227
330
41CE
100
AcDbEntity
  8
TEXT
 62
     0
100
AcDbTrace
 10
-284.7353121979093
 20
337.0307783698945
 30
0.0
 11
-283.7353121979094
 21
337.0307783698945
 31
0.0
 12
-284.2353121979094
 22
340.0307783698945
 32
0.0
 13
-284.2353121979094
 23
340.0307783698945
 33
0.0
  0
SOLID
  5
4228
330
41CE
100
AcDbEntity
  8
TEXT
 62
     0
100
AcDbTrace
 10
-284.7353121979094
 20
91.0307783698945
 30
0.0
 11
-283.7353121979094
 21
91.0307783698945
 31
0.0
 12
-284.2353121979094
 22
88.0307783698945
 32
0.0
 13
-284.2353121979094
 23
88.0307783698945
 33
0.0
  0
MTEXT
  5
4229
330
41CE
100
AcDbEntity
  8
TEXT
 62
     0
100
AcDbMText
 10
-284.2353121979094
 20
224.5009135131966
 30
0.0
 40
1.75
 41
0.0
 46
0.0
 71
     5
 72
     1
  1
\A1;MINIMUM CEILING\PHEIGHT
  7
WEB PAGE
 73
     1
 44
1.0
  0
POINT
  5
422A
330
41CE
100
AcDbEntity
  8
DEFPOINTS
 62
     0
100
AcDbPoint
 10
-245.0879950581824
 20
340.0307783698945
 30
0.0
  0
POINT
  5
422B
330
41CE
100
AcDbEntity
  8
DEFPOINTS
 62
     0
100
AcDbPoint
 10
-262.7247461426402
 20
88.0307783698945
 30
0.0
  0
POINT
  5
422C
330
41CE
100
AcDbEntity
  8
DEFPOINTS
 62
     0
100
AcDbPoint
 10
-284.2353121979094
 20
88.0307783698945
 30
0.0
  0
ENDBLK
  5
41DA
330
41CE
100
AcDbEntity
  8
0
100
AcDbBlockEnd
  0
BLOCK
  5
41E6
330
41DB
100
AcDbEntity
  8
0
100
AcDbBlockBegin
  2
*D30
 70
     1
 10
0.0
 20
0.0
 30
0.0
  3
*D30
  1

  0
LINE
  5
4255
330
41DB
100
AcDbEntity
  8
TEXT
 62
     0
370
    -2
100
AcDbLine
 10
-218.8322805643951
 20
88.0307783698945
 30
0.0
 11
-246.0879950581825
 21
88.03077836989452
 31
0.0
  0
LINE
  5
4256
330
41DB
100
AcDbEntity
  8
TEXT
 62
     0
370
    -2
100
AcDbLine
 10
-218.8322805643951
 20
196.0307783698945
 30
0.0
 11
-246.0879950581825
 21
196.0307783698945
 31
0.0
  0
LINE
  5
4257
330
41DB
100
AcDbEntity
  8
TEXT
 62
     0
370
    -2
100
AcDbLine
 10
-245.0879950581825
 20
91.03077836989452
 30
0.0
 11
-245.0879950581825
 21
138.6778884395893
 31
0.0
  0
LINE
  5
4258
330
41DB
100
AcDbEntity
  8
TEXT
 62
     0
370
    -2
100
AcDbLine
 10
-245.0879950581825
 20
193.0307783698945
 30
0.0
 11
-245.0879950581825
 21
145.3836683001997
 31
0.0
  0
SOLID
  5
4259
330
41DB
100
AcDbEntity
  8
TEXT
 62
     0
100
AcDbTrace
 10
-245.5879950581825
 20
91.03077836989452
 30
0.0
 11
-244.5879950581825
 21
91.03077836989452
 31
0.0
 12
-245.0879950581825
 22
88.03077836989452
 32
0.0
 13
-245.0879950581825
 23
88.03077836989452
 33
0.0
  0
SOLID
  5
425A
330
41DB
100
AcDbEntity
  8
TEXT
 62
     0
100
AcDbTrace
 10
-245.5879950581825
 20
193.0307783698945
 30
0.0
 11
-244.5879950581824
 21
193.0307783698945
 31
0.0
 12
-245.0879950581825
 22
196.0307783698945
 32
0.0
 13
-245.0879950581825
 23
196.0307783698945
 33
0.0
  0
MTEXT
  5
425B
330
41DB
100
AcDbEntity
  8
TEXT
 62
     0
100
AcDbMText
 10
-245.0879950581825
 20
142.0307783698945
 30
0.0
 40
1.75
 41
0.0
 46
0.0
 71
     5
 72
     1
  1
\A1;OPENING\PHEIGHT
  7
WEB PAGE
 73
     1
 44
1.0
  0
POINT
  5
425C
330
41DB
100
AcDbEntity
  8
DEFPOINTS
 62
     0
100
AcDbPoint
 10
-216.8322805643951
 20
88.0307783698945
 30
0.0
  0
POINT
  5
425D
330
41DB
100
AcDbEntity
  8
DEFPOINTS
 62
     0
100
AcDbPoint
 10
-216.8322805643951
 20
196.0307783698945
 30
0.0
  0
POINT
  5
425E
330
41DB
100
AcDbEntity
  8
DEFPOINTS
 62
     0
100
AcDbPoint
 10
-245.0879950581825
 20
196.0307783698945
 30
0.0
  0
ENDBLK
  5
41E7
330
41DB
100
AcDbEntity
  8
0
100
AcDbBlockEnd
  0
BLOCK
  5
41F3
330
41E8
100
AcDbEntity
  8
0
100
AcDbBlockBegin
  2
*D31
 70
     1
 10
0.0
 20
0.0
 30
0.0
  3
*D31
  1

  0
LINE
  5
425F
330
41E8
100
AcDbEntity
  8
TEXT
 62
     0
370
    -2
100
AcDbLine
 10
-204.4995615137529
 20
188.0302100519321
 30
0.0
 11
-165.0849393136475
 21
188.0302100519321
 31
0.0
  0
LINE
  5
4260
330
41E8
100
AcDbEntity
  8
TEXT
 62
     0
370
    -2
100
AcDbLine
 10
-164.1951982938883
 20
88.0307783698945
 30
0.0
 11
-167.0849393136475
 21
88.0307783698945
 31
0.0
  0
LINE
  5
4261
330
41E8
100
AcDbEntity
  8
TEXT
 62
     0
370
    -2
100
AcDbLine
 10
-166.0849393136475
 20
185.0302100519321
 30
0.0
 11
-166.0849393136475
 21
142.8417174745518
 31
0.0
  0
LINE
  5
4262
330
41E8
100
AcDbEntity
  8
TEXT
 62
     0
370
    -2
100
AcDbLine
 10
-166.0849393136475
 20
91.0307783698945
 30
0.0
 11
-166.0849393136475
 21
133.2192709472747
 31
0.0
  0
SOLID
  5
4263
330
41E8
100
AcDbEntity
  8
TEXT
 62
     0
100
AcDbTrace
 10
-166.5849393136475
 20
185.0302100519321
 30
0.0
 11
-165.5849393136475
 21
185.0302100519321
 31
0.0
 12
-166.0849393136475
 22
188.0302100519321
 32
0.0
 13
-166.0849393136475
 23
188.0302100519321
 33
0.0
  0
SOLID
  5
4264
330
41E8
100
AcDbEntity
  8
TEXT
 62
     0
100
AcDbTrace
 10
-166.5849393136475
 20
91.0307783698945
 30
0.0
 11
-165.5849393136475
 21
91.0307783698945
 31
0.0
 12
-166.0849393136475
 22
88.0307783698945
 32
0.0
 13
-166.0849393136475
 23
88.0307783698945
 33
0.0
  0
MTEXT
  5
4265
330
41E8
100
AcDbEntity
  8
TEXT
 62
     0
100
AcDbMText
 10
-166.0849393136475
 20
138.0304942109132
 30
0.0
 40
1.75
 41
0.0
 46
0.0
 71
     5
 72
     1
  1
\A1;LOWER VERTICAL\PTRACK\PDOOR HEIGHT-8"
  7
WEB PAGE
 73
     1
 44
1.0
  0
POINT
  5
4266
330
41E8
100
AcDbEntity
  8
DEFPOINTS
 62
     0
100
AcDbPoint
 10
-206.4995615137529
 20
188.0302100519321
 30
0.0
  0
POINT
  5
4267
330
41E8
100
AcDbEntity
  8
DEFPOINTS
 62
     0
100
AcDbPoint
 10
-162.1951982938883
 20
88.0307783698945
 30
0.0
  0
POINT
  5
4268
330
41E8
100
AcDbEntity
  8
DEFPOINTS
 62
     0
100
AcDbPoint
 10
-166.0849393136475
 20
88.0307783698945
 30
0.0
  0
ENDBLK
  5
41F4
330
41E8
100
AcDbEntity
  8
0
100
AcDbBlockEnd
  0
BLOCK
  5
4200
330
41F5
100
AcDbEntity
  8
0
100
AcDbBlockBegin
  2
*D32
 70
     1
 10
0.0
 20
0.0
 30
0.0
  3
*D32
  1

  0
LINE
  5
4287
330
41F5
100
AcDbEntity
  8
0
 62
     0
370
    -2
100
AcDbLine
 10
-212.8322805643951
 20
205.1032962630457
 30
0.0
 11
-231.2244385452893
 21
205.1032962630457
 31
0.0
  0
LINE
  5
4288
330
41F5
100
AcDbEntity
  8
0
 62
     0
370
    -2
100
AcDbLine
 10
-212.8322805643951
 20
328.1032962630458
 30
0.0
 11
-231.2244385452893
 21
328.1032962630458
 31
0.0
  0
LINE
  5
4289
330
41F5
100
AcDbEntity
  8
0
 62
     0
370
    -2
100
AcDbLine
 10
-230.2244385452894
 20
208.1032962630458
 30
0.0
 11
-230.2244385452894
 21
285.1634019442615
 31
0.0
  0
LINE
  5
428A
330
41F5
100
AcDbEntity
  8
0
 62
     0
370
    -2
100
AcDbLine
 10
-230.2244385452893
 20
325.1032962630457
 30
0.0
 11
-230.2244385452894
 21
295.3435269142206
 31
0.0
  0
SOLID
  5
428B
330
41F5
100
AcDbEntity
  8
0
 62
     0
100
AcDbTrace
 10
-230.7244385452893
 20
208.1032962630458
 30
0.0
 11
-229.7244385452893
 21
208.1032962630458
 31
0.0
 12
-230.2244385452894
 22
205.1032962630457
 32
0.0
 13
-230.2244385452894
 23
205.1032962630457
 33
0.0
  0
SOLID
  5
428C
330
41F5
100
AcDbEntity
  8
0
 62
     0
100
AcDbTrace
 10
-230.7244385452893
 20
325.1032962630457
 30
0.0
 11
-229.7244385452893
 21
325.1032962630457
 31
0.0
 12
-230.2244385452893
 22
328.1032962630458
 32
0.0
 13
-230.2244385452893
 23
328.1032962630458
 33
0.0
  0
MTEXT
  5
428D
330
41F5
100
AcDbEntity
  8
0
 62
     0
100
AcDbMText
 10
-230.2244385452894
 20
290.253464429241
 30
0.0
 40
1.75
 41
0.0
 46
0.0
 71
     5
 72
     1
  1
\A1;UPPER\PVERTICAL ANGLE\P(DOOR HEIGHT - 9")
  7
WEB PAGE
 73
     1
 44
1.0
  0
POINT
  5
428E
330
41F5
100
AcDbEntity
  8
DEFPOINTS
 62
     0
100
AcDbPoint
 10
-210.8322805643951
 20
205.1032962630457
 30
0.0
  0
POINT
  5
428F
330
41F5
100
AcDbEntity
  8
DEFPOINTS
 62
     0
100
AcDbPoint
 10
-210.8322805643951
 20
328.1032962630458
 30
0.0
  0
POINT
  5
4290
330
41F5
100
AcDbEntity
  8
DEFPOINTS
 62
     0
100
AcDbPoint
 10
-230.2244385452893
 20
328.1032962630458
 30
0.0
  0
ENDBLK
  5
4201
330
41F5
100
AcDbEntity
  8
0
100
AcDbBlockEnd
  0
BLOCK
  5
420D
330
4202
100
AcDbEntity
  8
0
100
AcDbBlockBegin
  2
*D33
 70
     1
 10
0.0
 20
0.0
 30
0.0
  3
*D33
  1

  0
LINE
  5
4291
330
4202
100
AcDbEntity
  8
0
 62
     0
370
    -2
100
AcDbLine
 10
-202.4995615137529
 20
188.0302100519321
 30
0.0
 11
-133.9330494692599
 21
188.0302100519321
 31
0.0
  0
LINE
  5
4292
330
4202
100
AcDbEntity
  8
0
 62
     0
370
    -2
100
AcDbLine
 10
-194.297944993615
 20
339.6955110795926
 30
0.0
 11
-133.9330494692599
 21
339.6955110795926
 31
0.0
  0
LINE
  5
4293
330
4202
100
AcDbEntity
  8
0
 62
     0
370
    -2
100
AcDbLine
 10
-134.9330494692599
 20
191.0302100519321
 30
0.0
 11
-134.9330494692599
 21
258.7727980807828
 31
0.0
  0
LINE
  5
4294
330
4202
100
AcDbEntity
  8
0
 62
     0
370
    -2
100
AcDbLine
 10
-134.9330494692599
 20
336.6955110795926
 30
0.0
 11
-134.9330494692599
 21
268.952923050742
 31
0.0
  0
SOLID
  5
4295
330
4202
100
AcDbEntity
  8
0
 62
     0
100
AcDbTrace
 10
-135.43304946926
 20
191.0302100519321
 30
0.0
 11
-134.43304946926
 21
191.0302100519321
 31
0.0
 12
-134.9330494692599
 22
188.0302100519321
 32
0.0
 13
-134.9330494692599
 23
188.0302100519321
 33
0.0
  0
SOLID
  5
4296
330
4202
100
AcDbEntity
  8
0
 62
     0
100
AcDbTrace
 10
-135.4330494692599
 20
336.6955110795926
 30
0.0
 11
-134.4330494692599
 21
336.6955110795926
 31
0.0
 12
-134.9330494692599
 22
339.6955110795926
 32
0.0
 13
-134.9330494692599
 23
339.6955110795926
 33
0.0
  0
MTEXT
  5
4297
330
4202
100
AcDbEntity
  8
0
 62
     0
100
AcDbMText
 10
-134.9330494692599
 20
263.8628605657623
 30
0.0
 40
1.75
 41
0.0
 46
0.0
 71
     5
 72
     1
  1
\A1;UPPER\PVERTICAL TRACK\P(DOOR HEIGHT + 21")
  7
WEB PAGE
 73
     1
 44
1.0
  0
POINT
  5
4298
330
4202
100
AcDbEntity
  8
DEFPOINTS
 62
     0
100
AcDbPoint
 10
-204.4995615137529
 20
188.0302100519321
 30
0.0
  0
POINT
  5
4299
330
4202
100
AcDbEntity
  8
DEFPOINTS
 62
     0
100
AcDbPoint
 10
-196.297944993615
 20
339.6955110795926
 30
0.0
  0
POINT
  5
429A
330
4202
100
AcDbEntity
  8
DEFPOINTS
 62
     0
100
AcDbPoint
 10
-134.9330494692599
 20
339.6955110795926
 30
0.0
  0
ENDBLK
  5
420E
330
4202
100
AcDbEntity
  8
0
100
AcDbBlockEnd
  0
ENDSEC
  0
SECTION
  2
ENTITIES
  0
MTEXT
  5
77E
330
2
100
AcDbEntity
  8
0
100
AcDbMText
 10
209.1194715078667
 20
294.8865423639552
 30
0.0
 40
3.6
 41
0.0
 46
0.0
 71
     4
 72
     1
  1
\A1;
 73
     1
 44
1.0
  0
LINE
  5
3CB3
330
2
100
AcDbEntity
  8
TEXT
100
AcDbLine
 10
-89.31342091978484
 20
107.4906787926392
 30
0.0
 11
-146.1865821784362
 21
107.4906787926392
 31
0.0
  0
LINE
  5
3CB8
330
2
100
AcDbEntity
  8
TEXT
100
AcDbLine
 10
-146.1865821784362
 20
135.5136424601963
 30
0.0
 11
-89.31342091978496
 21
135.5136424601963
 31
0.0
  0
TEXT
  5
3CBF
330
2
100
AcDbEntity
  8
TEXT
100
AcDbText
 10
-119.0221666795846
 20
112.1756296800607
 30
0.0
 40
1.75
  1
2 x DH + 5-3/16"
  7
WEB PAGE
 72
     1
 11
-109.9428588208968
 21
112.1756296800607
 31
0.0
100
AcDbText
  0
TEXT
  5
3CC0
330
2
100
AcDbEntity
  8
TEXT
100
AcDbText
 10
-119.0221666795846
 20
115.701868042861
 30
0.0
 40
1.75
  1
2 x DH + 5-3/16"
  7
WEB PAGE
 72
     1
 11
-109.9428588208968
 21
115.701868042861
 31
0.0
100
AcDbText
  0
TEXT
  5
3CC1
330
2
100
AcDbEntity
  8
TEXT
100
AcDbText
 10
-124.2519606044734
 20
120.7672912440875
 30
0.0
 40
1.75
  1
FLOOR TO SHAFT CENTER
  7
WEB PAGE
 72
     1
 11
-108.1972562064922
 21
120.7672912440875
 31
0.0
100
AcDbText
  0
TEXT
  5
3CC2
330
2
100
AcDbEntity
  8
TEXT
100
AcDbText
 10
-119.0221666795846
 20
108.5059680115671
 30
0.0
 40
1.75
  1
2 x DH + 5-3/16"
  7
WEB PAGE
 72
     1
 11
-109.9428588208968
 21
108.5059680115671
 31
0.0
100
AcDbText
  0
LINE
  5
3CC3
330
2
100
AcDbEntity
  8
TEXT
100
AcDbLine
 10
-89.31342091978484
 20
111.1242885936074
 30
0.0
 11
-146.1865821784362
 21
111.1242885936073
 31
0.0
  0
LINE
  5
3CC4
330
2
100
AcDbEntity
  8
TEXT
100
AcDbLine
 10
-89.31342091978484
 20
114.7578983945755
 30
0.0
 11
-146.1865821784362
 21
114.7578983945755
 31
0.0
  0
LINE
  5
3CC5
330
2
100
AcDbEntity
  8
TEXT
100
AcDbLine
 10
-146.1865821784362
 20
125.2751179965118
 30
0.0
 11
-89.31342091978496
 21
125.2751179965118
 31
0.0
  0
LINE
  5
3CC6
330
2
100
AcDbEntity
  8
TEXT
100
AcDbLine
 10
-146.1865821784362
 20
118.3915081955436
 30
0.0
 11
-89.31342091978496
 21
118.3915081955436
 31
0.0
  0
MTEXT
  5
3CC7
330
2
100
AcDbEntity
  8
TEXT
100
AcDbMText
 10
-117.5816685641661
 20
134.2841434529184
 30
0.0
 40
2.6
 41
50.923
 46
0.0
 71
     2
 72
     5
  1
FLOOR TO SHAFT CENTER\PREQUIREMENTS
  7
WEB PAGE
 73
     1
 44
1.0
  0
LINE
  5
3CC8
330
2
100
AcDbEntity
  8
TEXT
100
AcDbLine
 10
-146.1865821784362
 20
125.2751179965118
 30
0.0
 11
-146.1865821784362
 21
135.5136424601963
 31
0.0
  0
LINE
  5
3CC9
330
2
100
AcDbEntity
  8
TEXT
100
AcDbLine
 10
-126.7397981999631
 20
125.2751179965118
 30
0.0
 11
-126.7397981999631
 21
107.4906787926392
 31
0.0
  0
LINE
  5
3CCA
330
2
100
AcDbEntity
  8
TEXT
100
AcDbLine
 10
-146.1865821784362
 20
125.2751179965118
 30
0.0
 11
-146.1865821784362
 21
107.4906787926392
 31
0.0
  0
TEXT
  5
3CCB
330
2
100
AcDbEntity
  8
TEXT
100
AcDbText
 10
-142.4217022599963
 20
108.4122925071991
 30
0.0
 40
1.75
  1
D1350-336
  7
WEB PAGE
 72
     1
 11
-136.5364282873935
 21
108.4122925071991
 31
0.0
100
AcDbText
  0
TEXT
  5
3CCD
330
2
100
AcDbEntity
  8
TEXT
100
AcDbText
 10
-141.4692832919188
 20
115.701868042861
 30
0.0
 40
1.75
  1
D850-132
  7
WEB PAGE
 72
     1
 11
-136.230007877355
 21
115.701868042861
 31
0.0
100
AcDbText
  0
TEXT
  5
3CCE
330
2
100
AcDbEntity
  8
TEXT
100
AcDbText
 10
-142.6085606814591
 20
111.9181256854304
 30
0.0
 40
1.75
  1
D1100-216
  7
WEB PAGE
 72
     1
 11
-136.7232867088564
 21
111.9181256854304
 31
0.0
100
AcDbText
  0
TEXT
  5
3CCF
330
2
100
AcDbEntity
  8
TEXT
100
AcDbText
 10
-140.2207408390918
 20
120.7672912440875
 30
0.0
 40
1.75
  1
DRUM
  7
WEB PAGE
 72
     1
 11
-136.3441186328913
 21
120.7672912440875
 31
0.0
100
AcDbText
  0
LINE
  5
3CD8
330
2
100
AcDbEntity
  8
TEXT
100
AcDbLine
 10
-89.31342091978496
 20
125.2751179965118
 30
0.0
 11
-89.31342091978496
 21
135.5136424601963
 31
0.0
  0
LINE
  5
3CD9
330
2
100
AcDbEntity
  8
TEXT
100
AcDbLine
 10
-89.31342091978496
 20
125.2751179965118
 30
0.0
 11
-89.31342091978491
 21
107.4906787926392
 31
0.0
  0
TEXT
  5
3E5E
330
2
100
AcDbEntity
  8
TEXT
100
AcDbText
 10
-144.5318390364042
 20
104.2332592873311
 30
0.0
 40
1.75
  1
DH = DOOR HEIGHT
  7
WEB PAGE
 72
     1
 11
-132.4994850349622
 21
104.2332592873311
 31
0.0
100
AcDbText
  0
DIMENSION
  5
413B
330
2
100
AcDbEntity
  8
TEXT
100
AcDbDimension
  2
*D27
 10
-262.7247461426402
 20
88.0307783698945
 30
0.0
 11
-262.7247461426402
 21
210.6370283698945
 31
0.0
 70
    32
  1
FLOOR TO\PSHAFT CENTER
 71
     5
 42
245.2125
 73
     0
 74
     0
 75
     0
  3
STANDARD
100
AcDbAlignedDimension
 13
-205.8322805643951
 23
333.2432783698945
 33
0.0
 14
-245.0879950581825
 24
88.0307783698945
 34
0.0
 50
90.0
100
AcDbRotatedDimension
  0
DIMENSION
  5
413C
330
2
100
AcDbEntity
  8
TEXT
100
AcDbDimension
  2
*D28
 10
-245.0879950581825
 20
196.0307783698945
 30
0.0
 11
-245.0879950581825
 21
268.0307783698944
 31
0.0
 70
    32
  1
MINIMUM\PHEADROOM
 71
     5
 42
144.0
 73
     0
 74
     0
 75
     0
  3
STANDARD
100
AcDbAlignedDimension
 13
-210.8322805643951
 23
340.0307783698945
 33
0.0
 14
-245.0879950581825
 24
196.0307783698945
 34
0.0
 50
90.0
100
AcDbRotatedDimension
  0
LWPOLYLINE
  5
413D
102
{ACAD_REACTORS
330
43BA
102
}
330
2
100
AcDbEntity
  8
0
100
AcDbPolyline
 90
        6
 70
     1
 43
0.0
 10
-210.8322805643951
 20
196.0307783698945
 10
-210.8322805643951
 20
340.0307783698945
 10
-114.8322805643952
 20
340.0307783698945
 10
-114.8322805643952
 20
346.0307783698945
 10
-216.8322805643951
 20
346.0307783698945
 10
-216.8322805643951
 20
196.0307783698945
  0
LWPOLYLINE
  5
413E
102
{ACAD_REACTORS
330
43BA
102
}
330
2
100
AcDbEntity
  8
0
100
AcDbPolyline
 90
        4
 70
     1
 43
0.0
 10
-210.8322805643951
 20
88.0307783698945
 10
-210.8322805643951
 20
196.0307783698945
 10
-216.8322805643951
 20
196.0307783698945
 10
-216.8322805643951
 20
88.0307783698945
  0
DIMENSION
  5
413F
330
2
100
AcDbEntity
  8
TEXT
100
AcDbDimension
  2
*D29
 10
-284.2353121979094
 20
88.0307783698945
 30
0.0
 11
-284.2353121979094
 21
224.5009135131966
 31
0.0
 70
   160
  1
MINIMUM CEILING\PHEIGHT
 71
     5
 42
252.0
 73
     0
 74
     0
 75
     0
  3
STANDARD
100
AcDbAlignedDimension
 13
-245.0879950581824
 23
340.0307783698945
 33
0.0
 14
-262.7247461426402
 24
88.0307783698945
 34
0.0
 50
90.0
100
AcDbRotatedDimension
  0
DIMENSION
  5
4140
330
2
100
AcDbEntity
  8
TEXT
100
AcDbDimension
  2
*D30
 10
-245.0879950581825
 20
196.0307783698945
 30
0.0
 11
-245.0879950581825
 21
142.0307783698945
 31
0.0
 70
    32
  1
OPENING\PHEIGHT
 71
     5
 42
108.0
 73
     0
 74
     0
 75
     0
  3
STANDARD
100
AcDbAlignedDimension
 13
-216.8322805643951
 23
88.0307783698945
 33
0.0
 14
-216.8322805643951
 24
196.0307783698945
 34
0.0
 50
90.0
100
AcDbRotatedDimension
  0
INSERT
  5
4141
102
{ACAD_REACTORS
330
43BA
102
}
330
2
100
AcDbEntity
  8
0
100
AcDbBlockReference
  2
19A
 10
-217.029642086254
 20
183.0252761325725
 30
0.0
  0
DIMENSION
  5
4142
330
2
100
AcDbEntity
  8
TEXT
100
AcDbDimension
  2
*D31
 10
-166.0849393136475
 20
88.0307783698945
 30
0.0
 11
-166.0849393136475
 21
138.0304942109132
 31
0.0
 70
    32
  1
LOWER VERTICAL\PTRACK\PDOOR HEIGHT-8"
 71
     5
 42
99.99943168203763
 73
     0
 74
     0
 75
     0
  3
STANDARD
100
AcDbAlignedDimension
 13
-206.4995615137529
 23
188.0302100519321
 33
0.0
 14
-162.1951982938883
 24
88.0307783698945
 34
0.0
 50
90.0
100
AcDbRotatedDimension
  0
MTEXT
  5
4143
330
2
100
AcDbEntity
  8
TEXT
100
AcDbMText
 10
-192.0214664904472
 20
102.4710946072657
 30
0.0
 40
1.75
 41
0.0
 46
0.0
 71
     4
 72
     1
  1
JAMB BRACKETS\PTYPICAL
  7
WEB PAGE
 73
     1
 44
1.0
  0
LINE
  5
4144
330
2
100
AcDbEntity
  8
TEXT
100
AcDbLine
 10
-197.4214664904472
 20
102.4710946072657
 30
0.0
 11
-193.8214664904472
 21
102.4710946072657
 31
0.0
  0
LINE
  5
4145
330
2
100
AcDbEntity
  8
TEXT
100
AcDbLine
 10
-203.8211181991132
 20
99.48696963076656
 30
0.0
 11
-197.4214664904472
 21
102.4710946072657
 31
0.0
  0
SOLID
  5
4146
330
2
100
AcDbEntity
  8
0
100
AcDbTrace
 10
-203.5675529390821
 20
98.94318230201998
 30
0.0
 11
-204.0746834591443
 21
100.0307569595131
 31
0.0
 12
-207.0838421715927
 22
97.96557807057991
 32
0.0
 13
-207.0838421715927
 23
97.96557807057991
 33
0.0
  0
MTEXT
  5
4147
330
2
100
AcDbEntity
  8
TEXT
100
AcDbMText
 10
-191.523072011437
 20
182.2346007324253
 30
0.0
 40
1.75
 41
0.0
 46
0.0
 71
     4
 72
     1
  1
SPLICE PLATE
  7
WEB PAGE
 73
     1
 44
1.0
  0
LINE
  5
4148
330
2
100
AcDbEntity
  8
TEXT
100
AcDbLine
 10
-196.923072011437
 20
182.2346007324253
 30
0.0
 11
-193.323072011437
 21
182.2346007324253
 31
0.0
  0
LINE
  5
4149
330
2
100
AcDbEntity
  8
TEXT
100
AcDbLine
 10
-196.923072011437
 20
182.2346007324253
 30
0.0
 11
-193.323072011437
 21
182.2346007324253
 31
0.0
  0
SOLID
  5
414A
330
2
100
AcDbEntity
  8
0
100
AcDbTrace
 10
-204.0996955042268
 20
185.3446715441159
 30
0.0
 11
-203.5394833266262
 21
186.4058794954939
 31
0.0
 12
-207.0032132695607
 22
187.5559120526066
 32
0.0
 13
-207.0032132695607
 23
187.5559120526066
 33
0.0
  0
SOLID
  5
414B
330
2
100
AcDbEntity
  8
0
100
AcDbTrace
 10
-204.0996955042268
 20
185.3446715441159
 30
0.0
 11
-203.5394833266262
 21
186.4058794954939
 31
0.0
 12
-207.0032132695607
 22
187.5559120526066
 32
0.0
 13
-207.0032132695607
 23
187.5559120526066
 33
0.0
  0
LINE
  5
414C
330
2
100
AcDbEntity
  8
TEXT
100
AcDbLine
 10
-203.8195894154265
 20
185.8752755198049
 30
0.0
 11
-196.923072011437
 21
182.2346007324253
 31
0.0
  0
LINE
  5
414D
330
2
100
AcDbEntity
  8
TEXT
100
AcDbLine
 10
-203.8195894154265
 20
185.8752755198049
 30
0.0
 11
-196.923072011437
 21
182.2346007324253
 31
0.0
  0
MTEXT
  5
414E
330
2
100
AcDbEntity
  8
TEXT
100
AcDbMText
 10
-176.6924826005615
 20
334.5144320590105
 30
0.0
 40
1.75
 41
0.0
 46
0.0
 71
     4
 72
     1
  1
SPRING BUMPER
  7
WEB PAGE
 73
     1
 44
1.0
  0
MTEXT
  5
414F
330
2
100
AcDbEntity
  8
TEXT
100
AcDbMText
 10
-181.9691191268795
 20
247.9495180986995
 30
0.0
 40
1.75
 41
0.0
 46
0.0
 71
     4
 72
     1
  1
UPPER VERTICAL\PBREAKAWAY TRACK
  7
WEB PAGE
 73
     1
 44
1.0
  0
MTEXT
  5
4150
330
2
100
AcDbEntity
  8
TEXT
100
AcDbMText
 10
-185.4482754390867
 20
321.8487337372796
 30
0.0
 40
1.75
 41
0.0
 46
0.0
 71
     4
 72
     1
  1
HI-LIFT ANGLE
  7
WEB PAGE
 73
     1
 44
1.0
  0
LINE
  5
4151
330
2
100
AcDbEntity
  8
TEXT
100
AcDbLine
 10
-198.5635063412557
 20
252.0169631369149
 30
0.0
 11
-187.3691191268796
 21
247.9495180986995
 31
0.0
  0
LINE
  5
4152
330
2
100
AcDbEntity
  8
TEXT
100
AcDbLine
 10
-187.3691191268796
 20
247.9495180986995
 30
0.0
 11
-183.7691191268796
 21
247.9495180986995
 31
0.0
  0
LINE
  5
4153
330
2
100
AcDbEntity
  8
TEXT
100
AcDbLine
 10
-189.1364609957154
 20
332.3566839935297
 30
0.0
 11
-182.0924826005616
 21
334.5144320590105
 31
0.0
  0
CIRCLE
  5
4154
330
2
100
AcDbEntity
  8
0
100
AcDbCircle
 10
-205.8322805643951
 20
333.2432783698945
 30
0.0
 40
4.25
  0
INSERT
  5
4155
330
2
100
AcDbEntity
  8
0
100
AcDbBlockReference
  2
EBP5
 10
-204.8947805643952
 20
327.2432783698945
 30
0.0
  0
INSERT
  5
4156
330
2
100
AcDbEntity
  8
TEXT
100
AcDbBlockReference
  2
SPRING-BUMPER
 10
-195.5810327477385
 20
331.5973825212272
 30
0.0
 41
-1.0
 50
180.0
  0
SOLID
  5
4157
330
2
100
AcDbEntity
  8
TEXT
100
AcDbTrace
 10
-192.4042421196024
 20
323.7795676860842
 30
0.0
 11
-191.934290455648
 21
324.8837168759796
 31
0.0
 12
-195.4817138573114
 22
325.7414972728948
 32
0.0
 13
-195.4817138573114
 23
325.7414972728948
 33
0.0
  0
SOLID
  5
4158
330
2
100
AcDbEntity
  8
0
100
AcDbTrace
 10
-198.7684079617893
 20
251.4530346610399
 30
0.0
 11
-198.3586047207222
 21
252.58089161279
 31
0.0
 12
-201.9470771965059
 22
253.2463728601164
 32
0.0
 13
-201.9470771965059
 23
253.2463728601164
 33
0.0
  0
LINE
  5
4159
330
2
100
AcDbEntity
  8
0
100
AcDbLine
 10
-210.8322805643951
 20
328.0307783698945
 30
0.0
 11
-195.8322805643951
 21
328.0307783698945
 31
0.0
  0
LINE
  5
415A
330
2
100
AcDbEntity
  8
0
100
AcDbLine
 10
-195.8322805643951
 20
326.3807783698945
 30
0.0
 11
-210.8322805643951
 21
326.3807783698945
 31
0.0
  0
LINE
  5
415B
330
2
100
AcDbEntity
  8
0
100
AcDbLine
 10
-210.8322805643951
 20
327.9307783698946
 30
0.0
 11
-195.8322805643951
 21
327.9307783698946
 31
0.0
  0
LINE
  5
415C
330
2
100
AcDbEntity
  8
0
100
AcDbLine
 10
-202.2697805643951
 20
327.0557783698946
 30
0.0
 11
-204.3947805643952
 21
327.0557783698946
 31
0.0
  0
LINE
  5
415D
330
2
100
AcDbEntity
  8
0
100
AcDbLine
 10
-202.2697805643951
 20
327.4307783698946
 30
0.0
 11
-204.3947805643952
 21
327.4307783698946
 31
0.0
  0
LINE
  5
415E
330
2
100
AcDbEntity
  8
0
100
AcDbLine
 10
-205.2697805643951
 20
327.4307783698946
 30
0.0
 11
-207.3947805643951
 21
327.4307783698946
 31
0.0
  0
LINE
  5
415F
330
2
100
AcDbEntity
  8
0
100
AcDbLine
 10
-205.2697805643951
 20
327.0557783698946
 30
0.0
 11
-207.3947805643951
 21
327.0557783698946
 31
0.0
  0
ARC
  5
4160
330
2
100
AcDbEntity
  8
0
100
AcDbCircle
 10
-207.3947805643951
 20
327.2432783698946
 30
0.0
 40
0.1874999999999933
100
AcDbArc
 50
90.0
 51
270.0
  0
ARC
  5
4161
330
2
100
AcDbEntity
  8
0
100
AcDbCircle
 10
-208.2697805643952
 20
327.2432783698946
 30
0.0
 40
0.1874999999999933
100
AcDbArc
 50
270.0
 51
90.0
  0
ARC
  5
4162
330
2
100
AcDbEntity
  8
0
100
AcDbCircle
 10
-210.3947805643951
 20
327.2432783698946
 30
0.0
 40
0.1874999999999933
100
AcDbArc
 50
90.0
 51
270.0
  0
LINE
  5
4163
330
2
100
AcDbEntity
  8
0
100
AcDbLine
 10
-208.2697805643952
 20
327.0557783698946
 30
0.0
 11
-210.3947805643951
 21
327.0557783698946
 31
0.0
  0
LINE
  5
4164
330
2
100
AcDbEntity
  8
0
100
AcDbLine
 10
-208.2697805643952
 20
327.4307783698946
 30
0.0
 11
-210.3947805643951
 21
327.4307783698946
 31
0.0
  0
ARC
  5
4165
330
2
100
AcDbEntity
  8
0
100
AcDbCircle
 10
-204.3947805643952
 20
327.2432783698945
 30
0.0
 40
0.1874999999999933
100
AcDbArc
 50
90.0
 51
270.0
  0
ARC
  5
4166
330
2
100
AcDbEntity
  8
0
100
AcDbCircle
 10
-205.2697805643951
 20
327.2432783698945
 30
0.0
 40
0.1874999999999933
100
AcDbArc
 50
270.0
 51
90.0
  0
LINE
  5
4167
330
2
100
AcDbEntity
  8
0
100
AcDbLine
 10
-210.8322805643951
 20
326.3807783698945
 30
0.0
 11
-210.8322805643951
 21
328.0307783698945
 31
0.0
  0
LINE
  5
4168
330
2
100
AcDbEntity
  8
0
100
AcDbLine
 10
-196.2697805643951
 20
327.4307783698946
 30
0.0
 11
-198.3947805643951
 21
327.4307783698946
 31
0.0
  0
LINE
  5
4169
330
2
100
AcDbEntity
  8
0
100
AcDbLine
 10
-196.2697805643951
 20
327.0557783698946
 30
0.0
 11
-198.3947805643951
 21
327.0557783698946
 31
0.0
  0
LINE
  5
416A
330
2
100
AcDbEntity
  8
0
100
AcDbLine
 10
-199.2697805643951
 20
327.0557783698946
 30
0.0
 11
-201.3947805643951
 21
327.0557783698946
 31
0.0
  0
LINE
  5
416B
330
2
100
AcDbEntity
  8
0
100
AcDbLine
 10
-199.2697805643951
 20
327.4307783698946
 30
0.0
 11
-201.3947805643951
 21
327.4307783698946
 31
0.0
  0
ARC
  5
416C
330
2
100
AcDbEntity
  8
0
100
AcDbCircle
 10
-201.3947805643951
 20
327.2432783698945
 30
0.0
 40
0.1874999999999933
100
AcDbArc
 50
90.0
 51
270.0
  0
ARC
  5
416D
330
2
100
AcDbEntity
  8
0
100
AcDbCircle
 10
-198.3947805643951
 20
327.2432783698945
 30
0.0
 40
0.1874999999999933
100
AcDbArc
 50
90.0
 51
270.0
  0
ARC
  5
416E
330
2
100
AcDbEntity
  8
0
100
AcDbCircle
 10
-199.2697805643951
 20
327.2432783698945
 30
0.0
 40
0.1874999999999933
100
AcDbArc
 50
270.0
 51
90.0
  0
ARC
  5
416F
330
2
100
AcDbEntity
  8
0
100
AcDbCircle
 10
-202.2697805643951
 20
327.2432783698945
 30
0.0
 40
0.1874999999999933
100
AcDbArc
 50
270.0
 51
90.0
  0
ARC
  5
4170
330
2
100
AcDbEntity
  8
0
100
AcDbCircle
 10
-196.2697805643951
 20
327.2432783698945
 30
0.0
 40
0.1874999999999933
100
AcDbArc
 50
270.0
 51
90.0
  0
LINE
  5
4171
330
2
100
AcDbEntity
  8
0
100
AcDbLine
 10
-195.8322805643951
 20
328.0307783698945
 30
0.0
 11
-195.8322805643951
 21
326.3807783698945
 31
0.0
  0
SOLID
  5
4172
330
2
100
AcDbEntity
  8
TEXT
100
AcDbTrace
 10
-188.9607260877673
 20
331.782996585503
 30
0.0
 11
-189.3121959036634
 21
332.9303714015566
 31
0.0
 12
-192.5785854438761
 22
331.3022745458416
 32
0.0
 13
-192.5785854438761
 23
331.3022745458416
 33
0.0
  0
LINE
  5
4173
330
2
100
AcDbEntity
  8
TEXT
100
AcDbLine
 10
-192.1692662876252
 20
324.3316422810319
 30
0.0
 11
-186.2103133601276
 21
321.7953728445003
 31
0.0
  0
LINE
  5
4174
330
2
100
AcDbEntity
  8
TEXT
100
AcDbLine
 10
-182.0924826005616
 20
334.5144320590105
 30
0.0
 11
-178.4924826005616
 21
334.5144320590105
 31
0.0
  0
INSERT
  5
4176
330
2
100
AcDbEntity
  8
0
100
AcDbBlockReference
  2
OTC-6
 10
-210.0572806131179
 20
215.8532965239579
 30
0.0
  0
MTEXT
  5
4177
330
2
100
AcDbEntity
  8
TEXT
100
AcDbMText
 10
-186.5193781433961
 20
301.7744773696216
 30
0.0
 40
1.75
 41
0.0
 46
0.0
 71
     4
 72
     1
  1
OVERALL OFFSET\PTRACK CLIPS (TYP.)
  7
WEB PAGE
 73
     1
 44
1.0
  0
LEADER
  5
4178
330
2
100
AcDbEntity
  8
TEXT
100
AcDbLeader
  3
STANDARD
 40
3.6
 76
     3
 10
-204.339828600651
 20
287.4330354129847
 30
0.0
 10
-191.1843986989543
 20
300.1012994070453
 30
0.0
 10
-187.5843986989543
 20
300.1012994070453
 30
0.0
213
0.629060668590995
223
5.214757043090116
233
0.0
1001
ACAD
1000
DSTYLE
1002
{
1070
   270
1070
     4
1070
   140
1040
3.6
1070
   147
1040
1.8
1070
    42
1040
1.25
1070
    44
1040
3.6
1070
    43
1040
7.599999999999999
1070
   141
1040
0.36
1070
    41
1040
3.6
1002
}
  0
MTEXT
  5
4179
330
2
100
AcDbEntity
  8
TEXT
100
AcDbMText
 10
-191.9367961147021
 20
195.6939173481644
 30
0.0
 40
1.75
 41
0.0
 46
0.0
 71
     4
 72
     1
  1
19" VERTICAL ANGLE
  7
WEB PAGE
 73
     1
 44
1.0
  0
LEADER
  5
417A
330
2
100
AcDbEntity
  8
TEXT
100
AcDbLeader
  3
STANDARD
 76
     3
 10
-209.3322805643952
 20
195.7907962630457
 30
0.0
 10
-196.2541026164204
 20
195.8091706235758
 30
0.0
 10
-192.4148851310058
 20
195.8091706235758
 30
0.0
1001
ACAD
1000
DSTYLE
1002
{
1070
   270
1070
     4
1070
   140
1040
3.6
1070
   147
1040
1.8
1070
    42
1040
1.25
1070
    44
1040
3.6
1070
    43
1040
7.599999999999999
1070
   141
1040
0.36
1070
    41
1040
3.6
1002
}
  0
INSERT
  5
417B
330
2
100
AcDbEntity
  8
OUTSIDE
100
AcDbBlockReference
  2
SP-8-38
 10
-209.6752805643951
 20
188.9470462630457
 30
0.0
  0
INSERT
  5
417C
330
2
100
AcDbEntity
  8
OUTSIDE
100
AcDbBlockReference
  2
A$C1EE715DA
 10
-210.9156144639313
 20
88.0307783698945
 30
0.0
  0
INSERT
  5
417D
102
{ACAD_REACTORS
330
43BA
102
}
330
2
100
AcDbEntity
  8
OUTSIDE
100
AcDbBlockReference
  2
A$C5B4218C3
 10
-210.8322805156724
 20
205.1032960021335
 30
0.0
  0
INSERT
  5
417E
330
2
100
AcDbEntity
  8
OUTSIDE
100
AcDbBlockReference
  2
A$C54941077
 10
-208.6198319817466
 20
188.1713448692826
 30
0.0
 50
356.0073538662962
  0
INSERT
  5
417F
330
2
100
AcDbEntity
  8
OUTSIDE
100
AcDbBlockReference
  2
OTC-8
 10
-210.0686595320658
 20
239.8995549131773
 30
0.0
  0
INSERT
  5
4180
330
2
100
AcDbEntity
  8
OUTSIDE
100
AcDbBlockReference
  2
OTC-10
 10
-210.0686595320658
 20
263.8995549131773
 30
0.0
  0
INSERT
  5
4181
330
2
100
AcDbEntity
  8
OUTSIDE
100
AcDbBlockReference
  2
OTC-12
 10
-210.0686595320658
 20
287.8995549131773
 30
0.0
  0
INSERT
  5
4182
330
2
100
AcDbEntity
  8
OUTSIDE
100
AcDbBlockReference
  2
OTC-14
 10
-210.0686595320658
 20
317.8995549131773
 30
0.0
  0
MTEXT
  5
4183
102
{ACAD_REACTORS
330
4184
102
}
330
2
100
AcDbEntity
  8
TEXT
100
AcDbMText
 10
-190.8987165610913
 20
215.1273037486323
 30
0.0
 40
1.75
 41
0.0
 46
0.0
 71
     1
 72
     1
  1
HIGH LIFT SPLICE PLATE
  7
WEB PAGE
 73
     1
 44
1.0
  0
LEADER
  5
4184
330
2
100
AcDbEntity
  8
TEXT
100
AcDbLeader
  3
STANDARD
 73
     0
 74
     0
 75
     1
 40
1.789113193943763
 41
30.40104542177361
 76
     3
 10
-205.5263810928336
 20
206.3629338232097
 30
0.0
 10
-194.8987165610913
 20
213.8773037486322
 30
0.0
 10
-191.8987165610913
 20
213.8773037486322
 30
0.0
340
4183
213
0.0
223
-1.25
233
0.0
1001
ACAD
1000
DSTYLE
1002
{
1070
   147
1040
1.0
1070
    77
1070
     0
1002
}
  0
INSERT
  5
4185
330
2
100
AcDbEntity
  8
0
100
AcDbBlockReference
  2
A$C65C916B7
 10
-210.5263811016066
 20
203.8629338251151
 30
0.0
  0
LEADER
  5
4186
330
2
100
AcDbEntity
  8
TEXT
100
AcDbLeader
  3
STANDARD
 73
     0
 40
1.790374909877433
 41
29.50144196106705
 76
     2
 10
-209.2072805643951
 20
275.1032962630457
 30
0.0
 10
-183.5148156754942
 20
275.1032962630457
 30
0.0
340
4187
213
0.0
223
-0.875
233
0.0
1001
ACAD
1000
DSTYLE
1002
{
1070
   147
1040
1.0
1070
    77
1070
     0
1002
}
  0
MTEXT
  5
4187
102
{ACAD_REACTORS
330
4186
102
}
330
2
100
AcDbEntity
  8
TEXT
100
AcDbMText
 10
-182.5148156754942
 20
275.9782962630457
 30
0.0
 40
1.75
 41
0.0
 46
0.0
 71
     1
 72
     1
  1
UPPER REVERSE ANGLE
  7
WEB PAGE
 73
     1
 44
1.0
  0
MTEXT
  5
4188
330
2
100
AcDbEntity
  8
0
100
AcDbMText
 10
-262.5220837803285
 20
82.86776656454206
 30
0.0
 40
3.0
 41
0.0
 46
0.0
 71
     4
 72
     1
  1
{\LVERTICAL LIFT STANDARD 2" BRACKET MOUNT TRACK SET DETAIL}
  7
WEB PAGE
 73
     1
 44
1.0
  0
LINE
  5
4189
330
2
100
AcDbEntity
  8
TEXT
100
AcDbLine
 10
-144.4478697132811
 20
165.115196787385
 30
0.0
 11
-91.53192479643639
 21
165.115196787385
 31
0.0
  0
LINE
  5
418B
330
2
100
AcDbEntity
  8
TEXT
100
AcDbLine
 10
-91.53192479643633
 20
144.3594527217642
 30
0.0
 11
-144.4478697132811
 21
144.3594527217642
 31
0.0
  0
LINE
  5
418C
330
2
100
AcDbEntity
  8
TEXT
100
AcDbLine
 10
-144.4478697132811
 20
154.8766723237005
 30
0.0
 11
-91.53192479643639
 21
154.8766723237005
 31
0.0
  0
LINE
  5
418D
330
2
100
AcDbEntity
  8
TEXT
100
AcDbLine
 10
-144.4478697132811
 20
147.9930625227323
 30
0.0
 11
-91.53192479643639
 21
147.9930625227323
 31
0.0
  0
TEXT
  5
418F
330
2
100
AcDbEntity
  8
TEXT
100
AcDbText
 10
-118.3237390017403
 20
145.3034223700497
 30
0.0
 40
1.75
  1
DR HEIGHT + 13"
  7
WEB PAGE
 72
     1
 11
-108.2041463557417
 21
145.3034223700497
 31
0.0
100
AcDbText
  0
MTEXT
  5
4190
330
2
100
AcDbEntity
  8
TEXT
100
AcDbMText
 10
-118.3608613056151
 20
163.8856977801071
 30
0.0
 40
2.6
 41
37.3125
 46
0.0
 71
     2
 72
     5
  1
HEADROOM\PREQUIREMENTS
 73
     1
 44
1.0
  0
LINE
  5
4191
330
2
100
AcDbEntity
  8
TEXT
100
AcDbLine
 10
-125.001085734808
 20
154.8766723237005
 30
0.0
 11
-125.0010857348079
 21
144.3594527217642
 31
0.0
  0
LINE
  5
4192
330
2
100
AcDbEntity
  8
TEXT
100
AcDbLine
 10
-144.4478697132811
 20
154.8766723237005
 30
0.0
 11
-144.4478697132811
 21
144.3594527217642
 31
0.0
  0
TEXT
  5
4193
330
2
100
AcDbEntity
  8
TEXT
100
AcDbText
 10
-137.9711079572611
 20
145.3034223700497
 30
0.0
 40
1.75
  1
7' - 20'
  7
WEB PAGE
 72
     1
 11
-134.4912954121998
 21
145.3034223700497
 31
0.0
100
AcDbText
  0
LINE
  5
4195
330
2
100
AcDbEntity
  8
TEXT
100
AcDbLine
 10
-144.4478697132811
 20
154.8766723237005
 30
0.0
 11
-144.4478697132811
 21
165.115196787385
 31
0.0
  0
TEXT
  5
4196
330
2
100
AcDbEntity
  8
TEXT
100
AcDbText
 10
-139.4131747329849
 20
149.1459773392419
 30
0.0
 40
1.75
  1
HEIGHT
  7
WEB PAGE
 72
     1
 11
-134.6054061677362
 21
149.1459773392419
 31
0.0
100
AcDbText
  0
TEXT
  5
4197
330
2
100
AcDbEntity
  8
TEXT
100
AcDbText
 10
-138.2776303926821
 20
152.1918163016138
 30
0.0
 40
1.75
  1
DOOR
  7
WEB PAGE
 72
     1
 11
-134.6054061677362
 21
152.1918163016138
 31
0.0
100
AcDbText
  0
LINE
  5
4198
330
2
100
AcDbEntity
  8
TEXT
100
AcDbLine
 10
-91.53192479643639
 20
154.8766723237005
 30
0.0
 11
-91.53192479643635
 21
144.3594527217642
 31
0.0
  0
TEXT
  5
4199
330
2
100
AcDbEntity
  8
TEXT
100
AcDbText
 10
-116.5385726902165
 20
149.1459773392419
 30
0.0
 40
1.75
  1
HEADROOM
  7
WEB PAGE
 72
     1
 11
-109.0736303686592
 21
149.1459773392419
 31
0.0
100
AcDbText
  0
TEXT
  5
419A
330
2
100
AcDbEntity
  8
TEXT
100
AcDbText
 10
-115.2465755741387
 20
152.1918163016138
 30
0.0
 40
1.75
  1
MINIMUM
  7
WEB PAGE
 72
     1
 11
-109.0736303686592
 21
152.1918163016138
 31
0.0
100
AcDbText
  0
LINE
  5
419B
330
2
100
AcDbEntity
  8
TEXT
100
AcDbLine
 10
-91.53192479643639
 20
154.8766723237005
 30
0.0
 11
-91.53192479643639
 21
165.115196787385
 31
0.0
  0
LINE
  5
41B1
330
2
100
AcDbEntity
  8
0
100
AcDbLine
 10
-216.8322805643951
 20
88.0307783698945
 30
0.0
 11
-120.8322805643952
 21
88.0307783698945
 31
0.0
  0
DIMENSION
  5
41B2
330
2
100
AcDbEntity
  8
0
100
AcDbDimension
  2
*D32
 10
-230.2244385452893
 20
328.1032962630458
 30
0.0
 11
-230.2244385452894
 21
290.253464429241
 31
0.0
 70
   160
  1
UPPER\PVERTICAL ANGLE\P(DOOR HEIGHT - 9")
 71
     5
 42
123.0
 73
     0
 74
     0
 75
     0
  3
STANDARD
100
AcDbAlignedDimension
 13
-210.8322805643951
 23
205.1032962630457
 33
0.0
 14
-210.8322805643951
 24
328.1032962630458
 34
0.0
 50
90.0
100
AcDbRotatedDimension
  0
DIMENSION
  5
41B3
330
2
100
AcDbEntity
  8
0
100
AcDbDimension
  2
*D33
 10
-134.9330494692599
 20
339.6955110795926
 30
0.0
 11
-134.9330494692599
 21
263.8628605657623
 31
0.0
 70
    32
  1
UPPER\PVERTICAL TRACK\P(DOOR HEIGHT + 21")
 71
     5
 42
151.6653010276604
 73
     0
 74
     0
 75
     0
  3
STANDARD
100
AcDbAlignedDimension
 13
-204.4995615137529
 23
188.0302100519321
 33
0.0
 14
-196.297944993615
 24
339.6955110795926
 34
0.0
 50
90.0
100
AcDbRotatedDimension
  0
HATCH
  5
43BA
330
2
100
AcDbEntity
  8
0
100
AcDbHatch
 10
0.0
 20
0.0
 30
0.0
210
0.0
220
0.0
230
1.0
  2
ANSI31
 70
     0
 71
     1
 91
        1
 92
        7
 72
     0
 73
     1
 93
        8
 10
-114.8322805643952
 20
346.0307783698945
 10
-216.8322805643951
 20
346.0307783698945
 10
-216.8322805643951
 20
196.0307783698945
 10
-210.8322805643951
 20
196.0307783698945
 10
-210.8322805643951
 20
205.1032962630457
 10
-210.8322805643951
 20
328.1032962630458
 10
-210.8322805643951
 20
340.0307783698945
 10
-114.8322805643952
 20
340.0307783698945
 97
        4
330
413D
330
413E
330
4141
330
417D
 75
     0
 76
     1
 52
0.0
 41
15.0
 77
     0
 78
     1
 53
45.0
 43
0.0
 44
0.0
 45
-1.325825214724776
 46
1.325825214724776
 79
     0
 47
0.2056536300591123
 98
        1
 10
-167.466969574802
 20
340.5413802660539
1001
ACAD
1010
0.0
1020
0.0
1030
0.0
  0
VIEWPORT
  5
95A
330
7
100
AcDbEntity
 67
     1
  8
0
100
AcDbViewport
 10
-440.687196773646
 20
-342.2807568310877
 30
0.0
 40
17.89550826936556
 41
11.60143226151017
 68
     1
 69
     1
 12
-440.687196773646
 22
-342.2807568310877
 13
0.0
 23
0.0
 14
0.5
 24
0.5
 15
0.5
 25
0.5
 16
0.0
 26
0.0
 36
1.0
 17
0.0
 27
0.0
 37
0.0
 42
50.0
 43
0.0
 44
0.0
 45
11.60143226151017
 50
0.0
 51
0.0
 72
   100
 90
    32800
  1

281
     0
 71
     1
 74
     0
110
0.0
120
0.0
130
0.0
111
1.0
121
0.0
131
0.0
112
0.0
122
1.0
132
0.0
 79
     0
146
0.0
170
     0
 61
     5
348
400D
292
     1
282
     1
141
0.0
142
0.0
 63
   250
421
  3355443
  0
VIEWPORT
  5
3C6F
330
7
100
AcDbEntity
 67
     1
  8
DEFPOINTS
100
AcDbViewport
 10
-440.6695472745225
 20
-342.7971575644799
 30
0.0
 40
7.620151324406833
 41
8.924541799175699
 68
     2
 69
     2
 12
-192.6016519565424
 22
211.8099965568404
 13
0.0
 23
0.0
 14
0.5
 24
0.5
 15
0.5
 25
0.5
 16
0.0
 26
0.0
 36
1.0
 17
0.0
 27
0.0
 37
0.0
 42
50.0
 43
0.0
 44
0.0
 45
270.8633738438111
 50
90.0
 51
0.0
 72
   100
 90
    32768
  1

281
     0
 71
     1
 74
     0
110
0.0
120
0.0
130
0.0
111
1.0
121
0.0
131
0.0
112
0.0
122
1.0
132
0.0
 79
     0
146
0.0
170
     0
 61
     5
348
400D
292
     1
282
     1
141
0.0
142
0.0
 63
   250
421
  3355443
  0
ENDSEC
  0
SECTION
  2
OBJECTS
  0
DICTIONARY
  5
1A
330
0
100
AcDbDictionary
281
     1
  3
ACAD_COLOR
350
3FA7
  3
ACAD_GROUP
350
18
  3
ACAD_LAYOUT
350
1897
  3
ACAD_MATERIAL
350
3FA6
  3
ACAD_MLINESTYLE
350
19
  3
ACAD_PLOTSETTINGS
350
1898
  3
ACAD_PLOTSTYLENAME
350
1895
  3
ACAD_TABLESTYLE
350
4018
  3
ACAD_VISUALSTYLE
350
4007
  3
AcDbVariableDictionary
350
3E01
  3
ASE_INDEX_DICTIONARY
350
3E4D
  0
DICTIONARY
  5
43C0
330
13
100
AcDbDictionary
280
     1
281
     1
  0
DICTIONARY
  5
4418
330
A
100
AcDbDictionary
280
     1
281
     1
  3
ACAD_LAYERSTATES
360
4419
  0
DICTIONARY
  5
43BB
330
2
100
AcDbDictionary
280
     1
281
     1
  3
ACAD_SORTENTS
360
43BC
  0
DICTIONARY
  5
3FA7
102
{ACAD_REACTORS
330
1A
102
}
330
1A
100
AcDbDictionary
281
     1
  0
DICTIONARY
  5
18
102
{ACAD_REACTORS
330
1A
102
}
330
1A
100
AcDbDictionary
281
     1
  0
DICTIONARY
  5
1897
102
{ACAD_REACTORS
330
1A
102
}
330
1A
100
AcDbDictionary
281
     1
  3
Layout1
350
189A
  3
Model
350
1899
  0
DICTIONARY
  5
3FA6
102
{ACAD_REACTORS
330
1A
102
}
330
1A
100
AcDbDictionary
281
     1
  3
ByBlock
350
4005
  3
ByLayer
350
4004
  3
Global
350
4006
  0
DICTIONARY
  5
19
102
{ACAD_REACTORS
330
1A
102
}
330
1A
100
AcDbDictionary
281
     1
  3
STANDARD
350
1B
  0
DICTIONARY
  5
1898
102
{ACAD_REACTORS
330
1A
102
}
330
1A
100
AcDbDictionary
281
     1
  0
ACDBDICTIONARYWDFLT
  5
1895
102
{ACAD_REACTORS
330
1A
102
}
330
1A
100
AcDbDictionary
281
     1
  3
Normal
350
1896
100
AcDbDictionaryWithDefault
340
1896
  0
DICTIONARY
  5
4018
102
{ACAD_REACTORS
330
1A
102
}
330
1A
100
AcDbDictionary
281
     1
  3
Standard
350
4019
  0
DICTIONARY
  5
4007
102
{ACAD_REACTORS
330
1A
102
}
330
1A
100
AcDbDictionary
281
     1
  3
2dWireframe
350
400D
  3
3D Hidden
350
400F
  3
3dWireframe
350
400E
  3
Basic
350
400C
  3
Brighten
350
4013
  3
ColorChange
350
4017
  3
Conceptual
350
4010
  3
Dim
350
4012
  3
Facepattern
350
4016
  3
Flat
350
4008
  3
FlatWithEdges
350
4009
  3
Gouraud
350
400A
  3
GouraudWithEdges
350
400B
  3
Linepattern
350
4015
  3
Realistic
350
4011
  3
Thicken
350
4014
  0
DICTIONARY
  5
3E01
102
{ACAD_REACTORS
330
1A
102
}
330
1A
100
AcDbDictionary
281
     1
  3
CTABLESTYLE
350
43BD
  3
DIMASSOC
350
3E02
  0
DICTIONARY
  5
3E4D
102
{ACAD_REACTORS
330
1A
102
}
330
1A
100
AcDbDictionary
281
     1
  3
ASEBlockHierarchyIndexRecord
350
3E4E
1001
DCO15
1040
1464337793.607
  0
DICTIONARY
  5
4419
102
{ACAD_REACTORS
330
4418
102
}
330
4418
100
AcDbDictionary
281
     1
  0
SORTENTSTABLE
  5
43BC
102
{ACAD_REACTORS
330
43BB
102
}
330
43BB
100
AcDbSortentsTable
330
2
331
4173
  5
4174
331
417B
  5
417C
331
413C
  5
413C
331
4183
  5
4184
331
4144
  5
4145
331
3CBF
  5
3CBF
331
414C
  5
414D
331
3E5E
  5
3E5E
331
4154
  5
4155
331
418B
  5
418C
331
3CC7
  5
3CC7
331
415C
  5
415D
331
4193
  5
4195
331
3CCF
  5
3CCF
331
4164
  5
4165
331
419B
  5
41B1
331
416C
  5
416D
331
41B3
  5
429B
331
4174
  5
4176
331
413D
  5
413E
331
417C
  5
417D
331
3CB8
  5
3CB8
331
4184
  5
4185
331
4145
  5
4146
331
414D
  5
414E
331
3CC0
  5
3CC0
331
4155
  5
4156
331
418C
  5
418D
331
3CC8
  5
3CC8
331
415D
  5
415E
331
3CD8
  5
3CD8
331
4165
  5
4166
331
416D
  5
416E
331
417D
  5
417E
331
413E
  5
413F
331
4185
  5
4186
331
4146
  5
4147
331
414E
  5
414F
331
3CC1
  5
3CC1
331
4156
  5
4157
331
418D
  5
418F
331
3CC9
  5
3CC9
331
415E
  5
415F
331
4195
  5
4196
331
3CD9
  5
3CD9
331
4166
  5
4167
331
416E
  5
416F
331
4176
  5
4177
331
413F
  5
4140
331
417E
  5
417F
331
4186
  5
4187
331
4147
  5
4148
331
414F
  5
4150
331
3CC2
  5
3CC2
331
4157
  5
4158
331
3CCA
  5
3CCA
331
415F
  5
4160
331
4196
  5
4197
331
4167
  5
4168
331
416F
  5
4170
331
4177
  5
4178
331
3CB3
  5
3CB3
331
417F
  5
4180
331
4140
  5
4141
331
4148
  5
4149
331
4187
  5
4188
331
4150
  5
4151
331
3CC3
  5
3CC3
331
4158
  5
4159
331
418F
  5
4190
331
3CCB
  5
3CCB
331
4160
  5
4161
331
4197
  5
4198
331
4168
  5
4169
331
43BA
  5
413D
331
4170
  5
4171
331
4178
  5
4179
331
4141
  5
4142
331
4180
  5
4181
331
4149
  5
414A
331
3CC4
  5
3CC4
331
4151
  5
4152
331
4188
  5
4189
331
4159
  5
415A
331
4190
  5
4191
331
4161
  5
4162
331
4198
  5
4199
331
4169
  5
416A
331
4171
  5
4172
331
4179
  5
417A
331
4181
  5
4182
331
4142
  5
4143
331
414A
  5
414B
331
4152
  5
4153
331
4189
  5
418B
331
3CC5
  5
3CC5
331
415A
  5
415B
331
4191
  5
4192
331
3CCD
  5
3CCD
331
4162
  5
4163
331
4199
  5
419A
331
416A
  5
416B
331
41B1
  5
41B2
331
4172
  5
4173
331
413B
  5
413B
331
417A
  5
417B
331
4182
  5
4183
331
4143
  5
4144
331
414B
  5
414C
331
4153
  5
4154
331
3CC6
  5
3CC6
331
415B
  5
415C
331
4192
  5
4193
331
3CCE
  5
3CCE
331
4163
  5
4164
331
419A
  5
419B
331
77E
  5
77E
331
416B
  5
416C
331
41B2
  5
41B3
  0
LAYOUT
  5
189A
102
{ACAD_XDICTIONARY
360
441B
102
}
102
{ACAD_REACTORS
330
1897
102
}
330
1897
100
AcDbPlotSettings
  1

  2
Acrobat PDFWriter
  4
Letter
  6

 40
7.143749713897705
 41
7.143756389617919
 42
7.14373779296875
 43
7.14373779296875
 44
215.8999938964844
 45
279.3999938964844
 46
0.254
 47
0.508
 48
0.0
 49
0.0
140
0.0
141
0.0
142
1.0
143
1.0
 70
   692
 72
     0
 73
     0
 74
     1
  7

 75
    16
147
1.0
 76
     0
 77
     2
 78
   300
148
11293.45011718344
149
8824.059523233902
100
AcDbLayout
  1
Layout1
 70
     1
 71
     1
 10
-444.914936816329
 20
-347.7048673536224
 11
-436.4149370566249
 21
-336.7048675939183
 12
0.0
 22
0.0
 32
0.0
 14
-444.5861207219528
 24
-347.4200259237878
 34
0.0
 15
-436.7882727881392
 25
-337.1414877142713
 35
0.0
146
0.0
 13
0.0
 23
0.0
 33
0.0
 16
1.0
 26
0.0
 36
0.0
 17
0.0
 27
1.0
 37
0.0
 76
     0
330
7
331
95A
  0
LAYOUT
  5
1899
102
{ACAD_REACTORS
330
1897
102
}
330
1897
100
AcDbPlotSettings
  1

  2
PMKT1 Marketing HP-8100DN Laser
  4
Letter
  6

 40
4.233333110809326
 41
4.233341693878173
 42
4.233322143554687
 43
4.23333740234375
 44
215.8999938964844
 45
279.3999938964844
 46
0.0
 47
6.095999999999999
 48
0.0
 49
0.0
140
0.0
141
0.0
142
1.0
143
27.24051561542399
 70
 11956
 72
     0
 73
     0
 74
     1
  7

 75
     0
147
0.0367100246602449
 76
     0
 77
     2
 78
   300
148
-2550.68097568566
149
-1737.906390978601
100
AcDbLayout
  1
Model
 70
     1
 71
     0
 10
0.0
 20
0.0
 11
12.0
 21
9.0
 12
0.0
 22
0.0
 32
0.0
 14
0.0
 24
0.0
 34
0.0
 15
0.0
 25
0.0
 35
0.0
146
0.0
 13
0.0
 23
0.0
 33
0.0
 16
1.0
 26
0.0
 36
0.0
 17
0.0
 27
1.0
 37
0.0
 76
     0
330
2
331
4002
  0
MATERIAL
  5
4005
102
{ACAD_REACTORS
330
3FA6
102
}
330
3FA6
100
AcDbMaterial
  1
ByBlock
  0
MATERIAL
  5
4004
102
{ACAD_REACTORS
330
3FA6
102
}
330
3FA6
100
AcDbMaterial
  1
ByLayer
  0
MATERIAL
  5
4006
102
{ACAD_REACTORS
330
3FA6
102
}
330
3FA6
100
AcDbMaterial
  1
Global
  0
MLINESTYLE
  5
1B
102
{ACAD_REACTORS
330
19
102
}
330
19
100
AcDbMlineStyle
  2
STANDARD
 70
     0
  3

 62
     0
 51
90.0
 52
90.0
 71
     2
 49
0.5
 62
   256
  6
BYLAYER
 49
-0.5
 62
   256
  6
BYLAYER
  0
ACDBPLACEHOLDER
  5
1896
102
{ACAD_REACTORS
330
1895
102
}
330
1895
  0
TABLESTYLE
  5
4019
102
{ACAD_REACTORS
330
4018
102
}
330
4018
100
AcDbTableStyle
  3
Standard
 70
     0
 71
     0
 40
0.06
 41
0.06
280
     0
281
     0
  7
STANDARD
140
0.18
170
     2
 62
     0
 63
     7
283
     0
 90
      512
 91
        0
  1

274
    -2
284
     1
 64
     0
275
    -2
285
     1
 65
     0
276
    -2
286
     1
 66
     0
277
    -2
287
     1
 67
     0
278
    -2
288
     1
 68
     0
279
    -2
289
     1
 69
     0
  7
STANDARD
140
0.25
170
     5
 62
     0
 63
     7
283
     0
 90
      512
 91
        0
  1

274
    -2
284
     1
 64
     0
275
    -2
285
     1
 65
     0
276
    -2
286
     1
 66
     0
277
    -2
287
     1
 67
     0
278
    -2
288
     1
 68
     0
279
    -2
289
     1
 69
     0
  7
STANDARD
140
0.18
170
     5
 62
     0
 63
     7
283
     0
 90
      512
 91
        0
  1

274
    -2
284
     1
 64
     0
275
    -2
285
     1
 65
     0
276
    -2
286
     1
 66
     0
277
    -2
287
     1
 67
     0
278
    -2
288
     1
 68
     0
279
    -2
289
     1
 69
     0
  0
VISUALSTYLE
  5
400D
102
{ACAD_REACTORS
330
4007
102
}
330
4007
100
AcDbVisualStyle
  2
2dWireframe
 70
     4
 71
     0
 72
     2
 73
     0
 90
        0
 40
-0.6
 41
-30.0
 62
     5
 63
     7
421
 16777215
 74
     1
 91
        4
 64
     7
 65
   257
 75
     1
175
     1
 42
1.0
 92
        0
 66
   257
 43
1.0
 76
     1
 77
     6
 78
     2
 67
     7
 79
     5
170
     0
171
     0
290
     0
174
     0
 93
        1
 44
0.0
173
     0
291
     0
 45
0.0
  0
VISUALSTYLE
  5
400F
102
{ACAD_REACTORS
330
4007
102
}
330
4007
100
AcDbVisualStyle
  2
3D Hidden
 70
     6
 71
     1
 72
     2
 73
     2
 90
        0
 40
-0.6
 41
-30.0
 62
     5
 63
     7
421
 16777215
 74
     2
 91
        2
 64
     7
 65
   257
 75
     2
175
     1
 42
40.0
 92
        0
 66
   257
 43
1.0
 76
     1
 77
     6
 78
     2
 67
     7
 79
     3
170
     0
171
     0
290
     0
174
     0
 93
        1
 44
0.0
173
     0
291
     0
 45
0.0
  0
VISUALSTYLE
  5
400E
102
{ACAD_REACTORS
330
4007
102
}
330
4007
100
AcDbVisualStyle
  2
3dWireframe
 70
     5
 71
     0
 72
     2
 73
     0
 90
        0
 40
-0.6
 41
-30.0
 62
     5
 63
     7
421
 16777215
 74
     1
 91
        4
 64
     7
 65
   257
 75
     1
175
     1
 42
1.0
 92
        0
 66
   257
 43
1.0
 76
     1
 77
     6
 78
     2
 67
     7
 79
     5
170
     0
171
     0
290
     0
174
     0
 93
        1
 44
0.0
173
     0
291
     0
 45
0.0
  0
VISUALSTYLE
  5
400C
102
{ACAD_REACTORS
330
4007
102
}
330
4007
100
AcDbVisualStyle
  2
Basic
 70
     7
 71
     1
 72
     0
 73
     1
 90
        0
 40
-0.6
 41
-30.0
 62
     5
 63
     7
421
 16777215
 74
     0
 91
        4
 64
     7
 65
   257
 75
     1
175
     1
 42
1.0
 92
        8
 66
     7
 43
1.0
 76
     1
 77
     6
 78
     2
 67
     7
 79
     5
170
     0
171
     0
290
     0
174
     0
 93
        1
 44
0.0
173
     0
291
     1
 45
0.0
  0
VISUALSTYLE
  5
4013
102
{ACAD_REACTORS
330
4007
102
}
330
4007
100
AcDbVisualStyle
  2
Brighten
 70
    12
 71
     2
 72
     2
 73
     0
 90
        0
 40
-0.6
 41
-30.0
 62
     5
 63
     7
421
 16777215
 74
     1
 91
        4
 64
     7
 65
   257
 75
     1
175
     1
 42
1.0
 92
        8
 66
     7
 43
1.0
 76
     1
 77
     6
 78
     2
 67
     7
 79
     5
170
     0
171
     0
290
     0
174
     0
 93
        1
 44
50.0
173
     0
291
     1
 45
0.0
  0
VISUALSTYLE
  5
4017
102
{ACAD_REACTORS
330
4007
102
}
330
4007
100
AcDbVisualStyle
  2
ColorChange
 70
    16
 71
     2
 72
     2
 73
     3
 90
        0
 40
-0.6
 41
-30.0
 62
     5
 63
     8
421
  8421504
 74
     1
 91
        4
 64
     7
 65
   257
 75
     1
175
     1
 42
1.0
 92
        8
 66
     8
424
  8421504
 43
1.0
 76
     1
 77
     6
 78
     2
 67
     7
 79
     5
170
     0
171
     0
290
     0
174
     0
 93
        1
 44
0.0
173
     0
291
     1
 45
0.0
  0
VISUALSTYLE
  5
4010
102
{ACAD_REACTORS
330
4007
102
}
330
4007
100
AcDbVisualStyle
  2
Conceptual
 70
     9
 71
     3
 72
     2
 73
     0
 90
        0
 40
-0.6
 41
-30.0
 62
     5
 63
     7
421
 16777215
 74
     2
 91
        2
 64
     7
 65
   257
 75
     1
175
     1
 42
40.0
 92
        8
 66
     7
 43
1.0
 76
     1
 77
     6
 78
     2
 67
     7
 79
     3
170
     0
171
     0
290
     0
174
     0
 93
        1
 44
0.0
173
     0
291
     0
 45
0.0
  0
VISUALSTYLE
  5
4012
102
{ACAD_REACTORS
330
4007
102
}
330
4007
100
AcDbVisualStyle
  2
Dim
 70
    11
 71
     2
 72
     2
 73
     0
 90
        0
 40
-0.6
 41
-30.0
 62
     5
 63
     7
421
 16777215
 74
     1
 91
        4
 64
     7
 65
   257
 75
     1
175
     1
 42
1.0
 92
        8
 66
     7
 43
1.0
 76
     1
 77
     6
 78
     2
 67
     7
 79
     5
170
     0
171
     0
290
     0
174
     0
 93
        1
 44
-50.0
173
     0
291
     1
 45
0.0
  0
VISUALSTYLE
  5
4016
102
{ACAD_REACTORS
330
4007
102
}
330
4007
100
AcDbVisualStyle
  2
Facepattern
 70
    15
 71
     2
 72
     2
 73
     0
 90
        0
 40
-0.6
 41
-30.0
 62
     5
 63
     7
421
 16777215
 74
     1
 91
        4
 64
     7
 65
   257
 75
     1
175
     1
 42
1.0
 92
        8
 66
     7
 43
1.0
 76
     1
 77
     6
 78
     2
 67
     7
 79
     5
170
     0
171
     0
290
     0
174
     0
 93
        1
 44
0.0
173
     0
291
     1
 45
0.0
  0
VISUALSTYLE
  5
4008
102
{ACAD_REACTORS
330
4007
102
}
330
4007
100
AcDbVisualStyle
  2
Flat
 70
     0
 71
     2
 72
     1
 73
     1
 90
        2
 40
-0.6
 41
30.0
 62
     5
 63
     7
421
 16777215
 74
     0
 91
        4
 64
     7
 65
   257
 75
     1
175
     1
 42
1.0
 92
        8
 66
     7
 43
1.0
 76
     1
 77
     6
 78
     2
 67
     7
 79
     5
170
     0
171
     0
290
     0
174
     0
 93
       13
 44
0.0
173
     0
291
     1
 45
0.0
  0
VISUALSTYLE
  5
4009
102
{ACAD_REACTORS
330
4007
102
}
330
4007
100
AcDbVisualStyle
  2
FlatWithEdges
 70
     1
 71
     2
 72
     1
 73
     1
 90
        2
 40
-0.6
 41
30.0
 62
     5
 63
     7
421
 16777215
 74
     1
 91
        4
 64
     7
 65
   257
 75
     1
175
     1
 42
1.0
 92
        0
 66
   257
 43
1.0
 76
     1
 77
     6
 78
     2
 67
     7
 79
     5
170
     0
171
     0
290
     0
174
     0
 93
       13
 44
0.0
173
     0
291
     1
 45
0.0
  0
VISUALSTYLE
  5
400A
102
{ACAD_REACTORS
330
4007
102
}
330
4007
100
AcDbVisualStyle
  2
Gouraud
 70
     2
 71
     2
 72
     2
 73
     1
 90
        2
 40
-0.6
 41
30.0
 62
     5
 63
     7
421
 16777215
 74
     0
 91
        4
 64
     7
 65
   257
 75
     1
175
     1
 42
1.0
 92
        0
 66
     7
 43
1.0
 76
     1
 77
     6
 78
     2
 67
     7
 79
     5
170
     0
171
     0
290
     0
174
     0
 93
       13
 44
0.0
173
     0
291
     1
 45
0.0
  0
VISUALSTYLE
  5
400B
102
{ACAD_REACTORS
330
4007
102
}
330
4007
100
AcDbVisualStyle
  2
GouraudWithEdges
 70
     3
 71
     2
 72
     2
 73
     1
 90
        2
 40
-0.6
 41
30.0
 62
     5
 63
     7
421
 16777215
 74
     1
 91
        4
 64
     7
 65
   257
 75
     1
175
     1
 42
1.0
 92
        0
 66
   257
 43
1.0
 76
     1
 77
     6
 78
     2
 67
     7
 79
     5
170
     0
171
     0
290
     0
174
     0
 93
       13
 44
0.0
173
     0
291
     1
 45
0.0
  0
VISUALSTYLE
  5
4015
102
{ACAD_REACTORS
330
4007
102
}
330
4007
100
AcDbVisualStyle
  2
Linepattern
 70
    14
 71
     2
 72
     2
 73
     0
 90
        0
 40
-0.6
 41
-30.0
 62
     5
 63
     7
421
 16777215
 74
     1
 91
        4
 64
     7
 65
   257
 75
     7
175
     7
 42
1.0
 92
        8
 66
     7
 43
1.0
 76
     1
 77
     6
 78
     2
 67
     7
 79
     5
170
     0
171
     0
290
     0
174
     0
 93
        1
 44
0.0
173
     0
291
     1
 45
0.0
  0
VISUALSTYLE
  5
4011
102
{ACAD_REACTORS
330
4007
102
}
330
4007
100
AcDbVisualStyle
  2
Realistic
 70
     8
 71
     2
 72
     2
 73
     0
 90
        0
 40
-0.6
 41
-30.0
 62
     5
 63
     7
421
 16777215
 74
     1
 91
        0
 64
     7
 65
   257
 75
     1
175
     1
 42
1.0
 92
        8
 66
     8
424
  7895160
 43
1.0
 76
     1
 77
     6
 78
     2
 67
     7
 79
     5
170
     0
171
     0
290
     0
174
     0
 93
       13
 44
0.0
173
     0
291
     0
 45
0.0
  0
VISUALSTYLE
  5
4014
102
{ACAD_REACTORS
330
4007
102
}
330
4007
100
AcDbVisualStyle
  2
Thicken
 70
    13
 71
     2
 72
     2
 73
     0
 90
        0
 40
-0.6
 41
-30.0
 62
     5
 63
     7
421
 16777215
 74
     1
 91
        4
 64
     7
 65
   257
 75
     1
175
     1
 42
1.0
 92
       12
 66
     7
 43
1.0
 76
     1
 77
     6
 78
     2
 67
     7
 79
     5
170
     0
171
     0
290
     0
174
     0
 93
        1
 44
0.0
173
     0
291
     1
 45
0.0
  0
DICTIONARYVAR
  5
43BD
102
{ACAD_REACTORS
330
3E01
102
}
330
3E01
100
DictionaryVariables
280
     0
  1
STANDARD
  0
DICTIONARYVAR
  5
3E02
102
{ACAD_REACTORS
330
3E01
102
}
330
3E01
100
DictionaryVariables
280
     0
  1
1
  0
XRECORD
  5
3E4E
102
{ACAD_REACTORS
330
3E4D
102
}
330
3E4D
100
AcDbXrecord
280
     1
330
0
330
0
330
0
330
0
330
0
330
0
330
0
330
0
330
0
330
0
330
0
330
0
330
0
330
0
330
0
330
0
330
0
330
0
330
0
330
0
330
0
330
0
330
0
330
0
330
0
330
0
330
0
330
0
330
0
330
0
330
0
330
0
330
0
330
0
330
0
330
0
330
0
330
0
330
0
330
115D
330
1164
330
1183
330
118A
330
0
330
0
330
0
330
0
330
0
330
0
330
0
330
0
330
0
330
0
330
0
330
0
330
0
330
0
330
0
330
0
330
0
330
0
330
0
330
0
330
0
330
0
330
0
330
0
330
0
330
0
330
0
330
0
330
0
330
0
330
0
330
0
330
0
330
0
330
0
330
0
330
0
330
0
330
0
330
0
330
0
330
0
330
0
330
0
330
0
330
0
330
0
330
0
330
0
330
0
330
0
330
0
330
0
330
0
330
0
330
0
330
0
330
0
330
0
330
0
330
0
330
0
330
0
330
0
330
0
330
0
  0
DICTIONARY
  5
441B
330
189A
100
AcDbDictionary
280
     1
281
     1
  3
ADSK_XREC_LAYOUTTHUMBNAIL
360
441C
  0
XRECORD
  5
441C
102
{ACAD_REACTORS
330
441B
102
}
330
441B
100
AcDbXrecord
280
     1
310
280000006C0000008C0000000100080000000000103B0000000000000000000000010000000000000000000000000000FFFFFF000000000000000000000000000000000000000000000000000000000000000000330000006600000099000000CC000000FF00000000330000333300006633000099330000CC330000FF3300
310
0000660000336600006666000099660000CC660000FF66000000990000339900006699000099990000CC990000FF99000000CC000033CC000066CC000099CC0000CCCC0000FFCC000000FF000033FF000066FF000099FF0000CCFF0000FFFF000000003300330033006600330099003300CC003300FF003300003333003333
310
33006633330099333300CC333300FF33330000663300336633006666330099663300CC663300FF66330000993300339933006699330099993300CC993300FF99330000CC330033CC330066CC330099CC3300CCCC3300FFCC330000FF330033FF330066FF330099FF3300CCFF3300FFFF330000006600330066006600660099
310
006600CC006600FF00660000336600333366006633660099336600CC336600FF33660000666600336666006666660099666600CC666600FF66660000996600339966006699660099996600CC996600FF99660000CC660033CC660066CC660099CC6600CCCC6600FFCC660000FF660033FF660066FF660099FF6600CCFF6600
310
FFFF660000009900330099006600990099009900CC009900FF00990000339900333399006633990099339900CC339900FF33990000669900336699006666990099669900CC669900FF66990000999900339999006699990099999900CC999900FF99990000CC990033CC990066CC990099CC9900CCCC9900FFCC990000FF99
310
0033FF990066FF990099FF9900CCFF9900FFFF99000000CC003300CC006600CC009900CC00CC00CC00FF00CC000033CC003333CC006633CC009933CC00CC33CC00FF33CC000066CC003366CC006666CC009966CC00CC66CC00FF66CC000099CC003399CC006699CC009999CC00CC99CC00FF99CC0000CCCC0033CCCC0066CC
310
CC0099CCCC00CCCCCC00FFCCCC0000FFCC0033FFCC0066FFCC0099FFCC00CCFFCC00FFFFCC000000FF003300FF006600FF009900FF00CC00FF00FF00FF000033FF003333FF006633FF009933FF00CC33FF00FF33FF000066FF003366FF006666FF009966FF00CC66FF00FF66FF000099FF003399FF006699FF009999FF00CC
310
99FF00FF99FF0000CCFF0033CCFF0066CCFF0099CCFF00CCCCFF00FFCCFF0000FFFF0033FFFF0066FFFF0099FFFF00CCFFFF00FFFFFF00000000000D0D0D001A1A1A00282828003535350043434300505050005D5D5D006B6B6B00787878008686860093939300A1A1A100AEAEAE00BBBBBB00C9C9C900D6D6D600E4E4E400
310
F1F1F100FFFFFF0000000000000000000000000000000000000000000000000000000000000000000000000000000000F5F5F5F5F5F5F5F5F5F5F5F5F5F5F5F5F5F5F5F5F5F5F5F5F5F5F5F5F5F5F5F5F5F5F5F5F5F5F5F5F5F5F5F5F5F5F5F5F5F5F5F5F5F5F5F5F5F5F5F5F5F5F5F5F5F5F5F5F5F5F5F5F5F5F5F5F5F5F5
310
F5F5F5F5F5F5F5F5F5F5F5F5F5F5F5F5F5F5F5F5F5F5F5F5F5F5F5F5F5F5E2E2E2E2E2E2E2E2E2E2E2E2E2E2E2E2E2E2E2E2E2E2E2E2E2E2E2E2E2E2E2E2E2E2E2E2E2E2E2E2E2E2E2E2E2E2E2E2E2E2E2E2E2E2E2E2E2E2E2E2E2E2E2E2E2E2E2E2E2E2E2E2E2E2E2E2E2E2E2E2E2E2E2E2E2E2E2E2E2E2E2E2E2E2E2E2E2
310
E2E2E2E2E2E2E2E2E2F5F5E2E2E2E2E2E2E2E2E2E2E2E2E2E2E2E2E2E2E2E2E2E2E2E2E2E2E2E2E2E2E2E2E2E2E2E2E2E2E2E2E2E2E2E2E2E2E2E2E2E2E2E2E2E2E2E2E2E2E2E2E2E2E2E2E2E2E2E2E2E2E2E2E2E2E2E2E2E2E2E2E2E2E2E2E2E2E2E2E2E2E2E2E2E2E2E2E2E2E2E2E2E2E2E2E2E2F5F5E2E2E2E2E2E2E2E2
310
E2E2E2E2E2E2E2E2E2E2E2E2E2E2E2E2E2E2E2E2E2E2E2E2E2E2E2E2E2E2E2E2E2E2E2E2E2E2E2E2E2E2E2E2E2E2E2E2E2E2E2E2E2E2E2E2E2E2E2E2E2E2E2E2E2E2E2E2E2E2E2E2E2E2E2E2E2E2E2E2E2E2E2E2E2E2E2E2E2E2E2E2E2E2E2E2E2E2F5F5E2E2F5F5F5F5F5F5F5F5F5E2E2E2E2E2E2E2E2E2F5F5F5F5F5F5F5
310
F5F5F5F5F5F5F5F5F5E2E2E2E2E2E2E2E2E2F5F5F5F5F5F5F5F5F5F5F5F5F5F5F5F5E2E2E2E2E2E2E2E2E2F5F5F5F5F5F5F5F5F5F5F5F5F5F5F5F5E2E2E2E2E2E2E2E2E2F5F5F5F5F5F5F5F5F5E2E2F5F5E2E2F5E2E2E2E2E2E2E2E2E2E2E2E2E2E2E2E2E2E2E2E2E2E2E2E2E2E2E2E2E2E2E2E2E2E2E2E2E2E2E2E2E2E2E2
310
E2E2E2E2E2E2E2E2E2E2E2E2E2E2E2E2E2E2E2E2E2E2E2E2E2E2E2E2E2E2E2E2E2E2E2E2E2E2E2E2E2E2E2E2E2E2E2E2E2E2E2E2E2E2E2E2E2F5E2E2F5F5E2E2F5E2F5F5F5F5F5F5F5F5F5F5F5F5F5F5F5F5F5F5F5F5F5F5F5F5F5F5F5F5F5F5F5F5F5F5F5F5F5F5F5F5F5F5F5F5F5F5F5F5F5F5F5F5F5F5F5F5F5F5F5F5F5
310
F5F5F5F5F5F5F5F5F5F5F5F5F5F5F5F5F5F5F5F5F5F5F5F5F5F5F5F5F5F5F5F5F5F5F5F5F5E2F5E2E2F5F5E2E2F5E2F5E2E2E2E2E2E2E2E2E2E2E2E2E2E2E2E2E2E2E2E2E2E2E2E2E2E2E2E2E2E2E2E2E2E2E2E2E2E2E2E2E2E2E2E2E2E2E2E2E2E2E2E2E2E2E2E2E2E2E2E2E2E2E2E2E2E2E2E2E2E2E2E2E2E2E2E2E2E2E2
310
E2E2E2E2E2E2E2E2E2E2E2E2E2E2E2E2E2F5E2F5E2E2F5F5E2E2F5E2F5E2E2E2E2E2E2E2E2E2E2E2E2E2E2E2E2E2E2F5F5F5F5F5F5F5F5F5F5F5F5F5F5F5F5F5F5F5F5F5F5F5F5F5F5F5F5F5F5F5F5F5F5F5F5F5F5F5F5F5F5F5F5F5F5F5F5F5F5F5F5F5F5F5F5F5F5F5F5F5E2E2E2E2E2E2E2E2E2E2E2E2E2E2E2E2E2F5E2
310
F5E2E2F5F5E2E2F5E2F5E2E2E2E2E2E2E2E2E2E2E2E2E2E2E2E2E2E2F5F5F5F5F5F5F5F5F5F5F5F5F5F5F5F5F5F5F5F5F5F5F5F5F5F5F5F5F5F5F5F5F5F5F5F5F5F5F5F5F5F5F5F5F5F5F5F5F5F5F5F5F5F5F5F5F5F5F5F5E2E2E2E2E2E2E2E2E2E2E2E2E2E2E2E2E2E2F5E2F5E2E2F5F5E2E2F5E2F5E2E2E2E2E2E2E2E2E2
310
E2E2E2E2E2E2E2E2E2E2E2E2E2E2E2E2E2E2E2E2E2E2E2E2E2E2E2E2E2E2E2E2E2E2E2E2E2E2E2E2E2E2E2E2E2E2E2E2E2E2E2E2E2E2E2E2E2E2E2E2E2E2E2E2E2E2E2E2E2E2E2E2E2E2E2E2E2E2E2E2E2E2E2E2E2E2E2F5E2F5E2E2F5F5E2E2F5E2F5E2E2E2E2E2E2E2E2F5F5F5F5F5F5F5F5F5F5F5F5F5F5F5F5F5F5F5F5
310
F5F5F5F5F5F5F5F5F5F5F5F5F5F5F5F5F5F5F5F5F5F5F5F5F5F5F5F5F5F5F5F5F5F5F5F5F5F5F5F5F5F5F5F5F5F5F5F5F5F5E2E2E2E2E2E2E2E2E2E2E2E2E2E2E2E2E2E2F5E2F5E2E2F5F5E2E2F5E2F5E2E2E2E2E2E2E2E2E2F5E2E2E2E2E2E2E2E2F5E2E2E2E2E2E2F5E2E2E2E2E2E2E2E2E2E2E2F5E2F5F5F5E2E2E2E2E2
310
E2E2E2E2E2E2E2E2E2E2E2F5E2E2E2E2E2E2E2E2E2E2E2E2E2E2E2E2E2E2E2E2E2E2E2E2E2E2E2E2E2E2E2E2E2E2E2E2E2F5E2F5E2E2F5F5E2E2E2E2F5E2E2E2E2E2E2E2E2E2F5E2E2E2E2E2E2E2E2F5E2E2E2E2E2E2F5E2E2E2E2E2E2E2E2E2E2E2F5E2F5F5F5E2E2E2E2E2E2E2E2E2E2E2E2E2E2E2E2F5E2E2E2E2E2E2E2
310
E2E2E2E2E2E2E2E2E2E2E2E2E2E2E2E2E2E2E2E2E2E2E2E2E2E2E2E2E2E2F5E2E2E2E2F5F5E2E2E2E2F5E2E2E2E2E2E2E2E2E2F5E2E2E2E2E2E2E2E2F5E2E2E2E2E2E2F5E2E2E2E2E2E2E2E2E2E2E2F5E21BF5F5E2E2E2E2E2E2E2E2E2E2E2E2E2E2E2E2F5E2E2E2E2E2E2E2E2E2E2E2E2E2E2E2E2E2E2E2E2E2E2E2E2E2E2
310
E2E2E2E2E2E2E2E2E2E2E2F5E2E2E2E2F5F5E2E2E2E2F5E2E2E2E2E2E2E2E2E2F5E2E2E2E2E2E2E2E2F5E2E2E2E2E2E2F5E2E2E2E2E2E2E2E2E2E2E2F5E21BF5F5F5E2E2E2E2F5F5F5F5F5E2E2E2E2E2E2F5E2E2E2E2E2E2E2E2E2E2E2E2E2E2E2E2E2E2E2E2E2E2E2E2E2E2E2E2E2E2E2E2E2E2E2E2E2F5E2E2E2E2F5F5E2
310
E2E2E2F5E2E2E2E2E2E2E2E2E2F5E2E2E2E2E2E2E2E2F5E2E2E2E2E2E2F5E2E2E2E2E2E2E2E2E2E2E2F5E2F5F5F5F5F5F5E2E2F5F5F5F5F5E2E2E2E2E2E2F5E2E2E2E2E2E2E2E2E2E2E2E2E2E2E2E2E2E2E2E2E2E2E2E2E2E2E2E2E2E2E2E2E2E2E2E2E2F5E2E2E2E2F5F5E2E2E2E2F5E2E2E2E2E2E2E2E2E2F5E2E2E2E2E2
310
E2E2E2F5E2E2E2E2E2E2F5E2E2E2E2E2E2E2E2E2E2E2F5E2F5F5F5E2E2E2F5F5F5F5F5F5F5F5F5F5F5E2E2F5E2E2E2E2E2E2E2E2F5F5F5F5F5F5F5F5F5F5E2E2E2E2E2E2E2E2E2E2E2E2E2E2E2E2E2E2E2F5E2E2E2E2F5F5E2E2E2E2F5E2E2E2E2E2E2E2E2E2F5E2E2E2E2E2E2E2E2F5E2E2E2E2E2E2F5E2E2E2E2E2E2E2E2
310
E2E2E2F5E2F5F5F5E2E2E2E2E2E2E2E2E2E2E2E2E2E2E2E2F5E2E2E2E2E2E2E2E2E2E2E2E2E2E2E2E2E2E2E2E2E2E2E2E2E2E2E2E2E2E2E2E2E2E2E2E2E2F5E2E2E2E2F5F5E2E2E2E2F5E2E2E2E2E2E2E2E2E2F5E2E2E2E2E2E2E2E2F5E2E2E2E2E2E2F5E2E2E2E2E2E2E2E2E2E2E2F5E2F5F5F5E2E2E2E2E2E2E2E2E2E2E2
310
E2E2E2E2E2F5E2E2E2E2E2E2E2F5F5F5F5F5F5F5F5F5F5F5F5F5F5F5F5F5F5F5F5F5F5F5F5F5E2E2E2E2E2F5E2E2E2E2F5F5E2E2E2E2F5E2E2E2E2E2E2E2E2E2F5E2E2E2E2E2E2E2E2F5E2E2E2E2E2E2F5E2E2E2E2E2E2E2E2E2E2E2F5E2F5F5F5E2E2E2E2E2E2E2E2E2E2E2E2E2E2E2E2F5E2E2E2E2E2E2E2F5F5F5F5F5F5
310
F5F5F5F5F5F5F5F5F5F5F5F5F5F5F5F5F5F5F5E2E2E2E2E2F5E2E2E2E2F5F5E2E2E2E2F5E2E2E2E2E2E2E2E2E2F5E2E2E2E2E2E2E2E2F5E2E2E2E2E2E2F5E2E2E2E2E2E2E2E2E2E2E2F5E2F5F5F5E2E2E2E2E2E2E2E2E2E2E2E2E2E2E2E2F5E2E2E2E2E2E2E2F5E2F5F5F5F5F5E2F5E2E2E2F5F5F5F5F5F5F5E2E2E2E2E2F5
310
E2E2E2E2E2F5E2E2E2E2F5F5E2E2F5E2F5E2E2E2E2E2E2E2E2E2F5E2E2E2E2E2E2E2E2F5E2E2E2E2E2E2F5E2E2E2E2E2E2E2E2E2E2E2F5E2F5F5F5E2E2E2E2E2E2E2E2E2E2E2E2E2E2E2E2F5E2E2E2E2E2E2E2F5F5F5F5F5F5F5F5F5F5F5F5F5F5F5F5F5F5F5F5F5F5F5F5F5E2E2E2E2E2F5E2F5E2E2F5F5E2E2F5E2F5E2E2
310
E2E2E2E2E2E2E2F5E2E2E2E2E2E2E2E2F5E2E2E2E2E2E2F5E2E2E2E2E2E2E2E2E2E2E2F5E2F5F5F5E2E2E2E2E2E2E2E2E2E2E2E2E2E2E2E2F5E2E2E2E2E2E2E2F5F5F5F5F5F5F5F5F5F5F5F5F5F5F5F5F5F5F5F5F5F5F5F5F5E2E2E2E2E2F5E2F5E2E2F5F5E2E2F5E2F5E2E2E2E2E2E2E2E2E2F5E2E2E2E2E2E2E2E2F5E2E2
310
E2E2E2E2F5E2E2E2E2E2E2E2E2E2E2E2F5E21BF5F5E2E2E2E2E2E2E2E2E2E2E2E2E2E2E2E2F5E2E2E2E2E2E2E2F5E2E2F5F5F5E2E2F5F5F5F5F5F5F5F5F5F5F5F5F5F5F5E2F5E2E2E2E2E2F5E2F5E2E2F5F5E2E2F5E2F5E2E2E2E2E2E2E2E2E2F5E2E2E2E2E2E2E2E2F5E2E2E2E2E2E2F5E2E2E2E2E2E2E2E2E2E2E2F5E21B
310
F5F5E2E2E2E2E2E2E2E2E2E2E2E2E2E2E2E2F5E2E2E2E2E2E2E2F5E2E2E2E2E2E2E2F5E2E2E2E2E2E2E2E2E2E2E2E2E2E2E2F5E2E2E2E2E2F5E2F5E2E2F5F5E2E2F5E2F5E2E2E2E2E2E2E2E2E2F5E2E2E2E2E2E2E2E2F5E2E2E2E2E2E2F5E2E2E2E2E2E2E2E2E2E2E2F5E2F5F5F5E2E2E2E2E2E2E2E2E2E2E2E2E2E2E2E2F5
310
E2E2E2E2E2E2E2F5F5F5F5F5F5F5F5F5F5F5F5F5F5F5F5F5F5F5F5F5F5F5F5F5E2E2E2E2E2F5E2F5E2E2F5F5E2E2F5E2F5E2E2E2E2E2E2E2E2E2F5E2E2E2E2E2E2E2E2F5E2E2E2E2E2E2F5E2E2E2E2E2E2E2E2E2E2E2F5E2F5F5F5E2E2E2E2E2E2E2E2E2E2E2E2E2E2E2E2F5E2E2E2E2E2E2E2F5E2E2E2E2E2F5F5F5F5F5F5
310
F5F5F5F5F5F5E2E2E2E2E2E2F5E2E2E2E2E2F5E2F5E2E2F5F5E2E2F5E2F5E2E2E2E2E2E2E2E2E2F5E2E2E2E2E2E2E2E2F5E2E2E2E2E2E2F5E2E2E2E2E2E2E2E2E2E2E2F5E2F5F5F5E2E2E2E2E2E2E2E2E2E2E2E2E2E2E2E2F5E2E2E2E2E2E2E2F5E2F5F5F5F5F5F5F5F5F5F5F5F5F5F5F5F5F5F5F5F5E2E2F5E2E2E2E2E2F5
310
E2F5E2E2F5F5E2E2F5E2F5E2E2E2E2E2E2E2E2E2F5E2E2E2E2E2E2E2E2F5E2E2E2E2E2E2F5E2E2E2E2E2E2E2E2E2E2E2F5E2F5F5F5E2E2E2E2E2E2E2E2E2E2E2E2E2E2E2E2F5E2E2E2E2E2E2E2F5E2F5F5F5F5F5F5F5F5F5F5F5F5F5F5F5F5F5F5F5F5E2E2F5E2E2E2E2E2F5E2F5E2E2F5F5E2E2F5E2F5E2E2E2E2E2E2E2E2
310
E2F5E2E2E2E2E2E2E2E2F5E2E2E2E2E2E2F5E2E2E2E2E2E2E2E2E2E2E2F5E2F5F5F5E2E2E2E2E2E2E2E2E2E2E2E2F5F5F5F5F5F5F5F5E2E2E2E2F5F5F5F5F5F5F5F5F5F5F5F5F5F5F5F5F5F5F5F5F5F5F5F5F5E2E2E2E2E2F5E2F5E2E2F5F5E2E2F5E2F5E2E2E2E2E2E2E2E2E2F5E2E2E2E2E2E2E2E2F5E2E2E2E2E2E2F5E2
310
E2E2E2E2E2E2E2E2E2E2F5E2F5F5F5E2E2E2E2E2E2E2E2E2E2E2E2E2E2F5F5F5F5E2E2E2E2E2E2E2E2E2E2E2E2E2E2E2E2E2E2E2E2E2E2E2E2E2E2E2E2E2E2E2E2E2E2E2E2F5E2F5E2E2F5F5E2E2F5E2F5E2E2E2E2E2E2E2E2E2F5E2E2E2E2E2E2E2E2F5E2E2E2E2F5F5F5F5E2E2E2E2E2E2E2E2E2E2F5E2F5F5F5E2E2E2E2
310
E2E2E2E2E2E2E2F5F5F5F5F5F5F5F5F5F5E2E2E2E2E2E2E2E2E2E2E2E2E2E2E2E2E2E2E2E2E2E2E2E2E2E2E2E2E2E2E2E2E2F5E2F5E2E2F5F5E2E2F5E2F5E2E2E2E2E2E2E2E2E2F5E2E2E2E2E2E2E2E2F5E2E2E2E2F5F5F5F5E2E2E2E2E2E2E2E2E2E2F5E2F5F5F5E2E2E2E2E2E2E2E2E2E2E2E2E2E2E2E2F5E2E2E2E2E2E2
310
E2E2E2E2E2E2E2E2E2E2E2E2E2E2E2E2E2E2E2E2E2E2E2E2E2E2E2E2E2E2E2F5E2F5E2E2F5F5E2E2F5E2F5E2E2E2E2E2E2E2E2E2F5E2E2E2E2E2E2E2E2F5E2E2E2E2E2E2F5E2E2E2E2E2E2E2E2E2E2E2F5E21BF51BE2E2E2E2E2E2E2E2E2E2E2E2E2E2E2E2F5E2E2E2E2E2E2E2E2F5F5F5F5F5F5F5F5F5F5F5F5F5F5F5F5F5
310
F5F5F5F5F5F5E2E2E2E2E2E2F5E2F5E2E2F5F5E2E2F5E2F5E2E2E2E2E2E2E2E2E2F5E2E2E2E2E2E2E2E2F5E2E2E2E2E2E2F5E2E2E2E2E2E2E2E2E2E2E2F5E21BF51BE2E2E2E2E2E2E2E2E2E2E2E2E2E2E2E2F5E2E2E2E2E2E2E2E2F5E2E2E2E2E2E2E2F5E2E2E2E2E2E2E2E2E2E2E2E2E2F5E2E2E2E2E2E2F5E2F5E2E2F5F5
310
E2E2F5E2F5E2E2E2E2E2E2E2E2E2F5E2E2E2E2E2E2E2E2F5E2E2E2E2E2E2F5E2E2E2E2E2E2E2E2E2E2E2F5E2F5F5F5E2E2E2E2E2E2E2E2E2E2E2E2E2E2E2E2F5E2E2E2E2E2E2E2E2F5F5F5F5F5F5F5F5F5F5F5F5F5F5F5F5F5F5F5F5F5F5F5E2E2E2E2E2E2F5E2F5E2E2F5F5E2E2F5E2F5E2E2E2E2E2E2E2E2E2F5E2E2E2E2
310
E2E2E2E2F5E2E2E2E2E2E2F5E2E2E2E2E2E2E2E2E2E2E2F5E2F5F5F5E2E2E2E2E2E2E2E2E2E2E2E2E2E2E2E2F5E2E2E2E2E2E2E2E2F5E2E2F5F5F5E2E2F5E2E2E2F5F5F5F5F5E2E2E2E2E2F5E2E2E2E2E2E2F5E2F5E2E2F5F5E2E2F5E2F5E2E2E2E2E2E2E2E2E2F5E2E2E2E2E2E2E2E2F5E2E2E2E2E2E2F5E2E2E2E2E2E2E2
310
E2E2E2E2F5E2F5F5F5E2E2E2E2E2E2E2E2E2E2E2E2E2E2E2E2F5E2E2E2E2E2E2E2E2F5F5F5F5F5F5F5F5F5F5F5F5F5F5F5F5F5F5F5F5F5F5F5E2E2E2E2E2E2F5E2F5E2E2F5F5E2E2E2E2F5E2E2E2E2E2E2E2E2E2F5E2E2E2E2E2E2E2E2F5E2E2E2E2E2E2F5E2E2E2E2E2E2E2E2E2E2E2F5E2F5F5F5E2E2E2E2E2E2E2E2E2E2
310
E2E2E2E2E2E2F5E2E2E2E2E2E2E2E2F5E2E2E2E2F5F5F5F5F5F5F5F5F5F5F5F5E2E2E2E2E2F5E2E2E2E2E2E2F5E2E2E2E2F5F5E2E2E2E2F5E2E2E2E2E2E2E2E2E2F5E2E2E2E2E2E2E2E2F5E2E2E2E2E2E2F5E2E2E2E2E2E2E2E2E2E2E2F5E2F5F5F5E2E2E2E2E2E2E2E2E2E2E2E2E2E2E2E2F5E2E2E2E2E2E2E2E2F5E2E2E2
310
E2F5F5F5F5F5F5F5F5F5F5F5F5E2E2E2E2E2F5E2E2E2E2E2E2F5E2E2E2E2F5F5E2E2E2E2F5E2E2E2E2E2E2E2E2E2F5E2E2E2E2E2E2E2E2F5E2E2E2E2E2E2F5E2E2E2E2E2E2E2E2E2E2E2F5E2F5F5F5E2E2E2E2E2E2E2E2E2E2E2E2E2E2E2E2F5E2E2E2E2E2E2E2E2F5E2E2E2E2E2F5F5F5F5F5F5F5F5F5F5E2E2E2E2E2E2F5
310
E2E2E2E2E2E2F5E2E2E2E2F5F5E2E2E2E2F5E2E2E2E2E2E2E2E2E2F5E2E2E2E2E2E2E2E2F5E2E2E2E2E2E2F5E2E2E2E2E2E2E2E2E2E2E2F5E2F5F5F5E2E2E2E2E2E2E2E2E2E2E2E2E2E2E2E2F5E2E2E2E2E2E2E2E2F5E2E2E2E2E2E2E2E2E2E2E2E2E2E2E2E2E2E2E2E2E2F5E2E2E2E2E2E2F5E2E2E2E2F5F5E2E2E2E2F5E2
310
E2E2E2E2E2E2E2E2F5E2E2E2E2E2E2E2E2F5E2E2E2E2E2E2F5E2E2E2E2E2E2E2E2E2E2E2F5E2F5F5F5E2E2E2E2E2E2E2E2E2E2E2E2E2E2E2E2F5E2E2E2E2E2E2E2E2F5F5F5F5F5F5F5F5F5F5F5F5F5F5F5F5F5F5F5F5F5F5F5E2E2E2E2E2E2F5E2E2E2E2F5F5E2E2E2E2F5E2E2E2E2E2E2E2E2E2F5E2E2E2E2E2E2E2E2F5E2
310
E2E2E2E2E2F5E2E2E2E2E2E2E2E2E2E2E2F5E21BF5F5E2E2E2E2E2E2E2E2E2E2E2E2E2E2E2E2F5E2E2E2E2E2E2E2E2E2E2E2E2E2E2E2E2E2E2E2E2E2E2E2E2E2E2E2E2E2E2E2E2E2E2E2E2E2F5E2E2E2E2F5F5E2E2E2E2F5E2E2E2E2E2E2E2E2E2F5E2E2E2E2E2E2E2E2F5E2E2E2E2E2E2F5E2E2E2E2E2E2E2E2E2E2E2F5E2
310
1BF5F5E2E2E2E2E2E2E2E2E2E2E2E2E2E2E2E2F5E2E2E2E2E2E2E2E2E2E2E2E2E2E2E2E2E2E2E2E2E2E2E2E2E2E2E2E2E2E2E2E2E2E2E2E2E2F5E2E2E2E2F5F5E2E2E2E2F5E2E2E2E2E2E2E2E2E2F5E2E2E2E2E2E2E2E2F5E2E2E2E2E2E2F5E2E2E2E2E2E2E2E2E2E2E2F5E2F5F5F5E2E2E2E2E2E2E2E2E2E2E2E2E2E2E2E2
310
F5E2E2E2E2E2E2E2E2E2E2E2E2E2E2E2E2E2E2E2E2E2E2E2E2E2E2E2E2E2E2E2E2E2E2E2E2E2F5E2E2E2E2F5F5E2E2E2E2F5E2E2E2E2E2E2E2E2E2F5E2E2E2E2E2E2E2E2F5E2E2E2E2E2E2F5E2E2E2E2E2E2E2E2E2E2E2F5E2F5F5F5E2E2E2E2E2E2E2E2E2E2E2E2E2E2E2E2F5E2E2E2E2E2E2E2E2E2E2E2E2E2E2E2E2E2E2
310
E2E2E2E2E2E2E2E2E2E2E2E2E2E2E2E2E2E2E2F5E2E2E2E2F5F5E2E2E2E2F5E2E2E2E2E2E2E2E2E2F5E2E2E2E2E2E2E2E2F5E2E2E2E2E2E2F5E2E2E2E2E2E2E2E2E2E2E2F5E2F5F5F5E2E2E2E2E2E2E2E2E2E2E2E2E2E2E2E2F5E2E2E2E2E2E2E2E2E2E2E2E2E2E2E2E2E2E2E2E2E2E2E2E2E2E2E2E2E2E2E2E2E2E2E2E2E2
310
F5E2E2E2E2F5F5E2E2F5E2F5E2E2E2E2E2E2E2E2E2F5E2E2E2E2E2E2E2E2F5E2E2E2E2E2E2F5E2E2E2E2E2E2E2E2E2E2E2F5E2F5F5F5E2E2E2E2E2F5F5F5F5F5F5F5F5E2E2E2F5E2E2E2E2E2E2E2E2E2E2E2E2E2E2E2E2E2E2E2E2E2E2E2E2E2E2E2E2E2E2E2E2E2E2E2E2E2F5E2F5E2E2F5F5E2E2F5E2F5E2E2E2E2E2E2E2
310
E2E2F5E2E2E2E2E2E2E2E2F5E2E2E2E2E2E2F5E2E2E2E2E2E2E2E2E2E2E2F5E2F5F5F5E2E2F5F5F5F5E2E2E2E2E2E2E2E2E2E2F5E2E2E2E2E2E2E2E2E2E2E2E2E2E2E2E2E2E2E2E2E2E2E2E2E2E2E2E2E2E2E2E2E2E2E2E2E2F5E2F5E2E2F5F5E2E2F5E2F5E2E2E2E2E2E2E2E2E2F5E2E2E2E2E2E2E2E2F5E2E2E2E2E2E2F5
310
E2E2E2E2E2E2E2E2E2E2E2F5E2F5F5F5F5F5E2E2E2E2E2E2E2E2E2E2E2E2E2E2F5E2E2E2E2E2E2E2E2E2E2E2E2E2E2E2E2E2E2E2E2E2E2E2E2E2E2E2E2E2E2E2E2E2E2E2E2E2F5E2F5E2E2F5F5E2E2F5E2F5E2E2E2E2E2E2E2E2E2F5E2E2E2E2E2E2E2E2F5E2E2E2E2E2E2F5E2E2E2E2E2E2E2E2E2E2E2F5E2F5F5F5F5F5F5
310
F5F5F5F5F5F5F5F5F5F5F5F5F5F5F5F5F5F5F5F5F5F5F5F5F5F5F5E2E2E2E2E2E2E2E2E2E2E2E2E2E2E2E2E2E2E2E2E2E2E2E2F5E2F5E2E2F5F5E2E2F5E2F5E2E2E2E2E2E2E2E2E2F5E2E2E2E2E2E2E2E2F5E2E2E2E2E2E2F5E2E2E2E2E2E2E2E2E2E2E2F5E2F5F5F5E2E2E2E2E2E2E2E2E2E2E2E2E2E2E2E2E2E2E2E2E2E2
310
E2E2E2E2E2E2E2F5E2E2E2E2E2E2E2E2E2E2E2E2E2E2E2E2E2E2E2E2E2E2E2E2F5E2F5E2E2F5F5E2E2F5E2F5E2E2E2E2E2E2E2E2E2F5E2E2E2E2E2E2E2E2F5E2E2E2E2E2E2F5E2E2E2E2E2E2E2E2E2E2E2F5E2F5F5F5E2E2E2E2E2E2E2E2E2E2E2E2E2E2E2E2E2E2E2E2E2E2E2E2E2E2E2E2E2F5E2E2E2E2E2E2E2E2E2E2E2
310
E2E2E2E2E2E2E2E2E2E2E2E2E2F5E2F5E2E2F5F5E2E2F5E2F5E2E2E2E2E2E2E2E2E2F5E2E2E2E2E2E2E2E2F5E2E2E2E2E2F5F5F5F5F5F5F5F5F5F5F5F5F5F5F5F5F5F5F5F5F5F5F5F5F5F5F5F5F5F5F5F5F5F5E2E2E2E2E2E2E2E2E2E2E2E2E2F5E2E2E2E2E2E2E2E2E2E2E2E2E2E2E2E2E2E2E2E2E2E2E2E2F5E2F5E2E2F5
310
F5E2E2F5E2F5E2E2E2E2E2E2E2E2E2F5E2E2E2E2E2E2E2E2F5E2E2E2E2E2E2F5E2E2E2E2E2E2E2E2E2E2E2F5E2F5F5F5F5E2E2E2E2E2E2E2E2E2E2E2E2E2E2E2E2E2E2E2E2E2E2E2E2E2E2E2E2F5E2E2E2E2E2E2E2E2E2E2E2E2E2E2E2E2E2E2E2E2E2E2E2E2F5E2F5E2E2F5F5E2E2F5E2F5E2E2E2E2E2E2E2E2E2F5E2E2E2
310
E2E2E2E2E2F5E2E2E2E2E2E2F5E2E2E2E2E2E2E2E2E2E2E2F5F5F5F5F5E2E2E2E2E2E2E2E2E2E2E2E2E2E2E2E2E2E2E2E2E2E2E2E2E2E2E2E2E2F5E2E2E2E2E2E2E2E2E2E2E2E2E2E2E2E2E2E2E2E2E2E2E2E2F5E2F5E2E2F5F5E2E2F5E2F5E2E2E2E2E2E2E2E2E2F5E2E2E2E2E2E2E2E2F5E2E2E2E2E2E2F5E2E2E2E2E2E2
310
E2E2E2E2E2F5F5F5F5F5F5E2E2E2E2E2E2E2E2E2E2E2E2E2E2E2E2E2E2E2E2E2E2E2E2E2E2E2E2F5E2E2E2E2E2E2E2E2E2E2E2E2E2E2E2E2E2E2E2E2E2E2E2E2F5E2F5E2E2F5F5E2E2F5E2F5E2E2E2E2E2E2E2E2E2F5E2E2E2E2E2E2E2E2F5E2E2E2E2E2E2F5E2E2E2E2E2F5F5F5F5F5F5F5F5F5F5F5F5E2E2E2E2E2E2E2E2
310
E2E2E2E2E2E2E2E2E2E2E2E2E2E2E2E2E2E2E2E2F5E2E2E2E2E2E2E2E2E2E2E2E2E2E2E2E2E2E2E2E2E2E2E2E2F5E2F5E2E2F5F5E2E2F5E2F5E2E2E2E2E2E2E2E2E2F5E2E2E2E2F5F5F5F5F5F5F5F5E2E2E2F5E2E2E2E2E2F5F5E2E2E2E2F5F5F5F5F5F5F5E2E2E2E2E2E2E2E2E2E2E2E2E2E2E2E2E2E2E2E2E2E2E2E2E2E2
310
E2F5E2E2E2E2E2E2E2E2E2E2E2E2E2E2E2E2E2E2E2E2E2E2E2E2F5E2F5E2E2F5F5E2E2F5E2F5E2E2E2E2E2E2E2E2E2F5E2E2E2E2F5F5F5F5F5F5F5F5E2E2E2F5E2E2E2E2E2F5E2E2E2E2E2F5F5F5F5F5F5F5F5E2E2E2E2E2E2E2E2E2E2E2E2E2E2E2E2E2E2E2E2E2E2E2E2E2E2F5E2E2E2E2E2E2E2E2E2E2E2E2E2E2E2E2E2
310
E2E2E2E2E2E2E2F5E2F5E2E2F5F5E2E2F5E2F5E2E2E2E2E2E2E2E2E2F5E2E2E2E2E2F5F5F5F5F5E2E2E2E2E2F5E2E2E2E2E2F5E2E2E2E2E2F5F5F5F5F5F5E2E2F5E2E2F5F5F5F5F5F5F5F5F5F5F5F5E2E2E2E2E2E2E2E2E2E2E2F5E2E2E2E2E2E2E2E2E2E2E2E2E2E2E2E2E2E2E2E2E2E2E2E2F5E2F5E2E2F5F5E2E2F5E2F5
310
E2E2E2E2E2E2E2E2E2F5E2E2E2E2E2E2E2E2F5E2E2E2E2E2E2F5E2E2E2E2E2F5E2E2E2E2E2F5F5F5F5F5F5E2E2E2F5F5F5F5F5F5F5F5F5F5F5F5F5F5E2E2E2E2E2E2E2E2E2E2E2F5E2E2E2E2E2E2E2E2E2E2E2E2E2E2E2E2E2E2E2E2E2E2E2E2F5E2F5E2E2F5F5E2E2F5E2F5E2E2E2E2E2E2E2E2E2F5E2E2E2E2E2E2E2E2F5
310
E2E2E2E2E2E2F5E2E2E2E2E2F5E2E2E2E2E2F5F5F5F5F5F5E2E2E2E2E2E2E2E2E2E2E2E2E2E2E2E2E2E2E2E2E2E2E2E2E2E2E2E2F5E2E2E2E2E2E2E2E2E2E2E2E2E2E2E2E2E2E2E2E2E2E2E2E2F5E2F5E2E2F5F5E2E2E2E2F5E2E2E2E2E2E2E2E2E2F5E2E2E2E2E2E2E2E2F5E2E2E2E2E2E2F5E2E2E2E2E2F5E2E2E2E2E2F5
310
F5F5F5F5F5E2E2E2E2E2E2E2E2E2E2E2E2E2E2E2E2E2E2E2E2E2E2E2E2E2E2E2E2F5E2E2E2E2E2E2E2E2E2E2E2E2E2E2E2E2E2E2E2E2E2E2E2E2F5E2E2E2E2F5F5E2E2E2E2F5E2E2E2E2E2E2E2F5F5F5F5E2E2E2E2E2E2E2F5E2E2E2E2E2E2F5E2E2E2E2E2F5E2E2E2E2E2F5F5F5F5F5F5E2E2E2E2E2E2E2E2E2E2E2E2E2E2
310
E2E2E2E2E2E2E2E2E2E2E2E2E2E2F5E2E2E2E2E2E2E2E2E2E2E2E2E2E2E2E2E2E2E2E2E2E2E2E2F5E2E2E2E2F5F5E2E2E2E2F5E2E2E2E2F5F5F5F5F5F5F5F5F5F5E2E2E2E2F5E2E2E2E2E2E2F5E2E2E2E2E2F5E2E2E2E2E2F5F5F5F5F5F5E2E2E2E2E2E2E2E2E2E2E2E2E2E2E2E2E2E2E2E2E2E2E2E2E2E2E2E2F5E2E2E2E2
310
E2E2E2E2E2E2E2E2E2E2E2E2E2E2E2E2E2E2E2E2F5E2E2E2E2F5F5E2E2E2E2F5E2E2E2E2E2E2E2E2E2E2E2E2E2E2E2E2E2E2F5E2E2E2E2E2E2F5E2E2E2E2E2F5E2E2E2E2E2F5F5F5F5F5F5E2E2E2E2E2E2E2E2E2E2E2E2E2E2E2E2E2E2E2E2E2E2E2E2E2E2E2E2F5E2E2E2E2E2E2E2E2E2E2E2E2E2E2E2E2E2E2E2E2E2E2E2
310
E2F5E2E2E2E2F5F5E2E2E2E2F5E2E2E2E2E2E2E2E2E2F5E2E2E2E2E2E2E2E2F5E2E2E2E2E2E2F5E2E2E2E2E2F5E2E2E2E2E2F5F5F5F5F5F5E2E2E2E2E2E2E2E2E2E2E2E2E2E2E2E2E2E2E2E2E2E2E2E2E2E2E2E2F5E2E2E2E2E2E2E2E2E2E2E2E2E2E2E2E2E2E2E2E2E2E2E2E2F5E2E2E2E2F5F5E2E2E2E2F5E2E2E2E2E2E2
310
E2E2E2F5E2E2E2E2E2E2E2E2F5E2E2E2E2E2E2F5E2E2E2E2E2F5E2E2E2E2E2F5F5F5F5F5F5F5E2E2E2E2E2E2E2E2E2E2E2E2E2E2E2E2E2E2E2E2E2E2E2E2E2E2E2F5E2E2E2E2E2E2E2E2E2E2E2E2E2E2E2E2E2E2E2E2E2E2E2E2F5E2E2E2E2F5F5E2E2E2E2F5E2E2E2E2E2E2E2E2E2F5E2E2E2E2E2E2E2E2F5E2E2E2E2E2E2
310
F5E2E2E2E2E2F5E2E2E2E2E2F5F5F5F5E2F5F5E2E2E2E2E2E2E2E2E2E2E2E2E2E2E2E2E2E2E2E2E2E2E2E2E2E2E2F5E2E2E2E2E2E2E2E2E2E2E2E2E2E2E2E2E2E2E2E2E2E2E2E2F5E2E2E2E2F5F5E2E2E2E2F5E2E2E2E2E2E2E2E2E2F5E2E2E2E2E2E2E2E2F5E2E2E2E2E2E2F5E2E2E2E2E2F5E2E2E2E2E2F5F5F5F5E2F5F5
310
E2E2E2E2E2E2E2E2E2E2E2E2E2E2E2E2E2E2E2E2E2E2E2E2E2E2E2F5E2E2E2E2E2E2E2E2E2E2E2E2E2E2E2E2E2E2E2E2E2E2E2E2F5E2E2E2E2F5F5E2E2E2E2F5E2E2E2E2E2E2E2E2E2F5E2E2E2E2E2E2E2E2F5E2E2E2E2E2E2F5E2E2E2E2E2F5E2E2E2E2E2F5F5F5F5F5F5F5E2E2E2E2E2E2E2E2E2E2E2E2E2E2E2E2E2E2E2
310
E2E2E2E2E2E2E2E2F5E2E2E2E2E2E2E2E2E2E2E2E2E2E2E2E2E2E2E2E2E2E2E2E2F5E2E2E2E2F5F5E2E2E2E2F5E2E2E2E2E2E2E2E2E2F5E2E2E2E2E2E2E2E2F5E2E2E2E2E2E2F5E2E2E2E2E2F5E2E2E2E2E2F5F5F5F5F5F5F5E2E2E2E2E2E2E2E2E2E2E2E2E2E2E2E2E2E2E2E2E2E2E2E2E2E2E2F5E2E2E2E2E2E2E2E2E2E2
310
E2E2E2E2E2E2E2E2E2E2E2E2E2E2F5E2E2E2E2F5F5E2E2F5E2F5E2E2E2E2E2E2E2E2E2F5E2E2E2E2E2E2E2E2F5E2E2E2E2E2E2F5E2E2E2E2E2F5E2E2E2E2E2F5F5F5F5E2F5F5E2E2E2E2E2E2E2E2E2E2E2E2E2E2E2E2E2E2E2E2E2E2E2E2E2E2E2F5E2E2E2E2E2E2E2E2E2E2E2E2E2E2E2E2E2E2E2E2E2E2E2E2F5E2F5E2E2
310
F5F5E2E2F5E2F5E2E2E2E2E2E2E2E2E2F5E2E2E2E2E2E2E2E2F5E2E2E2E2E2E2F5E2E2E2E2E2F5E2E2E2E2E2F5F5F5F5E2F5F5E2E2E2E2E2E2E2F5F5F5F5F5F5F5F5F5F5F5E2E2E2E2E2E2E2E2E2F5E2E2E2E2E2E2E2E2E2E2E2E2E2E2E2E2E2E2E2E2E2E2E2E2F5E2F5E2E2F5F5E2E2F5E2F5E2E2E2E2E2E2E2E2E2F5E2E2
310
E2E2E2E2E2E2F5E2E2E2E2E2E2F5E2E2E2E2E2F5E2E2E2E2E2F5F5F5F5E2F5F5E2E2E2E2E2F5F5F5F5F5F5F5F5F5F5F5E2E2E2E2E2E2E2E2E2E2E2F5E2E2E2E2E2E2E2E2E2E2E2E2E2E2E2E2E2E2E2E2E2E2E2E2F5E2F5E2E2F5F5E2E2F5E2F5E2E2E2E2E2E2E2E2E2F5E2E2E2E2E2E2E2E2F5E2E2E2E2E2E2F5E2E2E2E2E2
310
F5E2E2E2E2E2F5F5F5F5E2F5F5F5E2E2F5F5E2E2E2E2E2E2E2E2E2E2E2E2E2E2E2E2E2E2E2E2E2E2F5E2E2E2E2E2E2E2E2E2E2E2E2E2E2E2E2E2E2E2E2E2E2E2E2F5E2F5E2E2F5F5E2E2F5E2F5E2E2E2E2E2E2E2E2E2F5E2E2E2E2E2E2E2E2F5E2E2E2E2E2E2F5E2E2E2E2E2F5E2E2E2E2E2F5F5F5F5E2F5F5F5F5F5E2E2E2
310
E2E2E2E2E2E2E2E2E2E2E2E2E2E2E2E2E2E2E2E2E2F5E2E2E2E2E2E2E2E2E2E2E2E2E2E2E2E2E2E2E2E2E2E2E2E2F5E2F5E2E2F5F5E2E2F5E2F5E2E2E2E2E2E2E2E2E2F5E2E2E2E2E2E2E2E2F5E2E2E2E2E2E2F5E2E2E2E2E2F5E2E2E2E2E2F5F5F5F5E2F5F5E2E2E2E2E2E2E2E2E2E2E2E2E2E2E2E2E2E2E2E2E2E2E2E2E2
310
E2E2F5E2E2E2E2E2E2E2E2E2E2E2E2E2E2E2E2E2E2E2E2E2E2E2E2F5E2F5E2E2F5F5E2E2F5E2F5E2E2E2E2E2E2E2E2E2F5E2E2E2E2E2E2E2E2F5E2E2E2E2E2E2F5E2E2E2E2E2F5E2E2E2E2E2F5F5F5F5E2F5F5E2E2E2E2E2E2E2E2E2E2E2E2E2E2E2E2E2E2E2E2E2E2E2E2E2E2E2F5E2E2E2E2E2E2E2E2E2E2E2E2E2E2E2E2
310
E2E2E2E2E2E2E2E2F5E2F5E2E2F5F5E2E2F5E2F5E2E2E2E2E2E2E2E2E2F5E2E2E2E2E2E2E2E2F5E2E2E2E2E2E2F5E2E2E2E2E2F5E2E2E2E2E2F5F5F5F5E2F5F5F5E2E2E2E2E2E2E2E2E2E2E2E2E2E2E2E2E2E2E2E2E2F5F5F5F5F5F5F5F5F5F5E2E2E2E2E2E2E2E2E2E2E2E2E2E2E2E2E2E2E2E2F5E2F5E2E2F5F5E2E2F5E2
310
F5E2E2E2E2E2E2E2E2E2F5E2E2E2E2E2E2E2E2F5E2E2E2E2E2E2F5E2E2E2E2E2F5E2E2E2E2E2F5F5F5F5F5F5F5F5E2E2E2E2E2E2E2E2E2E2E2E2E2E2E2E2E2E2E2E2E2F5F5F5F5F5F5F5F5F5F5E2E2E2E2E2E2E2E2E2E2E2E2E2E2E2E2E2E2E2E2F5E2F5E2E2F5F5E2E2F5E2F5E2E2E2E2E2E2E2E2E2F5E2E2E2E2E2E2E2E2
310
F5E2E2E2F5F5F5F5F5F5E2E2E2F5E2E2E2E2E2F5F5F5F5F5F5F5F5E2E2E2E2E2E2E2E2E2E2E2E2E2E2E2E2E2E2E2E2E2E2E2E2F5F5F5F5E2E2E2E2E2E2E2E2E2E2E2E2E2E2E2E2E2E2E2E2E2E2E2F5E2F5E2E2F5F5E2E2F5E2F5E2E2E2E2E2E2E2E2E2F5E2E2E2E2E2E2E2E2F5E2E2E2E2F5F5F5F5F5E2E2E2F5E2E2E2E2E2
310
F5F5F5F5E2E2F5F5E2E2E2E2E2E2E2E2E2E2E2E2E2E2E2E2E2E2E2E2E2E2E2E2F5F5F5F5E2E2E2E2E2E2E2E2E2E2E2E2E2E2E2E2E2E2E2E2E2E2E2F5E2F5E2E2F5F5E2E2F5E2F5E2E2E2E2E2E2E2E2E2F5E2E2E2E2E2E2E2E2F5E2E2E2E2F5F5F5F5F5E2E2E2F5E2E2E2E2E2F5F5F5F5E2E2F5F5E2E2E2E2E2E2E2E2E2E2E2
310
E2E2E2E2E2E2E2E2E2E2E2E2E2E2E2F5E2E2E2E2E2E2E2E2E2E2E2E2E2E2E2E2E2E2E2E2E2E2E2E2F5E2F5E2E2F5F5E2E2F5E2F5E2E2E2E2E2E2E2E2E2F5E2E2E2E2E2E2E2E2F5E2E2E2E2E2E2F5E2E2E2E2E2F5E2E2E2E2E2F5F5F5F5E2E2F5F5E2E2E2E2E2E2E2E2E2E2E2E2E2E2E2E2E2E2E2E2E2E2E2E2E2E2F5E2E2E2
310
E2E2E2E2E2E2E2E2E2E2E2E2E2E2E2E2E2E2E2E2E2F5E2F5E2E2F5F5E2E2F5E2F5E2E2E2E2E2E2E2E2E2F5E2E2E2E2E2E2E2E2F5E2E2E2E2E2E2F5E2E2E2E2E2F5E2E2E2E2E2F5F5F5F5F5F5F5F5F5F5F5F5F5F5F5F5F5F5F5F5F5F5F5F5F5F5F5E2E2E2E2E2E2E2F5E2E2E2E2E2E2E2E2E2E2E2E2E2E2E2E2E2E2E2E2E2E2
310
E2E2F5E2F5E2E2F5F5E2E2F5E2F5E2E2E2E2E2E2E2E2E2F5E2E2E2E2E2E2E2E2F5E2E2E2E2E2E2F5E2E2E2E2E2F5E2E2E2E2E2F5F5F5F5E2E2F5F5E2E2E2E2E2E2E2E2E2E2E2E2E2E2E2E2E2E2E2E2E2E2E2E2E2E2F5E2E2E2E2E2E2E2E2E2E2E2E2E2E2E2E2E2E2E2E2E2E2E2E2F5E2F5E2E2F5F5E2E2F5E2F5E2E2E2E2E2
310
E2E2E2E2F5E2E2E2E2E2E2E2E2F5E2E2E2E2E2E2F5E2E2E2E2E2F5E2E2E2E2E2F5F5F5F5E2E2F5F5E2E2E2E2E2E2E2E2E2E2E2E2E2E2E2E2E2E2E2E2E2E2E2E2E2E2F5E2E2E2E2E2E2E2E2E2E2E2E2E2E2E2E2E2E2E2E2E2E2E2E2F5E2F5E2E2F5F5E2E2E2E2F5E2E2E2E2E2E2E2E2E2F5E2E2E2E2E2E2E2E2F5E2E2E2E2E2
310
E2F5E2E2E2E2E2F5E2E2E2E2E2F5F5F5F5E2E2F5F5E2E2E2E2E2E2E2E2E2E2E2E2E2E2E2E2E2E2E2E2E2E2E2E2E2E2F5E2E2E2E2E2E2E2E2E2E2E2E2E2E2E2E2E2E2E2E2E2E2E2E2F5E2E2E2E2F5F5E2E2E2E2F5E2E2E2E2E2E2E2E2E2F5E2E2E2E2E2E2E2E2F5E2E2E2E2E2E2F5E2E2E2E2E2F5E2E2E2E2E2F5F5F5F5E2E2
310
F5F5E2E2E2E2E2E2E2E2E2E2E2E2E2E2E2E2E2E2E2E2E2E2E2E2E2E2F5E2E2E2E2E2E2E2E2E2E2E2E2E2E2E2E2E2E2E2E2E2E2E2E2F5E2E2E2E2F5F5E2E2E2E2F5E2E2E2E2E2E2E2E2E2F5E2E2E2E2E2E2E2E2F5E2E2E2E2E2E2F5F5F5F5F5F5F5F5F5F5F5E2F5F5F5F5F5F5F5F5F5E2E2E2E2E2E2E2E2E2E2E2E2E2E2E2E2
310
E2E2E2E2E2E2E2E2E2F5E2E2E2E2E2E2E2E2E2E2E2E2E2E2E2E2E2E2E2E2E2E2E2E2F5E2E2E2E2F5F5E2E2E2E2F5E2E2E2E2E2E2E2E2E2F5E2E2E2E2E2E2E2E2F5E2E2E2E2E2E2F5E2F5F5F5F5F5F5F5F5F5E2F5F5F5F5F5F5F5F5F5E2E2E2E2E2E2E2E2E2E2E2E2E2E2E2E2E2E2E2E2E2E2E2E2E2F5E2E2E2E2E2E2E2E2E2
310
E2E2E2E2E2E2E2E2E2E2E2E2E2E2E2F5E2E2E2E2F5F5E2E2E2E2F5E2E2E2E2E2E2E2E2E2F5E2E2E2E2E2E2E2E2F5E2E2E2E2E2E2F5E2E2E2E2F5F5F5E2E2E2E2F5F5F5F5E2E2F5F5E2E2E2E2E2E2E2E2E2E2E2E2E2E2E2E2E2E2E2E2E2E2E2E2E2E2F5E2E2E2E2E2E2E2E2E2E2E2E2E2E2E2E2E2E2E2E2E2E2E2E2F5E2E2E2
310
E2F5F5E2E2E2E2F5E2E2E2E2E2E2E2E2E2F5E2E2E2E2E2E2E2E2F5E2E2E2E2E2E2F5E2E2E2E2E2E2E2E2E2E2E2F5F5F5F5E2E2F5F5F5E2E2E2E2E2E2E2E2E2E2E2E2E2E2E2E2E2E2E2E2E2E2E2E2E2F5E2E2E2E2E2E2E2E2E2E2E2E2E2E2E2E2E2E2E2E2E2E2E2E2F5E2E2E2E2F5F5E2E2E2E2F5E2E2E2E2E2E2E2E2E2F5E2
310
E2E2E2E2E2E2E2F5E2E2E2E2E2E2F5E2E2E2E2E2F5E2E2E2E2E2F5F5F5F5E2E2E2F5F5F5E2E2E2E2E2E2E2E2E2E2E2E2E2E2E2E2E2E2E2E2E2E2E2E2F5E2E2E2E2E2E2E2E2E2E2E2E2E2E2E2E2E2E2E2E2E2E2E2E2F5E2E2E2E2F5F5E2E2E2E2F5E2E2E2E2E2E2E2E2E2F5E2E2E2E2E2E2E2E2F5E2E2E2E2E2E2F5E2E2E2E2
310
E2F5E2E2E2E2E2F5F5F5F5E2E2E2F5F5E2F5E2E2F5F5F5F5F5F5F5F5F5F5E2E2E2E2E2E2E2E2E2E2E2F5E2E2E2E2E2E2E2E2E2E2E2E2E2E2E2E2E2E2E2E2E2E2E2E2F5E2E2E2E2F5F5E2E2E2E2F5E2E2E2E2E2E2E2E2E2F5E2E2E2E2E2E2E2E2F5E2E2E2E2E2E2F5E2E2E2E2E2F5E2E2E2E2E2F5F5F5F5E2E2E2F5F5E2E2F5
310
F5F5F5F5F5F5F5F5F5F5E2E2E2E2E2E2E2E2E2E2E2E2F5E2E2E2E2E2E2E2E2E2E2E2E2E2E2E2E2E2E2E2E2E2E2E2E2F5E2E2E2E2F5F5E2E2E2E2F5E2E2E2E2E2E2E2E2E2F5E2E2E2E2E2E2E2E2F5E2E2E2E2E2E2F5E2E2E2E2E2F5E2E2E2E2E2F5F5F5F5E2E2E2F5F5E2E2E2F5F5F5F5F5F5F5F5F5F5E2E2E2E2E2E2E2E2E2
310
E2E2E2F5E2E2E2E2E2E2E2E2E2E2E2E2E2E2E2E2E2E2E2E2E2E2E2E2F5E2E2E2E2F5F5E2E2F5E2F5E2E2E2E2E2E2E2E2E2F5E2E2E2E2E2E2E2E2F5E2E2E2E2E2E2F5E2E2E2E2E2F5E2E2E2E2E2F5F5F5F5E2E2E2F5F5E2E2E2E2E2E2E2E2E2E2E2E2E2E2E2E2E2E2E2E2E2E2E2E2E2F5E2E2E2E2E2E2E2E2E2E2E2E2E2E2E2
310
E2E2E2E2E2E2E2E2E2F5E2F5E2E2F5F5E2E2F5E2F5E2E2E2E2E2E2E2E2E2F5E2E2E2E2E2E2E2E2F5E2E2E2E2E2E2F5E2E2E2E2E2F5E2E2E2E2E2F5F5F5F5E2E2E2F5F5E2E2E2E2E2E2E2E2E2E2E2E2E2E2E2E2E2E2E2E2E2E2E2E2E2F5E2E2E2E2E2E2E2E2E2E2E2E2E2E2E2E2E2E2E2E2E2E2E2E2F5E2F5E2E2F5F5E2E2F5
310
E2F5E2E2E2E2E2E2E2E2E2F5E2E2E2E2E2E2E2E2F5E2E2E2E2E2E2F5E2E2E2E2E2F5E2E2E2E2E2F5F5F5F5E2E2E2F5F5E2E2E2E2E2E2E2E2E2E2E2E2E2E2E2E2E2E2E2E2E2E2E2E2E2F5E2E2E2E2E2E2E2E2E2E2E2E2E2E2E2E2E2E2E2E2E2E2E2E2F5E2F5E2E2F5F5E2E2F5E2F5E2E2E2E2E2E2E2E2E2F5E2E2E2E2E2E2E2
310
E2F5E2E2E2E2E2E2F5E2E2E2E2E2F5E2E2E2E2E2F5F5F5F5E2E2E2F5F5E2E2E2E2E2E2E2E2E2E2E2E2E2E2E2E2E2E2E2E2E2E2E2E2E2F5E2E2E2E2E2E2E2E2E2E2E2E2E2E2E2E2E2E2E2E2E2E2E2E2F5E2F5E2E2F5F5E2E2F5E2F5E2E2E2E2E2E2E2E2E2F5E2E2E2E2E2E2E2E2F5E2E2E2E2E2E2F5E2E2E2E2E2F5E2E2E2E2
310
E2F5F5F5F5F5F5F5F5F5E2E2E2E2E2E2E2E2E2E2E2E2E2E2E2E2E2E2E2E2E2E2E2E2E2F5E2E2E2E2E2E2E2E2E2E2E2E2E2E2E2E2E2E2E2E2E2E2E2E2F5E2F5E2E2F5F5E2E2F5E2F5E2E2E2E2E2E2E2E2E2F5E2E2E2E2E2E2E2E2F5E2E2E2E2E2E2F5E2E2E2E2E2F5E2E2E2E2E2F5F5F5F5F5F5F5F5F5E2E2E2E2E2E2E2E2E2
310
E2E2E2E2E2E2E2E2E2E2E2E2E2E2E2E2F5E2E2E2E2E2E2E2E2E2E2E2E2E2E2E2E2E2E2E2E2E2E2E2E2F5E2F5E2E2F5F5E2E2F5E2F5E2E2E2E2E2E2E2E2E2F5E2E2E2E2E2E2E2E2F5E2E2E2E2E2E2F5E2E2E2E2E2F5E2E2E2E2E2F5F5F5F5E2E2E2F5F5E2E2E2E2F5F5F5F5F5F5F5F5E2E2E2E2E2E2E2E2E2E2E2E2E2F5E2E2
310
E2E2E2E2E2E2E2E2E2E2E2E2E2E2E2E2E2E2E2E2E2E2F5E2F5E2E2F5F5E2E2F5E2F5E2E2E2E2E2E2E2E2E2F5E2E2E2E2E2E2E2E2F5E2E2E2E2E2E2F5E2E2E2E2E2F5E2E2E2E2E2F5F5F5F5E2E2E2F5F5F5F5E2F5F5E2E2E2E2E2E2E2E2E2E2E2E2E2E2E2E2E2E2E2E2F5E2E2E2E2E2E2E2E2E2E2E2E2E2E2E2E2E2E2E2E2E2
310
E2E2E2F5E2F5E2E2F5F5E2E2F5E2F5E2E2E2E2E2E2E2E2E2F5E2E2E2E2E2E2E2E2F5E2E2E2E2E2E2F5E2E2E2E2E2F5F5E2E2E2E2F5F5F5F5E2E2E2E2F5F5F5F5E2E2E2E2E2E2E2E2E2E2E2E2E2E2E2E2E2E2E2E2E2E2F5E2E2E2E2E2E2E2E2E2E2E2E2E2E2E2E2E2E2E2E2E2E2E2E2F5E2F5E2E2F5F5E2E2F5E2F5E2E2E2E2
310
E2E2E2E2E2F5E2E2E2E2E2E2E2E2F5E2E2E2E2E2E2F5E2E2E2E2E2F5F5F5F5F5F5F5F5F5F5F5F5F5F5F5F5E2E2E2E2E2E2E2E2E2E2E2E2E2E2E2E2E2E2E2E2E2E2E2E2F5E2E2E2E2E2E2E2E2E2E2E2E2E2E2E2E2E2E2E2E2E2E2E2E2F5E2F5E2E2F5F5E2E2F5E2F5E2E2E2E2E2E2E2E2E2F5E2E2E2E2E2E2E2E2F5E2E2E2E2
310
E2E2F5E2E2E2E2E2E2E2E2E2E2E2F5F5F5F5F5F5F5F5F5F5F5E2E2E2E2E2E2E2E2E2E2E2E2E2E2E2E2E2E2E2E2E2E2E2F5E2E2E2E2E2E2E2E2E2E2E2E2E2E2E2E2E2E2E2E2E2E2E2E2F5E2F5E2E2F5F5E2E2F5E2F5E2E2E2E2E2E2E2E2E2F5E2E2E2E2E2E2E2F5F5F5F5F5F5F5F5F5F5F5F5F5F5F5F5F5F5F5F5F5F5F5F5F5
310
F5F5E2F5F5F5F5F5E2E2E2E2F5F5F5F5F5F5F5F5E2E2E2E2E2E2E2E2E2F5E2E2E2E2E2E2E2E2E2E2E2E2E2E2E2E2E2E2E2E2E2E2E2E2F5E2F5E2E2F5F5E2E2F5E2F5E2E2E2E2E2E2E2E2E2F5E2E2E2E2E2E2E2E2E2E2E2E2E2E2E2F5E2E2E2E2E2E2E2E2E2E2E2F5F5F5F5F5F5F5E2F5F5F5E2E2F5F5F5F5F5F5F5F5F5F5F5
310
F5E2E2E2E2E2E2E2E2E2F5E2E2E2E2E2E2E2E2E2E2E2E2E2E2E2E2E2E2E2E2E2E2E2E2F5E2F5E2E2F5F5E2E2F5E2F5E2E2E2E2E2E2E2E2E2F5E2E2E2E2E2E2E2E2E2E2E2E2E2E2E2F5E2E2E2E2E2E2E2E2E2E2E2F5F5F5E2F5F5E2E2F5F5E2E2E2E2E2E2E2E2E2E2E2E2E2E2E2E2E2E2E2E2E2E2E2E2F5E2E2E2E2E2E2E2E2
310
E2E2E2E2E2E2E2E2E2E2E2E2E2E2E2E2F5E2F5E2E2F5F5E2E2F5E2F5E2E2E2E2E2E2E2E2F5F5F5F5F5F5F5F5F5F5F5F5F5F5F5F5F5F5F5F5F5F5F5F5F5F5F5F5F5F5F5F5F5F5F5F5F5F5F5F5F5F5F5F5F5F5F5F5F5F5F5F5F5F5F5F5F5F5F5F5F5F5F5F5F5F5F5F5F5F5F5F5E2E2E2E2E2E2E2E2E2E2E2E2E2E2E2E2F5E2F5
310
E2E2F5F5E2E2F5E2F5E2E2E2E2E2E2E2E2E2E2E2E2E2E2E2E2E2E2E2E2E2E2E2E2E2E2E2E2E2E2E2E2E2E2E2E2E2F5F5F5F5F5F5F5E2F5F5F5F5F5F5F5F5F5F5E2F5F5F5F5F5F5F5F5F5E2F5F5F5F5F5F5F5F5F5F5E2F5F5F5E2E2E2E2E2E2E2E2E2E2E2E2E2E2E2E2F5E2F5E2E2F5F5E2E2F5E2F5E2E2E2E2E2E2E2E2E2E2
310
E2E2E2E2E2E2E2E2E2E2E2E2E2E2E2E2E2E2E2E2E2E2E2E2E2E2E2F5F5E2F5F5F5F5F5F5F5F5F5F5E2F5F5F5F5F5F5F5F5F5E2F5F5F5F5F5F5F5F5F5F5E2F5F5F5F5F5F5F5F5E2E2E2E2E2E2E2E2E2E2E2E2E2E2E2E2F5E2F5E2E2F5F5E2E2E2E2F5F5F5F5F5F5F5F5F5F5F5F5F5F5F5F5F5F5F5F5F5F5F5F5F5F5F5F5F5F5
310
F5F5F5F5F5F5F5F5F5F5F5F5F5F5F5F5F5F5F5F5F5F5F5F5F5F5F5F5F5F5F5F5F5F5F5F5F5F5F5F5F5F5F5F5F5F5F5F5F5F5F5F5F5F5F5F5F5F5F5F5F5F5F5F5F5F5F5F5E2E2E2E2F5F5E2E2E2E2E2E2E2E2E2E2E2E2E2E2E2E2E2E2E2E2E2E2E2E2E2E2E2E2E2E2E2E2E2E2E2E2E2E2E2E2E2E2E2E2E2E2E2E2E2E2E2E2E2
310
E2E2E2E2E2E2E2E2E2E2E2E2E2E2E2E2E2E2E2E2E2E2E2E2E2E2E2E2E2E2E2E2E2E2E2E2E2E2E2E2E2E2E2E2E2E2E2E2E2E2E2E2E2F5F5E2E2E2E2E2E2E2E2E2E2E2E2E2E2E2E2E2E2E2E2E2E2E2E2E2E2E2E2E2E2E2E2E2E2E2E2E2E2E2E2E2E2E2E2E2E2E2E2E2E2E2E2E2E2E2E2E2E2E2E2E2E2E2E2E2E2E2E2E2E2E2E2
310
E2E2E2E2E2E2E2E2E2E2E2E2E2E2E2E2E2E2E2E2E2E2E2E2E2E2E2E2E2E2E2E2E2E2F5F5E2E2E2E2E2E2E2E2E2E2E2E2E2E2E2E2E2E2E2E2E2E2E2E2E2E2E2E2E2E2E2E2E2E2E2E2E2E2E2E2E2E2E2E2E2E2E2E2E2E2E2E2E2E2E2E2E2E2E2E2E2E2E2E2E2E2E2E2E2E2E2E2E2E2E2E2E2E2E2E2E2E2E2E2E2E2E2E2E2E2E2
310
E2E2E2E2E2E2E2E2E2E2E2E2E2E2E2F5F5E2E2E2E2E2E2E2E2E2E2E2E2E2E2E2E2E2E2E2E2E2E2E2E2E2E2E2E2E2E2E2E2E2E2E2E2E2E2E2E2E2E2E2E2E2E2E2E2E2E2E2E2E2E2E2E2E2E2E2E2E2E2E2E2E2E2E2E2E2E2E2E2E2E2E2E2E2E2E2E2E2E2E2E2E2E2E2E2E2E2E2E2E2E2E2E2E2E2E2E2E2E2E2E2E2E2F5F5E2E2
310
E2E2E2E2E2E2E2E2E2E2E2E2E2E2E2E2E2E2E2E2E2E2E2E2E2E2E2E2E2E2E2E2E2E2E2E2E2E2E2E2E2E2E2E2E2E2E2E2E2E2E2E2E2E2E2E2E2E2E2E2E2E2E2E2E2E2E2E2E2E2E2E2E2E2E2E2E2E2E2E2E2E2E2E2E2E2E2E2E2E2E2E2E2E2E2E2E2E2E2E2E2E2E2E2F5F5E2E2E2E2E2E2E2E2E2E2E2E2E2E2E2E2E2E2E2E2E2
310
E2E2E2E2E2E2E2E2E2E2E2E2E2E2E2E2E2E2E2E2E2E2E2E2E2E2E2E2E2E2E2E2E2E2E2E2E2E2E2E2E2E2E2E2E2E2E2E2E2E2E2E2E2E2E2E2E2E2E2E2E2E2E2E2E2E2E2E2E2E2E2E2E2E2E2E2E2E2E2E2E2E2E2E2E2F5F5E2E2E2E2E2E2E2E2E2E2E2E2E2E2E2E2E2E2E2E2E2E2E2E2E2E2E2E2E2E2E2E2E2E2E2E2E2E2E2E2
310
E2E2E2E2E2E2E2E2E2E2E2E2E2E2E2E2E2E2E2E2E2E2E2E2E2E2E2E2E2E2E2E2E2E2E2E2E2E2E2E2E2E2E2E2E2E2E2E2E2E2E2E2E2E2E2E2E2E2E2E2E2E2E2E2E2E2F5F5E2E2E2E2E2E2E2E2E2E2E2E2E2E2E2E2E2E2E2E2E2E2E2E2E2E2E2E2E2E2E2E2E2E2E2E2E2E2E2E2E2E2E2E2E2E2E2E2E2E2E2E2E2E2E2E2E2E2E2
310
E2E2E2E2E2E2E2E2E2E2E2E2E2E2E2E2E2E2E2E2E2E2E2E2E2E2E2E2E2E2E2E2E2E2E2E2E2E2E2E2E2E2E2E2E2E2E2F5F5E2E2F5E2E2E2E2E2E2E2E2E2E2E2E2E2E2E2E2E2E2E2E2E2E2E2E2E2E2E2E2E2E2E2E2E2E2E2E2E2E2E2E2E2E2E2E2E2E2E2E2E2E2E2E2E2E2E2E2E2E2E2E2E2E2E2E2E2E2E2E2E2E2E2E2E2E2E2
310
E2E2E2E2E2E2E2E2E2E2E2E2E2E2E2E2E2E2E2E2E2E2E2E2E2F5E2E2F5F5E2E2F5E2E2E2E2E2E2E2E2E2E2E2E2E2E2E2E2E2E2E2E2E2E2E2E2E2E2E2E2E2E2E2E2E2E2E2E2E2E2E2E2E2E2E2E2E2E2E2E2E2E2E2E2E2E2E2E2E2E2E2E2E2E2E2E2E2E2E2E2E2E2E2E2E2E2E2E2E2E2E2E2E2E2E2E2E2E2E2E2E2E2E2E2E2E2
310
E2E2E2E2E2E2F5E2E2F5F5E2E2F5E2E2E2E2E2E2E2E2E2E2E2E2E2E2E2E2E2E2E2E2E2E2E2E2E2E2E2E2E2E2E2E2E2E2E2E2E2E2E2E2E2E2E2E2E2E2E2E2E2E2E2E2E2E2E2E2E2E2E2E2E2E2E2E2E2E2E2E2E2E2E2E2E2E2E2E2E2E2E2E2E2E2E2E2E2E2E2E2E2E2E2E2E2E2E2E2E2E2E2E2F5E2E2F5F5E2E2F5E2E2E2E2E2
310
E2E2E2E2E2E2E2E2E2E2E2E2E2E2E2E2E2E2E2E2E2E2E2E2E2E2E2E2E2E2E2E2E2E2E2E2E2E2E2E2E2E2E2E2E2E2E2E2E2E2E2E2E2E2E2E2E2E2E2E2E2E2E2E2E2E2E2E2E2E2E2E2E2E2E2E2E2E2E2E2E2E2E2E2E2E2E2E2E2E2E2E2E2E2E2F5E2E2F5F5E2E2F5E2E2E2E2E2E2E2E2E2E2E2E2E2E2E2E2E2E2E2E2E2E2E2E2
310
E2E2E2E2E2E2E2E2E2E2E2E2E2E2E2E2E2E2E2E2E2E2E2E2E2E2E2E2E2E2E2E2E2E2E2E2E2E2E2E2E2E2E2E2E2E2E2E2E2E2E2E2E2E2E2E2E2E2E2E2E2E2E2E2E2E2E2E2E2E2E2E2E2E2E2E2F5E2E2F5F5E2E2F5E2E2E2E2E2E2E2E2E2E2E2E2E2E2E2E2E2E2E2E2E2E2E2E2E2E2E2E2E2E2E2E2E2E2E2E2E2E2E2E2E2E2E2
310
E2E2E2E2E2E2E2E2E2E2E2E2E2E2E2E2E2E2E2E2E2E2E2E2E2E2E2E2E2E2E2E2E2E2E2E2E2E2E2E2E2E2E2E2E2E2E2E2E2E2E2E2E2E2E2E2E2F5E2E2F5F5E2E2F5E2E2E2E2E2E2E2E2E2E2E2E2E2E2E2E2E2E2E2E2E2E2E2E2E2E2E2E2E2E2E2E2E2E2E2E2E2E2E2E2E2E2E2E2E2E2E2E2E2E2E2E2E2E2E2E2E2E2E2E2E2E2
310
E2E2E2E2E2E2E2E2E2E2E2E2E2E2E2E2E2E2E2E2E2E2E2E2E2E2E2E2E2E2E2E2E2E2E2E2E2E2F5E2E2F5F5E2E2F5E2E2E2E2E2E2E2E2E2E2E2E2E2E2E2E2E2E2E2E2E2E2E2E2E2E2E2E2E2E2E2E2E2E2E2E2E2E2E2E2E2E2E2E2E2E2E2E2E2E2E2E2E2E2E2E2E2E2E2E2E2E2E2E2E2E2E2E2E2E2E2E2E2E2E2E2E2E2E2E2E2
310
E2E2E2E2E2E2E2E2E2E2E2E2E2E2E2E2E2E2E2F5E2E2F5F5E2E2F5F5F5F5F5F5F5F5F5E2E2E2E2E2E2E2E2E2F5F5F5F5F5F5F5F5F5F5F5F5F5F5F5F5E2E2E2E2E2E2E2E2E2F5F5F5F5F5F5F5F5F5F5F5F5F5F5F5F5E2E2E2E2E2E2E2E2E2F5F5F5F5F5F5F5F5F5F5F5F5F5F5F5F5E2E2E2E2E2E2E2E2E2F5F5F5F5F5F5F5F5
310
F5E2E2F5F5E2E2E2E2E2E2E2E2E2E2E2E2E2E2E2E2E2E2E2E2E2E2E2E2E2E2E2E2E2E2E2E2E2E2E2E2E2E2E2E2E2E2E2E2E2E2E2E2E2E2E2E2E2E2E2E2E2E2E2E2E2E2E2E2E2E2E2E2E2E2E2E2E2E2E2E2E2E2E2E2E2E2E2E2E2E2E2E2E2E2E2E2E2E2E2E2E2E2E2E2E2E2E2E2E2E2F5F5E2E2E2E2E2E2E2E2E2E2E2E2E2E2
310
E2E2E2E2E2E2E2E2E2E2E2E2E2E2E2E2E2E2E2E2E2E2E2E2E2E2E2E2E2E2E2E2E2E2E2E2E2E2E2E2E2E2E2E2E2E2E2E2E2E2E2E2E2E2E2E2E2E2E2E2E2E2E2E2E2E2E2E2E2E2E2E2E2E2E2E2E2E2E2E2E2E2E2E2E2E2E2E2E2E2E2E2F5F5E2E2E2E2E2E2E2E2E2E2E2E2E2E2E2E2E2E2E2E2E2E2E2E2E2E2E2E2E2E2E2E2E2
310
E2E2E2E2E2E2E2E2E2E2E2E2E2E2E2E2E2E2E2E2E2E2E2E2E2E2E2E2E2E2E2E2E2E2E2E2E2E2E2E2E2E2E2E2E2E2E2E2E2E2E2E2E2E2E2E2E2E2E2E2E2E2E2E2E2E2E2E2E2E2E2E2E2F5F5F5F5F5F5F5F5F5F5F5F5F5F5F5F5F5F5F5F5F5F5F5F5F5F5F5F5F5F5F5F5F5F5F5F5F5F5F5F5F5F5F5F5F5F5F5F5F5F5F5F5F5F5
310
F5F5F5F5F5F5F5F5F5F5F5F5F5F5F5F5F5F5F5F5F5F5F5F5F5F5F5F5F5F5F5F5F5F5F5F5F5F5F5F5F5F5F5F5F5F5F5F5F5F5F5F5F5F5F5
  0
ENDSEC
  0
EOF
