  0
SECTION
  2
HEADER
  9
$ACADVER
  1
AC1021
  9
$ACADMAINTVER
 70
     1
  9
$DWGCODEPAGE
  3
ANSI_1252
  9
$LASTSAVEDBY
  1
RSutcliffe
  9
$INSBASE
 10
0.0
 20
0.0
 30
0.0
  9
$EXTMIN
 10
77.81960937098517
 20
112.9112135961301
 30
-0.0015258207003583
  9
$EXTMAX
 10
287.3642957541402
 20
275.2147829248429
 30
0.0000000349246037
  9
$LIMMIN
 10
0.0
 20
0.0
  9
$LIMMAX
 10
17.0
 20
11.0
  9
$ORTHOMODE
 70
     1
  9
$REGENMODE
 70
     1
  9
$FILLMODE
 70
     1
  9
$QTEXTMODE
 70
     0
  9
$MIRRTEXT
 70
     1
  9
$LTSCALE
 40
20.0
  9
$ATTMODE
 70
     1
  9
$TEXTSIZE
 40
2.0
  9
$TRACEWID
 40
0.05
  9
$TEXTSTYLE
  7
WEB PAGE
  9
$CLAYER
  8
0
  9
$CELTYPE
  6
BYLAYER
  9
$CECOLOR
 62
   256
  9
$CELTSCALE
 40
1.0
  9
$DISPSILH
 70
     0
  9
$DIMSCALE
 40
1.0
  9
$DIMASZ
 40
3.0
  9
$DIMEXO
 40
2.0
  9
$DIMDLI
 40
1.0
  9
$DIMRND
 40
0.0
  9
$DIMDLE
 40
0.0
  9
$DIMEXE
 40
1.0
  9
$DIMTP
 40
0.0
  9
$DIMTM
 40
0.0
  9
$DIMTXT
 40
1.75
  9
$DIMCEN
 40
1.0
  9
$DIMTSZ
 40
0.0
  9
$DIMTOL
 70
     0
  9
$DIMLIM
 70
     0
  9
$DIMTIH
 70
     1
  9
$DIMTOH
 70
     1
  9
$DIMSE1
 70
     0
  9
$DIMSE2
 70
     0
  9
$DIMTAD
 70
     0
  9
$DIMZIN
 70
     0
  9
$DIMBLK
  1

  9
$DIMASO
 70
     1
  9
$DIMSHO
 70
     1
  9
$DIMPOST
  1

  9
$DIMAPOST
  1

  9
$DIMALT
 70
     0
  9
$DIMALTD
 70
     2
  9
$DIMALTF
 40
25.4
  9
$DIMLFAC
 40
1.0
  9
$DIMTOFL
 70
     0
  9
$DIMTVP
 40
0.0
  9
$DIMTIX
 70
     0
  9
$DIMSOXD
 70
     0
  9
$DIMSAH
 70
     0
  9
$DIMBLK1
  1

  9
$DIMBLK2
  1

  9
$DIMSTYLE
  2
STANDARD
  9
$DIMCLRD
 70
     0
  9
$DIMCLRE
 70
     0
  9
$DIMCLRT
 70
     0
  9
$DIMTFAC
 40
1.0
  9
$DIMGAP
 40
1.0
  9
$DIMJUST
 70
     0
  9
$DIMSD1
 70
     0
  9
$DIMSD2
 70
     0
  9
$DIMTOLJ
 70
     1
  9
$DIMTZIN
 70
     0
  9
$DIMALTZ
 70
     0
  9
$DIMALTTZ
 70
     0
  9
$DIMUPT
 70
     0
  9
$DIMDEC
 70
     4
  9
$DIMTDEC
 70
     4
  9
$DIMALTU
 70
     2
  9
$DIMALTTD
 70
     2
  9
$DIMTXSTY
  7
WEB PAGE
  9
$DIMAUNIT
 70
     0
  9
$DIMADEC
 70
     0
  9
$DIMALTRND
 40
0.0
  9
$DIMAZIN
 70
     0
  9
$DIMDSEP
 70
    46
  9
$DIMATFIT
 70
     3
  9
$DIMFRAC
 70
     2
  9
$DIMLDRBLK
  1

  9
$DIMLUNIT
 70
     4
  9
$DIMLWD
 70
    -2
  9
$DIMLWE
 70
    -2
  9
$DIMTMOVE
 70
     0
  9
$DIMFXL
 40
1.0
  9
$DIMFXLON
 70
     0
  9
$DIMJOGANG
 40
0.7853981633974483
  9
$DIMTFILL
 70
     0
  9
$DIMTFILLCLR
 70
     0
  9
$DIMARCSYM
 70
     0
  9
$DIMLTYPE
  6

  9
$DIMLTEX1
  6

  9
$DIMLTEX2
  6

  9
$LUNITS
 70
     4
  9
$LUPREC
 70
     4
  9
$SKETCHINC
 40
0.1
  9
$FILLETRAD
 40
0.0
  9
$AUNITS
 70
     1
  9
$AUPREC
 70
     4
  9
$MENU
  1
acad
  9
$ELEVATION
 40
0.0
  9
$PELEVATION
 40
0.0
  9
$THICKNESS
 40
0.0
  9
$LIMCHECK
 70
     0
  9
$CHAMFERA
 40
0.0
  9
$CHAMFERB
 40
0.0
  9
$CHAMFERC
 40
0.0
  9
$CHAMFERD
 40
0.0
  9
$SKPOLY
 70
     0
  9
$TDCREATE
 40
2451029.636190972
  9
$TDUCREATE
 40
2451029.844524306
  9
$TDUPDATE
 40
2454099.401865949
  9
$TDUUPDATE
 40
2454099.610199282
  9
$TDINDWG
 40
3.0841936921
  9
$TDUSRTIMER
 40
3.0841936921
  9
$USRTIMER
 70
     1
  9
$ANGBASE
 50
0.0
  9
$ANGDIR
 70
     0
  9
$PDMODE
 70
     2
  9
$PDSIZE
 40
0.0
  9
$PLINEWID
 40
0.0
  9
$SPLFRAME
 70
     0
  9
$SPLINETYPE
 70
     6
  9
$SPLINESEGS
 70
     8
  9
$HANDSEED
  5
13098
  9
$SURFTAB1
 70
     6
  9
$SURFTAB2
 70
     6
  9
$SURFTYPE
 70
     6
  9
$SURFU
 70
     6
  9
$SURFV
 70
     6
  9
$UCSBASE
  2

  9
$UCSNAME
  2

  9
$UCSORG
 10
0.0
 20
0.0
 30
0.0
  9
$UCSXDIR
 10
1.0
 20
0.0
 30
0.0
  9
$UCSYDIR
 10
0.0
 20
1.0
 30
0.0
  9
$UCSORTHOREF
  2

  9
$UCSORTHOVIEW
 70
     0
  9
$UCSORGTOP
 10
0.0
 20
0.0
 30
0.0
  9
$UCSORGBOTTOM
 10
0.0
 20
0.0
 30
0.0
  9
$UCSORGLEFT
 10
0.0
 20
0.0
 30
0.0
  9
$UCSORGRIGHT
 10
0.0
 20
0.0
 30
0.0
  9
$UCSORGFRONT
 10
0.0
 20
0.0
 30
0.0
  9
$UCSORGBACK
 10
0.0
 20
0.0
 30
0.0
  9
$PUCSBASE
  2

  9
$PUCSNAME
  2

  9
$PUCSORG
 10
0.0
 20
0.0
 30
0.0
  9
$PUCSXDIR
 10
1.0
 20
0.0
 30
0.0
  9
$PUCSYDIR
 10
0.0
 20
1.0
 30
0.0
  9
$PUCSORTHOREF
  2

  9
$PUCSORTHOVIEW
 70
     0
  9
$PUCSORGTOP
 10
0.0
 20
0.0
 30
0.0
  9
$PUCSORGBOTTOM
 10
0.0
 20
0.0
 30
0.0
  9
$PUCSORGLEFT
 10
0.0
 20
0.0
 30
0.0
  9
$PUCSORGRIGHT
 10
0.0
 20
0.0
 30
0.0
  9
$PUCSORGFRONT
 10
0.0
 20
0.0
 30
0.0
  9
$PUCSORGBACK
 10
0.0
 20
0.0
 30
0.0
  9
$USERI1
 70
     0
  9
$USERI2
 70
     0
  9
$USERI3
 70
     0
  9
$USERI4
 70
     0
  9
$USERI5
 70
     0
  9
$USERR1
 40
0.0
  9
$USERR2
 40
0.0
  9
$USERR3
 40
0.0
  9
$USERR4
 40
0.0
  9
$USERR5
 40
0.0
  9
$WORLDVIEW
 70
     1
  9
$SHADEDGE
 70
     3
  9
$SHADEDIF
 70
    70
  9
$TILEMODE
 70
     1
  9
$MAXACTVP
 70
    16
  9
$PINSBASE
 10
0.0
 20
0.0
 30
0.0
  9
$PLIMCHECK
 70
     0
  9
$PEXTMIN
 10
0.236192789979718
 20
0.3128944488356495
 30
-0.0015258207003583
  9
$PEXTMAX
 10
7.835946907581938
 20
9.743359939241372
 30
0.0000000349246037
  9
$PLIMMIN
 10
-0.2045268223569516
 20
-0.1374382090639882
  9
$PLIMMAX
 10
8.295472937347156
 20
10.86256155064012
  9
$UNITMODE
 70
     0
  9
$VISRETAIN
 70
     0
  9
$PLINEGEN
 70
     0
  9
$PSLTSCALE
 70
     1
  9
$TREEDEPTH
 70
  3020
  9
$CMLSTYLE
  2
STANDARD
  9
$CMLJUST
 70
     0
  9
$CMLSCALE
 40
1.0
  9
$PROXYGRAPHICS
 70
     1
  9
$MEASUREMENT
 70
     0
  9
$CELWEIGHT
370
    -1
  9
$ENDCAPS
280
     0
  9
$JOINSTYLE
280
     0
  9
$LWDISPLAY
290
     0
  9
$INSUNITS
 70
     1
  9
$HYPERLINKBASE
  1

  9
$STYLESHEET
  1

  9
$XEDIT
290
     1
  9
$CEPSNTYPE
380
     0
  9
$PSTYLEMODE
290
     1
  9
$FINGERPRINTGUID
  2
{EED38BEA-5B6B-467F-90D5-C3127D1C881D}
  9
$VERSIONGUID
  2
{A8B1DBB1-BC3D-4B49-94E1-1C38EE63D1F1}
  9
$EXTNAMES
290
     1
  9
$PSVPSCALE
 40
0.0
  9
$OLESTARTUP
290
     0
  9
$SORTENTS
280
    96
  9
$INDEXCTL
280
     0
  9
$HIDETEXT
280
     0
  9
$XCLIPFRAME
290
     0
  9
$HALOGAP
280
     0
  9
$OBSCOLOR
 70
   257
  9
$OBSLTYPE
280
     0
  9
$INTERSECTIONDISPLAY
280
     0
  9
$INTERSECTIONCOLOR
 70
   257
  9
$DIMASSOC
280
     1
  9
$PROJECTNAME
  1

  9
$CAMERADISPLAY
290
     0
  9
$LENSLENGTH
 40
50.0
  9
$CAMERAHEIGHT
 40
0.0
  9
$STEPSPERSEC
 40
2.0
  9
$STEPSIZE
 40
6.0
  9
$3DDWFPREC
 40
2.0
  9
$PSOLWIDTH
 40
0.25
  9
$PSOLHEIGHT
 40
4.0
  9
$LOFTANG1
 40
1.570796326794896
  9
$LOFTANG2
 40
1.570796326794896
  9
$LOFTMAG1
 40
0.0
  9
$LOFTMAG2
 40
0.0
  9
$LOFTPARAM
 70
     7
  9
$LOFTNORMALS
280
     1
  9
$LATITUDE
 40
37.795
  9
$LONGITUDE
 40
-122.394
  9
$NORTHDIRECTION
 40
0.0
  9
$TIMEZONE
 70
 -8000
  9
$LIGHTGLYPHDISPLAY
280
     1
  9
$TILEMODELIGHTSYNCH
280
     1
  9
$CMATERIAL
347
12F19
  9
$SOLIDHIST
280
     1
  9
$SHOWHIST
280
     1
  9
$DWFFRAME
280
     2
  9
$DGNFRAME
280
     0
  9
$REALWORLDSCALE
290
     1
  9
$INTERFERECOLOR
 62
     1
  9
$INTERFEREOBJVS
345
12F26
  9
$INTERFEREVPVS
346
12F23
  9
$CSHADOW
280
     0
  9
$SHADOWPLANELOCATION
 40
0.0
  0
ENDSEC
  0
SECTION
  2
CLASSES
  0
CLASS
  1
DICTIONARYVAR
  2
AcDbDictionaryVar
  3
ObjectDBX Classes
 90
        0
 91
        3
280
     0
281
     0
  0
CLASS
  1
ACDBDICTIONARYWDFLT
  2
AcDbDictionaryWithDefault
  3
ObjectDBX Classes
 90
        0
 91
        1
280
     0
281
     0
  0
CLASS
  1
MATERIAL
  2
AcDbMaterial
  3
ObjectDBX Classes
 90
     1024
 91
        3
280
     0
281
     0
  0
CLASS
  1
VISUALSTYLE
  2
AcDbVisualStyle
  3
ObjectDBX Classes
 90
     4095
 91
       16
280
     0
281
     0
  0
CLASS
  1
TABLESTYLE
  2
AcDbTableStyle
  3
ObjectDBX Classes
 90
     4095
 91
        1
280
     0
281
     0
  0
CLASS
  1
SORTENTSTABLE
  2
AcDbSortentsTable
  3
ObjectDBX Classes
 90
        0
 91
        1
280
     0
281
     0
  0
ENDSEC
  0
SECTION
  2
TABLES
  0
TABLE
  2
VPORT
  5
8
102
{ACAD_XDICTIONARY
360
1303E
102
}
330
0
100
AcDbSymbolTable
 70
     1
  0
VPORT
  5
12F16
330
8
100
AcDbSymbolTableRecord
100
AcDbViewportTableRecord
  2
*Active
 70
     0
 10
0.0
 20
0.0
 11
1.0
 21
1.0
 12
182.5919525625627
 22
194.0629982604865
 13
0.0
 23
0.0
 14
1.0
 24
1.0
 15
0.25
 25
0.25
 16
0.0
 26
0.0
 36
1.0
 17
0.0
 27
0.0
 37
0.0
 40
163.5568787443785
 41
1.542525773195876
 42
50.0
 43
0.0
 44
0.0
 50
0.0
 51
0.0
 71
     0
 72
   100
 73
     1
 74
     0
 75
     0
 76
     0
 77
     0
 78
     0
281
     0
 65
     1
110
0.0
120
0.0
130
0.0
111
1.0
121
0.0
131
0.0
112
0.0
122
1.0
132
0.0
 79
     0
146
0.0
348
12F22
 60
     3
 61
     5
292
     1
282
     1
141
0.0
142
0.0
 63
   250
421
  3355443
  0
ENDTAB
  0
TABLE
  2
LTYPE
  5
5
330
0
100
AcDbSymbolTable
 70
     2
  0
LTYPE
  5
11
330
5
100
AcDbSymbolTableRecord
100
AcDbLinetypeTableRecord
  2
BYBLOCK
 70
     0
  3

 72
    65
 73
     0
 40
0.0
  0
LTYPE
  5
12
330
5
100
AcDbSymbolTableRecord
100
AcDbLinetypeTableRecord
  2
BYLAYER
 70
     0
  3

 72
    65
 73
     0
 40
0.0
  0
LTYPE
  5
13
330
5
100
AcDbSymbolTableRecord
100
AcDbLinetypeTableRecord
  2
CONTINUOUS
 70
     0
  3
Solid line
 72
    65
 73
     0
 40
0.0
  0
LTYPE
  5
3A
330
5
100
AcDbSymbolTableRecord
100
AcDbLinetypeTableRecord
  2
HIDDEN
 70
     0
  3
__ __ __ __ __ __ __ __ __ __ __ __ __ __ __ __
 72
    65
 73
     2
 40
0.375
 49
0.25
 74
     0
 49
-0.125
 74
     0
  0
ENDTAB
  0
TABLE
  2
LAYER
  5
2
102
{ACAD_XDICTIONARY
360
13027
102
}
330
0
100
AcDbSymbolTable
 70
    13
  0
LAYER
  5
E
330
2
100
AcDbSymbolTableRecord
100
AcDbLayerTableRecord
  2
0
 70
     0
 62
     7
  6
CONTINUOUS
370
    -3
390
B579
347
12F1B
  0
LAYER
  5
41
330
2
100
AcDbSymbolTableRecord
100
AcDbLayerTableRecord
  2
BDR
 70
     0
 62
     7
  6
CONTINUOUS
370
    -3
390
B579
347
12F1B
  0
LAYER
  5
43
330
2
100
AcDbSymbolTableRecord
100
AcDbLayerTableRecord
  2
5
 70
     0
 62
     7
  6
CONTINUOUS
370
    -3
390
B579
347
12F1B
  0
LAYER
  5
44
330
2
100
AcDbSymbolTableRecord
100
AcDbLayerTableRecord
  2
AME_FRZ
 70
     0
 62
     7
  6
CONTINUOUS
370
    -3
390
B579
347
12F1B
  0
LAYER
  5
45
330
2
100
AcDbSymbolTableRecord
100
AcDbLayerTableRecord
  2
ASHADE
 70
     0
 62
     7
  6
CONTINUOUS
370
    -3
390
B579
347
12F1B
  0
LAYER
  5
B91F
330
2
100
AcDbSymbolTableRecord
100
AcDbLayerTableRecord
  2
HATCH
 70
     0
 62
     4
  6
CONTINUOUS
370
    -3
390
B579
347
12F1B
  0
LAYER
  5
F047
330
2
100
AcDbSymbolTableRecord
100
AcDbLayerTableRecord
  2
Defpoints
 70
     0
 62
     7
  6
CONTINUOUS
290
     0
370
    -3
390
B579
347
12F1B
  0
LAYER
  5
F086
330
2
100
AcDbSymbolTableRecord
100
AcDbLayerTableRecord
  2
SECTION JOINTS
 70
     0
 62
     7
  6
CONTINUOUS
370
    25
390
B579
347
12F1B
  0
LAYER
  5
111E5
330
2
100
AcDbSymbolTableRecord
100
AcDbLayerTableRecord
  2
TEXT
 70
     0
 62
     7
  6
CONTINUOUS
370
    -3
390
B579
347
12F1B
  0
LAYER
  5
111E7
330
2
100
AcDbSymbolTableRecord
100
AcDbLayerTableRecord
  2
6
 70
     0
 62
     7
  6
CONTINUOUS
370
    -3
390
B579
347
12F1B
  0
LAYER
  5
117C7
330
2
100
AcDbSymbolTableRecord
100
AcDbLayerTableRecord
  2
FRAMING
 70
     0
 62
     7
  6
CONTINUOUS
370
    25
390
B579
347
12F1B
  0
LAYER
  5
11C8D
330
2
100
AcDbSymbolTableRecord
100
AcDbLayerTableRecord
  2
HIDDEN
 70
     0
 62
     2
  6
HIDDEN
370
    -3
390
B579
347
12F1B
  0
ENDTAB
  0
TABLE
  2
STYLE
  5
3
330
0
100
AcDbSymbolTable
 70
     3
  0
STYLE
  5
F
330
3
100
AcDbSymbolTableRecord
100
AcDbTextStyleTableRecord
  2
STANDARD
 70
     0
 40
0.0
 41
1.0
 50
0.0
 71
     0
 42
2.0
  3
TIMES.TTF
  4

1001
ACAD
1000
Times New Roman
1071
       18
  0
STYLE
  5
1D21
330
3
100
AcDbSymbolTableRecord
100
AcDbTextStyleTableRecord
  2
SIMPLEX
 70
     0
 40
0.1
 41
0.6
 50
0.0
 71
     0
 42
0.1
  3
SIMPLEX.shx
  4

  0
STYLE
  5
10B94
330
3
100
AcDbSymbolTableRecord
100
AcDbTextStyleTableRecord
  2
WEB PAGE
 70
     0
 40
0.0
 41
1.0
 50
0.0
 71
     0
 42
2.0
  3
TIMES.TTF
  4

1001
ACAD
1000
Times New Roman
1071
       18
  0
ENDTAB
  0
TABLE
  2
VIEW
  5
6
330
0
100
AcDbSymbolTable
 70
     1
  0
ENDTAB
  0
TABLE
  2
UCS
  5
7
330
0
100
AcDbSymbolTable
 70
     0
  0
ENDTAB
  0
TABLE
  2
APPID
  5
9
330
0
100
AcDbSymbolTable
 70
     7
  0
APPID
  5
10
330
9
100
AcDbSymbolTableRecord
100
AcDbRegAppTableRecord
  2
ACAD
 70
     0
  0
APPID
  5
3F
330
9
100
AcDbSymbolTableRecord
100
AcDbRegAppTableRecord
  2
AME_SOL
 70
     0
  0
APPID
  5
40
330
9
100
AcDbSymbolTableRecord
100
AcDbRegAppTableRecord
  2
AVE_RENDER
 70
     0
  0
APPID
  5
71A7
330
9
100
AcDbSymbolTableRecord
100
AcDbRegAppTableRecord
  2
AVE_ENTITY_MATERIAL
 70
     0
  0
APPID
  5
71A8
330
9
100
AcDbSymbolTableRecord
100
AcDbRegAppTableRecord
  2
AVE_FINISH
 70
     0
  0
APPID
  5
71A9
330
9
100
AcDbSymbolTableRecord
100
AcDbRegAppTableRecord
  2
AVE_MATERIAL
 70
     0
  0
APPID
  5
71AA
330
9
100
AcDbSymbolTableRecord
100
AcDbRegAppTableRecord
  2
AVE_GLOBAL
 70
     0
  0
ENDTAB
  0
TABLE
  2
DIMSTYLE
  5
A
330
0
100
AcDbSymbolTable
 70
     1
100
AcDbDimStyleTable
 71
     1
340
190D
  0
DIMSTYLE
105
190D
102
{ACAD_REACTORS
330
11CDE
330
11CDF
330
11CE0
330
11CE1
330
11CFE
330
11EA8
330
1205D
330
11CFD
330
11D00
330
11D01
330
11D1F
102
}
330
A
100
AcDbSymbolTableRecord
100
AcDbDimStyleTableRecord
  2
STANDARD
 70
     0
 41
3.0
 42
2.0
 43
1.0
 44
1.0
140
1.75
141
1.0
147
1.0
276
     2
277
     4
340
10B94
  0
ENDTAB
  0
TABLE
  2
BLOCK_RECORD
  5
1
330
0
100
AcDbSymbolTable
 70
    23
  0
BLOCK_RECORD
  5
17
330
1
100
AcDbSymbolTableRecord
100
AcDbBlockTableRecord
  2
*MODEL_SPACE
340
B57C
 70
     0
280
     1
281
     0
  0
BLOCK_RECORD
  5
14
330
1
100
AcDbSymbolTableRecord
100
AcDbBlockTableRecord
  2
*PAPER_SPACE
340
B57D
 70
     0
280
     1
281
     0
  0
BLOCK_RECORD
  5
20
330
1
100
AcDbSymbolTableRecord
100
AcDbBlockTableRecord
  2
AME_NIL
340
0
102
{BLKREFS
331
3374
331
3E3C
102
}
 70
     0
280
     1
281
     0
  0
BLOCK_RECORD
  5
21
330
1
100
AcDbSymbolTableRecord
100
AcDbBlockTableRecord
  2
AME_SOL
340
0
102
{BLKREFS
331
3375
331
3E3D
102
}
 70
     0
280
     1
281
     0
  0
BLOCK_RECORD
  5
22
330
1
100
AcDbSymbolTableRecord
100
AcDbBlockTableRecord
  2
AVE_RENDER
340
0
102
{BLKREFS
331
3376
331
3377
331
3378
331
3E3E
331
3E3F
331
3E40
102
}
 70
     0
280
     1
281
     0
  0
BLOCK_RECORD
  5
11B1F
330
1
100
AcDbSymbolTableRecord
100
AcDbBlockTableRecord
  2
HA137
340
0
102
{BLKREFS
331
11CFB
102
}
 70
     0
280
     1
281
     0
  0
BLOCK_RECORD
  5
11B53
330
1
100
AcDbSymbolTableRecord
100
AcDbBlockTableRecord
  2
J-4
340
0
102
{BLKREFS
331
11BC9
102
}
 70
     0
280
     1
281
     0
  0
BLOCK_RECORD
  5
11B62
330
1
100
AcDbSymbolTableRecord
100
AcDbBlockTableRecord
  2
J-5
340
0
102
{BLKREFS
331
11BF7
102
}
 70
     0
280
     1
281
     0
  0
BLOCK_RECORD
  5
11B72
330
1
100
AcDbSymbolTableRecord
100
AcDbBlockTableRecord
  2
19-vert-angle
340
0
102
{BLKREFS
331
11D02
102
}
 70
     0
280
     1
281
     0
  0
BLOCK_RECORD
  5
11BA6
330
1
100
AcDbSymbolTableRecord
100
AcDbBlockTableRecord
  2
J-3
340
0
102
{BLKREFS
331
11BCA
102
}
 70
     0
280
     1
281
     0
  0
BLOCK_RECORD
  5
11BB5
330
1
100
AcDbSymbolTableRecord
100
AcDbBlockTableRecord
  2
J-1
340
0
102
{BLKREFS
331
11BC8
102
}
 70
     0
280
     1
281
     0
  0
BLOCK_RECORD
  5
11BC4
330
1
100
AcDbSymbolTableRecord
100
AcDbBlockTableRecord
  2
112VPT
340
0
310
28000000200000002000000001000800000000000004000000000000000000000000000000000000000000004000000080000000FF000000002000004020000080200000FF200000004000004040000080400000FF400000006000004060000080600000FF600000008000004080000080800000FF80000000A0000040A000
310
0080A00000FFA0000000C0000040C0000080C00000FFC0000000FF000040FF000080FF0000FFFF0000000020004000200080002000FF002000002020004020200080202000FF202000004020004040200080402000FF402000006020004060200080602000FF602000008020004080200080802000FF80200000A0200040A0
310
200080A02000FFA0200000C0200040C0200080C02000FFC0200000FF200040FF200080FF2000FFFF2000000040004000400080004000FF004000002040004020400080204000FF204000004040004040400080404000FF404000006040004060400080604000FF604000008040004080400080804000FF80400000A0400040
310
A0400080A04000FFA0400000C0400040C0400080C04000FFC0400000FF400040FF400080FF4000FFFF4000000060004000600080006000FF006000002060004020600080206000FF206000004060004040600080406000FF406000006060004060600080606000FF606000008060004080600080806000FF80600000A06000
310
40A0600080A06000FFA0600000C0600040C0600080C06000FFC0600000FF600040FF600080FF6000FFFF6000000080004000800080008000FF008000002080004020800080208000FF208000004080004040800080408000FF408000006080004060800080608000FF608000008080004080800080808000FF80800000A080
310
0040A0800080A08000FFA0800000C0800040C0800080C08000FFC0800000FF800040FF800080FF8000FFFF80000000A0004000A0008000A000FF00A0000020A0004020A0008020A000FF20A0000040A0004040A0008040A000FF40A0000060A0004060A0008060A000FF60A0000080A0004080A0008080A000FF80A00000A0
310
A00040A0A00080A0A000FFA0A00000C0A00040C0A00080C0A000FFC0A00000FFA00040FFA00080FFA000FFFFA0000000C0004000C0008000C000FF00C0000020C0004020C0008020C000FF20C0000040C0004040C0008040C000FF40C0000060C0004060C0008060C000FF60C0000080C0004080C0008080C000FF80C00000
310
A0C00040A0C00080A0C000FFA0C00000C0C00040C0C00080C0C000FFC0C00000FFC00040FFC00080FFC000FFFFC0000000FF004000FF008000FF00FF00FF000020FF004020FF008020FF00FF20FF000040FF004040FF008040FF00FF40FF000060FF004060FF008060FF00FF60FF000080FF004080FF008080FF00FF80FF00
310
00A0FF0040A0FF0080A0FF00FFA0FF0000C0FF0040C0FF0080C0FF00FFC0FF0000FFFF0040FFFF0080FFFF00FFFFFF00FFFFFFFFFFFFFFFFFFFFFFFFFFFFFFFFFFFFFFFFFFFFFFFFFFFFFFFFFFFFFFFFFFFFFFFFFFFFFFFFFFFFFFFFFFFFFF0000FFFFFFFFFFFFFFFFFFFFFFFFFFFFFFFFFFFFFFFFFFFFFFFFFFFFFFFFFFFF
310
0000FFFFFFFFFFFFFFFFFFFFFFFFFFFFFFFFFFFFFFFFFFFFFFFFFFFFFFFFFFFF0000FFFFFFFFFFFFFFFFFFFFFFFFFFFFFFFFFFFFFFFFFFFFFFFFFFFFFFFFFFFF000FFFFFFFFFFFFFFFFFFFFFFFFFFFFFFFFFFFFFFFFFFFFFFFFFFFFFFFFFFFFF0000FFFFFFFFFFFFFFFFFFFFFFFFFFFFFFFFFFFFFFFFFFFFFFFFFFFFFFFFFF
310
FF0000FFFFFFFFFFFFFFFFFFFFFFFFFFFFFFFFFFFFFFFFFFFFFFFFFFFFFFFFFFFF0000FFFFFFFFFFFFFFFFFFFFFFFFFFFFFFFFFFFFFFFFFFFFFFFFFFFFFFFFFFFF0000FFFFFFFFFFFFFFFFFFFFFFFFFFFFFFFFFFFFFFFFFFFFFFFFFFFFFFFFFFFF0000FFFFFFFFFFFFFFFFFFFFFFFFFFFFFFFFFFFFFFFFFFFFFFFFFFFFFFFF
310
FFFF0000FFFFFFFFFFFFFFFFFFFFFFFFFFFFFFFFFFFFFFFFFFFFFFFFFFFFFFFFFFFF0000FFFFFFFFFFFFFFFFFFFFFFFFFFFFFFFFFFFFFFFFFFFFFFFFFFFFFFFFFFFF0000FFFFFFFFFFFFFFFFFFFFFFFFFFFFFFFFFFFFFFFFFFFFFFFFFFFFFFFFFFFF0000FFFFFFFFFFFFFFFFFFFFFFFFFFFFFFFFFFFFFFFFFFFFFFFFFFFFFF
310
FFFFFF0000FFFFFFFFFFFFFFFFFFFFFFFFFFFFFFFFFFFFFFFFFFFFFFFFFFFFFFFFFFFF0000FFFFFFFFFFFFFFFFFFFFFFFFFFFFFFFFFFFFFFFFFFFFFFFFFFFFFFFFFFFF0F00FFFFFFFFFFFFFFFFFFFFFFFFFFFFFFFFFFFFFFFFFFFFFFFFFFFFFFFFFFFFFF00FFFFFFFFFFFFFFFFFFFFFFFFFFFFFFFFFFFFFFFFFFFFFFFFFFFF
310
FFFFFFFFFF00FFFFFFFFFFFFFFFFFFFFFFFFFFFFFFFFFFFFFFFFFFFFFFFFFFFFFFFFFFFFFF00FFFFFFFFFFFFFFFFFFFFFFFFFFFFFFFFFFFFFFFFFFFFFFFFFFFFFFFFFFFFFF00FFFFFFFFFFFFFFFFFFFFFFFFFFFFFFFFFFFFFFFFFFFFFFFFFFFFFFFFFFFFFF00FFFFFFFFFFFFFFFFFFFFFFFFFFFFFFFFFFFFFFFFFFFFFFFFFF
310
FFFFFFFFFF0F00FFFFFFFFFFFFFFFFFFFFFFFFFFFFFFFFFFFFFFFFFFFFFFFFFFFFFFFFFFFFFF00FFFFFFFFFFFFFFFFFFFFFFFFFFFFFFFFFFFFFFFFFFFFFFFFFFFFFFFFFFFFFF00FFFFFFFFFFFFFFFFFFFFFFFFFFFFFFFFFFFFFFFFFFFFFFFFFFFFFFFFFFFFFF00FFFFFFFFFFFFFFFFFFFFFFFFFFFFFFFFFFFFFFFFFFFFFFFF
310
FFFFFFFFFFFFFF00FFFFFFFFFFFFFFFFFFFFFFFFFFFFFFFFFFFFFFFFFFFFFFFFFFFFFFFFFFFFFF00FFFFFFFFFFFFFFFFFFFFFFFFFFFFFFFFFFFFFFFFFFFFFFFFFFFFFFFFFFFFFF00FFFFFFFFFFFFFFFFFFFFFFFFFFFFFFFFFFFFFFFFFFFFFFFFFFFFFFFFFFFFFF00FFFFFFFFFFFFFFFFFFFFFFFFFFFFFFFFFFFFFFFFFFFFFF
310
FFFFFFFFFFFFFFFF00FFFFFFFFFFFFFFFFFFFFFFFFFFFFFFFFFFFFFFFFFFFFFFFFFFFFFFFFFFFFFFFFFFFFFFFFFFFFFFFFFFFFFFFFFFFFFF
102
{BLKREFS
331
11C05
102
}
 70
     1
280
     1
281
     0
  0
BLOCK_RECORD
  5
11C04
330
1
100
AcDbSymbolTableRecord
100
AcDbBlockTableRecord
  2
A$C6F454818
340
0
102
{BLKREFS
331
11CE4
102
}
 70
     0
280
     1
281
     0
  0
BLOCK_RECORD
  5
11C08
330
1
100
AcDbSymbolTableRecord
100
AcDbBlockTableRecord
  2
SP-8-34
340
0
102
{BLKREFS
331
11D03
102
}
 70
     0
280
     1
281
     0
  0
BLOCK_RECORD
  5
11D2A
330
1
100
AcDbSymbolTableRecord
100
AcDbBlockTableRecord
  2
*D12
340
0
 70
     0
280
     1
281
     0
  0
BLOCK_RECORD
  5
11D37
330
1
100
AcDbSymbolTableRecord
100
AcDbBlockTableRecord
  2
*D13
340
0
 70
     0
280
     1
281
     0
  0
BLOCK_RECORD
  5
11D44
330
1
100
AcDbSymbolTableRecord
100
AcDbBlockTableRecord
  2
*D14
340
0
 70
     0
280
     1
281
     0
  0
BLOCK_RECORD
  5
11D51
330
1
100
AcDbSymbolTableRecord
100
AcDbBlockTableRecord
  2
*D15
340
0
 70
     0
280
     1
281
     0
  0
BLOCK_RECORD
  5
11D5E
330
1
100
AcDbSymbolTableRecord
100
AcDbBlockTableRecord
  2
*D16
340
0
 70
     0
280
     1
281
     0
  0
BLOCK_RECORD
  5
11E29
330
1
100
AcDbSymbolTableRecord
100
AcDbBlockTableRecord
  2
15R-138TRK
340
0
102
{BLKREFS
331
11E48
102
}
 70
     0
280
     1
281
     0
  0
BLOCK_RECORD
  5
11E49
330
1
100
AcDbSymbolTableRecord
100
AcDbBlockTableRecord
  2
WD-9-3-38
340
0
102
{BLKREFS
331
11E5B
102
}
 70
     1
280
     1
281
     0
  0
BLOCK_RECORD
  5
11EA9
330
1
100
AcDbSymbolTableRecord
100
AcDbBlockTableRecord
  2
*D19
340
0
 70
     0
280
     1
281
     0
  0
BLOCK_RECORD
  5
12034
330
1
100
AcDbSymbolTableRecord
100
AcDbBlockTableRecord
  2
A$C2D8E259A
340
0
102
{BLKREFS
331
12045
102
}
 70
     0
280
     1
281
     0
  0
BLOCK_RECORD
  5
1205E
330
1
100
AcDbSymbolTableRecord
100
AcDbBlockTableRecord
  2
*D21
340
0
 70
     0
280
     1
281
     0
  0
ENDTAB
  0
ENDSEC
  0
SECTION
  2
BLOCKS
  0
BLOCK
  5
57
330
17
100
AcDbEntity
  8
0
100
AcDbBlockBegin
  2
*MODEL_SPACE
 70
     0
 10
0.0
 20
0.0
 30
0.0
  3
*MODEL_SPACE
  1

  0
ENDBLK
  5
58
330
17
100
AcDbEntity
  8
0
100
AcDbBlockEnd
  0
BLOCK
  5
55
330
14
100
AcDbEntity
 67
     1
  8
0
100
AcDbBlockBegin
  2
*PAPER_SPACE
 70
     0
 10
0.0
 20
0.0
 30
0.0
  3
*PAPER_SPACE
  1

  0
ENDBLK
  5
56
330
14
100
AcDbEntity
 67
     1
  8
0
100
AcDbBlockEnd
  0
BLOCK
  5
91E
330
20
100
AcDbEntity
  8
0
100
AcDbBlockBegin
  2
AME_NIL
 70
     0
 10
0.0
 20
0.0
 30
0.0
  3
AME_NIL
  1
AME_NIL
  0
ENDBLK
  5
91F
330
20
100
AcDbEntity
  8
0
100
AcDbBlockEnd
  0
BLOCK
  5
920
330
21
100
AcDbEntity
  8
0
100
AcDbBlockBegin
  2
AME_SOL
 70
     0
 10
0.0
 20
0.0
 30
0.0
  3
AME_SOL
  1
AME_SOL
  0
ENDBLK
  5
921
330
21
100
AcDbEntity
  8
0
100
AcDbBlockEnd
  0
BLOCK
  5
922
330
22
100
AcDbEntity
  8
0
100
AcDbBlockBegin
  2
AVE_RENDER
 70
     0
 10
0.0
 20
0.0
 30
0.0
  3
AVE_RENDER
  1
AVE_RENDER
  0
ENDBLK
  5
923
330
22
100
AcDbEntity
  8
0
100
AcDbBlockEnd
  0
BLOCK
  5
11B51
330
11B1F
100
AcDbEntity
  8
0
100
AcDbBlockBegin
  2
HA137
 70
     0
 10
0.0
 20
0.0
 30
0.0
  3
HA137
  1

  0
LINE
  5
11B20
330
11B1F
100
AcDbEntity
  8
0
100
AcDbLine
 10
137.0
 20
0.0999999999999659
 30
0.0
 11
0.0
 21
0.0999999999999659
 31
0.0
  0
LINE
  5
11B21
330
11B1F
100
AcDbEntity
  8
0
100
AcDbLine
 10
0.0
 20
0.0
 30
0.0
 11
137.0
 21
0.0
 31
0.0
  0
LINE
  5
11B22
330
11B1F
100
AcDbEntity
  8
0
100
AcDbLine
 10
137.0
 20
1.5
 30
0.0
 11
0.0
 21
1.5
 31
0.0
  0
CIRCLE
  5
11B23
330
11B1F
100
AcDbEntity
  8
0
100
AcDbCircle
 10
3.5
 20
0.8100000000000022
 30
0.0
 40
0.195
  0
LINE
  5
11B24
330
11B1F
100
AcDbEntity
  8
0
100
AcDbLine
 10
0.0
 20
1.5
 30
0.0
 11
0.0
 21
0.0
 31
0.0
  0
ARC
  5
11B25
330
11B1F
100
AcDbEntity
  8
0
100
AcDbCircle
 10
1.240000000000009
 20
0.8100000000000022
 30
0.0
 40
0.195
100
AcDbArc
 50
270.0
 51
90.0
  0
CIRCLE
  5
11B26
330
11B1F
100
AcDbEntity
  8
0
100
AcDbCircle
 10
2.0
 20
0.8100000000000022
 30
0.0
 40
0.195
  0
CIRCLE
  5
11B27
330
11B1F
100
AcDbEntity
  8
0
100
AcDbCircle
 10
2.75
 20
0.8100000000000022
 30
0.0
 40
0.195
  0
ARC
  5
11B28
330
11B1F
100
AcDbEntity
  8
0
100
AcDbCircle
 10
0.3799999999998818
 20
0.8100000000000022
 30
0.0
 40
0.195
100
AcDbArc
 50
90.0
 51
270.0
  0
LINE
  5
11B29
330
11B1F
100
AcDbEntity
  8
0
100
AcDbLine
 10
0.3799999999998818
 20
1.004999999999995
 30
0.0
 11
1.240000000000009
 21
1.004999999999995
 31
0.0
  0
LINE
  5
11B2A
330
11B1F
100
AcDbEntity
  8
0
100
AcDbLine
 10
1.240000000000009
 20
0.6150000000000091
 30
0.0
 11
0.3799999999998818
 21
0.6150000000000091
 31
0.0
  0
LINE
  5
11B2B
330
11B1F
100
AcDbEntity
  8
0
100
AcDbLine
 10
8.228999999999928
 20
0.6150000000000091
 30
0.0
 11
8.650999999999953
 21
0.6150000000000091
 31
0.0
  0
LINE
  5
11B2C
330
11B1F
100
AcDbEntity
  8
0
100
AcDbLine
 10
8.228999999999928
 20
1.004999999999995
 30
0.0
 11
8.650999999999953
 21
1.004999999999995
 31
0.0
  0
CIRCLE
  5
11B2D
330
11B1F
100
AcDbEntity
  8
0
100
AcDbCircle
 10
7.43999999999994
 20
0.8100000000000022
 30
0.0
 40
0.195
  0
ARC
  5
11B2E
330
11B1F
100
AcDbEntity
  8
0
100
AcDbCircle
 10
8.228999999999928
 20
0.8100000000000022
 30
0.0
 40
0.195
100
AcDbArc
 50
90.0
 51
270.0
  0
ARC
  5
11B2F
330
11B1F
100
AcDbEntity
  8
0
100
AcDbCircle
 10
8.650999999999953
 20
0.8100000000000022
 30
0.0
 40
0.195
100
AcDbArc
 50
270.0
 51
90.0
  0
LINE
  5
11B30
330
11B1F
100
AcDbEntity
  8
0
100
AcDbLine
 10
5.288999999999987
 20
1.004999999999995
 30
0.0
 11
5.711000000000012
 21
1.004999999999995
 31
0.0
  0
LINE
  5
11B31
330
11B1F
100
AcDbEntity
  8
0
100
AcDbLine
 10
5.288999999999987
 20
0.6150000000000091
 30
0.0
 11
5.711000000000012
 21
0.6150000000000091
 31
0.0
  0
ARC
  5
11B32
330
11B1F
100
AcDbEntity
  8
0
100
AcDbCircle
 10
5.288999999999987
 20
0.8100000000000022
 30
0.0
 40
0.195
100
AcDbArc
 50
90.0
 51
270.0
  0
CIRCLE
  5
11B33
330
11B1F
100
AcDbEntity
  8
0
100
AcDbCircle
 10
4.5
 20
0.8100000000000022
 30
0.0
 40
0.195
  0
ARC
  5
11B34
330
11B1F
100
AcDbEntity
  8
0
100
AcDbCircle
 10
5.711000000000012
 20
0.8100000000000022
 30
0.0
 40
0.195
100
AcDbArc
 50
270.0
 51
90.0
  0
CIRCLE
  5
11B35
330
11B1F
100
AcDbEntity
  8
0
100
AcDbCircle
 10
6.879999999999881
 20
1.189999999999997
 30
0.0
 40
0.078
  0
CIRCLE
  5
11B36
330
11B1F
100
AcDbEntity
  8
0
100
AcDbCircle
 10
6.879999999999881
 20
0.5600000000000023
 30
0.0
 40
0.078
  0
CIRCLE
  5
11B37
330
11B1F
100
AcDbEntity
  8
0
100
AcDbCircle
 10
14.43999999999994
 20
0.8100000000000022
 30
0.0
 40
0.195
  0
CIRCLE
  5
11B38
330
11B1F
100
AcDbEntity
  8
0
100
AcDbCircle
 10
10.43999999999994
 20
0.8100000000000022
 30
0.0
 40
0.195
  0
CIRCLE
  5
11B39
330
11B1F
100
AcDbEntity
  8
0
100
AcDbCircle
 10
12.43999999999994
 20
0.8100000000000022
 30
0.0
 40
0.195
  0
CIRCLE
  5
11B3A
330
11B1F
100
AcDbEntity
  8
0
100
AcDbCircle
 10
16.18999999999994
 20
0.8100000000000022
 30
0.0
 40
0.1325
  0
CIRCLE
  5
11B3B
330
11B1F
100
AcDbEntity
  8
0
100
AcDbCircle
 10
21.18999999999994
 20
0.8100000000000022
 30
0.0
 40
0.1325
  0
ARC
  5
11B3C
330
11B1F
100
AcDbEntity
  8
0
100
AcDbCircle
 10
40.2924999999999
 20
0.8100000000000022
 30
0.0
 40
0.1325
100
AcDbArc
 50
270.0
 51
90.0
  0
LINE
  5
11B3D
330
11B1F
100
AcDbEntity
  8
0
100
AcDbLine
 10
40.08749999999998
 20
0.9424999999999954
 30
0.0
 11
40.2924999999999
 21
0.9424999999999954
 31
0.0
  0
LINE
  5
11B3E
330
11B1F
100
AcDbEntity
  8
0
100
AcDbLine
 10
40.2924999999999
 20
0.6775000000000091
 30
0.0
 11
40.08749999999998
 21
0.6775000000000091
 31
0.0
  0
ARC
  5
11B3F
330
11B1F
100
AcDbEntity
  8
0
100
AcDbCircle
 10
40.08749999999998
 20
0.8100000000000022
 30
0.0
 40
0.1325
100
AcDbArc
 50
90.0
 51
270.0
  0
ARC
  5
11B40
330
11B1F
100
AcDbEntity
  8
0
100
AcDbCircle
 10
64.08749999999997
 20
0.8100000000000022
 30
0.0
 40
0.1325
100
AcDbArc
 50
90.0
 51
270.0
  0
ARC
  5
11B41
330
11B1F
100
AcDbEntity
  8
0
100
AcDbCircle
 10
64.2924999999999
 20
0.8100000000000022
 30
0.0
 40
0.1325
100
AcDbArc
 50
270.0
 51
90.0
  0
LINE
  5
11B42
330
11B1F
100
AcDbEntity
  8
0
100
AcDbLine
 10
64.2924999999999
 20
0.6775000000000091
 30
0.0
 11
64.08749999999997
 21
0.6775000000000091
 31
0.0
  0
LINE
  5
11B43
330
11B1F
100
AcDbEntity
  8
0
100
AcDbLine
 10
64.08749999999997
 20
0.9424999999999954
 30
0.0
 11
64.2924999999999
 21
0.9424999999999954
 31
0.0
  0
ARC
  5
11B44
330
11B1F
100
AcDbEntity
  8
0
100
AcDbCircle
 10
88.29249999999978
 20
0.8100000000000022
 30
0.0
 40
0.1325
100
AcDbArc
 50
270.0
 51
90.0
  0
ARC
  5
11B45
330
11B1F
100
AcDbEntity
  8
0
100
AcDbCircle
 10
88.08749999999987
 20
0.8100000000000022
 30
0.0
 40
0.1325
100
AcDbArc
 50
90.0
 51
270.0
  0
LINE
  5
11B46
330
11B1F
100
AcDbEntity
  8
0
100
AcDbLine
 10
88.08749999999987
 20
0.9424999999999954
 30
0.0
 11
88.29249999999978
 21
0.9424999999999954
 31
0.0
  0
LINE
  5
11B47
330
11B1F
100
AcDbEntity
  8
0
100
AcDbLine
 10
88.29249999999978
 20
0.6775000000000091
 30
0.0
 11
88.08749999999987
 21
0.6775000000000091
 31
0.0
  0
LINE
  5
11B48
330
11B1F
100
AcDbEntity
  8
0
100
AcDbLine
 10
112.0875
 20
0.9424999999999954
 30
0.0
 11
112.2924999999999
 21
0.9424999999999954
 31
0.0
  0
LINE
  5
11B49
330
11B1F
100
AcDbEntity
  8
0
100
AcDbLine
 10
112.2924999999999
 20
0.6775000000000091
 30
0.0
 11
112.0875
 21
0.6775000000000091
 31
0.0
  0
ARC
  5
11B4A
330
11B1F
100
AcDbEntity
  8
0
100
AcDbCircle
 10
112.2924999999999
 20
0.8100000000000022
 30
0.0
 40
0.1325
100
AcDbArc
 50
270.0
 51
90.0
  0
ARC
  5
11B4B
330
11B1F
100
AcDbEntity
  8
0
100
AcDbCircle
 10
112.0875
 20
0.8100000000000022
 30
0.0
 40
0.1325
100
AcDbArc
 50
90.0
 51
270.0
  0
LINE
  5
11B4C
330
11B1F
100
AcDbEntity
  8
0
100
AcDbLine
 10
135.5874999999999
 20
0.9424999999999954
 30
0.0
 11
135.7925
 21
0.9424999999999954
 31
0.0
  0
LINE
  5
11B4D
330
11B1F
100
AcDbEntity
  8
0
100
AcDbLine
 10
135.7925
 20
0.6775000000000091
 30
0.0
 11
135.5874999999999
 21
0.6775000000000091
 31
0.0
  0
ARC
  5
11B4E
330
11B1F
100
AcDbEntity
  8
0
100
AcDbCircle
 10
135.7925
 20
0.8100000000000022
 30
0.0
 40
0.1325
100
AcDbArc
 50
270.0
 51
90.0
  0
LINE
  5
11B4F
330
11B1F
100
AcDbEntity
  8
0
100
AcDbLine
 10
137.0
 20
0.0
 30
0.0
 11
137.0
 21
1.5
 31
0.0
  0
ARC
  5
11B50
330
11B1F
100
AcDbEntity
  8
0
100
AcDbCircle
 10
135.5874999999999
 20
0.8100000000000022
 30
0.0
 40
0.1325
100
AcDbArc
 50
90.0
 51
270.0
  0
ENDBLK
  5
11B52
330
11B1F
100
AcDbEntity
  8
0
100
AcDbBlockEnd
  0
BLOCK
  5
11B60
330
11B53
100
AcDbEntity
  8
0
100
AcDbBlockBegin
  2
J-4
 70
     0
 10
0.0
 20
0.0
 30
0.0
  3
J-4
  1

  0
LINE
  5
11B54
330
11B53
100
AcDbEntity
  8
6
100
AcDbLine
 10
2.875000000000003
 20
-1.125
 30
0.0
 11
0.0
 21
-1.125
 31
0.0
  0
LINE
  5
11B55
330
11B53
100
AcDbEntity
  8
6
100
AcDbLine
 10
0.0
 20
1.125
 30
0.0
 11
2.875000000000003
 21
1.125
 31
0.0
  0
TEXT
  5
11B56
330
11B53
100
AcDbEntity
  8
6
 62
    10
100
AcDbText
 10
0.8331828303452972
 20
-0.8025466262900238
 30
0.0
 40
0.4
  1
J-4
100
AcDbText
  0
LINE
  5
11B57
330
11B53
100
AcDbEntity
  8
6
100
AcDbLine
 10
0.1000000000000014
 20
-1.125
 30
0.0
 11
0.1000000000000014
 21
1.125
 31
0.0
  0
LINE
  5
11B58
330
11B53
100
AcDbEntity
  8
6
100
AcDbLine
 10
0.0
 20
-1.125
 30
0.0
 11
0.0
 21
1.125
 31
0.0
  0
LINE
  5
11B59
330
11B53
100
AcDbEntity
  8
6
100
AcDbLine
 10
2.875
 20
-1.125
 30
0.0
 11
2.875
 21
1.125
 31
0.0
  0
CIRCLE
  5
11B5A
330
11B53
100
AcDbEntity
  8
6
100
AcDbCircle
 10
2.500000000000003
 20
-0.75
 30
0.0
 40
0.1325
  0
ARC
  5
11B5B
330
11B53
100
AcDbEntity
  8
6
100
AcDbCircle
 10
2.585900000000002
 20
0.0000000000000036
 30
0.0
 40
0.1327999999999977
100
AcDbArc
 50
270.0
 51
90.0
  0
CIRCLE
  5
11B5C
330
11B53
100
AcDbEntity
  8
6
100
AcDbCircle
 10
2.500000000000003
 20
0.75
 30
0.0
 40
0.1325
  0
ARC
  5
11B5D
330
11B53
100
AcDbEntity
  8
6
100
AcDbCircle
 10
1.226500000000001
 20
0.0000000000000036
 30
0.0
 40
0.1327999999999977
100
AcDbArc
 50
90.0
 51
270.0
  0
LINE
  5
11B5E
330
11B53
100
AcDbEntity
  8
6
100
AcDbLine
 10
1.226500000000001
 20
-0.1327999999999996
 30
0.0
 11
2.585900000000002
 21
-0.1327999999999996
 31
0.0
  0
LINE
  5
11B5F
330
11B53
100
AcDbEntity
  8
6
100
AcDbLine
 10
1.226500000000001
 20
0.1327999999999996
 30
0.0
 11
2.585900000000002
 21
0.1327999999999996
 31
0.0
  0
ENDBLK
  5
11B61
330
11B53
100
AcDbEntity
  8
0
100
AcDbBlockEnd
  0
BLOCK
  5
11B70
330
11B62
100
AcDbEntity
  8
0
100
AcDbBlockBegin
  2
J-5
 70
     0
 10
0.0
 20
0.0
 30
0.0
  3
J-5
  1

  0
LINE
  5
11B63
330
11B62
100
AcDbEntity
  8
6
100
AcDbLine
 10
0.1000000000000014
 20
-1.125
 30
0.0
 11
0.1000000000000014
 21
1.125
 31
0.0
  0
LINE
  5
11B64
330
11B62
100
AcDbEntity
  8
6
100
AcDbLine
 10
0.0
 20
-1.125
 30
0.0
 11
0.0
 21
1.125
 31
0.0
  0
CIRCLE
  5
11B65
330
11B62
100
AcDbEntity
  8
6
100
AcDbCircle
 10
2.75
 20
0.75
 30
0.0
 40
0.1325
  0
LINE
  5
11B66
330
11B62
100
AcDbEntity
  8
6
100
AcDbLine
 10
3.125
 20
-1.125
 30
0.0
 11
3.125
 21
1.125
 31
0.0
  0
LINE
  5
11B67
330
11B62
100
AcDbEntity
  8
6
100
AcDbLine
 10
3.125
 20
-1.125
 30
0.0
 11
3.125
 21
1.125
 31
0.0
  0
LINE
  5
11B68
330
11B62
100
AcDbEntity
  8
6
100
AcDbLine
 10
1.476499999999994
 20
0.1327999999999996
 30
0.0
 11
2.835899999999995
 21
0.1327999999999996
 31
0.0
  0
LINE
  5
11B69
330
11B62
100
AcDbEntity
  8
6
100
AcDbLine
 10
1.476499999999994
 20
-0.1327999999999996
 30
0.0
 11
2.835899999999995
 21
-0.1327999999999996
 31
0.0
  0
LINE
  5
11B6A
330
11B62
100
AcDbEntity
  8
6
100
AcDbLine
 10
3.125
 20
-1.125
 30
0.0
 11
0.0
 21
-1.125
 31
0.0
  0
TEXT
  5
11B6B
330
11B62
100
AcDbEntity
  8
6
 62
    10
100
AcDbText
 10
0.7596062631773393
 20
-0.8551374061173966
 30
0.0
 40
0.4
  1
J-5
100
AcDbText
  0
ARC
  5
11B6C
330
11B62
100
AcDbEntity
  8
6
100
AcDbCircle
 10
1.476499999999994
 20
0.0000000000000036
 30
0.0
 40
0.1327999999999977
100
AcDbArc
 50
90.0
 51
270.0
  0
CIRCLE
  5
11B6D
330
11B62
100
AcDbEntity
  8
6
100
AcDbCircle
 10
2.75
 20
-0.75
 30
0.0
 40
0.1325
  0
ARC
  5
11B6E
330
11B62
100
AcDbEntity
  8
6
100
AcDbCircle
 10
2.835899999999995
 20
0.0000000000000036
 30
0.0
 40
0.1327999999999977
100
AcDbArc
 50
270.0
 51
90.0
  0
LINE
  5
11B6F
330
11B62
100
AcDbEntity
  8
6
100
AcDbLine
 10
0.0
 20
1.125
 30
0.0
 11
3.125
 21
1.125
 31
0.0
  0
ENDBLK
  5
11B71
330
11B62
100
AcDbEntity
  8
0
100
AcDbBlockEnd
  0
BLOCK
  5
11BA4
330
11B72
100
AcDbEntity
  8
0
100
AcDbBlockBegin
  2
19-vert-angle
 70
     0
 10
0.0
 20
0.0
 30
0.0
  3
19-vert-angle
  1

  0
LINE
  5
11B73
330
11B72
100
AcDbEntity
  8
5
 62
     7
100
AcDbLine
 10
-8.584845159629228
 20
1.944386559922987
 30
0.0
 11
10.06165484037078
 21
1.944386559922987
 31
0.0
  0
LINE
  5
11B74
330
11B72
100
AcDbEntity
  8
5
 62
     7
100
AcDbLine
 10
-8.584845159629228
 20
2.030886559922988
 30
0.0
 11
10.06165484037078
 21
2.030886559922988
 31
0.0
  0
LINE
  5
11B75
330
11B72
100
AcDbEntity
  8
5
 62
     7
100
AcDbLine
 10
10.06165484037078
 20
0.5208865599229871
 30
0.0
 11
-8.584845159629228
 21
0.5208865599229871
 31
0.0
  0
LINE
  5
11B76
330
11B72
100
AcDbEntity
  8
5
 62
     7
100
AcDbLine
 10
-8.584845159629228
 20
2.030886559922988
 30
0.0
 11
-8.584845159629228
 21
0.5208865599229871
 31
0.0
  0
CIRCLE
  5
11B77
330
11B72
100
AcDbEntity
  8
5
 62
     7
100
AcDbCircle
 10
-7.857345159629229
 20
0.8708865599229884
 30
0.0
 40
0.1349999999999998
  0
LINE
  5
11B78
330
11B72
100
AcDbEntity
  8
HIDDEN
 62
     7
100
AcDbLine
 10
-7.722345159629227
 20
1.944386559922987
 30
0.0
 11
-7.722345159629227
 21
2.030886559922988
 31
0.0
  0
LINE
  5
11B79
330
11B72
100
AcDbEntity
  8
HIDDEN
 62
     7
100
AcDbLine
 10
-7.992345159629227
 20
1.944386559922987
 30
0.0
 11
-7.992345159629227
 21
2.030886559922988
 31
0.0
  0
LINE
  5
11B7A
330
11B72
100
AcDbEntity
  8
5
 62
     7
100
AcDbLine
 10
-6.807345159629228
 20
1.444386559922987
 30
0.0
 11
-6.807345159629228
 21
1.037386559922991
 31
0.0
  0
LINE
  5
11B7B
330
11B72
100
AcDbEntity
  8
5
 62
     7
100
AcDbLine
 10
-7.150345159629232
 20
1.444386559922987
 30
0.0
 11
-7.150345159629232
 21
1.037386559922991
 31
0.0
  0
ARC
  5
11B7C
330
11B72
100
AcDbEntity
  8
5
 62
     7
100
AcDbCircle
 10
-6.978845159629226
 20
1.037386559922991
 30
0.0
 40
0.1715000000000028
100
AcDbArc
 50
180.0
 51
0.0
  0
CIRCLE
  5
11B7D
330
11B72
100
AcDbEntity
  8
5
 62
     7
100
AcDbCircle
 10
-6.109345159629228
 20
0.8708865599229884
 30
0.0
 40
0.1349999999999998
  0
LINE
  5
11B7E
330
11B72
100
AcDbEntity
  8
HIDDEN
 62
     7
100
AcDbLine
 10
-5.97434515962923
 20
1.944386559922987
 30
0.0
 11
-5.97434515962923
 21
2.030886559922988
 31
0.0
  0
LINE
  5
11B7F
330
11B72
100
AcDbEntity
  8
HIDDEN
 62
     7
100
AcDbLine
 10
-6.244345159629229
 20
1.944386559922987
 30
0.0
 11
-6.244345159629229
 21
2.030886559922988
 31
0.0
  0
LINE
  5
11B80
330
11B72
100
AcDbEntity
  8
HIDDEN
 62
     7
100
AcDbLine
 10
-6.807345159629228
 20
1.944386559922987
 30
0.0
 11
-6.807345159629228
 21
2.030886559922988
 31
0.0
  0
LINE
  5
11B81
330
11B72
100
AcDbEntity
  8
HIDDEN
 62
     7
100
AcDbLine
 10
-7.150345159629232
 20
1.944386559922987
 30
0.0
 11
-7.150345159629232
 21
2.030886559922988
 31
0.0
  0
ARC
  5
11B82
330
11B72
100
AcDbEntity
  8
5
 62
     7
100
AcDbCircle
 10
-6.97884515962923
 20
1.444386559922987
 30
0.0
 40
0.171500000000001
100
AcDbArc
 50
0.0
 51
180.0
  0
POINT
  5
11B83
330
11B72
100
AcDbEntity
  8
Defpoints
  6
ByBlock
 62
     7
100
AcDbPoint
 10
-7.063199282689655
 20
1.593707127570944
 30
0.0
  0
ARC
  5
11B84
330
11B72
100
AcDbEntity
  8
5
 62
     7
100
AcDbCircle
 10
6.451654840370778
 20
0.9268865599229894
 30
0.0
 40
0.1999999999999994
100
AcDbArc
 50
270.0
 51
90.0
  0
LINE
  5
11B85
330
11B72
100
AcDbEntity
  8
5
 62
     7
100
AcDbLine
 10
0.2016548403707734
 20
1.444386559922987
 30
0.0
 11
0.2016548403707752
 21
1.037386559922991
 31
0.0
  0
LINE
  5
11B86
330
11B72
100
AcDbEntity
  8
5
 62
     7
100
AcDbLine
 10
-0.1413451596292283
 20
1.444386559922987
 30
0.0
 11
-0.1413451596292283
 21
1.037386559922991
 31
0.0
  0
ARC
  5
11B87
330
11B72
100
AcDbEntity
  8
5
 62
     7
100
AcDbCircle
 10
0.0301548403707752
 20
1.037386559922991
 30
0.0
 40
0.1715000000000028
100
AcDbArc
 50
180.0
 51
0.0
  0
LINE
  5
11B88
330
11B72
100
AcDbEntity
  8
HIDDEN
 62
     7
100
AcDbLine
 10
0.2016548403707734
 20
1.944386559922987
 30
0.0
 11
0.2016548403707734
 21
2.030886559922988
 31
0.0
  0
LINE
  5
11B89
330
11B72
100
AcDbEntity
  8
HIDDEN
 62
     7
100
AcDbLine
 10
-0.1413451596292301
 20
1.944386559922987
 30
0.0
 11
-0.1413451596292301
 21
2.030886559922988
 31
0.0
  0
ARC
  5
11B8A
330
11B72
100
AcDbEntity
  8
5
 62
     7
100
AcDbCircle
 10
0.0301548403707734
 20
1.444386559922987
 30
0.0
 40
0.171500000000001
100
AcDbArc
 50
0.0
 51
180.0
  0
LINE
  5
11B8B
330
11B72
100
AcDbEntity
  8
5
 62
     7
100
AcDbLine
 10
4.161654840370776
 20
1.126886559922988
 30
0.0
 11
3.701654840370775
 21
1.126886559922988
 31
0.0
  0
LINE
  5
11B8C
330
11B72
100
AcDbEntity
  8
5
 62
     7
100
AcDbLine
 10
4.161654840370776
 20
0.7268865599229902
 30
0.0
 11
3.701654840370775
 21
0.7268865599229902
 31
0.0
  0
ARC
  5
11B8D
330
11B72
100
AcDbEntity
  8
5
 62
     7
100
AcDbCircle
 10
3.701654840370775
 20
0.9268865599229894
 30
0.0
 40
0.1999999999999994
100
AcDbArc
 50
90.0
 51
270.0
  0
POINT
  5
11B8E
330
11B72
100
AcDbEntity
  8
Defpoints
  6
ByBlock
 62
     7
100
AcDbPoint
 10
3.570072844355843
 20
1.077505875831429
 30
0.0
  0
ARC
  5
11B8F
330
11B72
100
AcDbEntity
  8
5
 62
     7
100
AcDbCircle
 10
4.161654840370776
 20
0.9268865599229894
 30
0.0
 40
0.1999999999999994
100
AcDbArc
 50
270.0
 51
90.0
  0
LINE
  5
11B90
330
11B72
100
AcDbEntity
  8
5
 62
     7
100
AcDbLine
 10
6.451654840370778
 20
1.126886559922988
 30
0.0
 11
5.066654840370777
 21
1.126886559922988
 31
0.0
  0
LINE
  5
11B91
330
11B72
100
AcDbEntity
  8
5
 62
     7
100
AcDbLine
 10
6.451654840370778
 20
0.7268865599229902
 30
0.0
 11
5.066654840370777
 21
0.7268865599229902
 31
0.0
  0
ARC
  5
11B92
330
11B72
100
AcDbEntity
  8
5
 62
     7
100
AcDbCircle
 10
5.066654840370777
 20
0.9268865599229894
 30
0.0
 40
0.1999999999999994
100
AcDbArc
 50
90.0
 51
270.0
  0
LINE
  5
11B93
330
11B72
100
AcDbEntity
  8
HIDDEN
 62
     7
100
AcDbLine
 10
4.361654840370775
 20
1.944386559922987
 30
0.0
 11
4.361654840370775
 21
2.030886559922988
 31
0.0
  0
LINE
  5
11B94
330
11B72
100
AcDbEntity
  8
HIDDEN
 62
     7
100
AcDbLine
 10
3.501654840370775
 20
1.944386559922987
 30
0.0
 11
3.501654840370775
 21
2.030886559922988
 31
0.0
  0
LINE
  5
11B95
330
11B72
100
AcDbEntity
  8
HIDDEN
 62
     7
100
AcDbLine
 10
4.866654840370777
 20
1.944386559922987
 30
0.0
 11
4.866654840370777
 21
2.030886559922988
 31
0.0
  0
LINE
  5
11B96
330
11B72
100
AcDbEntity
  8
5
 62
     7
100
AcDbLine
 10
6.915654840370777
 20
1.378386559922988
 30
0.0
 11
6.915654840370777
 21
1.101386559922987
 31
0.0
  0
LINE
  5
11B97
330
11B72
100
AcDbEntity
  8
5
 62
     7
100
AcDbLine
 10
7.25865484037078
 20
1.378386559922988
 30
0.0
 11
7.25865484037078
 21
1.101386559922987
 31
0.0
  0
LINE
  5
11B98
330
11B72
100
AcDbEntity
  8
5
 62
     7
100
AcDbLine
 10
9.474154840370779
 20
1.126886559922988
 30
0.0
 11
7.71315484037078
 21
1.126886559922988
 31
0.0
  0
LINE
  5
11B99
330
11B72
100
AcDbEntity
  8
5
 62
     7
100
AcDbLine
 10
9.474154840370779
 20
0.7268865599229902
 30
0.0
 11
7.71315484037078
 21
0.7268865599229902
 31
0.0
  0
ARC
  5
11B9A
330
11B72
100
AcDbEntity
  8
5
 62
     7
100
AcDbCircle
 10
7.087154840370782
 20
1.101386559922987
 30
0.0
 40
0.1715000000000028
100
AcDbArc
 50
180.0
 51
0.0
  0
ARC
  5
11B9B
330
11B72
100
AcDbEntity
  8
5
 62
     7
100
AcDbCircle
 10
7.71315484037078
 20
0.9268865599229894
 30
0.0
 40
0.1999999999999994
100
AcDbArc
 50
90.0
 51
270.0
  0
ARC
  5
11B9C
330
11B72
100
AcDbEntity
  8
5
 62
     7
100
AcDbCircle
 10
9.474154840370779
 20
0.9268865599229894
 30
0.0
 40
0.1999999999999994
100
AcDbArc
 50
270.0
 51
90.0
  0
LINE
  5
11B9D
330
11B72
100
AcDbEntity
  8
HIDDEN
 62
     7
100
AcDbLine
 10
7.513154840370781
 20
1.944386559922987
 30
0.0
 11
7.513154840370781
 21
2.030886559922988
 31
0.0
  0
LINE
  5
11B9E
330
11B72
100
AcDbEntity
  8
HIDDEN
 62
     7
100
AcDbLine
 10
7.25865484037078
 20
1.944386559922987
 30
0.0
 11
7.25865484037078
 21
2.030886559922988
 31
0.0
  0
LINE
  5
11B9F
330
11B72
100
AcDbEntity
  8
HIDDEN
 62
     7
100
AcDbLine
 10
6.915654840370777
 20
1.944386559922987
 30
0.0
 11
6.915654840370777
 21
2.030886559922988
 31
0.0
  0
LINE
  5
11BA0
330
11B72
100
AcDbEntity
  8
HIDDEN
 62
     7
100
AcDbLine
 10
6.651654840370778
 20
1.944386559922987
 30
0.0
 11
6.651654840370778
 21
2.030886559922988
 31
0.0
  0
ARC
  5
11BA1
330
11B72
100
AcDbEntity
  8
5
 62
     7
100
AcDbCircle
 10
7.087154840370779
 20
1.378386559922988
 30
0.0
 40
0.171500000000001
100
AcDbArc
 50
0.0
 51
180.0
  0
LINE
  5
11BA2
330
11B72
100
AcDbEntity
  8
HIDDEN
 62
     7
100
AcDbLine
 10
9.674154840370778
 20
1.944386559922987
 30
0.0
 11
9.674154840370778
 21
2.030886559922988
 31
0.0
  0
LINE
  5
11BA3
330
11B72
100
AcDbEntity
  8
5
 62
     7
100
AcDbLine
 10
10.06165484037078
 20
2.030886559922988
 30
0.0
 11
10.06165484037078
 21
0.5208865599229871
 31
0.0
  0
ENDBLK
  5
11BA5
330
11B72
100
AcDbEntity
  8
0
100
AcDbBlockEnd
  0
BLOCK
  5
11BB3
330
11BA6
100
AcDbEntity
  8
0
100
AcDbBlockBegin
  2
J-3
 70
     0
 10
0.0
 20
0.0
 30
0.0
  3
J-3
  1

  0
LINE
  5
11BA7
330
11BA6
100
AcDbEntity
  8
6
100
AcDbLine
 10
2.625
 20
-1.124999999999999
 30
0.0
 11
2.625
 21
1.125
 31
0.0
  0
CIRCLE
  5
11BA8
330
11BA6
100
AcDbEntity
  8
6
100
AcDbCircle
 10
2.25
 20
-0.7499999999999992
 30
0.0
 40
0.1325
  0
LINE
  5
11BA9
330
11BA6
100
AcDbEntity
  8
6
100
AcDbLine
 10
0.0
 20
-1.124999999999999
 30
0.0
 11
0.0
 21
1.125
 31
0.0
  0
LINE
  5
11BAA
330
11BA6
100
AcDbEntity
  8
6
100
AcDbLine
 10
0.1000000000000014
 20
-1.124999999999999
 30
0.0
 11
0.1000000000000014
 21
1.125
 31
0.0
  0
LINE
  5
11BAB
330
11BA6
100
AcDbEntity
  8
6
100
AcDbLine
 10
2.625
 20
-1.124999999999999
 30
0.0
 11
0.0
 21
-1.124999999999999
 31
0.0
  0
TEXT
  5
11BAC
330
11BA6
100
AcDbEntity
  8
6
 62
    10
100
AcDbText
 10
0.5831828303452938
 20
-0.8025466262900247
 30
0.0
 40
0.4
  1
J-3
100
AcDbText
  0
LINE
  5
11BAD
330
11BA6
100
AcDbEntity
  8
6
100
AcDbLine
 10
0.9764999999999979
 20
-0.1327999999999987
 30
0.0
 11
2.335899999999998
 21
-0.1327999999999987
 31
0.0
  0
LINE
  5
11BAE
330
11BA6
100
AcDbEntity
  8
6
100
AcDbLine
 10
0.9764999999999979
 20
0.1328000000000005
 30
0.0
 11
2.335899999999998
 21
0.1328000000000005
 31
0.0
  0
LINE
  5
11BAF
330
11BA6
100
AcDbEntity
  8
6
100
AcDbLine
 10
0.0
 20
1.125
 30
0.0
 11
2.625
 21
1.125
 31
0.0
  0
ARC
  5
11BB0
330
11BA6
100
AcDbEntity
  8
6
100
AcDbCircle
 10
0.9764999999999979
 20
0.0000000000000027
 30
0.0
 40
0.1327999999999977
100
AcDbArc
 50
90.0
 51
270.0
  0
ARC
  5
11BB1
330
11BA6
100
AcDbEntity
  8
6
100
AcDbCircle
 10
2.335899999999998
 20
0.0000000000000027
 30
0.0
 40
0.1327999999999977
100
AcDbArc
 50
270.0
 51
90.0
  0
CIRCLE
  5
11BB2
330
11BA6
100
AcDbEntity
  8
6
100
AcDbCircle
 10
2.25
 20
0.7500000000000009
 30
0.0
 40
0.1325
  0
ENDBLK
  5
11BB4
330
11BA6
100
AcDbEntity
  8
0
100
AcDbBlockEnd
  0
BLOCK
  5
11BC2
330
11BB5
100
AcDbEntity
  8
0
100
AcDbBlockBegin
  2
J-1
 70
     0
 10
0.0
 20
0.0
 30
0.0
  3
J-1
  1

  0
CIRCLE
  5
11BB6
330
11BB5
100
AcDbEntity
  8
6
100
AcDbCircle
 10
1.875
 20
0.75
 30
0.0
 40
0.1325
  0
LINE
  5
11BB7
330
11BB5
100
AcDbEntity
  8
6
100
AcDbLine
 10
2.25
 20
-1.125
 30
0.0
 11
2.25
 21
1.125
 31
0.0
  0
LINE
  5
11BB8
330
11BB5
100
AcDbEntity
  8
6
100
AcDbLine
 10
0.1000000000000014
 20
-1.125
 30
0.0
 11
0.1000000000000014
 21
1.125
 31
0.0
  0
LINE
  5
11BB9
330
11BB5
100
AcDbEntity
  8
6
100
AcDbLine
 10
0.0
 20
-1.125
 30
0.0
 11
0.0
 21
1.125
 31
0.0
  0
ARC
  5
11BBA
330
11BB5
100
AcDbEntity
  8
6
100
AcDbCircle
 10
0.601499999999998
 20
0.0
 30
0.0
 40
0.1327999999999977
100
AcDbArc
 50
90.0
 51
270.0
  0
TEXT
  5
11BBB
330
11BB5
100
AcDbEntity
  8
6
 62
    10
100
AcDbText
 10
0.4590441626977722
 20
-0.8654942851065055
 30
0.0
 40
0.4
  1
J-1
100
AcDbText
  0
LINE
  5
11BBC
330
11BB5
100
AcDbEntity
  8
6
100
AcDbLine
 10
2.25
 20
-1.125
 30
0.0
 11
0.0
 21
-1.125
 31
0.0
  0
CIRCLE
  5
11BBD
330
11BB5
100
AcDbEntity
  8
6
100
AcDbCircle
 10
1.875
 20
-0.75
 30
0.0
 40
0.1325
  0
LINE
  5
11BBE
330
11BB5
100
AcDbEntity
  8
6
100
AcDbLine
 10
0.601499999999998
 20
-0.1327999999999996
 30
0.0
 11
1.960899999999998
 21
-0.1327999999999996
 31
0.0
  0
LINE
  5
11BBF
330
11BB5
100
AcDbEntity
  8
6
100
AcDbLine
 10
0.601499999999998
 20
0.1327999999999996
 30
0.0
 11
1.960899999999998
 21
0.1327999999999996
 31
0.0
  0
ARC
  5
11BC0
330
11BB5
100
AcDbEntity
  8
6
100
AcDbCircle
 10
1.960899999999998
 20
0.0
 30
0.0
 40
0.1327999999999977
100
AcDbArc
 50
270.0
 51
90.0
  0
LINE
  5
11BC1
330
11BB5
100
AcDbEntity
  8
6
100
AcDbLine
 10
0.0
 20
1.125
 30
0.0
 11
2.25
 21
1.125
 31
0.0
  0
ENDBLK
  5
11BC3
330
11BB5
100
AcDbEntity
  8
0
100
AcDbBlockEnd
  0
BLOCK
  5
11C02
330
11BC4
100
AcDbEntity
  8
0
100
AcDbBlockBegin
  2
112VPT
 70
     0
 10
0.0
 20
0.0
 30
0.0
  3
112VPT
  1

  0
LINE
  5
11BC5
330
11BC4
100
AcDbEntity
  8
HIDDEN
 62
     7
100
AcDbLine
 10
3.048447375173047
 20
111.9712223066748
 30
0.0
 11
1.687375389119033
 21
-0.0205072230041878
 31
0.0
  0
LINE
  5
11BC6
330
11BC4
100
AcDbEntity
  8
5
 62
     7
100
AcDbLine
 10
3.485915068648409
 20
111.9659056192296
 30
0.0
 11
2.124843082594331
 21
-0.0258239104495033
 31
0.0
  0
LINE
  5
11BC7
330
11BC4
100
AcDbEntity
  8
5
 62
     7
100
AcDbLine
 10
0.0
 20
0.0
 30
0.0
 11
1.361071986054007
 21
111.9917295296791
 31
0.0
  0
INSERT
  5
11BC8
330
11BC4
100
AcDbEntity
  8
0
100
AcDbBlockReference
  2
J-1
 10
-0.9783944876973862
 20
10.0126292364414
 30
0.0
 50
359.3036999999985
  0
INSERT
  5
11BC9
330
11BC4
100
AcDbEntity
  8
5
100
AcDbBlockReference
  2
J-4
 10
-1.020031770067539
 20
58.01668001694043
 30
0.0
 50
359.3036999999985
  0
INSERT
  5
11BCA
330
11BC4
100
AcDbEntity
  8
5
100
AcDbBlockReference
  2
J-3
 10
-1.061708513664648
 20
34.01541415346901
 30
0.0
 50
359.3036999999985
  0
LINE
  5
11BCB
330
11BC4
100
AcDbEntity
  8
5
 62
     7
100
AcDbLine
 10
1.63944494010721
 20
32.04494307294624
 30
0.0
 11
1.625773458104475
 21
30.92002614686681
 31
0.0
  0
LINE
  5
11BCC
330
11BC4
100
AcDbEntity
  8
5
 62
     7
100
AcDbLine
 10
0.6395187835921945
 20
32.05709550139318
 30
0.0
 11
0.6258473015894026
 21
30.93217857531374
 31
0.0
  0
LINE
  5
11BCD
330
11BC4
100
AcDbEntity
  8
0
100
AcDbLine
 10
2.124843082594331
 20
-0.0258239104495033
 30
0.0
 11
0.0
 21
0.0
 31
0.0
  0
LINE
  5
11BCE
330
11BC4
100
AcDbEntity
  8
5
 62
     7
100
AcDbLine
 10
0.7576867915584842
 20
9.720760080281593
 30
0.0
 11
0.7642673315624223
 21
10.26222009403443
 31
0.0
  0
LINE
  5
11BCF
330
11BC4
100
AcDbEntity
  8
5
 62
     7
100
AcDbLine
 10
1.035247319978026
 20
10.25892678592538
 30
0.0
 11
1.028666779974031
 21
9.717466772172429
 31
0.0
  0
ARC
  5
11BD0
330
11BC4
100
AcDbEntity
  8
5
 62
     7
100
AcDbCircle
 10
0.8931767857662009
 20
9.719113426226954
 30
0.0
 40
0.1355
100
AcDbArc
 50
179.3036999999984
 51
359.3036999999985
  0
ARC
  5
11BD1
330
11BC4
100
AcDbEntity
  8
5
 62
     7
100
AcDbCircle
 10
0.8997573257701958
 20
10.2605734399799
 30
0.0
 40
0.1355
100
AcDbArc
 50
359.3036999999985
 51
179.3036999999984
  0
CIRCLE
  5
11BD2
330
11BC4
100
AcDbEntity
  8
5
 62
     7
100
AcDbCircle
 10
0.9055813771034024
 20
10.73978805048966
 30
0.0
 40
0.1405
  0
CIRCLE
  5
11BD3
330
11BC4
100
AcDbEntity
  8
5
 62
     7
100
AcDbCircle
 10
0.8873527344329943
 20
9.239898815717197
 30
0.0
 40
0.1405
  0
CIRCLE
  5
11BD4
330
11BC4
100
AcDbEntity
  8
5
 62
     7
100
AcDbCircle
 10
0.8276305377270247
 20
1.240033847530639
 30
0.0
 40
0.203
  0
CIRCLE
  5
11BD5
330
11BC4
100
AcDbEntity
  8
5
 62
     7
100
AcDbCircle
 10
0.4446838054869815
 20
0.5884394642930602
 30
0.0
 40
0.1405
  0
CIRCLE
  5
11BD6
330
11BC4
100
AcDbEntity
  8
5
 62
     7
100
AcDbCircle
 10
1.194628422873272
 20
0.5793251429579414
 30
0.0
 40
0.1405
  0
LINE
  5
11BD7
330
11BC4
100
AcDbEntity
  8
5
 62
     7
100
AcDbLine
 10
1.562518546544282
 20
30.85829028886258
 30
0.0
 11
0.6875831595936859
 21
30.86892366375366
 31
0.0
  0
ARC
  5
11BD8
330
11BC4
100
AcDbEntity
  8
5
 62
     7
100
AcDbCircle
 10
1.563278073322265
 20
30.92078567364479
 30
0.0
 40
0.0625
100
AcDbArc
 50
269.3037000000001
 51
359.3036999999985
  0
CIRCLE
  5
11BD9
330
11BC4
100
AcDbEntity
  8
5
 62
     7
100
AcDbCircle
 10
1.121633590189702
 20
30.58242774109613
 30
0.0
 40
0.1325
  0
ARC
  5
11BDA
330
11BC4
100
AcDbEntity
  8
5
 62
     7
100
AcDbCircle
 10
0.6883426863716125
 20
30.93141904853587
 30
0.0
 40
0.0625
100
AcDbArc
 50
179.3036999999984
 51
269.3037000000001
  0
CIRCLE
  5
11BDB
330
11BC4
100
AcDbEntity
  8
5
 62
     7
100
AcDbCircle
 10
1.107201366166208
 20
29.39491543761892
 30
0.0
 40
0.1325
  0
LINE
  5
11BDC
330
11BC4
100
AcDbEntity
  8
5
 62
     7
100
AcDbLine
 10
1.623280688778862
 20
35.85792107143755
 30
0.0
 11
0.7483453018282092
 21
35.86855444632863
 31
0.0
  0
LINE
  5
11BDD
330
11BC4
100
AcDbEntity
  8
5
 62
     7
100
AcDbLine
 10
1.638471224337507
 20
37.10782876708129
 30
0.0
 11
0.763535837386911
 21
37.11846214197226
 31
0.0
  0
ARC
  5
11BDE
330
11BC4
100
AcDbEntity
  8
5
 62
     7
100
AcDbCircle
 10
1.624040215556789
 20
35.92041645621975
 30
0.0
 40
0.0625
100
AcDbArc
 50
269.3037000000001
 51
359.3036999999985
  0
ARC
  5
11BDF
330
11BC4
100
AcDbEntity
  8
5
 62
     7
100
AcDbCircle
 10
1.637711697559581
 20
37.04533338229908
 30
0.0
 40
0.0625
100
AcDbArc
 50
359.3036999999985
 51
89.30370000000008
  0
LINE
  5
11BE0
330
11BC4
100
AcDbEntity
  8
5
 62
     7
100
AcDbLine
 10
1.686535600338999
 20
35.91965692944177
 30
0.0
 11
1.70020708234179
 21
37.04457385552121
 31
0.0
  0
CIRCLE
  5
11BE1
330
11BC4
100
AcDbEntity
  8
5
 62
     7
100
AcDbCircle
 10
1.182395732424282
 20
35.58205852367109
 30
0.0
 40
0.1325
  0
ARC
  5
11BE2
330
11BC4
100
AcDbEntity
  8
5
 62
     7
100
AcDbCircle
 10
1.197615150666507
 20
34.25872585128355
 30
0.0
 40
0.1355
100
AcDbArc
 50
359.3036999999985
 51
179.3036999999984
  0
CIRCLE
  5
11BE3
330
11BC4
100
AcDbEntity
  8
5
 62
     7
100
AcDbCircle
 10
1.203439201999657
 20
34.7379404617933
 30
0.0
 40
0.1405
  0
CIRCLE
  5
11BE4
330
11BC4
100
AcDbEntity
  8
5
 62
     7
100
AcDbCircle
 10
1.218853017765042
 20
38.58183699321603
 30
0.0
 40
0.1325
  0
CIRCLE
  5
11BE5
330
11BC4
100
AcDbEntity
  8
5
 62
     7
100
AcDbCircle
 10
1.204420793741434
 20
37.39432468973883
 30
0.0
 40
0.1325
  0
ARC
  5
11BE6
330
11BC4
100
AcDbEntity
  8
5
 62
     7
100
AcDbCircle
 10
0.7491048286061926
 20
35.93104983111084
 30
0.0
 40
0.0625
100
AcDbArc
 50
179.3036999999984
 51
269.3037000000001
  0
ARC
  5
11BE7
330
11BC4
100
AcDbEntity
  8
5
 62
     7
100
AcDbCircle
 10
0.7627763106089276
 20
37.05596675719017
 30
0.0
 40
0.0625
100
AcDbArc
 50
89.30370000000008
 51
179.3036999999984
  0
LINE
  5
11BE8
330
11BC4
100
AcDbEntity
  8
5
 62
     7
100
AcDbLine
 10
0.6866094438240396
 20
35.93180935788871
 30
0.0
 11
0.7002809258268315
 21
37.05672628396803
 31
0.0
  0
LINE
  5
11BE9
330
11BC4
100
AcDbEntity
  8
5
 62
     7
100
AcDbLine
 10
1.577709082102984
 20
32.10819798450632
 30
0.0
 11
0.7027736951522741
 21
32.11883135939741
 31
0.0
  0
CIRCLE
  5
11BEA
330
11BC4
100
AcDbEntity
  8
5
 62
     7
100
AcDbCircle
 10
1.185210559329306
 20
33.23805122702083
 30
0.0
 40
0.1405
  0
ARC
  5
11BEB
330
11BC4
100
AcDbEntity
  8
5
 62
     7
100
AcDbCircle
 10
1.576949555325057
 20
32.04570259972411
 30
0.0
 40
0.0625
100
AcDbArc
 50
359.3036999999985
 51
89.30370000000008
  0
CIRCLE
  5
11BEC
330
11BC4
100
AcDbEntity
  8
5
 62
     7
100
AcDbCircle
 10
1.14365865150691
 20
32.39469390716386
 30
0.0
 40
0.1325
  0
ARC
  5
11BED
330
11BC4
100
AcDbEntity
  8
5
 62
     7
100
AcDbCircle
 10
1.191034610662512
 20
33.71726583753059
 30
0.0
 40
0.1355
100
AcDbArc
 50
179.3036999999984
 51
359.3036999999985
  0
ARC
  5
11BEE
330
11BC4
100
AcDbEntity
  8
5
 62
     7
100
AcDbCircle
 10
0.7020141683744044
 20
32.05633597461519
 30
0.0
 40
0.0625
100
AcDbArc
 50
89.30370000000008
 51
179.3036999999984
  0
LINE
  5
11BEF
330
11BC4
100
AcDbEntity
  8
5
 62
     7
100
AcDbLine
 10
1.06212515645879
 20
34.26037250533807
 30
0.0
 11
1.055544616454795
 21
33.71891249158523
 31
0.0
  0
LINE
  5
11BF0
330
11BC4
100
AcDbEntity
  8
5
 62
     7
100
AcDbLine
 10
1.326524604870343
 20
33.71561918347607
 30
0.0
 11
1.333105144874338
 21
34.25707919722891
 31
0.0
  0
ARC
  5
11BF1
330
11BC4
100
AcDbEntity
  8
5
 62
     7
100
AcDbCircle
 10
1.476493351217975
 20
57.71556893894672
 30
0.0
 40
0.1355
100
AcDbArc
 50
179.3036999999984
 51
359.3036999999985
  0
CIRCLE
  5
11BF2
330
11BC4
100
AcDbEntity
  8
5
 62
     7
100
AcDbCircle
 10
1.470669299884768
 20
57.23635432843685
 30
0.0
 40
0.1405
  0
LINE
  5
11BF3
330
11BC4
100
AcDbEntity
  8
5
 62
     7
100
AcDbLine
 10
1.347583897014196
 20
58.25867560675419
 30
0.0
 11
1.341003357010201
 21
57.71721559300124
 31
0.0
  0
LINE
  5
11BF4
330
11BC4
100
AcDbEntity
  8
5
 62
     7
100
AcDbLine
 10
1.611983345425748
 20
57.71392228489219
 30
0.0
 11
1.6185638854298
 21
58.25538229864503
 31
0.0
  0
CIRCLE
  5
11BF5
330
11BC4
100
AcDbEntity
  8
5
 62
     7
100
AcDbCircle
 10
1.488897942555063
 20
58.73624356320942
 30
0.0
 40
0.1405
  0
ARC
  5
11BF6
330
11BC4
100
AcDbEntity
  8
5
 62
     7
100
AcDbCircle
 10
1.48307389122197
 20
58.25702895269955
 30
0.0
 40
0.1355
100
AcDbArc
 50
359.3036999999985
 51
179.3036999999984
  0
INSERT
  5
11BF7
330
11BC4
100
AcDbEntity
  8
5
100
AcDbBlockReference
  2
J-5
 10
-0.978355026470524
 20
82.01794588041195
 30
0.0
 50
359.3036999999985
  0
ARC
  5
11BF8
330
11BC4
100
AcDbEntity
  8
5
 62
     7
100
AcDbCircle
 10
1.774732173947768
 20
82.25525670905938
 30
0.0
 40
0.1355
100
AcDbArc
 50
359.3036999999985
 51
179.3036999999984
  0
LINE
  5
11BF9
330
11BC4
100
AcDbEntity
  8
5
 62
     7
100
AcDbLine
 10
1.639242179740051
 20
82.25690336311391
 30
0.0
 11
1.632661639736056
 21
81.71544334936106
 31
0.0
  0
LINE
  5
11BFA
330
11BC4
100
AcDbEntity
  8
5
 62
     7
100
AcDbLine
 10
1.903641628151547
 20
81.7121500412519
 30
0.0
 11
1.910222168155598
 21
82.25361005500486
 31
0.0
  0
CIRCLE
  5
11BFB
330
11BC4
100
AcDbEntity
  8
5
 62
     7
100
AcDbCircle
 10
1.762327582610566
 20
81.23458208479666
 30
0.0
 40
0.1405
  0
ARC
  5
11BFC
330
11BC4
100
AcDbEntity
  8
5
 62
     7
100
AcDbCircle
 10
1.768151633943716
 20
81.71379669530642
 30
0.0
 40
0.1355
100
AcDbArc
 50
179.3036999999984
 51
359.3036999999985
  0
CIRCLE
  5
11BFD
330
11BC4
100
AcDbEntity
  8
5
 62
     7
100
AcDbCircle
 10
1.780556225280975
 20
82.73447131956913
 30
0.0
 40
0.1405
  0
LINE
  5
11BFE
330
11BC4
100
AcDbEntity
  8
0
100
AcDbLine
 10
3.485915068648409
 20
111.9659056192296
 30
0.0
 11
1.361071986054007
 21
111.9917295296791
 31
0.0
  0
CIRCLE
  5
11BFF
330
11BC4
100
AcDbEntity
  8
5
 62
     7
100
AcDbCircle
 10
2.541268184903792
 20
111.3835423691597
 30
0.0
 40
0.1405
  0
CIRCLE
  5
11C00
330
11BC4
100
AcDbEntity
  8
5
 62
     7
100
AcDbCircle
 10
2.158321452663805
 20
110.7319479859221
 30
0.0
 40
0.203
  0
CIRCLE
  5
11C01
330
11BC4
100
AcDbEntity
  8
5
 62
     7
100
AcDbCircle
 10
1.791323567517558
 20
111.3926566904948
 30
0.0
 40
0.1405
  0
ENDBLK
  5
11C03
330
11BC4
100
AcDbEntity
  8
0
100
AcDbBlockEnd
  0
BLOCK
  5
11C06
330
11C04
100
AcDbEntity
  8
0
100
AcDbBlockBegin
  2
A$C6F454818
 70
     0
 10
0.0
 20
0.0
 30
0.0
  3
A$C6F454818
  1

  0
INSERT
  5
11C05
330
11C04
100
AcDbEntity
  8
0
100
AcDbBlockReference
  2
112VPT
 10
1.075381380723946
 20
0.0258243022473153
 30
0.0
  0
ENDBLK
  5
11C07
330
11C04
100
AcDbEntity
  8
0
100
AcDbBlockEnd
  0
BLOCK
  5
11C1A
330
11C08
100
AcDbEntity
  8
0
100
AcDbBlockBegin
  2
SP-8-34
 70
     0
 10
0.0
 20
0.0
 30
0.0
  3
SP-8-34
  1

  0
CIRCLE
  5
11C09
330
11C08
100
AcDbEntity
  8
0
100
AcDbCircle
 10
0.0
 20
0.0
 30
0.0
 40
0.135
  0
CIRCLE
  5
11C0A
330
11C08
100
AcDbEntity
  8
0
100
AcDbCircle
 10
0.0
 20
-1.75
 30
0.0
 40
0.135
  0
LINE
  5
11C0B
330
11C08
100
AcDbEntity
  8
0
100
AcDbLine
 10
2.949000000000012
 20
0.3129999999999882
 30
0.0
 11
-0.681999999999988
 21
0.3129999999999882
 31
0.0
  0
LINE
  5
11C0C
330
11C08
100
AcDbEntity
  8
0
100
AcDbLine
 10
-0.681999999999988
 20
-2.062000000000011
 30
0.0
 11
2.949000000000012
 21
-2.062000000000011
 31
0.0
  0
LINE
  5
11C0D
330
11C08
100
AcDbEntity
  8
0
100
AcDbLine
 10
-0.681999999999988
 20
0.3129999999999882
 30
0.0
 11
-0.681999999999988
 21
-2.062000000000011
 31
0.0
  0
LINE
  5
11C0E
330
11C08
100
AcDbEntity
  8
0
100
AcDbLine
 10
2.949000000000012
 20
-2.062000000000011
 30
0.0
 11
2.949000000000012
 21
0.3129999999999882
 31
0.0
  0
TEXT
  5
11C0F
330
11C08
100
AcDbEntity
  8
0
100
AcDbText
 10
0.2357683309594734
 20
-1.103721344312361
 30
0.0
 40
0.25
  1
8-3/4
100
AcDbText
  0
ARC
  5
11C10
330
11C08
100
AcDbEntity
  8
0
100
AcDbCircle
 10
1.734000000000008
 20
-0.1820000000000164
 30
0.0
 40
0.135
100
AcDbArc
 50
0.0
 51
180.0
  0
LINE
  5
11C11
330
11C08
100
AcDbEntity
  8
0
100
AcDbLine
 10
1.869000000000013
 20
-0.1820000000000164
 30
0.0
 11
1.869000000000013
 21
-0.4320000000000164
 31
0.0
  0
LINE
  5
11C12
330
11C08
100
AcDbEntity
  8
0
100
AcDbLine
 10
1.599000000000003
 20
-0.4320000000000164
 30
0.0
 11
1.599000000000003
 21
-0.1820000000000448
 31
0.0
  0
ARC
  5
11C13
330
11C08
100
AcDbEntity
  8
0
100
AcDbCircle
 10
1.734000000000008
 20
-0.4320000000000164
 30
0.0
 40
0.135
100
AcDbArc
 50
180.0
 51
0.0
  0
CIRCLE
  5
11C14
330
11C08
100
AcDbEntity
  8
0
100
AcDbCircle
 10
1.734000000000008
 20
-1.494000000000028
 30
0.0
 40
0.135
  0
ARC
  5
11C15
330
11C08
100
AcDbEntity
  8
0
100
AcDbCircle
 10
2.484000000000008
 20
-0.1820000000000164
 30
0.0
 40
0.135
100
AcDbArc
 50
0.0
 51
180.0
  0
LINE
  5
11C16
330
11C08
100
AcDbEntity
  8
0
100
AcDbLine
 10
2.349000000000003
 20
-0.4320000000000164
 30
0.0
 11
2.349000000000003
 21
-0.1820000000000448
 31
0.0
  0
LINE
  5
11C17
330
11C08
100
AcDbEntity
  8
0
100
AcDbLine
 10
2.619000000000013
 20
-0.1820000000000164
 30
0.0
 11
2.619000000000013
 21
-0.4320000000000164
 31
0.0
  0
ARC
  5
11C18
330
11C08
100
AcDbEntity
  8
0
100
AcDbCircle
 10
2.484000000000008
 20
-0.4320000000000164
 30
0.0
 40
0.135
100
AcDbArc
 50
180.0
 51
0.0
  0
CIRCLE
  5
11C19
330
11C08
100
AcDbEntity
  8
0
100
AcDbCircle
 10
2.484000000000008
 20
-1.494000000000028
 30
0.0
 40
0.135
  0
ENDBLK
  5
11C1B
330
11C08
100
AcDbEntity
  8
0
100
AcDbBlockEnd
  0
BLOCK
  5
11D35
330
11D2A
100
AcDbEntity
  8
0
100
AcDbBlockBegin
  2
*D12
 70
     1
 10
0.0
 20
0.0
 30
0.0
  3
*D12
  1

  0
LINE
  5
12D0E
330
11D2A
100
AcDbEntity
  8
TEXT
 62
     0
370
    -2
100
AcDbLine
 10
132.2169295018095
 20
123.0362941793405
 30
0.0
 11
103.5536163138139
 21
123.0362941793405
 31
0.0
  0
LINE
  5
12D0F
330
11D2A
100
AcDbEntity
  8
TEXT
 62
     0
370
    -2
100
AcDbLine
 10
139.5919295018095
 20
255.753848011267
 30
0.0
 11
103.553616313814
 21
255.753848011267
 31
0.0
  0
LINE
  5
12D10
330
11D2A
100
AcDbEntity
  8
TEXT
 62
     0
370
    -2
100
AcDbLine
 10
104.5536163138139
 20
126.0362941793405
 30
0.0
 11
104.553616313814
 21
199.4565655181477
 31
0.0
  0
LINE
  5
12D11
330
11D2A
100
AcDbEntity
  8
TEXT
 62
     0
370
    -2
100
AcDbLine
 10
104.553616313814
 20
252.753848011267
 30
0.0
 11
104.553616313814
 21
206.1232321848144
 31
0.0
  0
SOLID
  5
12D12
330
11D2A
100
AcDbEntity
  8
TEXT
 62
     0
100
AcDbTrace
 10
104.053616313814
 20
126.0362941793405
 30
0.0
 11
105.053616313814
 21
126.0362941793405
 31
0.0
 12
104.5536163138139
 22
123.0362941793405
 32
0.0
 13
104.5536163138139
 23
123.0362941793405
 33
0.0
  0
SOLID
  5
12D13
330
11D2A
100
AcDbEntity
  8
TEXT
 62
     0
100
AcDbTrace
 10
104.053616313814
 20
252.753848011267
 30
0.0
 11
105.053616313814
 21
252.753848011267
 31
0.0
 12
104.553616313814
 22
255.753848011267
 32
0.0
 13
104.553616313814
 23
255.753848011267
 33
0.0
  0
MTEXT
  5
12D14
330
11D2A
100
AcDbEntity
  8
TEXT
 62
     0
100
AcDbMText
 10
104.5536163138139
 20
202.7898988514811
 30
0.0
 40
1.75
 41
0.0
 46
0.0
 71
     5
 72
     1
  1
\A1;FLOOR TO\PSHAFT CENTER
  7
WEB PAGE
 73
     1
 44
1.0
  0
POINT
  5
12D15
330
11D2A
100
AcDbEntity
  8
Defpoints
 62
     0
100
AcDbPoint
 10
134.2169295018095
 20
123.0362941793405
 30
0.0
  0
POINT
  5
12D16
330
11D2A
100
AcDbEntity
  8
Defpoints
 62
     0
100
AcDbPoint
 10
141.5919295018095
 20
255.753848011267
 30
0.0
  0
POINT
  5
12D17
330
11D2A
100
AcDbEntity
  8
Defpoints
 62
     0
100
AcDbPoint
 10
104.553616313814
 20
255.753848011267
 30
0.0
  0
ENDBLK
  5
11D36
330
11D2A
100
AcDbEntity
  8
0
100
AcDbBlockEnd
  0
BLOCK
  5
11D42
330
11D37
100
AcDbEntity
  8
0
100
AcDbBlockBegin
  2
*D13
 70
     1
 10
0.0
 20
0.0
 30
0.0
  3
*D13
  1

  0
LINE
  5
12D18
330
11D37
100
AcDbEntity
  8
TEXT
 62
     0
370
    -2
100
AcDbLine
 10
132.2169295018095
 20
123.0362941793405
 30
0.0
 11
87.14078054731755
 21
123.0362941793405
 31
0.0
  0
LINE
  5
12D19
330
11D37
100
AcDbEntity
  8
TEXT
 62
     0
370
    -2
100
AcDbLine
 10
136.2169295018095
 20
258.628848011267
 30
0.0
 11
87.14078054731759
 21
258.6288480112671
 31
0.0
  0
LINE
  5
12D1A
330
11D37
100
AcDbEntity
  8
TEXT
 62
     0
370
    -2
100
AcDbLine
 10
88.14078054731757
 20
126.0362941793405
 30
0.0
 11
88.14078054731757
 21
178.0912897901556
 31
0.0
  0
LINE
  5
12D1B
330
11D37
100
AcDbEntity
  8
TEXT
 62
     0
370
    -2
100
AcDbLine
 10
88.14078054731758
 20
255.628848011267
 30
0.0
 11
88.14078054731757
 21
184.7579564568223
 31
0.0
  0
SOLID
  5
12D1C
330
11D37
100
AcDbEntity
  8
TEXT
 62
     0
100
AcDbTrace
 10
87.64078054731756
 20
126.0362941793405
 30
0.0
 11
88.64078054731756
 21
126.0362941793405
 31
0.0
 12
88.14078054731757
 22
123.0362941793405
 32
0.0
 13
88.14078054731757
 23
123.0362941793405
 33
0.0
  0
SOLID
  5
12D1D
330
11D37
100
AcDbEntity
  8
TEXT
 62
     0
100
AcDbTrace
 10
87.6407805473176
 20
255.628848011267
 30
0.0
 11
88.64078054731759
 21
255.628848011267
 31
0.0
 12
88.14078054731758
 22
258.6288480112671
 32
0.0
 13
88.14078054731758
 23
258.6288480112671
 33
0.0
  0
MTEXT
  5
12D1E
330
11D37
100
AcDbEntity
  8
TEXT
 62
     0
100
AcDbMText
 10
88.14078054731755
 20
181.424623123489
 30
0.0
 40
1.75
 41
0.0
 46
0.0
 71
     5
 72
     1
  1
\A1;MINIMUM\PCEILING HEIGHT
  7
WEB PAGE
 73
     1
 44
1.0
  0
POINT
  5
12D1F
330
11D37
100
AcDbEntity
  8
Defpoints
 62
     0
100
AcDbPoint
 10
134.2169295018095
 20
123.0362941793405
 30
0.0
  0
POINT
  5
12D20
330
11D37
100
AcDbEntity
  8
Defpoints
 62
     0
100
AcDbPoint
 10
138.2169295018095
 20
258.628848011267
 30
0.0
  0
POINT
  5
12D21
330
11D37
100
AcDbEntity
  8
Defpoints
 62
     0
100
AcDbPoint
 10
88.14078054731758
 20
258.6288480112671
 30
0.0
  0
ENDBLK
  5
11D43
330
11D37
100
AcDbEntity
  8
0
100
AcDbBlockEnd
  0
BLOCK
  5
11D4F
330
11D44
100
AcDbEntity
  8
0
100
AcDbBlockBegin
  2
*D14
 70
     1
 10
0.0
 20
0.0
 30
0.0
  3
*D14
  1

  0
LINE
  5
1245E
330
11D44
100
AcDbEntity
  8
TEXT
 62
     0
370
    -2
100
AcDbLine
 10
207.4861505668555
 20
123.0362941793405
 30
0.0
 11
181.107303139585
 21
123.0362941793405
 31
0.0
  0
LINE
  5
1245F
330
11D44
100
AcDbEntity
  8
TEXT
 62
     0
370
    -2
100
AcDbLine
 10
144.7782259511818
 20
235.0280241008174
 30
0.0
 11
183.1073031395851
 21
235.0280241008174
 31
0.0
  0
LINE
  5
12460
330
11D44
100
AcDbEntity
  8
TEXT
 62
     0
370
    -2
100
AcDbLine
 10
182.1073031395851
 20
126.0362941793405
 30
0.0
 11
182.1073031395851
 21
172.9869612538166
 31
0.0
  0
LINE
  5
12461
330
11D44
100
AcDbEntity
  8
TEXT
 62
     0
370
    -2
100
AcDbLine
 10
182.1073031395851
 20
232.0280241008175
 30
0.0
 11
182.1073031395851
 21
179.9869612538166
 31
0.0
  0
SOLID
  5
12462
330
11D44
100
AcDbEntity
  8
TEXT
 62
     0
100
AcDbTrace
 10
181.607303139585
 20
126.0362941793405
 30
0.0
 11
182.607303139585
 21
126.0362941793405
 31
0.0
 12
182.1073031395851
 22
123.0362941793405
 32
0.0
 13
182.1073031395851
 23
123.0362941793405
 33
0.0
  0
SOLID
  5
12463
330
11D44
100
AcDbEntity
  8
TEXT
 62
     0
100
AcDbTrace
 10
181.6073031395851
 20
232.0280241008175
 30
0.0
 11
182.6073031395851
 21
232.0280241008175
 31
0.0
 12
182.1073031395851
 22
235.0280241008174
 32
0.0
 13
182.1073031395851
 23
235.0280241008174
 33
0.0
  0
MTEXT
  5
12464
330
11D44
100
AcDbEntity
  8
TEXT
 62
     0
100
AcDbMText
 10
182.107303139585
 20
176.4869612538166
 30
0.0
 40
1.75
 41
0.0
 46
0.0
 71
     5
 72
     1
  1
\A1;VERTICAL TRACK\PDOOR HEIGHT-8"
  7
WEB PAGE
 73
     1
 44
1.0
  0
POINT
  5
12465
330
11D44
100
AcDbEntity
  8
Defpoints
 62
     0
100
AcDbPoint
 10
209.4861505668555
 20
123.0362941793405
 30
0.0
  0
POINT
  5
12466
330
11D44
100
AcDbEntity
  8
Defpoints
 62
     0
100
AcDbPoint
 10
142.7782259511818
 20
235.0280241008174
 30
0.0
  0
POINT
  5
12467
330
11D44
100
AcDbEntity
  8
Defpoints
 62
     0
100
AcDbPoint
 10
182.1073031395851
 20
235.0280241008174
 30
0.0
  0
ENDBLK
  5
11D50
330
11D44
100
AcDbEntity
  8
0
100
AcDbBlockEnd
  0
BLOCK
  5
11D5C
330
11D51
100
AcDbEntity
  8
0
100
AcDbBlockBegin
  2
*D15
 70
     1
 10
0.0
 20
0.0
 30
0.0
  3
*D15
  1

  0
LINE
  5
12445
330
11D51
100
AcDbEntity
  8
TEXT
 62
     0
370
    -2
100
AcDbLine
 10
132.2169295018095
 20
243.0362941793405
 30
0.0
 11
117.0575413775432
 21
243.0362941793405
 31
0.0
  0
LINE
  5
12446
330
11D51
100
AcDbEntity
  8
TEXT
 62
     0
370
    -2
100
AcDbLine
 10
132.2169295018095
 20
123.0362941793405
 30
0.0
 11
117.0575413775432
 21
123.0362941793405
 31
0.0
  0
LINE
  5
12447
330
11D51
100
AcDbEntity
  8
TEXT
 62
     0
370
    -2
100
AcDbLine
 10
118.0575413775432
 20
240.0362941793405
 30
0.0
 11
118.0575413775432
 21
186.3696275126739
 31
0.0
  0
LINE
  5
12448
330
11D51
100
AcDbEntity
  8
TEXT
 62
     0
370
    -2
100
AcDbLine
 10
118.0575413775432
 20
126.0362941793405
 30
0.0
 11
118.0575413775432
 21
179.7029608460072
 31
0.0
  0
SOLID
  5
12449
330
11D51
100
AcDbEntity
  8
TEXT
 62
     0
100
AcDbTrace
 10
117.5575413775432
 20
240.0362941793405
 30
0.0
 11
118.5575413775432
 21
240.0362941793405
 31
0.0
 12
118.0575413775432
 22
243.0362941793405
 32
0.0
 13
118.0575413775432
 23
243.0362941793405
 33
0.0
  0
SOLID
  5
1244A
330
11D51
100
AcDbEntity
  8
TEXT
 62
     0
100
AcDbTrace
 10
117.5575413775432
 20
126.0362941793405
 30
0.0
 11
118.5575413775432
 21
126.0362941793405
 31
0.0
 12
118.0575413775432
 22
123.0362941793405
 32
0.0
 13
118.0575413775432
 23
123.0362941793405
 33
0.0
  0
MTEXT
  5
1244B
330
11D51
100
AcDbEntity
  8
TEXT
 62
     0
100
AcDbMText
 10
118.0575413775432
 20
183.0362941793405
 30
0.0
 40
1.75
 41
0.0
 46
0.0
 71
     5
 72
     1
  1
\A1;OPENING\PHEIGHT
  7
WEB PAGE
 73
     1
 44
1.0
  0
POINT
  5
1244C
330
11D51
100
AcDbEntity
  8
Defpoints
 62
     0
100
AcDbPoint
 10
134.2169295018095
 20
243.0362941793405
 30
0.0
  0
POINT
  5
1244D
330
11D51
100
AcDbEntity
  8
Defpoints
 62
     0
100
AcDbPoint
 10
134.2169295018095
 20
123.0362941793405
 30
0.0
  0
POINT
  5
1244E
330
11D51
100
AcDbEntity
  8
Defpoints
 62
     0
100
AcDbPoint
 10
118.0575413775432
 20
123.0362941793405
 30
0.0
  0
ENDBLK
  5
11D5D
330
11D51
100
AcDbEntity
  8
0
100
AcDbBlockEnd
  0
BLOCK
  5
11D6A
330
11D5E
100
AcDbEntity
  8
0
100
AcDbBlockBegin
  2
*D16
 70
     1
 10
0.0
 20
0.0
 30
0.0
  3
*D16
  1

  0
LINE
  5
1244F
330
11D5E
100
AcDbEntity
  8
TEXT
 62
     0
370
    -2
100
AcDbLine
 10
132.2169295018095
 20
243.0362941793405
 30
0.0
 11
117.0575413775432
 21
243.0362941793405
 31
0.0
  0
LINE
  5
12450
330
11D5E
100
AcDbEntity
  8
TEXT
 62
     0
370
    -2
100
AcDbLine
 10
136.2169295018095
 20
258.628848011267
 30
0.0
 11
117.0575413775432
 21
258.6288480112671
 31
0.0
  0
LINE
  5
12451
330
11D5E
100
AcDbEntity
  8
TEXT
 62
     0
370
    -2
100
AcDbLine
 10
118.0575413775432
 20
246.0362941793405
 30
0.0
 11
118.0575413775432
 21
255.628848011267
 31
0.0
  0
LINE
  5
12452
330
11D5E
100
AcDbEntity
  8
TEXT
 62
     0
370
    -2
100
AcDbLine
 10
118.0575413775432
 20
258.6288480112671
 30
0.0
 11
118.0575413775432
 21
272.3008621425022
 31
0.0
  0
LINE
  5
12453
330
11D5E
100
AcDbEntity
  8
TEXT
 62
     0
370
    -2
100
AcDbLine
 10
118.0575413775432
 20
272.3008621425022
 30
0.0
 11
121.0575413775432
 21
272.3008621425022
 31
0.0
  0
SOLID
  5
12454
330
11D5E
100
AcDbEntity
  8
TEXT
 62
     0
100
AcDbTrace
 10
117.5575413775432
 20
246.0362941793405
 30
0.0
 11
118.5575413775432
 21
246.0362941793405
 31
0.0
 12
118.0575413775432
 22
243.0362941793405
 32
0.0
 13
118.0575413775432
 23
243.0362941793405
 33
0.0
  0
SOLID
  5
12455
330
11D5E
100
AcDbEntity
  8
TEXT
 62
     0
100
AcDbTrace
 10
117.5575413775432
 20
255.628848011267
 30
0.0
 11
118.5575413775432
 21
255.628848011267
 31
0.0
 12
118.0575413775432
 22
258.6288480112671
 32
0.0
 13
118.0575413775432
 23
258.6288480112671
 33
0.0
  0
MTEXT
  5
12456
330
11D5E
100
AcDbEntity
  8
TEXT
 62
     0
100
AcDbMText
 10
128.9325413775432
 20
272.3008621425022
 30
0.0
 40
1.75
 41
0.0
 46
0.0
 71
     5
 72
     1
  1
\A1;MINIMUM\PHEADROOM
  7
WEB PAGE
 73
     1
 44
1.0
  0
POINT
  5
12457
330
11D5E
100
AcDbEntity
  8
Defpoints
 62
     0
100
AcDbPoint
 10
134.2169295018095
 20
243.0362941793405
 30
0.0
  0
POINT
  5
12458
330
11D5E
100
AcDbEntity
  8
Defpoints
 62
     0
100
AcDbPoint
 10
138.2169295018095
 20
258.628848011267
 30
0.0
  0
POINT
  5
12459
330
11D5E
100
AcDbEntity
  8
Defpoints
 62
     0
100
AcDbPoint
 10
118.0575413775432
 20
258.6288480112671
 30
0.0
  0
ENDBLK
  5
11D6B
330
11D5E
100
AcDbEntity
  8
0
100
AcDbBlockEnd
  0
BLOCK
  5
11E46
330
11E29
100
AcDbEntity
  8
0
100
AcDbBlockBegin
  2
15R-138TRK
 70
     0
 10
0.0
 20
0.0
 30
0.0
  3
15R-138TRK
  1

  0
LINE
  5
11E2A
330
11E29
100
AcDbEntity
  8
0
  6
HIDDEN
100
AcDbLine
 10
114.1051810554323
 20
7.450154694662671
 30
0.0
 11
-6.3373817739552
 21
7.450154694662671
 31
0.0
  0
LINE
  5
11E2B
330
11E29
100
AcDbEntity
  8
0
100
AcDbLine
 10
114.1051810554324
 20
6.850154694662649
 30
0.0
 11
-6.3373817739552
 21
6.850154694662649
 31
0.0
  0
LINE
  5
11E2C
330
11E29
100
AcDbEntity
  8
0
100
AcDbLine
 10
114.1051810554324
 20
8.950154694662671
 30
0.0
 11
-6.3373817739552
 21
8.950154694662671
 31
0.0
  0
ARC
  5
11E2D
330
11E29
100
AcDbEntity
  8
0
  6
HIDDEN
100
AcDbCircle
 10
-6.3373817739552
 20
-8.609845305337387
 30
0.0
 40
16.06
100
AcDbArc
 50
90.0
 51
179.0210950958157
  0
ARC
  5
11E2E
330
11E29
100
AcDbEntity
  8
0
100
AcDbCircle
 10
-6.3373817739552
 20
-8.609845305337387
 30
0.0
 40
15.46
100
AcDbArc
 50
90.0
 51
178.8881104285096
  0
ARC
  5
11E2F
330
11E29
100
AcDbEntity
  8
0
100
AcDbCircle
 10
-6.3373817739552
 20
-8.609845305337387
 30
0.0
 40
17.56
100
AcDbArc
 50
90.0
 51
179.0210950958157
  0
CIRCLE
  5
11E30
330
11E29
100
AcDbEntity
  8
0
100
AcDbCircle
 10
-22.70481894456754
 20
-7.709845305337353
 30
0.0
 40
0.136
  0
CIRCLE
  5
11E31
330
11E29
100
AcDbEntity
  8
0
100
AcDbCircle
 10
-23.45481894456753
 20
-7.709845305337353
 30
0.0
 40
0.136
  0
LINE
  5
11E32
330
11E29
100
AcDbEntity
  8
0
100
AcDbLine
 10
-21.79447076250665
 20
-8.309845305337319
 30
0.0
 11
-23.89481894456759
 21
-8.309845305337319
 31
0.0
  0
CIRCLE
  5
11E33
330
11E29
100
AcDbEntity
  8
0
100
AcDbCircle
 10
-8.991068944567587
 20
8.140154694662612
 30
0.0
 40
0.25
  0
CIRCLE
  5
11E34
330
11E29
100
AcDbEntity
  8
0
100
AcDbCircle
 10
-10.05106894456759
 20
8.140154694662612
 30
0.0
 40
0.136
  0
CIRCLE
  5
11E35
330
11E29
100
AcDbEntity
  8
0
100
AcDbCircle
 10
-5.051068944567589
 20
8.140154694662612
 30
0.0
 40
0.136
  0
CIRCLE
  5
11E36
330
11E29
100
AcDbEntity
  8
0
100
AcDbCircle
 10
13.94893105543241
 20
8.140154694662612
 30
0.0
 40
0.136
  0
CIRCLE
  5
11E37
330
11E29
100
AcDbEntity
  8
0
100
AcDbCircle
 10
13.94893105543241
 20
8.140154694662612
 30
0.0
 40
0.136
  0
CIRCLE
  5
11E38
330
11E29
100
AcDbEntity
  8
0
100
AcDbCircle
 10
37.94893105543241
 20
8.140154694662612
 30
0.0
 40
0.136
  0
CIRCLE
  5
11E39
330
11E29
100
AcDbEntity
  8
0
100
AcDbCircle
 10
37.94893105543241
 20
8.140154694662612
 30
0.0
 40
0.136
  0
CIRCLE
  5
11E3A
330
11E29
100
AcDbEntity
  8
0
100
AcDbCircle
 10
61.94893105543241
 20
8.140154694662612
 30
0.0
 40
0.136
  0
CIRCLE
  5
11E3B
330
11E29
100
AcDbEntity
  8
0
100
AcDbCircle
 10
61.94893105543241
 20
8.140154694662612
 30
0.0
 40
0.136
  0
CIRCLE
  5
11E3C
330
11E29
100
AcDbEntity
  8
0
100
AcDbCircle
 10
78.44893105543241
 20
8.140154694662612
 30
0.0
 40
0.136
  0
CIRCLE
  5
11E3D
330
11E29
100
AcDbEntity
  8
0
100
AcDbCircle
 10
78.44893105543241
 20
8.140154694662612
 30
0.0
 40
0.136
  0
CIRCLE
  5
11E3E
330
11E29
100
AcDbEntity
  8
0
100
AcDbCircle
 10
85.9489310554324
 20
8.140154694662612
 30
0.0
 40
0.136
  0
CIRCLE
  5
11E3F
330
11E29
100
AcDbEntity
  8
0
100
AcDbCircle
 10
85.9489310554324
 20
8.140154694662612
 30
0.0
 40
0.136
  0
CIRCLE
  5
11E40
330
11E29
100
AcDbEntity
  8
0
100
AcDbCircle
 10
112.8551810554324
 20
8.140154694662726
 30
0.0
 40
0.2075
  0
CIRCLE
  5
11E41
330
11E29
100
AcDbEntity
  8
0
100
AcDbCircle
 10
110.1989310554325
 20
8.140154694662612
 30
0.0
 40
0.136
  0
CIRCLE
  5
11E42
330
11E29
100
AcDbEntity
  8
0
100
AcDbCircle
 10
110.1989310554325
 20
8.140154694662612
 30
0.0
 40
0.136
  0
LINE
  5
11E43
330
11E29
100
AcDbEntity
  8
0
100
AcDbLine
 10
114.1051810554324
 20
6.850154694662649
 30
0.0
 11
114.1051810554324
 21
8.950154694662671
 31
0.0
  0
CIRCLE
  5
11E44
330
11E29
100
AcDbEntity
  8
0
100
AcDbCircle
 10
113.5051810554324
 20
8.510154694662674
 30
0.0
 40
0.136
  0
CIRCLE
  5
11E45
330
11E29
100
AcDbEntity
  8
0
100
AcDbCircle
 10
113.5051810554324
 20
7.760154694662674
 30
0.0
 40
0.136
  0
ENDBLK
  5
11E47
330
11E29
100
AcDbEntity
  8
0
100
AcDbBlockEnd
  0
BLOCK
  5
11E59
330
11E49
100
AcDbEntity
  8
0
100
AcDbBlockBegin
  2
WD-9-3-38
 70
     0
 10
0.0
 20
0.0
 30
0.0
  3
WD-9-3-38
  1

  0
LINE
  5
121C9
330
11E49
100
AcDbEntity
  8
0
100
AcDbLine
 10
0.0
 20
4.25
 30
0.0
 11
0.0
 21
0.0
 31
0.0
  0
LINE
  5
121CA
330
11E49
100
AcDbEntity
  8
0
100
AcDbLine
 10
5.0
 20
4.25
 30
0.0
 11
5.0
 21
-2.0
 31
0.0
  0
LINE
  5
121CB
330
11E49
100
AcDbEntity
  8
0
100
AcDbLine
 10
0.0
 20
0.0
 30
0.0
 11
2.25
 21
-0.0000000000000142
 31
0.0
  0
LINE
  5
121CC
330
11E49
100
AcDbEntity
  8
0
100
AcDbLine
 10
4.4375
 20
-1.462500000000005
 30
0.0
 11
3.1875
 21
-1.462500000000005
 31
0.0
  0
LINE
  5
121CD
330
11E49
100
AcDbEntity
  8
0
100
AcDbLine
 10
3.1875
 20
-1.837500000000005
 30
0.0
 11
4.4375
 21
-1.837500000000005
 31
0.0
  0
LINE
  5
121CE
330
11E49
100
AcDbEntity
  8
0
100
AcDbLine
 10
5.0
 20
-2.0
 30
0.0
 11
2.25
 21
-2.0
 31
0.0
  0
LINE
  5
121CF
330
11E49
100
AcDbEntity
  8
0
100
AcDbLine
 10
2.25
 20
-2.0
 30
0.0
 11
2.25
 21
-1.837500000000019
 31
0.0
  0
LINE
  5
121D0
330
11E49
100
AcDbEntity
  8
0
100
AcDbLine
 10
2.25
 20
-1.462500000000019
 30
0.0
 11
2.25
 21
-0.0000000000000142
 31
0.0
  0
LINE
  5
121D1
330
11E49
100
AcDbEntity
  8
0
100
AcDbLine
 10
2.5
 20
-1.462500000000005
 30
0.0
 11
2.25
 21
-1.462500000000019
 31
0.0
  0
LINE
  5
121D2
330
11E49
100
AcDbEntity
  8
0
100
AcDbLine
 10
2.25
 20
-1.837500000000019
 30
0.0
 11
2.5
 21
-1.837500000000005
 31
0.0
  0
ARC
  5
121D3
330
11E49
100
AcDbEntity
  8
0
100
AcDbCircle
 10
3.1875
 20
-1.650000000000005
 30
0.0
 40
0.1875
100
AcDbArc
 50
90.0
 51
270.0
  0
ARC
  5
121D4
330
11E49
100
AcDbEntity
  8
0
100
AcDbCircle
 10
2.5
 20
-1.650000000000005
 30
0.0
 40
0.1875
100
AcDbArc
 50
270.0
 51
90.0
  0
ARC
  5
121D5
330
11E49
100
AcDbEntity
  8
0
100
AcDbCircle
 10
4.4375
 20
-1.650000000000005
 30
0.0
 40
0.1875
100
AcDbArc
 50
270.0
 51
90.0
  0
LINE
  5
121D6
330
11E49
100
AcDbEntity
  8
0
100
AcDbLine
 10
0.0
 20
4.25
 30
0.0
 11
5.0
 21
4.25
 31
0.0
  0
CIRCLE
  5
121D7
330
11E49
100
AcDbEntity
  8
0
100
AcDbCircle
 10
3.375
 20
2.599999999999994
 30
0.0
 40
0.5
  0
ENDBLK
  5
11E5A
330
11E49
100
AcDbEntity
  8
0
100
AcDbBlockEnd
  0
BLOCK
  5
11EB4
330
11EA9
100
AcDbEntity
  8
0
100
AcDbBlockBegin
  2
*D19
 70
     1
 10
0.0
 20
0.0
 30
0.0
  3
*D19
  1

  0
LINE
  5
1238A
330
11EA9
100
AcDbEntity
  8
TEXT
 62
     0
370
    -2
100
AcDbLine
 10
140.6533828685875
 20
237.0538480112669
 30
0.0
 11
140.6533828685875
 21
243.5301141835794
 31
0.0
  0
LINE
  5
1238B
330
11EA9
100
AcDbEntity
  8
TEXT
 62
     0
370
    -2
100
AcDbLine
 10
278.6533828685875
 20
248.213848011267
 30
0.0
 11
278.6533828685875
 21
241.5301141835794
 31
0.0
  0
LINE
  5
1238C
330
11EA9
100
AcDbEntity
  8
TEXT
 62
     0
370
    -2
100
AcDbLine
 10
143.6533828685875
 20
242.5301141835794
 30
0.0
 11
185.3617162019208
 21
242.5301141835794
 31
0.0
  0
LINE
  5
1238D
330
11EA9
100
AcDbEntity
  8
TEXT
 62
     0
370
    -2
100
AcDbLine
 10
275.6533828685875
 20
242.5301141835794
 30
0.0
 11
233.9450495352541
 21
242.5301141835794
 31
0.0
  0
SOLID
  5
1238E
330
11EA9
100
AcDbEntity
  8
TEXT
 62
     0
100
AcDbTrace
 10
143.6533828685875
 20
243.0301141835794
 30
0.0
 11
143.6533828685875
 21
242.0301141835794
 31
0.0
 12
140.6533828685875
 22
242.5301141835794
 32
0.0
 13
140.6533828685875
 23
242.5301141835794
 33
0.0
  0
SOLID
  5
1238F
330
11EA9
100
AcDbEntity
  8
TEXT
 62
     0
100
AcDbTrace
 10
275.6533828685875
 20
243.0301141835794
 30
0.0
 11
275.6533828685875
 21
242.0301141835794
 31
0.0
 12
278.6533828685875
 22
242.5301141835794
 32
0.0
 13
278.6533828685875
 23
242.5301141835794
 33
0.0
  0
MTEXT
  5
12390
330
11EA9
100
AcDbEntity
  8
TEXT
 62
     0
100
AcDbMText
 10
209.6533828685875
 20
242.5301141835794
 30
0.0
 40
1.75
 41
0.0
 46
0.0
 71
     5
 72
     1
  1
\A1;HORIZONTAL TRACK LENGTH\P(BACKROOM: DOOR HEIGHT + 18")
  7
WEB PAGE
 73
     1
 44
1.0
  0
POINT
  5
12391
330
11EA9
100
AcDbEntity
  8
Defpoints
 62
     0
100
AcDbPoint
 10
140.6533828685875
 20
235.0538480112669
 30
0.0
  0
POINT
  5
12392
330
11EA9
100
AcDbEntity
  8
Defpoints
 62
     0
100
AcDbPoint
 10
278.6533828685875
 20
250.213848011267
 30
0.0
  0
POINT
  5
12393
330
11EA9
100
AcDbEntity
  8
Defpoints
 62
     0
100
AcDbPoint
 10
278.6533828685875
 20
242.5301141835794
 30
0.0
  0
ENDBLK
  5
11EB5
330
11EA9
100
AcDbEntity
  8
0
100
AcDbBlockEnd
  0
BLOCK
  5
12043
330
12034
100
AcDbEntity
  8
0
100
AcDbBlockBegin
  2
A$C2D8E259A
 70
     0
 10
0.0
 20
0.0
 30
0.0
  3
A$C2D8E259A
  1

  0
LINE
  5
12035
330
12034
100
AcDbEntity
  8
0
100
AcDbLine
 10
-0.0000004604032604
 20
2.095456975818166
 30
0.0
 11
0.9999995395967395
 21
2.095456975818166
 31
0.0
  0
LINE
  5
12036
330
12034
100
AcDbEntity
  8
0
100
AcDbLine
 10
0.0549995395967393
 20
2.040456975818166
 30
0.0
 11
0.9999995395967395
 21
2.040456975818166
 31
0.0
  0
LINE
  5
12037
330
12034
100
AcDbEntity
  8
0
100
AcDbLine
 10
0.8478670952251974
 20
0.3621827433166693
 30
0.0
 11
0.6627309988545634
 21
0.1415461353480936
 31
0.0
  0
LINE
  5
12038
330
12034
100
AcDbEntity
  8
0
100
AcDbLine
 10
0.8899995395967437
 20
0.3268294247839059
 30
0.0
 11
0.8478670952251974
 21
0.3621827433166658
 31
0.0
  0
LINE
  5
12039
330
12034
100
AcDbEntity
  8
0
100
AcDbLine
 10
0.2262781434198011
 20
0.2224495439404386
 30
0.0
 11
0.0549995395967393
 21
0.6071475867100134
 31
0.0
  0
LINE
  5
1203A
330
12034
100
AcDbEntity
  8
0
100
AcDbLine
 10
0.1751036101700158
 20
0.2021667940502745
 30
0.0
 11
-0.0000004604032569
 21
0.5954569758181663
 31
0.0
  0
ARC
  5
1203B
330
12034
100
AcDbEntity
  8
0
100
AcDbCircle
 10
0.4673896658592263
 20
0.3054569758181671
 30
0.0
 40
0.255
100
AcDbArc
 50
198.997042049035
 51
320.0
  0
LINE
  5
1203C
330
12034
100
AcDbEntity
  8
0
100
AcDbLine
 10
0.8899995395967366
 20
0.3268294247839059
 30
0.0
 11
0.7048634432261061
 21
0.1061928168153337
 31
0.0
  0
ARC
  5
1203D
330
12034
100
AcDbEntity
  8
0
100
AcDbCircle
 10
0.4673896658592263
 20
0.3054569758181671
 30
0.0
 40
0.31
100
AcDbArc
 50
199.4627615683172
 51
320.0
  0
LINE
  5
1203E
330
12034
100
AcDbEntity
  8
0
100
AcDbLine
 10
-0.0000004604032604
 20
1.184456975818165
 30
0.0
 11
0.0549995395967429
 21
1.184456975818165
 31
0.0
  0
LINE
  5
1203F
330
12034
100
AcDbEntity
  8
0
100
AcDbLine
 10
-0.0000004604032604
 20
1.456456975818166
 30
0.0
 11
0.0549995395967429
 21
1.456456975818166
 31
0.0
  0
LINE
  5
12040
330
12034
100
AcDbEntity
  8
0
100
AcDbLine
 10
0.0549995395967393
 20
0.6071475867100134
 30
0.0
 11
0.0549995395967393
 21
2.040456975818166
 31
0.0
  0
LINE
  5
12041
330
12034
100
AcDbEntity
  8
0
100
AcDbLine
 10
-0.0000004604032569
 20
0.5954569758181663
 30
0.0
 11
-0.0000004604032604
 21
2.095456975818166
 31
0.0
  0
LINE
  5
12042
330
12034
100
AcDbEntity
  8
0
100
AcDbLine
 10
0.9999995395967395
 20
2.095456975818166
 30
0.0
 11
0.9999995395967395
 21
2.040456975818166
 31
0.0
  0
ENDBLK
  5
12044
330
12034
100
AcDbEntity
  8
0
100
AcDbBlockEnd
  0
BLOCK
  5
1206B
330
1205E
100
AcDbEntity
  8
0
100
AcDbBlockBegin
  2
*D21
 70
     1
 10
0.0
 20
0.0
 30
0.0
  3
*D21
  1

  0
ARC
  5
12D04
330
1205E
100
AcDbEntity
  8
TEXT
 62
     0
370
    -2
100
AcDbCircle
 10
222.8506142506113
 20
213.3518247785181
 30
0.0
 40
5.663360582444593
100
AcDbArc
 50
118.5653662259099
 51
149.282683112955
  0
ARC
  5
12D05
330
1205E
100
AcDbEntity
  8
TEXT
 62
     0
370
    -2
100
AcDbCircle
 10
222.8506142506113
 20
213.3518247785181
 30
0.0
 40
5.663360582444593
100
AcDbArc
 50
255.7173168870451
 51
286.4346337740902
  0
SOLID
  5
12D06
330
1205E
100
AcDbEntity
  8
TEXT
 62
     0
100
AcDbTrace
 10
218.4639782772099
 20
216.1122548668674
 30
0.0
 11
217.4996915129321
 21
216.3771152758354
 31
0.0
 12
217.1872536681668
 22
213.3518247785181
 32
0.0
 13
217.1872536681668
 23
213.3518247785181
 33
0.0
  0
SOLID
  5
12D07
330
1205E
100
AcDbEntity
  8
TEXT
 62
     0
100
AcDbTrace
 10
221.2061439229055
 20
207.4289475993877
 30
0.0
 11
221.7007130416855
 21
208.298085900666
 31
0.0
 12
218.8460135784603
 22
209.3472241063671
 32
0.0
 13
218.8460135784603
 23
209.3472241063671
 33
0.0
  0
MTEXT
  5
12D08
330
1205E
100
AcDbEntity
  8
TEXT
 62
     0
100
AcDbMText
 10
217.5255546890236
 20
211.4237703829346
 30
0.0
 40
1.75
 41
0.0
 46
0.0
 71
     5
 72
     1
  1
\A1;45°
  7
WEB PAGE
 73
     1
 44
1.0
  0
POINT
  5
12D09
330
1205E
100
AcDbEntity
  8
Defpoints
 62
     0
100
AcDbPoint
 10
217.9460001154229
 20
210.5201444872959
 30
0.0
  0
POINT
  5
12D0A
330
1205E
100
AcDbEntity
  8
Defpoints
 62
     0
100
AcDbPoint
 10
211.1183812035776
 20
201.6195917314843
 30
0.0
  0
POINT
  5
12D0B
330
1205E
100
AcDbEntity
  8
Defpoints
 62
     0
100
AcDbPoint
 10
232.9380989563994
 20
213.3518247785182
 30
0.0
  0
POINT
  5
12D0C
330
1205E
100
AcDbEntity
  8
Defpoints
 62
     0
100
AcDbPoint
 10
211.1183812035776
 20
213.3518247785182
 30
0.0
  0
POINT
  5
12D0D
330
1205E
100
AcDbEntity
  8
Defpoints
 62
     0
100
AcDbPoint
 10
222.8506142506114
 20
213.3518247785182
 30
0.0
  0
ENDBLK
  5
1206C
330
1205E
100
AcDbEntity
  8
0
100
AcDbBlockEnd
  0
ENDSEC
  0
SECTION
  2
ENTITIES
  0
INSERT
  5
3374
330
17
100
AcDbEntity
  8
AME_FRZ
100
AcDbBlockReference
  2
AME_NIL
 10
0.0
 20
0.0
 30
0.0
 41
24.609375
 42
24.609375
 43
24.609375
  0
INSERT
  5
3375
330
17
100
AcDbEntity
  8
AME_FRZ
100
AcDbBlockReference
  2
AME_SOL
 10
0.0
 20
0.0
 30
0.0
 41
24.609375
 42
24.609375
 43
24.609375
1001
AME_SOL
1000
R2.1
1000
AME2
1000
sq cm
1070
     3
1070
     0
1070
     3
1000
wire
1040
45.0
1000
U
1040
1.0
1000
cm
1000
gm
1000
MILD_STEEL
1070
    25
1000
CSG
1070
     1
1070
     3
1070
     3
1070
     3
1070
     0
1000
cu cm
1070
     1
1070
     0
1005
0
  0
INSERT
  5
3376
330
17
100
AcDbEntity
  8
ASHADE
 62
     1
100
AcDbBlockReference
  2
AVE_RENDER
 10
0.0
 20
0.0
 30
0.0
 41
24.609375
 42
24.609375
 43
24.609375
1001
AVE_RENDER
1002
{
1070
     2
1000
Pref
1070
    30
1070
    20
1070
     0
1070
     0
1000

1070
    10
1070
     0
1070
    30
1040
1.0
1070
     1
1040
0.3
1040
0.7
1040
0.0
1040
10.0
1010
-1.0
1020
-1.0
1030
-1.0
1040
0.3
1070
    49
1002
}
  0
INSERT
  5
3377
330
17
100
AcDbEntity
  8
ASHADE
 62
     3
100
AcDbBlockReference
  2
AVE_RENDER
 10
0.0
 20
0.0
 30
0.0
 41
24.609375
 42
24.609375
 43
24.609375
1001
AVE_RENDER
1002
{
1070
     0
1000
Full Opt
1070
     0
1070
     1
1070
     1
1070
     1
1070
     0
1070
     0
1070
     0
1070
     1
1070
     1
1040
0.0001
1040
0.0001
1002
}
  0
INSERT
  5
3378
330
17
100
AcDbEntity
  8
ASHADE
 62
     4
100
AcDbBlockReference
  2
AVE_RENDER
 10
0.0
 20
0.0
 30
0.0
 41
24.609375
 42
24.609375
 43
24.609375
1001
AVE_RENDER
1002
{
1070
     0
1000
Quick Opt
1070
     0
1070
     1
1070
     1
1070
     1
1070
     0
1070
     0
1070
     1
1002
}
  0
INSERT
  5
3E3C
330
17
100
AcDbEntity
  8
AME_FRZ
100
AcDbBlockReference
  2
AME_NIL
 10
0.0
 20
0.0
 30
0.0
 41
34.993056
 42
34.993056
 43
34.993056
  0
INSERT
  5
3E3D
330
17
100
AcDbEntity
  8
AME_FRZ
100
AcDbBlockReference
  2
AME_SOL
 10
0.0
 20
0.0
 30
0.0
 41
34.993056
 42
34.993056
 43
34.993056
1001
AME_SOL
1000
R2.1
1000
AME2
1000
sq cm
1070
     3
1070
     0
1070
     3
1000
wire
1040
45.0
1000
U
1040
1.0
1000
cm
1000
gm
1000
MILD_STEEL
1070
    25
1000
CSG
1070
     1
1070
     3
1070
     3
1070
     3
1070
     0
1000
cu cm
1070
     1
1070
     0
1005
0
  0
INSERT
  5
3E3E
330
17
100
AcDbEntity
  8
ASHADE
 62
     1
100
AcDbBlockReference
  2
AVE_RENDER
 10
0.0
 20
0.0
 30
0.0
 41
34.993056
 42
34.993056
 43
34.993056
1001
AVE_RENDER
1002
{
1070
     2
1000
Pref
1070
    30
1070
    20
1070
     0
1070
     0
1000

1070
    10
1070
     0
1070
    30
1040
1.0
1070
     1
1040
0.3
1040
0.7
1040
0.0
1040
10.0
1010
-1.0
1020
-1.0
1030
-1.0
1040
0.3
1070
    49
1002
}
  0
INSERT
  5
3E3F
330
17
100
AcDbEntity
  8
ASHADE
 62
     3
100
AcDbBlockReference
  2
AVE_RENDER
 10
0.0
 20
0.0
 30
0.0
 41
34.993056
 42
34.993056
 43
34.993056
1001
AVE_RENDER
1002
{
1070
     0
1000
Full Opt
1070
     0
1070
     1
1070
     1
1070
     1
1070
     0
1070
     0
1070
     0
1070
     1
1070
     1
1040
0.0001
1040
0.0001
1002
}
  0
INSERT
  5
3E40
330
17
100
AcDbEntity
  8
ASHADE
 62
     4
100
AcDbBlockReference
  2
AVE_RENDER
 10
0.0
 20
0.0
 30
0.0
 41
34.993056
 42
34.993056
 43
34.993056
1001
AVE_RENDER
1002
{
1070
     0
1000
Quick Opt
1070
     0
1070
     1
1070
     1
1070
     1
1070
     0
1070
     0
1070
     1
1002
}
  0
MTEXT
  5
405A
330
17
100
AcDbEntity
  8
BDR
100
AcDbMText
 10
353.0635595970848
 20
56.58463448330076
 30
0.0
 40
0.1
 41
37.627
 46
0.0
 71
     1
 72
     5
  1

  7
SIMPLEX
 73
     1
 44
1.0
  0
MTEXT
  5
8913
330
17
100
AcDbEntity
  8
BDR
100
AcDbMText
 10
877.3233813939555
 20
282.200335478095
 30
0.0
 40
3.0
 41
0.0
 46
0.0
 71
     4
 72
     1
  1
\A1;
 73
     1
 44
1.0
  0
MTEXT
  5
BB0D
330
17
100
AcDbEntity
  8
HATCH
 48
0.5
100
AcDbMText
 10
862.711853351133
 20
170.0626199810501
 30
0.0
 40
1.1
 41
0.0
 46
0.0
 71
     4
 72
     1
  1

 73
     1
 44
1.0
  0
MTEXT
  5
BD7C
330
17
100
AcDbEntity
  8
BDR
100
AcDbMText
 10
648.3700742151118
 20
223.690432353357
 30
0.0
 40
2.5
 41
0.0
 46
0.0
 71
     1
 72
     1
  1

 73
     1
 44
1.0
  0
MTEXT
  5
CE5A
330
17
100
AcDbEntity
  8
BDR
100
AcDbMText
 10
645.7641368582438
 20
217.5930814931963
 30
0.0
 40
2.5
 41
0.0
 46
0.0
 71
     1
 72
     1
  1

 73
     1
 44
1.0
  0
MTEXT
  5
D3E4
330
17
100
AcDbEntity
  8
0
100
AcDbMText
 10
393.5054431651311
 20
218.3654697964034
 30
0.0
 40
2.5
 41
0.0
 46
0.0
 71
     1
 72
     1
  1

 73
     1
 44
1.0
  0
MTEXT
  5
D891
330
17
100
AcDbEntity
  8
BDR
100
AcDbMText
 10
278.8170020773584
 20
330.6127380359346
 30
0.0
 40
2.5
 41
0.0
 46
0.0
 71
     1
 72
     1
  1

 73
     1
 44
1.0
  0
MTEXT
  5
D894
330
17
100
AcDbEntity
  8
BDR
100
AcDbMText
 10
282.4572809863948
 20
283.699790306357
 30
0.0
 40
2.5
 41
0.0
 46
0.0
 71
     1
 72
     1
  1

 73
     1
 44
1.0
  0
MTEXT
  5
D8BC
330
17
100
AcDbEntity
  8
BDR
100
AcDbMText
 10
280.6377852630108
 20
262.5297979250931
 30
0.0
 40
2.5
 41
0.0
 46
0.0
 71
     1
 72
     1
  1

 73
     1
 44
1.0
  0
MTEXT
  5
D8BE
330
17
100
AcDbEntity
  8
BDR
100
AcDbMText
 10
280.052229178619
 20
230.2002619872308
 30
0.0
 40
2.5
 41
0.0
 46
0.0
 71
     1
 72
     1
  1

 73
     1
 44
1.0
  0
MTEXT
  5
D8C2
330
17
100
AcDbEntity
  8
BDR
100
AcDbMText
 10
210.2931674542633
 20
331.4813092531851
 30
0.0
 40
2.5
 41
0.0
 46
0.0
 71
     9
 72
     1
  1

 73
     1
 44
1.0
  0
MTEXT
  5
DE82
330
17
100
AcDbEntity
  8
0
100
AcDbMText
 10
230.9601867147205
 20
186.4290317625283
 30
0.0
 40
3.5
 41
0.0
 46
0.0
 71
     1
 72
     1
  1

 73
     1
 44
1.0
  0
DIMENSION
  5
11CDE
330
17
100
AcDbEntity
  8
TEXT
100
AcDbDimension
  2
*D12
 10
104.553616313814
 20
255.753848011267
 30
0.0
 11
104.5536163138139
 21
202.7898988514811
 31
0.0
 70
   160
  1
FLOOR TO\PSHAFT CENTER
 71
     5
 42
132.7175538319264
 73
     0
 74
     0
 75
     0
  3
STANDARD
100
AcDbAlignedDimension
 13
134.2169295018095
 23
123.0362941793405
 33
0.0
 14
141.5919295018095
 24
255.753848011267
 34
0.0
 50
90.0
100
AcDbRotatedDimension
1001
ACAD
1000
DSTYLE
1002
{
1070
    40
1040
1.0
1002
}
  0
DIMENSION
  5
11CDF
330
17
100
AcDbEntity
  8
TEXT
100
AcDbDimension
  2
*D13
 10
88.14078054731758
 20
258.6288480112671
 30
0.0
 11
88.14078054731755
 21
181.424623123489
 31
0.0
 70
   160
  1
MINIMUM\PCEILING HEIGHT
 71
     5
 42
135.5925538319265
 73
     0
 74
     0
 75
     0
  3
STANDARD
100
AcDbAlignedDimension
 13
134.2169295018095
 23
123.0362941793405
 33
0.0
 14
138.2169295018095
 24
258.628848011267
 34
0.0
 50
90.0
100
AcDbRotatedDimension
1001
ACAD
1000
DSTYLE
1002
{
1070
    40
1040
1.0
1002
}
  0
DIMENSION
  5
11CE0
330
17
100
AcDbEntity
  8
TEXT
100
AcDbDimension
  2
*D14
 10
182.1073031395851
 20
235.0280241008174
 30
0.0
 11
182.107303139585
 21
176.4869612538166
 31
0.0
 70
   160
  1
VERTICAL TRACK\PDOOR HEIGHT-8"
 71
     5
 42
111.9917299214769
 73
     0
 74
     0
 75
     0
  3
STANDARD
100
AcDbAlignedDimension
 13
209.4861505668555
 23
123.0362941793405
 33
0.0
 14
142.7782259511818
 24
235.0280241008174
 34
0.0
 50
90.0
100
AcDbRotatedDimension
1001
ACAD
1000
DSTYLE
1002
{
1070
    40
1040
1.0
1002
}
  0
DIMENSION
  5
11CE1
330
17
100
AcDbEntity
  8
TEXT
100
AcDbDimension
  2
*D15
 10
118.0575413775432
 20
123.0362941793405
 30
0.0
 11
118.0575413775432
 21
183.0362941793405
 31
0.0
 70
    32
  1
OPENING\PHEIGHT
 71
     5
 42
120.0
 73
     0
 74
     0
 75
     0
  3
STANDARD
100
AcDbAlignedDimension
 13
134.2169295018095
 23
243.0362941793405
 33
0.0
 14
134.2169295018095
 24
123.0362941793405
 34
0.0
 50
90.0
100
AcDbRotatedDimension
1001
ACAD
1000
DSTYLE
1002
{
1070
    40
1040
1.0
1002
}
  0
LINE
  5
11CE2
102
{ACAD_REACTORS
330
11FD9
102
}
330
17
100
AcDbEntity
  8
BDR
100
AcDbLine
 10
134.2169295018095
 20
123.0362941793405
 30
0.0
 11
134.2169295018095
 21
264.628848011267
 31
0.0
  0
LINE
  5
11CE3
102
{ACAD_REACTORS
330
11FD9
102
}
330
17
100
AcDbEntity
  8
BDR
100
AcDbLine
 10
138.2169295018095
 20
123.0362941793405
 30
0.0
 11
138.2169295018095
 21
258.628848011267
 31
0.0
  0
INSERT
  5
11CE4
330
17
100
AcDbEntity
  8
BDR
100
AcDbBlockReference
  2
A$C6F454818
 10
138.2169295018095
 20
123.0362941793405
 30
0.0
  0
LINE
  5
11CE5
330
17
100
AcDbEntity
  8
BDR
100
AcDbLine
 10
221.5803211345133
 20
123.0362941793405
 30
0.0
 11
134.2169295018095
 21
123.0362941793405
 31
0.0
  0
LINE
  5
11CE7
330
17
100
AcDbEntity
  8
BDR
100
AcDbLine
 10
143.2690223512286
 20
135.9017747485227
 30
0.0
 11
145.9563921309725
 21
137.8070675453008
 31
0.0
  0
SOLID
  5
11CE8
330
17
100
AcDbEntity
  8
BDR
100
AcDbTrace
 10
143.5582067749237
 20
135.4938870567593
 30
0.0
 11
142.9798379275332
 21
136.3096624402861
 31
0.0
 12
140.8216962006481
 22
134.1666682063514
 32
0.0
 13
140.8216962006481
 23
134.1666682063514
 33
0.0
  0
MTEXT
  5
11CE9
330
17
100
AcDbEntity
  8
TEXT
100
AcDbMText
 10
149.9938929532877
 20
137.040685061373
 30
0.0
 40
1.75
 41
0.0
 46
0.0
 71
     7
 72
     1
  1
JAMB BRACKETS
  7
WEB PAGE
 73
     1
 44
1.0
  0
LINE
  5
11CEA
330
17
100
AcDbEntity
  8
TEXT
100
AcDbLine
 10
145.9563921309725
 20
137.8070675453008
 30
0.0
 11
148.9563921309725
 21
137.8070675453008
 31
0.0
  0
MTEXT
  5
11CF6
330
17
100
AcDbEntity
  8
TEXT
100
AcDbMText
 10
156.8995012135224
 20
247.6697764564923
 30
0.0
 40
1.75
 41
0.0
 46
0.0
 71
     1
 72
     1
  1
19" VERTICAL ANGLE
  7
WEB PAGE
 73
     1
 44
1.0
  0
MTEXT
  5
11CF7
330
17
100
AcDbEntity
  8
TEXT
100
AcDbMText
 10
186.5198471084741
 20
271.4175248925766
 30
0.0
 40
1.75
 41
0.0
 46
0.0
 71
     6
 72
     1
  1
HORIZONTAL ANGLE
  7
WEB PAGE
 73
     1
 44
1.0
  0
LINE
  5
11CF8
102
{ACAD_REACTORS
330
11FD9
102
}
330
17
100
AcDbEntity
  8
BDR
100
AcDbLine
 10
138.2169295018095
 20
258.628848011267
 30
0.0
 11
282.651584289913
 21
258.628848011267
 31
0.0
  0
LINE
  5
11CF9
102
{ACAD_REACTORS
330
11FD9
102
}
330
17
100
AcDbEntity
  8
BDR
100
AcDbLine
 10
134.2169295018095
 20
264.628848011267
 30
0.0
 11
282.651584289913
 21
264.628848011267
 31
0.0
  0
INSERT
  5
11CFB
330
17
100
AcDbEntity
  8
BDR
100
AcDbBlockReference
  2
HA137
 10
138.3071328685875
 20
250.693848011267
 30
0.0
  0
LEADER
  5
11CFD
330
17
100
AcDbEntity
  8
TEXT
100
AcDbLeader
  3
STANDARD
 40
3.5
 76
     2
 10
146.9538936123103
 20
251.4671943696826
 30
0.0
 10
159.7568279188576
 20
271.3504931055552
 30
0.0
213
-30.35839136054324
223
2.172941992376536
233
0.0
1001
ACAD
1000
DSTYLE
1002
{
1070
    40
1040
1.0
1070
   147
1040
3.0
1002
}
  0
DIMENSION
  5
11CFE
330
17
100
AcDbEntity
  8
TEXT
100
AcDbDimension
  2
*D16
 10
118.0575413775432
 20
258.6288480112671
 30
0.0
 11
128.9325413775432
 21
272.3008621425022
 31
0.0
 70
   160
  1
MINIMUM\PHEADROOM
 71
     5
 42
15.59255383192649
 73
     0
 74
     0
 75
     0
  3
STANDARD
100
AcDbAlignedDimension
 13
134.2169295018095
 23
243.0362941793405
 33
0.0
 14
138.2169295018095
 24
258.628848011267
 34
0.0
 50
90.0
100
AcDbRotatedDimension
1001
ACAD
1000
DSTYLE
1002
{
1070
    40
1040
1.0
1002
}
  0
LEADER
  5
11D00
330
17
100
AcDbEntity
  8
TEXT
100
AcDbLeader
  3
STANDARD
 40
3.5
 76
     2
 10
139.13166414243
 20
246.3808060174766
 30
0.0
 10
155.9615954346191
 20
246.3788886407526
 30
0.0
213
-28.01915490533588
223
-1.822965986319815
233
0.0
1001
ACAD
1000
DSTYLE
1002
{
1070
    40
1040
1.0
1070
   147
1040
3.0
1002
}
  0
LEADER
  5
11D01
330
17
100
AcDbEntity
  8
TEXT
100
AcDbLeader
  3
STANDARD
 40
3.5
 76
     2
 10
141.6050142418557
 20
234.1937525140189
 30
0.0
 10
153.5657661904963
 20
226.6974048509269
 30
0.0
213
-48.64761024359063
223
59.9694878650547
233
0.0
1001
ACAD
1000
DSTYLE
1002
{
1070
    40
1040
1.0
1070
   147
1040
3.0
1002
}
  0
INSERT
  5
11D02
102
{ACAD_REACTORS
330
11FD9
102
}
330
17
100
AcDbEntity
  8
BDR
100
AcDbBlockReference
  2
19-vert-angle
 10
140.2478160617324
 20
242.0453818397245
 30
0.0
 50
90.0
  0
INSERT
  5
11D03
330
17
100
AcDbEntity
  8
BDR
100
AcDbBlockReference
  2
SP-8-34
 10
139.3769295018096
 20
235.9360366800953
 30
0.0
  0
LINE
  5
11D06
102
{ACAD_REACTORS
330
11FD9
102
}
330
17
100
AcDbEntity
  8
BDR
100
AcDbLine
 10
138.2169295018095
 20
243.0362941793405
 30
0.0
 11
134.2169295018095
 21
243.0362941793405
 31
0.0
  0
MTEXT
  5
11D07
330
17
100
AcDbEntity
  8
TEXT
100
AcDbMText
 10
154.4086580328253
 20
225.6956888143518
 30
0.0
 40
1.75
 41
0.0
 46
0.0
 71
     7
 72
     1
  1
SPLICE PLATE
  7
WEB PAGE
 73
     1
 44
1.0
  0
LINE
  5
11D0E
330
17
100
AcDbEntity
  8
0
100
AcDbLine
 10
219.7429017190521
 20
250.4660904555707
 30
0.0
 11
218.2513640181228
 21
250.4660904555707
 31
0.0
  0
LINE
  5
11D0F
330
17
100
AcDbEntity
  8
0
100
AcDbLine
 10
218.2513640181228
 20
250.4660904555707
 30
0.0
 11
218.2513640181228
 21
258.628848011267
 31
0.0
  0
LINE
  5
11D10
330
17
100
AcDbEntity
  8
0
100
AcDbLine
 10
218.375698600878
 20
250.4660904555707
 30
0.0
 11
218.3756986008777
 21
258.628848011267
 31
0.0
  0
LINE
  5
11D12
330
17
100
AcDbEntity
  8
0
100
AcDbLine
 10
219.7429017190518
 20
250.4660904555707
 30
0.0
 11
219.742901719052
 21
258.628848011267
 31
0.0
  0
CIRCLE
  5
11D13
330
17
100
AcDbEntity
  8
0
100
AcDbCircle
 10
218.9971328685874
 20
257.1134331156567
 30
0.0
 40
0.2171678892550922
  0
CIRCLE
  5
11D14
330
17
100
AcDbEntity
  8
0
100
AcDbCircle
 10
218.9971328685874
 20
251.1353500103381
 30
0.0
 40
0.2171678892550922
  0
CIRCLE
  5
11D15
330
17
100
AcDbEntity
  8
0
100
AcDbCircle
 10
218.9971328685874
 20
253.1280443787776
 30
0.0
 40
0.2171678892550922
  0
CIRCLE
  5
11D16
330
17
100
AcDbEntity
  8
0
100
AcDbCircle
 10
218.9971328685874
 20
254.1220051026761
 30
0.0
 40
0.2171678892550922
  0
CIRCLE
  5
11D17
330
17
100
AcDbEntity
  8
0
100
AcDbCircle
 10
218.9971328685874
 20
252.1293107342366
 30
0.0
 40
0.2171678892550922
  0
CIRCLE
  5
11D18
330
17
100
AcDbEntity
  8
0
100
AcDbCircle
 10
218.9971328685874
 20
256.1146994711156
 30
0.0
 40
0.2171678892550922
  0
CIRCLE
  5
11D19
330
17
100
AcDbEntity
  8
0
100
AcDbCircle
 10
218.9971328685874
 20
255.1207387472171
 30
0.0
 40
0.2171678892550922
  0
MTEXT
  5
11D1B
330
17
100
AcDbEntity
  8
TEXT
100
AcDbMText
 10
235.7664579179411
 20
222.608164422425
 30
0.0
 40
1.75
 41
0.0
 46
0.0
 71
     4
 72
     1
  1
BACK AND INTERMEDIATE HANGERS\PSUPPLIED BY INSTALLERS
  7
WEB PAGE
 73
     1
 44
1.0
  0
LINE
  5
11D1C
330
17
100
AcDbEntity
  8
0
100
AcDbLine
 10
276.6576140181228
 20
250.9013665084892
 30
0.0
 11
276.6576140181228
 21
258.628848011267
 31
0.0
  0
LINE
  5
11D1D
330
17
100
AcDbEntity
  8
0
100
AcDbLine
 10
276.781948600878
 20
250.9013665084892
 30
0.0
 11
276.7819486008775
 21
258.628848011267
 31
0.0
  0
LINE
  5
11D1E
330
17
100
AcDbEntity
  8
0
100
AcDbLine
 10
278.1491517190518
 20
250.9013665084892
 30
0.0
 11
278.1491517190521
 21
258.628848011267
 31
0.0
  0
LEADER
  5
11D1F
330
17
100
AcDbEntity
  8
TEXT
100
AcDbLeader
  3
STANDARD
 40
3.5
 76
     2
 10
228.151393313831
 20
215.9028976841001
 30
0.0
 10
235.0500499007667
 20
223.9072257377416
 30
0.0
213
-30.73869949890218
223
37.29359984281018
233
0.0
1001
ACAD
1000
DSTYLE
1002
{
1070
    40
1040
1.0
1002
}
  0
LINE
  5
11D20
330
17
100
AcDbEntity
  8
0
100
AcDbLine
 10
278.1491517190521
 20
250.9013665084892
 30
0.0
 11
276.6576140181228
 21
250.9013665084892
 31
0.0
  0
CIRCLE
  5
11D21
330
17
100
AcDbEntity
  8
0
100
AcDbCircle
 10
277.4033828685874
 20
251.5706260632567
 30
0.0
 40
0.2075
  0
CIRCLE
  5
11D22
330
17
100
AcDbEntity
  8
0
100
AcDbCircle
 10
277.4033828685874
 20
254.5572811555945
 30
0.0
 40
0.2171678892550922
  0
CIRCLE
  5
11D23
330
17
100
AcDbEntity
  8
0
100
AcDbCircle
 10
277.4033828685874
 20
255.5560148001357
 30
0.0
 40
0.2171678892550922
  0
CIRCLE
  5
11D24
330
17
100
AcDbEntity
  8
0
100
AcDbCircle
 10
277.4033828685874
 20
256.549975524034
 30
0.0
 40
0.2171678892550922
  0
CIRCLE
  5
11D25
330
17
100
AcDbEntity
  8
0
100
AcDbCircle
 10
277.4033828685874
 20
252.564586787155
 30
0.0
 40
0.2171678892550922
  0
CIRCLE
  5
11D26
330
17
100
AcDbEntity
  8
0
100
AcDbCircle
 10
277.4033828685874
 20
253.5633204316962
 30
0.0
 40
0.2171678892550922
  0
CIRCLE
  5
11D27
330
17
100
AcDbEntity
  8
0
100
AcDbCircle
 10
277.4033828685874
 20
257.5487091685752
 30
0.0
 40
0.2171678892550922
  0
CIRCLE
  5
11D28
102
{ACAD_REACTORS
330
11FD9
102
}
330
17
100
AcDbEntity
  8
0
100
AcDbCircle
 10
277.4033828685874
 20
258.4208918404842
 30
0.0
 40
0.2171678892550922
  0
LINE
  5
11D29
102
{ACAD_REACTORS
330
11FD9
102
}
330
17
100
AcDbEntity
  8
BDR
100
AcDbLine
 10
282.651584289913
 20
264.628848011267
 30
0.0
 11
282.651584289913
 21
258.628848011267
 31
0.0
  0
INSERT
  5
11E48
330
17
100
AcDbEntity
  8
FRAMING
100
AcDbBlockReference
  2
15R-138TRK
 10
164.548201813155
 20
243.3636933166044
 30
0.0
  0
INSERT
  5
11E5B
330
17
100
AcDbEntity
  8
FRAMING
100
AcDbBlockReference
  2
WD-9-3-38
 10
138.2169295018095
 20
253.153848011267
 30
0.0
  0
CIRCLE
  5
11E86
330
17
100
AcDbEntity
  8
FRAMING
100
AcDbCircle
 10
141.5919295018095
 20
255.753848011267
 30
0.0
 40
2.375
  0
DIMENSION
  5
11EA8
330
17
100
AcDbEntity
  8
TEXT
100
AcDbDimension
  2
*D19
 10
278.6533828685875
 20
242.5301141835794
 30
0.0
 11
209.6533828685875
 21
242.5301141835794
 31
0.0
 70
    32
  1
HORIZONTAL TRACK LENGTH\P(BACKROOM: DOOR HEIGHT + 18")
 71
     5
 42
137.9999999999999
 73
     0
 74
     0
 75
     0
  3
STANDARD
100
AcDbAlignedDimension
 13
140.6533828685875
 23
235.0538480112669
 33
0.0
 14
278.6533828685875
 24
250.213848011267
 34
0.0
100
AcDbRotatedDimension
  0
HATCH
  5
11FD9
330
17
100
AcDbEntity
  8
FRAMING
100
AcDbHatch
 10
0.0
 20
0.0
 30
0.0
210
0.0
220
0.0
230
1.0
  2
ANSI31
 70
     0
 71
     1
 91
        1
 92
        7
 72
     1
 73
     1
 93
        9
 10
282.6515842899129
 20
264.628848011267
 42
0.0
 10
134.2169295018095
 20
264.628848011267
 42
0.0
 10
134.2169295018095
 20
243.0362941793405
 42
0.0
 10
138.2169295018095
 20
243.0362941793406
 42
0.0
 10
138.2169295018095
 20
252.1070366800953
 42
0.0
 10
138.2169295018095
 20
258.628848011267
 42
0.0
 10
277.340803933179
 20
258.628848011267
 42
-0.1472015848805906
 10
277.4659618039958
 20
258.628848011267
 42
0.0
 10
282.651584289913
 20
258.628848011267
 42
0.0
 97
        8
330
11CF9
330
11CE2
330
11D06
330
11D02
330
11CE3
330
11CF8
330
11D28
330
11D29
 75
     0
 76
     1
 52
0.0
 41
15.0
 77
     0
 78
     1
 53
45.0
 43
0.0
 44
0.0
 45
-1.325825214724776
 46
1.325825214724776
 79
     0
 47
0.1957423773253207
 98
        1
 10
182.2041221641825
 20
261.5723342380384
  0
LWPOLYLINE
  5
12008
330
17
100
AcDbEntity
  8
FRAMING
100
AcDbPolyline
 90
        6
 70
     0
 43
0.0
 10
208.6183812035776
 20
213.3518247785182
 10
204.9380989563995
 20
213.3518247785182
 10
204.9380989563995
 20
215.8518247785182
 10
232.9380989563995
 20
215.8518247785182
 10
232.9380989563995
 20
213.3518247785182
 10
211.1183812035776
 20
213.3518247785182
  0
LWPOLYLINE
  5
1200A
330
17
100
AcDbEntity
  8
FRAMING
100
AcDbPolyline
 90
        2
 70
     0
 43
0.0
 10
211.1183812035776
 20
201.6195917314844
 10
222.8506142506114
 20
213.3518247785182
  0
CIRCLE
  5
1200B
330
17
100
AcDbEntity
  8
FRAMING
100
AcDbCircle
 10
209.8683812035777
 20
192.6018247785181
 30
0.0
 40
0.5
  0
CIRCLE
  5
1200C
330
17
100
AcDbEntity
  8
FRAMING
100
AcDbCircle
 10
209.8683812035777
 20
194.6018247785181
 30
0.0
 40
0.5
  0
CIRCLE
  5
1200D
330
17
100
AcDbEntity
  8
FRAMING
100
AcDbCircle
 10
209.8683812035777
 20
196.6018247785181
 30
0.0
 40
0.5
  0
CIRCLE
  5
1200E
330
17
100
AcDbEntity
  8
FRAMING
100
AcDbCircle
 10
209.8683812035777
 20
198.6018247785182
 30
0.0
 40
0.5
  0
CIRCLE
  5
1200F
330
17
100
AcDbEntity
  8
FRAMING
100
AcDbCircle
 10
209.8683812035777
 20
200.6018247785182
 30
0.0
 40
0.5
  0
CIRCLE
  5
12010
330
17
100
AcDbEntity
  8
FRAMING
100
AcDbCircle
 10
209.8683812035777
 20
202.6018247785182
 30
0.0
 40
0.5
  0
CIRCLE
  5
12011
330
17
100
AcDbEntity
  8
FRAMING
100
AcDbCircle
 10
209.8683812035777
 20
204.6018247785182
 30
0.0
 40
0.5
  0
CIRCLE
  5
12012
330
17
100
AcDbEntity
  8
FRAMING
100
AcDbCircle
 10
209.8683812035777
 20
206.6018247785182
 30
0.0
 40
0.5
  0
CIRCLE
  5
12013
330
17
100
AcDbEntity
  8
FRAMING
100
AcDbCircle
 10
209.8683812035777
 20
208.6018247785182
 30
0.0
 40
0.5
  0
CIRCLE
  5
12014
330
17
100
AcDbEntity
  8
FRAMING
100
AcDbCircle
 10
209.8683812035777
 20
210.6018247785182
 30
0.0
 40
0.5
  0
CIRCLE
  5
12015
330
17
100
AcDbEntity
  8
FRAMING
100
AcDbCircle
 10
209.8683812035777
 20
212.6018247785182
 30
0.0
 40
0.5
  0
CIRCLE
  5
12016
330
17
100
AcDbEntity
  8
FRAMING
100
AcDbCircle
 10
209.8683812035777
 20
214.6018247785182
 30
0.0
 40
0.5
  0
CIRCLE
  5
12017
330
17
100
AcDbEntity
  8
FRAMING
100
AcDbCircle
 10
209.8683812035777
 20
214.6018247785182
 30
0.0
 40
0.5
  0
CIRCLE
  5
12018
330
17
100
AcDbEntity
  8
FRAMING
100
AcDbCircle
 10
211.8683812035777
 20
214.6018247785182
 30
0.0
 40
0.5
  0
CIRCLE
  5
12019
330
17
100
AcDbEntity
  8
FRAMING
100
AcDbCircle
 10
213.8683812035777
 20
214.6018247785182
 30
0.0
 40
0.5
  0
CIRCLE
  5
1201A
330
17
100
AcDbEntity
  8
FRAMING
100
AcDbCircle
 10
215.8683812035777
 20
214.6018247785182
 30
0.0
 40
0.5
  0
CIRCLE
  5
1201B
330
17
100
AcDbEntity
  8
FRAMING
100
AcDbCircle
 10
217.8683812035777
 20
214.6018247785182
 30
0.0
 40
0.5
  0
CIRCLE
  5
1201C
330
17
100
AcDbEntity
  8
FRAMING
100
AcDbCircle
 10
219.8683812035777
 20
214.6018247785182
 30
0.0
 40
0.5
  0
CIRCLE
  5
1201D
330
17
100
AcDbEntity
  8
FRAMING
100
AcDbCircle
 10
221.8683812035777
 20
214.6018247785182
 30
0.0
 40
0.5
  0
CIRCLE
  5
1201E
330
17
100
AcDbEntity
  8
FRAMING
100
AcDbCircle
 10
223.8683812035777
 20
214.6018247785182
 30
0.0
 40
0.5
  0
CIRCLE
  5
1201F
330
17
100
AcDbEntity
  8
FRAMING
100
AcDbCircle
 10
225.8683812035776
 20
214.6018247785182
 30
0.0
 40
0.5
  0
CIRCLE
  5
12020
330
17
100
AcDbEntity
  8
FRAMING
100
AcDbCircle
 10
227.8683812035776
 20
214.6018247785182
 30
0.0
 40
0.5
  0
CIRCLE
  5
12021
330
17
100
AcDbEntity
  8
FRAMING
100
AcDbCircle
 10
229.8683812035776
 20
214.6018247785182
 30
0.0
 40
0.5
  0
CIRCLE
  5
12022
330
17
100
AcDbEntity
  8
FRAMING
100
AcDbCircle
 10
231.8683812035776
 20
214.6018247785182
 30
0.0
 40
0.5
  0
CIRCLE
  5
12023
330
17
100
AcDbEntity
  8
FRAMING
100
AcDbCircle
 10
215.968886266966
 20
204.7023298419065
 30
0.0
 40
0.5
  0
CIRCLE
  5
12024
330
17
100
AcDbEntity
  8
FRAMING
100
AcDbCircle
 10
214.5546727045929
 20
203.2881162795334
 30
0.0
 40
0.5
  0
CIRCLE
  5
12025
330
17
100
AcDbEntity
  8
FRAMING
100
AcDbCircle
 10
213.1404591422198
 20
201.8739027171603
 30
0.0
 40
0.5
  0
CIRCLE
  5
12026
330
17
100
AcDbEntity
  8
FRAMING
100
AcDbCircle
 10
211.7262455798467
 20
200.4596891547872
 30
0.0
 40
0.5
  0
CIRCLE
  5
12028
330
17
100
AcDbEntity
  8
FRAMING
100
AcDbCircle
 10
223.0399540788316
 20
211.7733976537719
 30
0.0
 40
0.5
  0
CIRCLE
  5
12029
330
17
100
AcDbEntity
  8
FRAMING
100
AcDbCircle
 10
221.6257405164585
 20
210.3591840913988
 30
0.0
 40
0.5
  0
CIRCLE
  5
1202A
330
17
100
AcDbEntity
  8
FRAMING
100
AcDbCircle
 10
220.2115269540854
 20
208.9449705290258
 30
0.0
 40
0.5
  0
CIRCLE
  5
1202B
330
17
100
AcDbEntity
  8
FRAMING
100
AcDbCircle
 10
218.7973133917122
 20
207.5307569666527
 30
0.0
 40
0.5
  0
CIRCLE
  5
1202C
330
17
100
AcDbEntity
  8
FRAMING
100
AcDbCircle
 10
217.3830998293391
 20
206.1165434042796
 30
0.0
 40
0.5
  0
CIRCLE
  5
1202D
330
17
100
AcDbEntity
  8
FRAMING
100
AcDbCircle
 10
225.8683812035776
 20
214.6018247785182
 30
0.0
 40
0.5
  0
ARC
  5
1202E
330
17
100
AcDbEntity
  8
FRAMING
100
AcDbCircle
 10
224.4541676412045
 20
213.187611216145
 30
0.0
 40
0.5
100
AcDbArc
 50
160.8266638561468
 51
19.17333614385317
  0
CIRCLE
  5
12030
330
17
100
AcDbEntity
  8
FRAMING
100
AcDbCircle
 10
207.8683812035777
 20
214.6018247785182
 30
0.0
 40
0.5
  0
CIRCLE
  5
12032
330
17
100
AcDbEntity
  8
FRAMING
100
AcDbCircle
 10
205.8683812035777
 20
214.6018247785182
 30
0.0
 40
0.5
  0
ARC
  5
12033
330
17
100
AcDbEntity
  8
FRAMING
100
AcDbCircle
 10
208.8978184551005
 20
197.631262030041
 30
0.0
 40
0.5
100
AcDbArc
 50
123.9779978142455
 51
236.0220021857545
  0
INSERT
  5
12045
330
17
100
AcDbEntity
  8
FRAMING
100
AcDbBlockReference
  2
A$C2D8E259A
 10
208.6183802827711
 20
191.87473156976
 30
0.0
 41
-2.0
 42
2.0
 43
2.0
  0
LWPOLYLINE
  5
12046
330
17
100
AcDbEntity
  8
FRAMING
100
AcDbPolyline
 90
        3
 70
     0
 43
0.0
 10
208.6183812035776
 20
196.5985374896788
 10
207.3578540826749
 20
197.8590646105816
 10
208.6183812035776
 20
199.1195917314844
  0
LINE
  5
12047
330
17
100
AcDbEntity
  8
FRAMING
100
AcDbLine
 10
208.6183812035776
 20
215.5401205323996
 30
0.0
 11
211.1183812035776
 21
215.5401205323996
 31
0.0
  0
LINE
  5
12048
330
17
100
AcDbEntity
  8
FRAMING
100
AcDbLine
 10
211.1183812035776
 20
215.5401205323996
 30
0.0
 11
211.1183812035776
 21
191.5401205323996
 31
0.0
  0
LINE
  5
12049
330
17
100
AcDbEntity
  8
FRAMING
100
AcDbLine
 10
211.1183812035776
 20
191.5401205323996
 30
0.0
 11
208.6183812035776
 21
191.5401205323996
 31
0.0
  0
LINE
  5
1204A
330
17
100
AcDbEntity
  8
FRAMING
100
AcDbLine
 10
208.6183812035776
 20
191.5401205323996
 30
0.0
 11
208.6183812035776
 21
215.5401205323996
 31
0.0
  0
LINE
  5
1204B
330
17
100
AcDbEntity
  8
FRAMING
100
AcDbLine
 10
208.9113608339082
 20
191.5401205323996
 30
0.0
 11
208.9113608339082
 21
215.5401205323996
 31
0.0
  0
LWPOLYLINE
  5
1204C
330
17
100
AcDbEntity
  8
FRAMING
100
AcDbPolyline
 90
        2
 70
     0
 43
0.0
 10
226.3861481565441
 20
213.3518247785182
 10
211.1183812035776
 20
198.0840578255517
  0
DIMENSION
  5
1205D
330
17
100
AcDbEntity
  8
TEXT
100
AcDbDimension
  2
*D21
 10
222.8506142506114
 20
213.3518247785182
 30
0.0
 11
217.5255546890237
 21
211.4237703829346
 31
0.0
 70
   162
 71
     5
 42
0.7853981633974483
 73
     0
 74
     0
 75
     0
  3
STANDARD
100
AcDb2LineAngularDimension
 13
232.9380989563995
 23
213.3518247785182
 33
0.0
 14
211.1183812035776
 24
213.3518247785182
 34
0.0
 15
211.1183812035776
 25
201.6195917314844
 35
0.0
 16
217.9460001154229
 26
210.5201444872959
 36
0.0
  0
TEXT
  5
12085
330
17
100
AcDbEntity
  8
SECTION JOINTS
100
AcDbText
 10
273.9308633903065
 20
237.766852528955
 30
0.0
 40
2.0
  1
A
  7
WEB PAGE
100
AcDbText
  0
TEXT
  5
12088
330
17
100
AcDbEntity
  8
SECTION JOINTS
100
AcDbText
 10
273.9308633903065
 20
266.9816107066522
 30
0.0
 40
2.0
  1
A
  7
WEB PAGE
100
AcDbText
  0
TEXT
  5
1208F
330
17
100
AcDbEntity
  8
TEXT
100
AcDbText
 10
121.517596241851
 20
113.8737843627294
 30
0.0
 40
3.0
  1
%%USTANDARD LIFT BRACKET MOUNT TRACK SET DETAIL
  7
WEB PAGE
100
AcDbText
  0
SOLID
  5
12091
330
17
100
AcDbEntity
  8
SECTION JOINTS
100
AcDbTrace
 10
280.305166675194
 20
239.2146729202676
 30
0.0
 11
277.305166675194
 21
238.7146729202676
 31
0.0
 12
280.305166675194
 22
238.2146729202676
 32
0.0
 13
280.305166675194
 23
238.2146729202676
 33
0.0
1001
ACAD
1000
DSTYLE
1002
{
1070
   147
1040
1.0
1070
    77
1070
     0
1002
}
  0
LINE
  5
12092
330
17
100
AcDbEntity
  8
SECTION JOINTS
100
AcDbLine
 10
287.3555256903735
 20
267.9294310979648
 30
0.0
 11
287.3555256903735
 21
238.7146729202676
 31
0.0
1001
ACAD
1000
DSTYLE
1002
{
1070
   147
1040
1.0
1070
    77
1070
     0
1002
}
  0
LINE
  5
12093
330
17
100
AcDbEntity
  8
SECTION JOINTS
100
AcDbLine
 10
280.305166675194
 20
238.7146729202676
 30
0.0
 11
287.3555256903735
 21
238.7146729202676
 31
0.0
1001
ACAD
1000
DSTYLE
1002
{
1070
   147
1040
1.0
1070
    77
1070
     0
1002
}
  0
LINE
  5
12094
330
17
100
AcDbEntity
  8
SECTION JOINTS
100
AcDbLine
 10
280.305166675194
 20
267.9294310979648
 30
0.0
 11
287.3555256903735
 21
267.9294310979648
 31
0.0
1001
ACAD
1000
DSTYLE
1002
{
1070
   147
1040
1.0
1070
    77
1070
     0
1002
}
  0
SOLID
  5
12095
330
17
100
AcDbEntity
  8
SECTION JOINTS
100
AcDbTrace
 10
280.305166675194
 20
268.4294310979648
 30
0.0
 11
277.305166675194
 21
267.9294310979648
 31
0.0
 12
280.305166675194
 22
267.4294310979647
 32
0.0
 13
280.305166675194
 23
267.4294310979647
 33
0.0
1001
ACAD
1000
DSTYLE
1002
{
1070
   147
1040
1.0
1070
    77
1070
     0
1002
}
  0
TEXT
  5
12096
330
17
100
AcDbEntity
  8
TEXT
100
AcDbText
 10
226.63722684452
 20
181.8973532140376
 30
0.0
 40
3.0
  1
%%USECTION A-A
  7
WEB PAGE
100
AcDbText
  0
TEXT
  5
12097
330
17
100
AcDbEntity
  8
TEXT
100
AcDbText
 10
216.6008079126316
 20
175.990853026517
 30
0.0
 40
3.0
  1
%%USUPPORT HANGER DETAIL
  7
WEB PAGE
100
AcDbText
  0
MTEXT
  5
122EC
330
17
100
AcDbEntity
  8
TEXT
100
AcDbMText
 10
215.106712323036
 20
163.0578618727465
 30
0.0
 40
2.6
 41
37.3125
 46
0.0
 71
     2
 72
     5
  1
HEADROOM\PREQUIREMENTS
  7
WEB PAGE
 73
     1
 44
1.0
  0
LINE
  5
122ED
330
17
100
AcDbEntity
  8
TEXT
100
AcDbLine
 10
195.5499927994204
 20
147.1652266153717
 30
0.0
 11
234.2556485933621
 21
147.1652266153717
 31
0.0
  0
LINE
  5
122EE
330
17
100
AcDbEntity
  8
TEXT
100
AcDbLine
 10
195.5499927994204
 20
154.0488364163399
 30
0.0
 11
234.2556485933621
 21
154.0488364163399
 31
0.0
  0
TEXT
  5
122FE
330
17
100
AcDbEntity
  8
TEXT
100
AcDbText
 10
199.90093976905
 20
137.1860109270272
 30
0.0
 40
1.75
  1
16'3" - 18'
  7
WEB PAGE
 72
     1
 11
205.2001466904632
 21
137.1860109270272
 31
0.0
100
AcDbText
  0
TEXT
  5
12304
330
17
100
AcDbEntity
  8
TEXT
100
AcDbText
 10
199.7140813475872
 20
140.6918441052585
 30
0.0
 40
1.75
  1
12'3" - 16'
  7
WEB PAGE
 72
     1
 11
205.0132882690003
 21
140.6918441052585
 31
0.0
100
AcDbText
  0
TEXT
  5
1230A
330
17
100
AcDbEntity
  8
TEXT
100
AcDbText
 10
202.0267545554404
 20
144.4755864626891
 30
0.0
 40
1.75
  1
7' - 12'
  7
WEB PAGE
 72
     1
 11
205.5065671005017
 21
144.4755864626891
 31
0.0
100
AcDbText
  0
TEXT
  5
1230B
330
17
100
AcDbEntity
  8
TEXT
100
AcDbText
 10
200.5846877797166
 20
148.3181414318813
 30
0.0
 40
1.75
  1
HEIGHT
  7
WEB PAGE
 72
     1
 11
205.3924563449653
 21
148.3181414318813
 31
0.0
100
AcDbText
  0
TEXT
  5
1230C
330
17
100
AcDbEntity
  8
TEXT
100
AcDbText
 10
201.7202321200194
 20
151.3639803942532
 30
0.0
 40
1.75
  1
DOOR
  7
WEB PAGE
 72
     1
 11
205.3924563449653
 21
151.3639803942532
 31
0.0
100
AcDbText
  0
LINE
  5
1230D
330
17
100
AcDbEntity
  8
TEXT
100
AcDbLine
 10
195.5499927994204
 20
154.0488364163399
 30
0.0
 11
195.5499927994204
 21
132.6307874114991
 31
0.0
  0
LINE
  5
1230E
330
17
100
AcDbEntity
  8
TEXT
100
AcDbLine
 10
214.9967767778936
 20
154.0488364163399
 30
0.0
 11
214.9967767778936
 21
132.6307874114991
 31
0.0
  0
LINE
  5
1230F
330
17
100
AcDbEntity
  8
TEXT
100
AcDbLine
 10
234.2556485933621
 20
154.0488364163399
 30
0.0
 11
234.2556485933621
 21
132.6307874114992
 31
0.0
  0
TEXT
  5
1231E
330
17
100
AcDbEntity
  8
TEXT
100
AcDbText
 10
221.643132846934
 20
144.4755864626891
 30
0.0
 40
1.75
  1
15-1/4"
  7
WEB PAGE
 72
     1
 11
225.5437276558741
 21
144.4755864626891
 31
0.0
100
AcDbText
  0
TEXT
  5
12327
330
17
100
AcDbEntity
  8
TEXT
100
AcDbText
 10
221.643132846934
 20
137.2796864313952
 30
0.0
 40
1.75
  1
16-1/4"
  7
WEB PAGE
 72
     1
 11
225.5437276558741
 21
137.2796864313952
 31
0.0
100
AcDbText
  0
TEXT
  5
12328
330
17
100
AcDbEntity
  8
TEXT
100
AcDbText
 10
221.643132846934
 20
140.9493480998888
 30
0.0
 40
1.75
  1
15-3/4"
  7
WEB PAGE
 72
     1
 11
225.5437276558741
 21
140.9493480998888
 31
0.0
100
AcDbText
  0
TEXT
  5
12329
330
17
100
AcDbEntity
  8
TEXT
100
AcDbText
 10
218.376480494482
 20
151.3639803942532
 30
0.0
 40
1.75
  1
MINIMUM
  7
WEB PAGE
 72
     1
 11
224.5494256999615
 21
151.3639803942532
 31
0.0
100
AcDbText
  0
TEXT
  5
1232A
330
17
100
AcDbEntity
  8
TEXT
100
AcDbText
 10
217.0844833784042
 20
148.3181414318813
 30
0.0
 40
1.75
  1
HEADROOM
  7
WEB PAGE
 72
     1
 11
224.5494256999615
 21
148.3181414318813
 31
0.0
100
AcDbText
  0
LINE
  5
123AD
330
17
100
AcDbEntity
  8
TEXT
100
AcDbLine
 10
234.2556485933621
 20
143.5316168144036
 30
0.0
 11
195.5499927994204
 21
143.5316168144036
 31
0.0
  0
LINE
  5
123AE
330
17
100
AcDbEntity
  8
TEXT
100
AcDbLine
 10
234.2556485933621
 20
139.8980070134355
 30
0.0
 11
195.5499927994204
 21
139.8980070134354
 31
0.0
  0
LINE
  5
123AF
330
17
100
AcDbEntity
  8
TEXT
100
AcDbLine
 10
234.2556485933621
 20
136.2643972124673
 30
0.0
 11
195.5499927994204
 21
136.2643972124673
 31
0.0
  0
LINE
  5
123F0
330
17
100
AcDbEntity
  8
TEXT
100
AcDbLine
 10
195.5499927994204
 20
164.2873608800244
 30
0.0
 11
234.2556485933621
 21
164.2873608800243
 31
0.0
  0
LINE
  5
123F1
330
17
100
AcDbEntity
  8
TEXT
100
AcDbLine
 10
195.5499927994204
 20
154.0488364163399
 30
0.0
 11
195.5499927994204
 21
164.2873608800244
 31
0.0
  0
LINE
  5
123F2
330
17
100
AcDbEntity
  8
TEXT
100
AcDbLine
 10
234.2556485933621
 20
154.0488364163399
 30
0.0
 11
234.2556485933621
 21
164.2873608800243
 31
0.0
  0
LINE
  5
12D69
330
17
100
AcDbEntity
  8
TEXT
100
AcDbLine
 10
239.1528851875518
 20
154.0488364163399
 30
0.0
 11
286.5066371839002
 21
154.0488364163399
 31
0.0
  0
LINE
  5
12D6A
330
17
100
AcDbEntity
  8
TEXT
100
AcDbLine
 10
286.5066371839002
 20
139.8980070134356
 30
0.0
 11
239.1528851875518
 21
139.8980070134355
 31
0.0
  0
LINE
  5
12D6B
330
17
100
AcDbEntity
  8
TEXT
100
AcDbLine
 10
286.5066371839002
 20
143.5316168144037
 30
0.0
 11
239.1528851875518
 21
143.5316168144036
 31
0.0
  0
LINE
  5
12D6C
330
17
100
AcDbEntity
  8
TEXT
100
AcDbLine
 10
286.5066371839002
 20
147.1652266153718
 30
0.0
 11
239.1528851875518
 21
147.1652266153718
 31
0.0
  0
LINE
  5
12D6D
330
17
100
AcDbEntity
  8
TEXT
100
AcDbLine
 10
239.1528851875518
 20
164.2873608800244
 30
0.0
 11
286.5066371839002
 21
164.2873608800244
 31
0.0
  0
LINE
  5
12D6E
330
17
100
AcDbEntity
  8
TEXT
100
AcDbLine
 10
239.1528851875518
 20
150.7988364163399
 30
0.0
 11
286.5066371839002
 21
150.7988364163399
 31
0.0
  0
LINE
  5
12D6F
330
17
100
AcDbEntity
  8
TEXT
100
AcDbLine
 10
286.5066371839002
 20
136.2643972124674
 30
0.0
 11
239.1528851875518
 21
136.2643972124673
 31
0.0
  0
LINE
  5
12D72
330
17
100
AcDbEntity
  8
TEXT
100
AcDbLine
 10
239.1528851875518
 20
136.2643972124673
 30
0.0
 11
239.1528851875518
 21
154.0488364163399
 31
0.0
  0
TEXT
  5
12D77
330
17
100
AcDbEntity
  8
TEXT
100
AcDbText
 10
199.3169266268568
 20
129.1352487361715
 30
0.0
 40
1.75
  1
* ADD 4" FOR OPERATOR.
  7
WEB PAGE
 72
     1
 11
214.8833469585079
 21
129.1352487361715
 31
0.0
100
AcDbText
  0
LINE
  5
12D81
330
17
100
AcDbEntity
  8
TEXT
100
AcDbLine
 10
239.1528851875518
 20
154.0488364163399
 30
0.0
 11
239.1528851875518
 21
164.2873608800244
 31
0.0
  0
TEXT
  5
12D82
330
17
100
AcDbEntity
  8
TEXT
100
AcDbText
 10
243.3959097747093
 20
151.4732684291207
 30
0.0
 40
1.75
  1
DRUM
  7
WEB PAGE
 72
     1
 11
247.2725319809098
 21
151.4732684291207
 31
0.0
100
AcDbText
  0
TEXT
  5
12D83
330
17
100
AcDbEntity
  8
TEXT
100
AcDbText
 10
264.8693070038633
 20
151.4732684291207
 30
0.0
 40
1.75
  1
FORMULA
  7
WEB PAGE
 72
     1
 11
271.1867186837479
 21
151.4732684291207
 31
0.0
100
AcDbText
  0
LINE
  5
12D84
330
17
100
AcDbEntity
  8
TEXT
100
AcDbLine
 10
255.8668001835957
 20
154.0488364163399
 30
0.0
 11
255.8668001835957
 21
136.2643972124674
 31
0.0
  0
TEXT
  5
12D86
330
17
100
AcDbEntity
  8
TEXT
100
AcDbText
 10
242.27056727101
 20
140.8550877027068
 30
0.0
 40
1.75
  1
D525-216
  7
WEB PAGE
 72
     1
 11
247.5098426855737
 21
140.8550877027068
 31
0.0
100
AcDbText
  0
TEXT
  5
12D87
330
17
100
AcDbEntity
  8
TEXT
100
AcDbText
 10
242.27056727101
 20
137.0526091150512
 30
0.0
 40
1.75
  1
D800-384
  7
WEB PAGE
 72
     1
 11
247.5098426855737
 21
137.0526091150512
 31
0.0
100
AcDbText
  0
TEXT
  5
12D88
330
17
100
AcDbEntity
  8
TEXT
100
AcDbText
 10
242.9165658290489
 20
147.9864919802232
 30
0.0
 40
1.75
  1
D400-96
  7
WEB PAGE
 72
     1
 11
247.5098426855737
 21
147.9864919802232
 31
0.0
100
AcDbText
  0
TEXT
  5
12D89
330
17
100
AcDbEntity
  8
TEXT
100
AcDbText
 10
242.27056727101
 20
144.4997155313259
 30
0.0
 40
1.75
  1
D400-144
  7
WEB PAGE
 72
     1
 11
247.5098426855737
 21
144.4997155313259
 31
0.0
100
AcDbText
  0
TEXT
  5
12D8A
330
17
100
AcDbEntity
  8
TEXT
100
AcDbText
 10
262.2752190442382
 20
140.8550877027068
 30
0.0
 40
1.75
  1
F= DH + 12-1/4"
  7
WEB PAGE
 72
     1
 11
271.1867186837479
 21
140.8550877027068
 31
0.0
100
AcDbText
  0
TEXT
  5
12D8B
330
17
100
AcDbEntity
  8
TEXT
100
AcDbText
 10
264.3564194768265
 20
137.0526091150512
 30
0.0
 40
1.75
  1
F= DH + 14"
  7
WEB PAGE
 72
     1
 11
271.1867186837479
 21
137.0526091150512
 31
0.0
100
AcDbText
  0
TEXT
  5
12D8C
330
17
100
AcDbEntity
  8
TEXT
100
AcDbText
 10
262.2752190442382
 20
147.9864919802232
 30
0.0
 40
1.75
  1
F= DH + 12-1/4"
  7
WEB PAGE
 72
     1
 11
271.1867186837479
 21
147.9864919802232
 31
0.0
100
AcDbText
  0
TEXT
  5
12D8D
330
17
100
AcDbEntity
  8
TEXT
100
AcDbText
 10
262.2752190442382
 20
144.4997155313259
 30
0.0
 40
1.75
  1
F= DH + 12-1/4"
  7
WEB PAGE
 72
     1
 11
271.1867186837479
 21
144.4997155313259
 31
0.0
100
AcDbText
  0
MTEXT
  5
12D8E
330
17
100
AcDbEntity
  8
TEXT
100
AcDbMText
 10
262.8297611857259
 20
163.0738835078548
 30
0.0
 40
2.6
 41
37.3125
 46
0.0
 71
     2
 72
     5
  1
FLOOR TO SHAFT\PCENTER DISTANCE
  7
WEB PAGE
 73
     1
 44
1.0
  0
LINE
  5
12D8F
330
17
100
AcDbEntity
  8
TEXT
100
AcDbLine
 10
286.5066371839002
 20
154.0488364163399
 30
0.0
 11
286.5066371839002
 21
136.2643972124674
 31
0.0
  0
LINE
  5
12D90
330
17
100
AcDbEntity
  8
TEXT
100
AcDbLine
 10
286.5066371839002
 20
154.0488364163399
 30
0.0
 11
286.5066371839002
 21
164.2873608800244
 31
0.0
  0
TEXT
  5
12DB3
330
17
100
AcDbEntity
  8
TEXT
100
AcDbText
 10
241.0852986980926
 20
132.3427921474397
 30
0.0
 40
1.75
  1
DH = DOOR HEIGHT
  7
WEB PAGE
 72
     1
 11
253.1176526995345
 21
132.3427921474397
 31
0.0
100
AcDbText
  0
LINE
  5
12F33
330
17
100
AcDbEntity
  8
TEXT
100
AcDbLine
 10
234.2556485933621
 20
132.6307874114992
 30
0.0
 11
195.5499927994204
 21
132.6307874114991
 31
0.0
  0
TEXT
  5
12F34
330
17
100
AcDbEntity
  8
TEXT
100
AcDbText
 10
199.90093976905
 20
133.5524011260591
 30
0.0
 40
1.75
  1
18'3" - 20'
  7
WEB PAGE
 72
     1
 11
205.2001466904632
 21
133.5524011260591
 31
0.0
100
AcDbText
  0
TEXT
  5
12F35
330
17
100
AcDbEntity
  8
TEXT
100
AcDbText
 10
223.7243332795223
 20
133.6460766304271
 30
0.0
 40
1.75
  1
19"
  7
WEB PAGE
 72
     1
 11
225.5437276558741
 21
133.6460766304271
 31
0.0
100
AcDbText
  0
VIEWPORT
  5
C943
330
14
100
AcDbEntity
 67
     1
  8
0
100
AcDbViewport
 10
4.036069848780828
 20
5.028127194038511
 30
0.0
 40
14.65906608046454
 41
9.503287617744764
 68
     1
 69
     1
 12
4.036069848780828
 22
5.028127194038511
 13
0.0
 23
0.0
 14
0.5
 24
0.5
 15
0.5
 25
0.5
 16
0.0
 26
0.0
 36
1.0
 17
0.0
 27
0.0
 37
0.0
 42
50.0
 43
0.0
 44
0.0
 45
9.503287617744764
 50
0.0
 51
0.0
 72
   100
 90
    32800
  1

281
     0
 71
     1
 74
     0
110
0.0
120
0.0
130
0.0
111
1.0
121
0.0
131
0.0
112
0.0
122
1.0
132
0.0
 79
     0
146
0.0
170
     0
 61
     5
348
12F22
292
     1
282
     1
141
0.0
142
0.0
 63
   250
421
  3355443
  0
VIEWPORT
  5
12D03
330
14
100
AcDbEntity
 67
     1
  8
Defpoints
100
AcDbViewport
 10
4.036119125792726
 20
5.027981085228161
 30
0.0
 40
7.599038342654841
 41
9.429297230012652
 68
     2
 69
     2
 12
182.5907313238865
 22
194.0608874844827
 13
0.0
 23
0.0
 14
1.0
 24
1.0
 15
0.25
 25
0.25
 16
0.0
 26
0.0
 36
1.0
 17
0.0
 27
0.0
 37
0.0
 42
50.0
 43
0.0
 44
0.0
 45
263.0303583878105
 50
0.0
 51
0.0
 72
   100
 90
    32768
  1

281
     0
 71
     1
 74
     0
110
0.0
120
0.0
130
0.0
111
1.0
121
0.0
131
0.0
112
0.0
122
1.0
132
0.0
 79
     0
146
0.0
170
     0
 61
     5
348
12F22
292
     1
282
     1
141
0.0
142
0.0
 63
   250
421
  3355443
  0
ENDSEC
  0
SECTION
  2
OBJECTS
  0
DICTIONARY
  5
C
330
0
100
AcDbDictionary
281
     1
  3
ACAD_COLOR
350
12F2D
  3
ACAD_GROUP
350
D
  3
ACAD_LAYOUT
350
B57A
  3
ACAD_MATERIAL
350
12F18
  3
ACAD_MLINESTYLE
350
1A
  3
ACAD_PLOTSETTINGS
350
B57B
  3
ACAD_PLOTSTYLENAME
350
B578
  3
ACAD_TABLESTYLE
350
12F2E
  3
ACAD_VISUALSTYLE
350
12F1C
  3
AcadDim
350
12F11
  3
ACDBVARIABLEDICTIONARY
350
59
  0
DICTIONARY
  5
1303E
330
8
100
AcDbDictionary
280
     1
281
     1
  0
DICTIONARY
  5
13027
330
2
100
AcDbDictionary
280
     1
281
     1
  3
ACAD_LAYERSTATES
360
13028
  0
DICTIONARY
  5
12F2D
102
{ACAD_REACTORS
330
C
102
}
330
C
100
AcDbDictionary
281
     1
  0
DICTIONARY
  5
D
102
{ACAD_REACTORS
330
C
102
}
330
C
100
AcDbDictionary
281
     1
  0
DICTIONARY
  5
B57A
102
{ACAD_REACTORS
330
C
102
}
330
C
100
AcDbDictionary
281
     1
  3
Layout1
350
B57D
  3
Model
350
B57C
  0
DICTIONARY
  5
12F18
102
{ACAD_REACTORS
330
C
102
}
330
C
100
AcDbDictionary
281
     1
  3
ByBlock
350
12F1A
  3
ByLayer
350
12F19
  3
Global
350
12F1B
  0
DICTIONARY
  5
1A
102
{ACAD_REACTORS
330
C
102
}
330
C
100
AcDbDictionary
281
     1
  3
STANDARD
350
1B
  0
DICTIONARY
  5
B57B
102
{ACAD_REACTORS
330
C
102
}
330
C
100
AcDbDictionary
281
     1
  0
ACDBDICTIONARYWDFLT
  5
B578
102
{ACAD_REACTORS
330
C
102
}
330
C
100
AcDbDictionary
281
     1
  3
Normal
350
B579
100
AcDbDictionaryWithDefault
340
B579
  0
DICTIONARY
  5
12F2E
102
{ACAD_REACTORS
330
C
102
}
330
C
100
AcDbDictionary
281
     1
  3
Standard
350
12F2F
  0
DICTIONARY
  5
12F1C
102
{ACAD_REACTORS
330
C
102
}
330
C
100
AcDbDictionary
281
     1
  3
2dWireframe
350
12F22
  3
3D Hidden
350
12F24
  3
3dWireframe
350
12F23
  3
Basic
350
12F21
  3
Brighten
350
12F28
  3
ColorChange
350
12F2C
  3
Conceptual
350
12F25
  3
Dim
350
12F27
  3
Facepattern
350
12F2B
  3
Flat
350
12F1D
  3
FlatWithEdges
350
12F1E
  3
Gouraud
350
12F1F
  3
GouraudWithEdges
350
12F20
  3
Linepattern
350
12F2A
  3
Realistic
350
12F26
  3
Thicken
350
12F29
  0
XRECORD
  5
12F11
102
{ACAD_REACTORS
330
C
102
}
330
C
100
AcDbXrecord
280
     1
 90
   990106
  3

 60
     0
 61
     0
 62
     1
 63
     3
 64
     0
 65
     0
 66
     0
 67
     3
 68
     1
 69
     0
 70
     0
 71
     0
 72
     0
 40
0.0
170
     0
340
0
  0
DICTIONARY
  5
59
102
{ACAD_REACTORS
330
C
102
}
330
C
100
AcDbDictionary
281
     1
  3
CTABLESTYLE
350
12F63
  3
DIMADEC
350
5A
  3
SORTENTS
350
769A
  0
DICTIONARY
  5
13028
102
{ACAD_REACTORS
330
13027
102
}
330
13027
100
AcDbDictionary
281
     1
  0
LAYOUT
  5
B57D
102
{ACAD_XDICTIONARY
360
1303B
102
}
102
{ACAD_REACTORS
330
B57A
102
}
330
B57A
100
AcDbPlotSettings
  1

  2
Acrobat PDFWriter
  4
Letter
  6

 40
7.143749713897705
 41
7.143756389617919
 42
7.14373779296875
 43
7.14373779296875
 44
215.8999938964844
 45
279.3999938964844
 46
0.254
 47
0.508
 48
0.0
 49
0.0
140
0.0
141
0.0
142
1.0
143
1.0
 70
   692
 72
     0
 73
     0
 74
     1
  7

 75
    16
147
1.0
 76
     0
 77
     2
 78
   300
148
-2.342543424565567
149
-4.302392733036668
100
AcDbLayout
  1
Layout1
 70
     1
 71
     1
 10
-0.2045268223569516
 20
-0.1374382090639882
 11
8.295472937347156
 21
10.86256155064012
 12
0.0
 22
0.0
 32
0.0
 14
0.236192789979718
 24
0.3128944488356495
 34
-0.0015258207003583
 15
7.835946907581938
 25
9.743359939241372
 35
0.0000000349246037
146
0.0
 13
0.0
 23
0.0
 33
0.0
 16
1.0
 26
0.0
 36
0.0
 17
0.0
 27
1.0
 37
0.0
 76
     0
330
14
331
C943
  0
LAYOUT
  5
B57C
102
{ACAD_REACTORS
330
B57A
102
}
330
B57A
100
AcDbPlotSettings
  1

  2
\\AMARR\PMKT1 Marketing HP-8100DN LaserJet.Corp.Amarr
  4
Letter
  6

 40
4.233333110809326
 41
4.233341693878173
 42
4.233322143554687
 43
4.23333740234375
 44
215.8999938964844
 45
279.3999938964844
 46
18.542
 47
0.0
 48
139.3684830884462
 49
213.5442578355003
140
281.5818113799604
141
346.2220205485337
142
1.0
143
25.25303130686338
 70
 11956
 72
     0
 73
     1
 74
     1
  7

 75
     0
147
0.0395992064417318
 76
     0
 77
     2
 78
   300
148
-1739.144188521435
149
-2675.178293377998
100
AcDbLayout
  1
Model
 70
     1
 71
     0
 10
0.0
 20
0.0
 11
12.0
 21
9.0
 12
0.0
 22
0.0
 32
0.0
 14
0.0
 24
0.0
 34
0.0
 15
0.0
 25
0.0
 35
0.0
146
0.0
 13
0.0
 23
0.0
 33
0.0
 16
1.0
 26
0.0
 36
0.0
 17
0.0
 27
1.0
 37
0.0
 76
     0
330
17
331
12F16
  0
MATERIAL
  5
12F1A
102
{ACAD_REACTORS
330
12F18
102
}
330
12F18
100
AcDbMaterial
  1
ByBlock
  0
MATERIAL
  5
12F19
102
{ACAD_REACTORS
330
12F18
102
}
330
12F18
100
AcDbMaterial
  1
ByLayer
  0
MATERIAL
  5
12F1B
102
{ACAD_REACTORS
330
12F18
102
}
330
12F18
100
AcDbMaterial
  1
Global
  0
MLINESTYLE
  5
1B
102
{ACAD_REACTORS
330
1A
102
}
330
1A
100
AcDbMlineStyle
  2
STANDARD
 70
     0
  3

 62
   256
 51
90.0
 52
90.0
 71
     2
 49
0.5
 62
   256
  6
BYLAYER
 49
-0.5
 62
   256
  6
BYLAYER
  0
ACDBPLACEHOLDER
  5
B579
102
{ACAD_REACTORS
330
B578
102
}
330
B578
  0
TABLESTYLE
  5
12F2F
102
{ACAD_REACTORS
330
12F2E
102
}
330
12F2E
100
AcDbTableStyle
  3
Standard
 70
     0
 71
     0
 40
0.06
 41
0.06
280
     0
281
     0
  7
STANDARD
140
0.18
170
     2
 62
     0
 63
     7
283
     0
 90
      512
 91
        0
  1

274
    -2
284
     1
 64
     0
275
    -2
285
     1
 65
     0
276
    -2
286
     1
 66
     0
277
    -2
287
     1
 67
     0
278
    -2
288
     1
 68
     0
279
    -2
289
     1
 69
     0
  7
STANDARD
140
0.25
170
     5
 62
     0
 63
     7
283
     0
 90
      512
 91
        0
  1

274
    -2
284
     1
 64
     0
275
    -2
285
     1
 65
     0
276
    -2
286
     1
 66
     0
277
    -2
287
     1
 67
     0
278
    -2
288
     1
 68
     0
279
    -2
289
     1
 69
     0
  7
STANDARD
140
0.18
170
     5
 62
     0
 63
     7
283
     0
 90
      512
 91
        0
  1

274
    -2
284
     1
 64
     0
275
    -2
285
     1
 65
     0
276
    -2
286
     1
 66
     0
277
    -2
287
     1
 67
     0
278
    -2
288
     1
 68
     0
279
    -2
289
     1
 69
     0
  0
VISUALSTYLE
  5
12F22
102
{ACAD_REACTORS
330
12F1C
102
}
330
12F1C
100
AcDbVisualStyle
  2
2dWireframe
 70
     4
 71
     0
 72
     2
 73
     0
 90
        0
 40
-0.6
 41
-30.0
 62
     5
 63
     7
421
 16777215
 74
     1
 91
        4
 64
     7
 65
   257
 75
     1
175
     1
 42
1.0
 92
        0
 66
   257
 43
1.0
 76
     1
 77
     6
 78
     2
 67
     7
 79
     5
170
     0
171
     0
290
     0
174
     0
 93
        1
 44
0.0
173
     0
291
     0
 45
0.0
  0
VISUALSTYLE
  5
12F24
102
{ACAD_REACTORS
330
12F1C
102
}
330
12F1C
100
AcDbVisualStyle
  2
3D Hidden
 70
     6
 71
     1
 72
     2
 73
     2
 90
        0
 40
-0.6
 41
-30.0
 62
     5
 63
     7
421
 16777215
 74
     2
 91
        2
 64
     7
 65
   257
 75
     2
175
     1
 42
40.0
 92
        0
 66
   257
 43
1.0
 76
     1
 77
     6
 78
     2
 67
     7
 79
     3
170
     0
171
     0
290
     0
174
     0
 93
        1
 44
0.0
173
     0
291
     0
 45
0.0
  0
VISUALSTYLE
  5
12F23
102
{ACAD_REACTORS
330
12F1C
102
}
330
12F1C
100
AcDbVisualStyle
  2
3dWireframe
 70
     5
 71
     0
 72
     2
 73
     0
 90
        0
 40
-0.6
 41
-30.0
 62
     5
 63
     7
421
 16777215
 74
     1
 91
        4
 64
     7
 65
   257
 75
     1
175
     1
 42
1.0
 92
        0
 66
   257
 43
1.0
 76
     1
 77
     6
 78
     2
 67
     7
 79
     5
170
     0
171
     0
290
     0
174
     0
 93
        1
 44
0.0
173
     0
291
     0
 45
0.0
  0
VISUALSTYLE
  5
12F21
102
{ACAD_REACTORS
330
12F1C
102
}
330
12F1C
100
AcDbVisualStyle
  2
Basic
 70
     7
 71
     1
 72
     0
 73
     1
 90
        0
 40
-0.6
 41
-30.0
 62
     5
 63
     7
421
 16777215
 74
     0
 91
        4
 64
     7
 65
   257
 75
     1
175
     1
 42
1.0
 92
        8
 66
     7
 43
1.0
 76
     1
 77
     6
 78
     2
 67
     7
 79
     5
170
     0
171
     0
290
     0
174
     0
 93
        1
 44
0.0
173
     0
291
     1
 45
0.0
  0
VISUALSTYLE
  5
12F28
102
{ACAD_REACTORS
330
12F1C
102
}
330
12F1C
100
AcDbVisualStyle
  2
Brighten
 70
    12
 71
     2
 72
     2
 73
     0
 90
        0
 40
-0.6
 41
-30.0
 62
     5
 63
     7
421
 16777215
 74
     1
 91
        4
 64
     7
 65
   257
 75
     1
175
     1
 42
1.0
 92
        8
 66
     7
 43
1.0
 76
     1
 77
     6
 78
     2
 67
     7
 79
     5
170
     0
171
     0
290
     0
174
     0
 93
        1
 44
50.0
173
     0
291
     1
 45
0.0
  0
VISUALSTYLE
  5
12F2C
102
{ACAD_REACTORS
330
12F1C
102
}
330
12F1C
100
AcDbVisualStyle
  2
ColorChange
 70
    16
 71
     2
 72
     2
 73
     3
 90
        0
 40
-0.6
 41
-30.0
 62
     5
 63
     8
421
  8421504
 74
     1
 91
        4
 64
     7
 65
   257
 75
     1
175
     1
 42
1.0
 92
        8
 66
     8
424
  8421504
 43
1.0
 76
     1
 77
     6
 78
     2
 67
     7
 79
     5
170
     0
171
     0
290
     0
174
     0
 93
        1
 44
0.0
173
     0
291
     1
 45
0.0
  0
VISUALSTYLE
  5
12F25
102
{ACAD_REACTORS
330
12F1C
102
}
330
12F1C
100
AcDbVisualStyle
  2
Conceptual
 70
     9
 71
     3
 72
     2
 73
     0
 90
        0
 40
-0.6
 41
-30.0
 62
     5
 63
     7
421
 16777215
 74
     2
 91
        2
 64
     7
 65
   257
 75
     1
175
     1
 42
40.0
 92
        8
 66
     7
 43
1.0
 76
     1
 77
     6
 78
     2
 67
     7
 79
     3
170
     0
171
     0
290
     0
174
     0
 93
        1
 44
0.0
173
     0
291
     0
 45
0.0
  0
VISUALSTYLE
  5
12F27
102
{ACAD_REACTORS
330
12F1C
102
}
330
12F1C
100
AcDbVisualStyle
  2
Dim
 70
    11
 71
     2
 72
     2
 73
     0
 90
        0
 40
-0.6
 41
-30.0
 62
     5
 63
     7
421
 16777215
 74
     1
 91
        4
 64
     7
 65
   257
 75
     1
175
     1
 42
1.0
 92
        8
 66
     7
 43
1.0
 76
     1
 77
     6
 78
     2
 67
     7
 79
     5
170
     0
171
     0
290
     0
174
     0
 93
        1
 44
-50.0
173
     0
291
     1
 45
0.0
  0
VISUALSTYLE
  5
12F2B
102
{ACAD_REACTORS
330
12F1C
102
}
330
12F1C
100
AcDbVisualStyle
  2
Facepattern
 70
    15
 71
     2
 72
     2
 73
     0
 90
        0
 40
-0.6
 41
-30.0
 62
     5
 63
     7
421
 16777215
 74
     1
 91
        4
 64
     7
 65
   257
 75
     1
175
     1
 42
1.0
 92
        8
 66
     7
 43
1.0
 76
     1
 77
     6
 78
     2
 67
     7
 79
     5
170
     0
171
     0
290
     0
174
     0
 93
        1
 44
0.0
173
     0
291
     1
 45
0.0
  0
VISUALSTYLE
  5
12F1D
102
{ACAD_REACTORS
330
12F1C
102
}
330
12F1C
100
AcDbVisualStyle
  2
Flat
 70
     0
 71
     2
 72
     1
 73
     1
 90
        2
 40
-0.6
 41
30.0
 62
     5
 63
     7
421
 16777215
 74
     0
 91
        4
 64
     7
 65
   257
 75
     1
175
     1
 42
1.0
 92
        8
 66
     7
 43
1.0
 76
     1
 77
     6
 78
     2
 67
     7
 79
     5
170
     0
171
     0
290
     0
174
     0
 93
       13
 44
0.0
173
     0
291
     1
 45
0.0
  0
VISUALSTYLE
  5
12F1E
102
{ACAD_REACTORS
330
12F1C
102
}
330
12F1C
100
AcDbVisualStyle
  2
FlatWithEdges
 70
     1
 71
     2
 72
     1
 73
     1
 90
        2
 40
-0.6
 41
30.0
 62
     5
 63
     7
421
 16777215
 74
     1
 91
        4
 64
     7
 65
   257
 75
     1
175
     1
 42
1.0
 92
        0
 66
   257
 43
1.0
 76
     1
 77
     6
 78
     2
 67
     7
 79
     5
170
     0
171
     0
290
     0
174
     0
 93
       13
 44
0.0
173
     0
291
     1
 45
0.0
  0
VISUALSTYLE
  5
12F1F
102
{ACAD_REACTORS
330
12F1C
102
}
330
12F1C
100
AcDbVisualStyle
  2
Gouraud
 70
     2
 71
     2
 72
     2
 73
     1
 90
        2
 40
-0.6
 41
30.0
 62
     5
 63
     7
421
 16777215
 74
     0
 91
        4
 64
     7
 65
   257
 75
     1
175
     1
 42
1.0
 92
        0
 66
     7
 43
1.0
 76
     1
 77
     6
 78
     2
 67
     7
 79
     5
170
     0
171
     0
290
     0
174
     0
 93
       13
 44
0.0
173
     0
291
     1
 45
0.0
  0
VISUALSTYLE
  5
12F20
102
{ACAD_REACTORS
330
12F1C
102
}
330
12F1C
100
AcDbVisualStyle
  2
GouraudWithEdges
 70
     3
 71
     2
 72
     2
 73
     1
 90
        2
 40
-0.6
 41
30.0
 62
     5
 63
     7
421
 16777215
 74
     1
 91
        4
 64
     7
 65
   257
 75
     1
175
     1
 42
1.0
 92
        0
 66
   257
 43
1.0
 76
     1
 77
     6
 78
     2
 67
     7
 79
     5
170
     0
171
     0
290
     0
174
     0
 93
       13
 44
0.0
173
     0
291
     1
 45
0.0
  0
VISUALSTYLE
  5
12F2A
102
{ACAD_REACTORS
330
12F1C
102
}
330
12F1C
100
AcDbVisualStyle
  2
Linepattern
 70
    14
 71
     2
 72
     2
 73
     0
 90
        0
 40
-0.6
 41
-30.0
 62
     5
 63
     7
421
 16777215
 74
     1
 91
        4
 64
     7
 65
   257
 75
     7
175
     7
 42
1.0
 92
        8
 66
     7
 43
1.0
 76
     1
 77
     6
 78
     2
 67
     7
 79
     5
170
     0
171
     0
290
     0
174
     0
 93
        1
 44
0.0
173
     0
291
     1
 45
0.0
  0
VISUALSTYLE
  5
12F26
102
{ACAD_REACTORS
330
12F1C
102
}
330
12F1C
100
AcDbVisualStyle
  2
Realistic
 70
     8
 71
     2
 72
     2
 73
     0
 90
        0
 40
-0.6
 41
-30.0
 62
     5
 63
     7
421
 16777215
 74
     1
 91
        0
 64
     7
 65
   257
 75
     1
175
     1
 42
1.0
 92
        8
 66
     8
424
  7895160
 43
1.0
 76
     1
 77
     6
 78
     2
 67
     7
 79
     5
170
     0
171
     0
290
     0
174
     0
 93
       13
 44
0.0
173
     0
291
     0
 45
0.0
  0
VISUALSTYLE
  5
12F29
102
{ACAD_REACTORS
330
12F1C
102
}
330
12F1C
100
AcDbVisualStyle
  2
Thicken
 70
    13
 71
     2
 72
     2
 73
     0
 90
        0
 40
-0.6
 41
-30.0
 62
     5
 63
     7
421
 16777215
 74
     1
 91
        4
 64
     7
 65
   257
 75
     1
175
     1
 42
1.0
 92
       12
 66
     7
 43
1.0
 76
     1
 77
     6
 78
     2
 67
     7
 79
     5
170
     0
171
     0
290
     0
174
     0
 93
        1
 44
0.0
173
     0
291
     1
 45
0.0
  0
DICTIONARYVAR
  5
12F63
102
{ACAD_REACTORS
330
59
102
}
330
59
100
DictionaryVariables
280
     0
  1
STANDARD
  0
DICTIONARYVAR
  5
5A
102
{ACAD_REACTORS
330
59
102
}
330
59
100
DictionaryVariables
280
     0
  1
0
  0
DICTIONARYVAR
  5
769A
102
{ACAD_REACTORS
330
59
102
}
330
59
100
DictionaryVariables
280
     0
  1
96
  0
DICTIONARY
  5
1303B
330
B57D
100
AcDbDictionary
280
     1
281
     1
  3
ADSK_XREC_LAYOUTTHUMBNAIL
360
1303C
  0
XRECORD
  5
1303C
102
{ACAD_REACTORS
330
1303B
102
}
330
1303B
100
AcDbXrecord
280
     1
310
280000006C0000008C0000000100080000000000103B0000000000000000000000010000000000000000000000000000FFFFFF000000000000000000000000000000000000000000000000000000000000000000330000006600000099000000CC000000FF00000000330000333300006633000099330000CC330000FF3300
310
0000660000336600006666000099660000CC660000FF66000000990000339900006699000099990000CC990000FF99000000CC000033CC000066CC000099CC0000CCCC0000FFCC000000FF000033FF000066FF000099FF0000CCFF0000FFFF000000003300330033006600330099003300CC003300FF003300003333003333
310
33006633330099333300CC333300FF33330000663300336633006666330099663300CC663300FF66330000993300339933006699330099993300CC993300FF99330000CC330033CC330066CC330099CC3300CCCC3300FFCC330000FF330033FF330066FF330099FF3300CCFF3300FFFF330000006600330066006600660099
310
006600CC006600FF00660000336600333366006633660099336600CC336600FF33660000666600336666006666660099666600CC666600FF66660000996600339966006699660099996600CC996600FF99660000CC660033CC660066CC660099CC6600CCCC6600FFCC660000FF660033FF660066FF660099FF6600CCFF6600
310
FFFF660000009900330099006600990099009900CC009900FF00990000339900333399006633990099339900CC339900FF33990000669900336699006666990099669900CC669900FF66990000999900339999006699990099999900CC999900FF99990000CC990033CC990066CC990099CC9900CCCC9900FFCC990000FF99
310
0033FF990066FF990099FF9900CCFF9900FFFF99000000CC003300CC006600CC009900CC00CC00CC00FF00CC000033CC003333CC006633CC009933CC00CC33CC00FF33CC000066CC003366CC006666CC009966CC00CC66CC00FF66CC000099CC003399CC006699CC009999CC00CC99CC00FF99CC0000CCCC0033CCCC0066CC
310
CC0099CCCC00CCCCCC00FFCCCC0000FFCC0033FFCC0066FFCC0099FFCC00CCFFCC00FFFFCC000000FF003300FF006600FF009900FF00CC00FF00FF00FF000033FF003333FF006633FF009933FF00CC33FF00FF33FF000066FF003366FF006666FF009966FF00CC66FF00FF66FF000099FF003399FF006699FF009999FF00CC
310
99FF00FF99FF0000CCFF0033CCFF0066CCFF0099CCFF00CCCCFF00FFCCFF0000FFFF0033FFFF0066FFFF0099FFFF00CCFFFF00FFFFFF00000000000D0D0D001A1A1A00282828003535350043434300505050005D5D5D006B6B6B00787878008686860093939300A1A1A100AEAEAE00BBBBBB00C9C9C900D6D6D600E4E4E400
310
F1F1F100FFFFFF0000000000000000000000000000000000000000000000000000000000000000000000000000000000EFEFF5F5F5F5F5F5F5F5F5F5F5F5F5F5F5F5F5F5F5F5F5F5F5F5F5F5F5F5F5F5F5F5F5F5F5F5F5F5F5F5F5F5F5F5F5F5F5F5F5F5F5F5F5F5F5F5F5F5F5F5F5F5F5F5F5F5F5F5F5F5F5F5F5F5F5F5F5
310
F5F5F5F5F5F5F5F5F5F5F5F5F5F5F5F5F5F5F5F5F5F5F5F5F5F5F5F5F5F5F5F5F5F5F5F5F5F5F5F5F5F5F5F5F5F5F5F5F5F5F5F5F5F5F5F5F5F5F5F5F5F5F5F5F5F5F5F5F5F5F5F5F5F5F5F5F5F5F5F5F5F5F5F5F5F5F5F5F5F5F5F5F5F5F5F5F5F5F5F5F5F5F5F5F5F5F5F5F5F5F5F5F5F5F5F5F5F5F5F5F5F5F5F5F5F5F5
310
F5F5F5F5F5F5F5F5F5F5F5E2E2E2E2E2E2E2E2E2E2E2E2E2E2E2E2E2E2E2E2E2E2E2E2E2E2E2E2E2E2E2E2E2E2E2E2E2E2E2E2E2E2E2E2E2E2E2E2E2E2E2E2E2E2E2E2E2E2E2E2E2E2E2E2E2E2E2E2E2E2E2E2E2E2E2E2E2E2E2E2E2E2E2E2E2E2E2E2E2E2E2E2E2E2E2E2E2E2E2E2E2E2E2E2E2E2F5F5E2E2E2E2E2E2E2E2
310
E2E2E2E2E2E2E2E2E2E2E2E2E2E2E2E2E2E2E2E2E2E2E2E2E2E2E2E2E2E2E2E2E2E2E2E2E2E2E2E2E2E2E2E2E2E2E2E2E2E2E2E2E2E2E2E2E2E2E2E2E2E2E2E2E2E2E2E2E2E2E2E2E2E2E2E2E2E2E2E2E2E2E2E2E2E2E2E2E2E2E2E2E2E2E2E2E2E2F5F5E2E2F5F5F5F5F5F5F5F5F5E2E2E2E2E2E2E2E2E2F5F5F5F5F5F5F5
310
F5F5F5F5F5F5F5F5F5E2E2E2E2E2E2E2E2E2F5F5F5F5F5F5F5F5F5F5F5F5F5F5F5F5E2E2E2E2E2E2E2E2E2F5F5F5F5F5F5F5F5F5F5F5F5F5F5F5F5E2E2E2E2E2E2E2E2E2F5F5F5F5F5F5F5F5F5E2E2F5F5E2E2F5E2E2E2E2E2E2E2E2E2E2E2E2E2E2E2E2E2E2E2E2E2E2E2E2E2E2E2E2E2E2E2E2E2E2E2E2E2E2E2E2E2E2E2
310
E2E2E2E2E2E2E2E2E2E2E2E2E2E2E2E2E2E2E2E2E2E2E2E2E2E2E2E2E2E2E2E2E2E2E2E2E2E2E2E2E2E2E2E2E2E2E2E2E2E2E2E2E2E2E2E2E2F5E2E2F5F5E2E2F5E2F5F5F5F5F5F5F5F5F5F5F5F5F5F5F5F5F5F5F5F5F5F5F5F5F5F5F5F5F5F5F5F5F5F5F5F5F5F5F5F5F5F5F5F5F5F5F5F5F5F5F5F5F5F5F5F5F5F5F5F5F5
310
F5F5F5F5F5F5F5F5F5F5F5F5F5F5F5F5F5F5F5F5F5F5F5F5F5F5F5F5F5F5F5F5F5F5F5F5E2E2F5E2E2F5F5E2E2F5E2F5E2E2E2E2E2E2E2E2E2E2E2E2E2E2E2E2E2E2E2E2E2E2E2E2E2E2E2E2E2E2E2E2E2E2E2E2E2E2E2E2E2E2E2E2E2E2E2E2E2E2E2E2E2E2E2E2E2E2E2E2E2E2E2E2E2E2E2E2E2E2E2E2E2E2E2E2E2E2E2
310
E2E2E2E2E2E2E2E2E2E2E2E2E2E2E2E2F5E2E2F5E2E2F5F5E2E2F5E2F5E2E2E2E2E2E2E2E2E2E2E2E2E2E2E2E2E2E2E2E2E2E2E2E2E2E2E2E2E2E2E2E2E2E2E2E2E2E2E2E2E2E2E2E2E2E2E2E2E2E2E2E2E2E2E2E2E2E2E2E2E2E2E2E2E2E2E2E2E2E2E2E2E2E2E2E2E2E2E2E2E2E2E2E2E2E2E2E2E2E2E2E2E2E2E2F5E2E2
310
F5E2E2F5F5E2E2F5E2F5E2E2E2E2E2E2E2E2E2E2E2E2E2E2E2E2E2E2E2E2E2E2E2E2E2E2E2E2E2E2E2E2E2E2E2E2E2E2E2E2E2E2E2E2E2E2E2E2E2E2E2E2E2E2E2E2E2E2E2E2E2E2E2E2E2E2E2E2E2E2E2E2E2E2E2E2E2E2E2E2E2E2E2E2E2E2E2E2E2E2E2E2E2E2E2F5E2E2F5E2E2F5F5E2E2F5E2F5E2E2E2E2E2E2E2E2E2
310
E2E2E2E2E2E2E2E2E2E2E2E2E2E2E2E2E2E2E2E2E2E2E2E2E2E2E2E2E2E2E2E2E2E2E2E2E2E2E2E2E2E2E2E2E2E2E2E2E2E2E2E2E2E2E2E2E2E2E2E2E2E2E2E2E2E2E2E2E2E2E2E2E2E2E2E2E2E2E2E2E2E2E2E2E2E2F5E2E2F5E2E2F5F5E2E2F5E2F5E2E2E2E2E2E2E2E2E2E2E2E2E2E2E2E2E2E2E2E2E2E2E2E2E2E2E2E2
310
E2E2E2E2E2E2E2E2E2E2E2E2E2E2E2E2E2E2E2E2E2E2E2E2E2E2E2E2E2E2E2E2E2E2E2E2E2E2E2E2E2E2E2E2E2E2E2E2E2E2E2E2E2E2E2E2E2E2E2E2E2E2E2E2E2E2E2F5E2E2F5E2E2F5F5E2E2F5E2F5E2E2E2E2E2E2E2E2E2E2E2E2E2E2E2E2E2E2E2E2E2E2E2E2E2E2E2E2E2E2E2E2E2E2E2E2E2E2E2E2E2E2E2E2E2E2E2
310
E2E2E2E2E2E2E2E2E2E2E2E2E2E2E2E2E2E2E2E2E2E2E2E2E2E2E2E2E2E2E2E2E2E2E2E2E2E2E2E2E2E2E2E2E2E2E2E2F5E2E2F5E2E2F5F5E2E2E2E2F5E2E2E2E2E2E2E2E2E2E2E2E2E2E2E2E2E2E2E2E2E2E2E2E2E2E2E2E2E2E2E2E2E2E2E2E2E2E2E2E2E2E2E2E2E2E2E2E2E2E2E2E2E2E2E2E2E2E2E2E2E2E2E2E2E2E2
310
E2E2E2E2E2E2E2E2E2E2E2E2E2E2E2E2E2E2E2E2E2E2E2E2E2E2E2E2E2F5E2E2E2E2E2F5F5E2E2E2E2F5E2E2E2E2E2E2E2E2E2E2E2E2E2E2E2E2E2E2E2E2E2E2E2E2E2E2E2E2E2E2E2E2E2E2E2E2E2E2E2E2E2E2E2E2E2E2E2E2E2E2E2E2E2E2E2E2E2E2E2E2E2E2E2E2E2E2E2E2E2E2E2E2E2E2E2E2E2E2E2E2E2E2E2E2E2
310
E2E2E2E2E2E2E2E2E2E2F5E2E2E2E2E2F5F5E2E2E2E2F5E2E2E2E2E2E2E2E2E2E2E2E2E2E2E2E2E2E2E2E2E2E2E2E2E2E2E2E2E2E2E2E2E2E2E2E2E2E2E2E2E2E2E2E2E2E2E2E2E2E2E2E2E2E2E2E2E2E2E2E2E2E2E2E2E2E2E2E2E2E2E2E2E2E2E2E2E2E2E2E2E2E2E2E2E2E2E2E2E2E2E2E2E2E2E2F5E2E2E2E2E2F5F5E2
310
E2E2E2F5E2E2E2E2E2E2E2E2E2E2E2E2E2E2E2E2E2E2E2E2E2E2E2E2E2E2E2E2E2E2E2E2E2E2E2E2E2E2E2E2E2E2E2E2E2E2E2E2E2E2E2E2E2E2E2E2E2E2E2E2E2E2E2E2E2E2E2E2E2E2E2E2E2E2E2E2E2E2E2E2E2E2E2E2E2E2E2E2E2E2E2E2E2E2E2F5E2E2E2E2E2F5F5E2E2E2E2F5E2E2E2E2E2E2E2E2E2E2E2E2E2E2E2
310
E2E2E2E2E2E2E2E2E2E2E2E2E2E2E2E2E2E2E2E2E2E2E2E2E2E2E2E2E2E2E2E2E2E2E2E2E2E2E2E2E2E2E2E2E2E2E2E2E2E2E2E2E2E2E2E2E2E2E2E2E2E2E2E2E2E2E2E2E2E2E2E2E2E2E2E2E2E2E2E2F5E2E2E2E2E2F5F5E2E2E2E2F5E2E2E2E2E2E2E2E2E2E2E2E2E2E2E2E2E2E2E2E2E2E2E2E2E2E2E2E2E2E2E2E2E2E2
310
E2E2E2E2E2E2E2E2E2E2E2E2E2E2E2E2E2E2E2E2E2E2E2E2E2E2E2E2E2E2E2E2E2E2E2E2E2E2E2E2E2E2E2E2E2E2E2E2E2E2E2E2E2E2E2E2E2E2E2E2E2F5E2E2E2E2E2F5F5E2E2E2E2F5E2E2E2E2E2E2E2E2E2E2E2E2E2E2E2E2E2E2E2E2E2E2E2E2E2E2E2E2E2E2E2E2E2E2E2E2E2E2E2E2E2E2E2E2E2E2E2E2E2E2E2E2E2
310
E2E2E2E2E2E2E2E2E2E2E2E2E2E2E2E2E2E2E2E2E2E2E2E2E2E2E2E2E2E2E2E2E2E2E2E2E2E2E2E2E2E2F5E2E2E2E2E2F5F5E2E2E2E2F5E2E2E2E2E2E2E2E2E2E2E2E2E2E2E2E2E2E2E2E2E2E2E2E2E2E2E2E2E2E2E2E2E2E2E2E2E2E2E2E2E2E2E2E2E2E2E2E2E2E2E2E2E2E2E2E2E2E2E2E2E2E2E2E2E2E2E2E2E2E2E2E2
310
E2E2E2E2E2E2E2E2E2E2E2E2E2E2E2E2E2E2E2E2E2E2E2F5E2E2E2E2E2F5F5E2E2E2E2F5E2E2E2E2E2E2E2E2E2E2E2E2E2E2E2E2E2E2E2E2E2E2E2E2E2E2E2E2E2E2E2E2E2E2E2E2E2E2E2E2E2E2E2E2E2E2E2E2E2E2E2E2E2E2E2E2E2E2E2E2E2E2E2E2E2E2E2E2E2E2E2E2E2E2E2E2E2E2E2E2E2E2E2E2E2E2E2E2E2E2E2
310
E2E2E2E2F5E2E2E2E2E2F5F5E2E2F5E2F5E2E2E2E2E2E2E2E2E2E2E2E2E2E2E2E2E2E2E2E2E2E2E2E2E2E2E2E2E2E2E2E2E2E2E2E2E2E2E2E2E2E2E2E2E2E2E2E2E2E2E2E2E2E2E2E2E2E2E2E2E2E2E2E2E2E2E2E2E2E2E2E2E2E2E2E2E2E2E2E2E2E2E2E2E2E2E2E2E2E2E2E2E2E2E2F5E2E2F5E2E2F5F5E2E2F5E2F5E2E2
310
E2E2E2E2E2E2E2E2E2E2E2E2E2E2E2E2E2E2E2E2E2E2E2E2E2E2E2E2E2E2E2E2E2E2E2E2E2E2E2E2E2E2E2E2E2E2E2E2E2E2E2E2E2E2E2E2E2E2E2E2E2E2E2E2E2E2E2E2E2E2E2E2E2E2E2E2E2E2E2E2E2E2E2E2E2E2E2E2E2E2E2E2E2F5E2E2F5E2E2F5F5E2E2F5E2F5E2E2E2E2E2E2E2E2E2E2E2E2E2E2E2E2E2E2E2E2E2
310
E2E2E2E2E2E2E2E2E2E2E2E2E2E2E2E2E2E2E2E2E2E2E2E2E2E2E2E2E2E2E2E2E2E2E2E2E2E2E2E2E2E2E2E2E2E2E2E2E2E2E2E2E2E2E2E2E2E2E2E2E2E2E2E2E2E2E2E2E2E2E2E2E2E2F5E2E2F5E2E2F5F5E2E2F5E2F5E2E2E2E2E2E2E2E2E2E2E2E2E2E2E2E2E2E2E2E2E2E2E2E2E2E2E2E2E2E2E2E2E2E2E2E2E2E2E2E2
310
E2E2E2E2E2E2E2E2E2E2E2E2E2E2E2E2E2E2E2E2E2E2E2E2E2E2E2E2E2E2E2E2E2E2E2E2E2E2E2E2E2E2E2E2E2E2E2E2E2E2E2E2E2E2E2F5E2E2F5E2E2F5F5E2E2F5E2F5E2E2E2E2E2E2E2E2E2E2E2E2E2E2E2E2E2E2E2E2E2E2E2E2E2E2E2E2E2E2E2E2E2E2E2E2E2E2E2E2E2E2E2E2E2E2E2E2E2E2E2E2E2E2E2E2E2E2E2
310
E2E2E2E2E2E2E2E2E2E2E2E2E2E2E2E2E2E2E2E2E2E2E2E2E2E2E2E2E2E2E2E2E2E2E2E2F5E2E2F5E2E2F5F5E2E2F5E2F5E2E2E2E2E2E2E2E2E2E2E2E2E2E2E2E2E2E2E2E2E2E2E2E2E2E2E2E2E2E2E2E2E2E2E2E2E2E2E2E2E2E2E2E2E2E2E2E2E2E2E2E2E2E2E2E2E2E2E2E2E2E2E2E2E2E2E2E2E2E2E2E2E2E2E2E2E2E2
310
E2E2E2E2E2E2E2E2E2E2E2E2E2E2E2E2E2F5E2E2F5E2E2F5F5E2E2F5E2F5E2E2E2E2E2E2E2E2E2E2E2E2E2E2E2E2E2E2E2E2F5F5F5F5F5F5F5F5F5F5F5F5F5F5F5F5F5F5F5F5F5F5F5F5F5F5F5F5F5F5F5F5F5F5F5F5F5F5F5F5F5F5F5F5F5F5F5F5F5F5F5F5F5E2E2E2E2E2E2E2E2E2E2E2E2E2E2E2E2E2E2E2E2E2E2F5E2
310
E2F5E2E2F5F5E2E2F5E2F5E2E2E2E2E2E2E2E2E2E2E2E2E2E2E2E2E2E2E2E2F5F5F5F5F5F5F5F5F5F5F5F5F5F5F5F5F5F5F5F5F5F5F5F5F5F5F5F5F5F5F5F5F5F5F5F5F5F5F5F5F5F5F5F5F5F5F5F5F5F5F5F5E2E2E2E2E2E2E2E2E2E2E2E2E2E2E2E2E2E2E2E2E2E2E2F5E2E2F5E2E2F5F5E2E2F5E2F5E2E2E2E2E2E2E2E2
310
E2E2E2E2E2E2E2E2E2E2E2E2F5F5F5F5F5F5F5F5F5F5F5F5F5F5F5F5F5F5F5F5F5F5F5F5F5F5F5F5F5F5F5F5F5F5F5F5F5F5F5F5F5F5F5F5F5F5F5F5F5F5F5F5E2E2E2E2E2E2E2E2E2E2E2E2E2E2E2E2E2E2E2E2E2E2E2F5E2E2F5E2E2F5F5E2E2F5E2F5E2E2E2E2E2E2E2E2E2E2E2E2E2E2E2E2E2E2E2E2E2E2E2E2E2E2E2
310
E2E2E2E2E2E2E2E2E2E2E2E2E2E2E2E2E2E2E2E2E2E2E2E2E2E2E2E2E2E2E2E2E2E2E2E2E2E2E2E2E2E2E2E2E2E2E2E2E2E2E2E2E2E2E2E2E2E2E2E2E2E2E2E2E2E2E2E2F5E2E2F5E2E2F5F5E2E2F5E2F5E2E2E2E2E2E2E2E2E2E2E2E2E2E2E2E2E2E2E2E2E2E2E2E2E2E2E2E2E2E2E2E2E2E2E2E2E2E2E2E2E2E2E2E2E2E2
310
E2E2E2E2E2E2E2E2E2E2E2E2E2E2E2E2E2E2E2E2E2E2E2E2E2E2E2E2E2E2E2E2E2E2E2E2E2E2E2E2E2E2E2E2E2E2E2E2E2F5E2E2F5E2E2F5F5E2E2F5E2F5E2E2E2E2E2F5F5F5F5F5F5F5F5F5F5F5F5F5F5F5F5F5F5F5F5F5F5F5F5F5F5F5F5F5F5F5F5F5F5F5F5F5F5F5F5F5F5F5F5F5F5F5F5F5F5F5F5F5F5F5F5F5F5F5F5
310
F5E2E2E2E2E2E2E2E2E2E2E2E2E2E2E2E2E2E2E2E2E2E2E2E2E2E2E2E2E2F5E2E2F5E2E2F5F5E2E2F5E2F5E2E2E2E2E2F5E2E2E2E2E2E2F5F5E2E2E2E2F5F5E2E2E2E2E2E2F5E2F5F5E2E2E2E2E2E2E2E2E2E2E2E2E2E2E2E2E2F5F5E2E2E2E2E2E2E2E2E2E2E2E2E2E2E2E2E2E2E2E2E2E2E2E2E2E2E2E2E2E2E2E2E2E2E2
310
E2E2E2E2E2E2E2E2E2E2E2F5E2E2F5E2E2F5F5E2E2F5E2F5E2E2E2E2E2F5E2E2E2E2E2E2F5E2E2E2E2E2F5E2E2E2E2E2E2E2F5E2F5F5E2E2E2E2E2E2E2E2E2E2E2E2E2E2E2E2E2F5E2E2E2E2E2E2E2E2E2E2E2E2E2E2E2E2E2E2E2E2E2E2E2E2E2E2E2E2E2E2E2E2E2E2E2E2E2E2E2E2E2E2E2E2E2E2E2F5E2E2F5E2E2F5F5
310
E2E2F5E2F5E2E2E2E2E2F5E2E2E2E2E2E2F5E2E2E2E2E2F5E2E2E2E2E2E2E2F5E2F5F5E2E2E2E2E2E2E2E2E2E2E2E2E2E2E2E2E2F5E2E2E2E2E2E2E2F5F5F5F5F5F5F5F5F5F5F5F5F5F5E2E2E2E2E2E2E2E2E2E2E2E2E2E2E2E2E2E2E2E2E2E2E2E2E2E2F5E2E2F5E2E2F5F5E2E2F5E2F5E2E2E2E2E2F5E2E2E2E2E2E2F5E2
310
E2E2E2E2F5E2E2E2E2E2E2E2F5E2F5F5E2E2E2E2E2E2E2E2E2E2E2E2E2E2E2E2E2F5E2E2E2E2E2F5F5F5F5F5F5F5F5F5F5F5F5F5F5F5F5F5F5F5E2E2F5F5F5F5F5F5F5F5F5F5F5E2E2E2E2E2E2E2E2E2E2F5E2E2F5E2E2F5F5E2E2F5E2F5E2E2E2E2E2F5E2E2E2E2E2E2F5E2E2E2E2E2F5E2E2E2E2E2E2E2F5E2F5F5E2E2E2
310
E2E2E2E2E2E2E2E2E2E2E2E2E2E2F5E2E2E2E2E2F5E2F5F5F5F5F5E2E2F5E2E2E2F5F5E2E2E2F5E2E2E2E2E2E2E2E2E2E2E2E2E2E2E2E2E2E2E2E2E2E2E2F5E2E2F5E2E2F5F5E2E2E2E2F5E2E2E2E2E2F5E2E2E2E2E2E2F5E2E2E2E2E2F5E2E2E2E2E2E2E2F5E2F5F5F5E2E2F5F5F5F5F5F5F5F5F5E2E2E2E2E2F5E2E2E2E2
310
E2F5F5F5F5F5F5F5F5F5F5F5F5F5F5F5F5F5F5F5E2F5F5F5F5F5F5F5F5F5F5F5F5F5F5F5F5F5F5F5F5F5F5F5E2E2E2E2E2F5F5E2E2E2E2F5E2E2E2E2E2F5E2E2E2E2E2E2F5E2E2E2E2E2F5E2E2E2E2E2E2E2F5E2F5F5E2F5F5E2E2E2E2E2E2E2E2E2E2E2E2E2E2F5E2E2E2E2E2F5E2E2E2E2E2E2E2E2F5E2E2E2E2E2E2E2E2
310
F5E2F5E2E2E2E2E2E2F5E2E2E2E2E2E2E2E2E2E2E2E2E2F5F5E2E2E2E2E2F5F5E2E2E2E2F5E2E2E2E2E2F5E2E2E2E2E2E2F5E2E2E2E2E2F5E2E2E2E2E2E2E2F5E2F5F5E2E2E2E2E2E2E2E2E2E2E2E2E2E2E2E2E2F5E2E2E2E2E2F5F5F5F5F5F5F5F5F5F5F5F5F5F5F5F5F5F5F5E2F5F5F5F5F5F5F5F5F5F5F5F5F5F5F5F5F5
310
F5F5F5F5F5F5E2E2E2E2E2F5F5E2E2E2E2F5E2E2E2E2E2F5E2E2E2E2E2E2F5E2E2E2E2E2F5E2E2E2E2E2E2E2F5E2F5F5E2E2E2E2E2E2E2E2E2E2E2E2E2E2E2E2E2F5E2E2E2E2E2F5F5F5F5F5F5F5F5F5F5F5F5F5F5F5F5F5F5F5E2F5F5F5F5F5F5F5F5F5F5F5F5F5F5F5F5F5F5F5F5F5F5F5E2E2E2E2E2F5F5E2E2E2E2F5E2
310
E2E2E2E2F5E2E2E2E2E2E2F5E2E2E2E2E2F5E2E2E2E2E2E2E2F5E2F5F5E2E2E2E2E2E2E2E2E2E2E2E2E2E2E2E2E2F5E2E2E2E2E2F5E2E2F5F5F5E2E2E2F5E2E2F5F5F5F5E2E2F5E2F5F5F5F5F5F5E2F5E2E2F5F5F5F5F5F5F5F5E2E2E2F5F5E2E2E2E2E2F5F5E2E2E2E2F5E2E2E2E2E2F5E2E2E2E2E2E2F5E2E2E2E2E2F5E2
310
E2E2E2E2E2E2F5E2F5F5E2E2E2E2E2E2E2E2E2E2E2E2E2E2E2E2E2F5E2E2E2E2E2F5F5F5F5F5F5F5F5F5F5F5F5F5F5F5F5F5F5F5E2F5F5F5F5F5F5F5F5F5F5F5F5F5F5F5F5F5F5F5F5F5F5F5E2E2E2E2E2F5F5E2E2E2E2F5E2E2E2E2E2F5E2E2E2E2E2E2F5E2E2E2E2E2F5E2E2E2E2E2E2E2F5E2F5F5E2E2E2E2E2E2E2E2E2
310
E2E2E2E2E2E2E2E2F5E2E2E2E2E2F5E2E2E2E2E2E2E2E2F5E2E2E2E2E2E2E2E2F5E2F5E2E2E2E2E2E2F5E2E2E2E2E2E2E2E2E2E2E2E2E2F5F5E2E2E2E2E2F5F5E2E2E2E2F5E2E2E2E2E2F5E2E2E2E2E2E2F5E2E2E2E2E2F5E2E2E2E2E2E2E2F5E2F5F5E2E2E2E2E2E2E2E2E2E2E2E2E2E2E2E2E2F5E2E2E2E2E2F5E2E2F5F5
310
F5E2E2E2F5E2F5F5F5F5F5E2E2F5E2F5F5F5F5F5F5F5F5F5F5F5F5F5F5F5F5F5F5F5F5F5F5F5E2E2E2E2E2F5F5E2E2E2E2F5E2E2E2E2E2F5E2E2E2E2E2E2F5E2E2E2E2E2F5E2E2E2E2E2E2E2F5E2F5F5E2E2E2E2E2E2E2E2E2E2E2E2E2E2E2E2E2F5E2E2E2E2E2F5F5F5F5F5F5F5F5F5F5F5F5F5F5F5F5F5F5F5E2F5F5F5F5
310
F5F5F5F5F5F5F5F5F5F5F5F5F5F5F5F5F5F5F5E2E2E2E2E2F5F5E2E2E2E2F5E2E2E2E2E2F5E2E2E2E2E2E2F5E2E2E2E2E2F5E2E2E2E2E2E2E2F5E2F5F5E2E2E2E2E2E2E2E2E2E2E2E2E2E2E2E2E2F5E2E2E2E2E2F5E2F5F5F5F5F5F5F5F5F5F5F5F5F5F5E2E2F5E2F5E2E2F5F5F5F5F5F5F5F5F5F5F5F5F5F5F5E2E2E2F5F5
310
E2E2E2E2E2F5F5E2E2F5E2F5E2E2E2E2E2F5E2E2E2E2E2E2F5E2E2E2E2E2F5E2E2E2E2E2E2E2F5E2F5F5E2E2E2E2E2E2E2E2E2E2E2E2E2E2E2E2E2F5E2E2E2E2E2F5E2E2E2E2E2E2E2E2E2E2E2E2E2E2E2E2E2F5E2F5E2E2E2E2E2E2E2E2E2E2E2E2E2E2E2E2E2E2E2E2F5F5E2E2F5E2E2F5F5E2E2F5E2F5E2E2E2E2E2F5E2
310
E2E2E2E2E2F5E2E2E2E2E2F5E2E2E2E2E2E2E2F5E2F5F5E2E2E2E2E2E2E2E2E2E2E2E2E2E2E2E2E2F5E2E2E2E2E2F5E2E2E2F5F5F5F5F5F5F5F5F5F5E2E2E2E2F5E2F5E2E2F5F5F5F5F5F5F5F5F5F5F5F5F5F5F5E2E2E2F5F5E2E2F5E2E2F5F5E2E2F5E2F5E2E2E2E2E2F5E2E2E2E2E2E2F5E2E2E2E2E2F5E2E2E2E2E2E2E2
310
F5E2F5F5E2E2E2E2E2E2E2E2E2E2E2E2E2E2E2E2E2F5E2E2E2E2E2F5E2E2E2E2E2E2E2E2E2E2E2E2E2E2E2E2E2F5E2F5E2E2E2E2E2E2E2E2E2E2E2E2E2E2E2E2E2E2E2E2F5F5E2E2F5E2E2F5F5E2E2F5E2F5E2E2E2E2E2F5E2E2E2E2E2E2F5E2E2E2E2E2F5E2E2E2E2E2E2E2F5E2F5F5E2E2E2E2E2E2E2E2E2E2E2E2E2E2E2
310
E2E2F5E2E2E2E2E2F5F5F5F5F5F5F5F5F5F5F5F5F5F5F5F5F5F5F5E2F5F5F5F5F5F5F5F5F5F5F5F5F5F5F5F5F5F5F5F5F5F5F5E2E2F5E2E2F5F5E2E2F5E2F5E2E2E2E2E2F5E2E2E2E2E2E2F5E2E2E2E2E2F5E2E2E2E2E2E2E2F5E2F5F5E2E2E2E2E2E2E2E2E2E2E2E2E2E2E2E2E2F5E2E2E2E2E2E2E2E2E2E2E2E2E2E2E2E2
310
E2E2E2E2E2E2E2E2E2E2E2E2E2E2E2E2E2E2E2E2E2E2E2E2E2E2E2E2E2E2E2F5E2E2F5E2E2F5F5E2E2F5E2F5E2E2E2E2E2F5E2E2E2E2E2E2F5E2E2E2E2E2F5E2E2E2E2E2E2E2F5E2F5F5E2E2E2E2E2E2E2E2E2E2E2E2E2E2E2E2E2F5E2E2E2E2E2E2E2E2E2E2E2E2E2E2E2E2E2E2E2E2E2E2E2E2E2E2E2E2E2E2E2E2E2E2E2
310
E2E2E2E2E2E2E2E2E2E2E2E2F5E2E2F5E2E2F5F5E2E2F5E2F5E2E2E2E2E2F5E2E2E2E2E2E2F5E2E2E2E2E2F5E2E2E2E2E2E2E2F5E2F5F5E2E2E2E2E2E2E2E2E2E2E2E2E2E2E2E2E2F5E2E2E2E2E2E2E2E2E2E2E2E2E2E2E2E2E2E2E2E2E2E2E2E2E2E2E2E2E2E2E2E2E2E2E2E2E2E2E2E2E2E2E2E2E2E2E2F5E2E2F5E2E2F5
310
F5E2E2F5E2F5E2E2E2E2E2F5E2E2E2E2E2E2F5E2E2E2E2E2F5E2E2E2E2E2E2E2F5E2F5F5E2E2E2E2E2E2E2E2E2E2E2E2E2F5F5F5F5F5F5F5F5F5E2E2E2E2E2E2E2E2E2E2E2F5F5F5F5F5F5F5F5F5F5F5F5F5F5F5F5F5F5F5F5F5F5F5F5F5F5E2E2E2E2E2E2F5E2E2F5E2E2F5F5E2E2F5E2F5E2E2E2E2E2F5E2E2E2E2E2E2F5
310
E2E2E2E2E2F5E2E2E2E2E2E2E2F5E2F5F5E2E2E2E2E2E2E2E2E2E2E2E2F5F5F5F5F5F5F5F5F5F5E2E2E2E2E2E2E2E2E2E2E2F5F5F5F5F5F5F5F5F5F5F5F5F5F5F5F5F5F5F5F5F5F5F5F5F5E2E2E2E2E2E2E2F5E2E2F5E2E2F5F5E2E2F5E2F5F5F5F5F5F5F5F5F5F5F5E2E2F5E2E2E2E2E2F5E2E2E2E2E2E2E2F5E2F5F5E2E2
310
E2E2E2E2E2E2E2E2E2E2E2E2E2E2E2E2E2E2E2E2E2E2E2E2E2E2E2E2E2E2E2F5F5F5F5F5F5F5F5F5F5F5F5F5F5F5F5F5F5F5F5F5F5F5F5F5E2E2E2E2E2E2E2F5E2E2F5E2E2F5F5E2E2F5E2F5E2E2F5F5F5F5F5F5E2E2E2E2F5E2E2E2F5F5F5F5F5E2E2E2E2E2F5E2F5F5F5E2E2E2E2E2E2E2E2E2E2E2E2E2E2E2E2F5E2E2E2
310
E2E2E2E2E2E2E2E2E2E2E2E2E2E2E2E2F5F5F5F5F5F5F5F5F5F5F5F5F5F5E2E2E2E2E2E2E2E2E2E2E2E2E2E2F5E2E2F5E2E2F5F5E2E2F5E2F5E2E2F5F5F5F5F5F5E2E2E2E2F5E2E2E2F5F5F5F5F5E2E2E2E2E2F5E2F5F5F5E2E2E2E2E2E2E2E2E2E2E2E2E2E2E2E2F5E2E2E2E2E2E2E2E2E2E2E2E2E2E2E2E2E2E2E2F5F5F5
310
F5F5F5F5F5F5F5F5F5F5E2E2E2E2E2E2E2E2E2E2E2E2E2E2E2F5E2E2F5E2E2F5F5E2E2F5E2F5E2E2E2E2E2F5E2E2E2E2E2E2F5E2E2E2E2E2E2E2E2E2E2E2E2E2F5E2F5F5F5E2E2E2E2E2E2E2E2E2E2E2E2E2E2E2E2F5E2E2E2E2E2E2E2E2E2E2E2E2E2E2E2E2E2E2E2E2E2E2E2E2E2E2E2E2E2E2E2E2E2E2E2E2E2E2E2E2E2
310
E2E2E2E2E2E2F5E2E2F5E2E2F5F5E2E2F5E2F5E2E2E2E2E2F5E2E2E2E2E2E2F5E2E2E2E2E2F5E2E2E2E2E2E2E2F5E2F5F5F5E2E2E2E2E2E2E2E2E2E2E2E2E2E2E2E2F5E2E2E2E2E2E2E2E2E2E2E2E2E2E2E2E2E2E2E2E2E2E2E2E2E2E2E2E2E2E2E2E2E2E2E2E2E2E2E2E2E2E2E2E2E2E2E2F5E2E2F5E2E2F5F5E2E2F5E2F5
310
E2E2E2E2E2F5E2E2E2E2E2E2F5E2E2E2E2E2F5E2E2E2E2E2E2E2F5E2F5F5F5E2E2E2E2E2E2E2E2E2E2E2E2E2E2E2E2F5E2E2E2E2E2E2E2E2E2E2E2E2E2E2E2E2E2E2E2E2E2E2E2E2E2E2E2E2E2E2E2E2E2E2E2E2E2E2E2E2E2E2E2E2E2E2E2F5E2E2F5E2E2F5F5E2E2F5E2F5E2E2E2E2E2F5E2E2E2E2E2E2F5E2E2E2E2E2F5
310
E2E2E2E2E2E2E2F5E2F5F5F5E2E2E2E2E2E2E2E2E2E2E2E2E2E2E2E2F5E2E2E2E2E2E2E2E2E2E2F5F5F5E2E2E2E2E2E2E2E2E2E2E2E2E2E2E2E2E2E2E2E2E2E2E2E2E2E2E2E2E2E2E2E2E2E2F5E2E2F5E2E2F5F5E2E2E2E2F5E2E2E2E2E2F5E2E2E2E2E2E2F5E2E2E2E2E2F5E2E2E2E2E2E2E2F5E2F5F5F5E2E2E2E2E2E2E2
310
E2E2E2E2E2E2E2E2E2F5E2E2E2E2E2E2E2E2E2E2E2F5F5E2E2E2E2E2E2E2E2E2E2E2E2E2E2E2E2E2E2E2E2E2E2E2E2E2E2E2E2E2E2E2E2E2E2F5E2E2E2E2E2F5F5E2E2E2E2F5E2E2E2E2E2F5E2E2E2E2E2E2F5E2E2E2E2E2F5E2E2E2E2E2E2E2F5E2F5F5F5E2E2E2E2E2E2E2E2E2E2E2E2E2E2E2E2F5E2E2E2E2E2E2E2E2E2
310
E2F5F5F5E2E2E2E2E2E2E2E2E2E2E2E2E2E2E2E2E2E2E2E2E2E2E2E2E2E2E2E2E2E2E2E2E2E2F5E2E2E2E2E2F5F5E2E2E2E2F5E2E2E2E2E2F5E2E2E2E2E2E2F5E2E2E2E2E2F5E2E2E2E2E2E2E2F5E2F5F5F5E2E2E2E2E2E2E2E2E2E2E2E2E2E2E2E2F5E2E2E2E2E2E2E2E2E2E2E2F5F5E2E2E2E2E2E2E2E2E2E2E2E2E2E2E2
310
E2E2E2E2E2E2E2E2E2E2E2E2E2E2E2E2E2E2E2F5E2E2E2E2E2F5F5E2E2E2E2F5E2E2E2E2E2F5E2E2F5F5F5F5F5F5F5F5F5E2F5E2E2E2E2E2E2E2F5E2F5F5F5E2E2E2E2E2E2E2E2E2E2E2E2E2E2E2E2F5E2E2E2E2E2E2E2E2E2E2E2F5F5F5E2E2E2E2E2E2E2E2E2E2E2E2E2E2E2E2E2E2E2E2E2E2E2E2E2E2E2E2E2E2E2E2E2
310
F5E2E2E2E2E2F5F5E2E2E2E2F5E2E2E2E2E2F5E2E2E2E2F5F5F5F5F5E2E2E2F5E2E2E2E2E2E2E2F5E2F5F5F5E2E2E2E2E2E2E2E2E2E2E2E2E2E2E2E2F5E2E2E2E2E2E2E2E2E2E2E2F5F5F5F5E2E2E2E2E2E2E2E2E2E2E2E2E2E2E2E2E2E2E2E2E2E2E2E2E2E2E2E2E2E2E2E2F5E2E2E2E2E2F5F5E2E2E2E2F5E2E2E2E2E2F5
310
E2E2E2E2E2E2F5E2E2E2E2E2F5E2E2E2E2E2E2E2F5E2F5F5F5E2E2E2E2E2E2E2E2E2E2E2E2E2E2E2E2F5E2E2E2E2E2E2E2E2E2E2E2F5F5E2F5F5E2E2E2E2E2E2E2E2E2E2E2E2E2E2E2E2E2E2E2E2E2E2E2E2E2E2E2E2E2E2E2F5E2E2E2E2E2F5F5E2E2E2E2F5E2E2E2E2E2F5E2E2E2E2E2E2F5E2E2E2E2E2F5E2E2E2E2E2E2
310
E2F5E2F5F5F5E2E2E2E2E2E2E2E2E2E2E2E2E2E2E2E2F5E2E2E2E2E2E2E2E2E2E2E2F5F5E2E2F5F5F5F5E2E2E2E2E2E2E2E2E2E2E2E2E2E2E2E2E2E2E2E2E2E2E2E2E2E2E2E2F5E2E2E2E2E2F5F5E2E2E2E2F5E2E2E2E2E2F5E2E2E2E2E2E2F5E2E2E2E2E2F5E2E2E2E2E2E2E2F5E2F5F5F5E2E2E2E2E2E2E2E2E2E2E2E2E2
310
E2E2E2F5E2E2E2E2E2E2E2E2E2E2E2F5F5E2F5F5F5F5E2E2E2E2E2E2E2E2E2E2E2E2E2E2E2E2E2E2E2E2E2E2E2E2E2E2E2E2E2F5E2E2E2E2E2F5F5E2E2E2E2F5E2E2E2E2E2F5E2E2E2E2E2E2F5E2E2E2E2E2F5E2E2E2E2E2E2E2F5E2F5F5F5E2E2E2E2E2E2E2E2E2E2E2E2E2E2E2E2F5E2E2E2E2E2E2E2E2E2E2E2F5F5E2E2
310
E2E2F5F5E2E2E2E2E2E2E2E2E2E2E2E2E2E2E2E2E2E2E2E2E2E2E2E2E2E2E2E2F5E2E2E2E2E2F5F5E2E2E2E2F5E2E2E2E2E2F5E2E2E2E2E2E2F5E2E2E2E2E2F5E2E2E2E2E2E2E2F5E2F5F5F5E2E2E2E2E2E2E2E2E2E2E2E2E2E2E2E2F5E2E2E2E2E2E2E2E2E2E2F5F5F5F5F5F5F5F5F5F5F5F5F5E2E2E2E2E2E2E2E2E2E2E2
310
E2E2E2E2E2E2E2E2E2E2E2E2E2F5E2E2E2E2E2F5F5E2E2F5E2F5E2E2E2E2E2F5E2E2E2E2E2E2F5E2E2E2E2E2F5E2E2E2E2E2E2E2F5E2F5F5F5E2E2E2E2E2E2E2E2E2E2E2E2E2E2E2E2F5E2E2E2E2E2E2E2E2E2E2F5F5F5F5F5F5F5F5F5F5F5F5F5E2E2E2E2E2E2E2E2E2E2E2E2E2E2E2E2E2E2E2E2E2E2E2E2F5E2E2F5E2E2
310
F5F5E2E2F5E2F5E2E2E2E2E2F5E2E2E2E2E2E2F5E2E2E2E2E2F5E2E2E2E2E2E2E2F5E2F5F5F5E2E2E2E2E2E2E2E2E2E2E2E2E2E2E2E2F5E2E2E2E2E2E2E2E2E2E2E2E2E2E2E2E2F5E2E2E2E2F5E2E2E2E2E2E2E2E2E2E2E2E2E2E2E2E2E2E2E2E2E2E2E2E2E2F5E2E2F5E2E2F5F5E2E2F5E2F5E2E2E2E2E2F5E2E2E2E2E2E2
310
F5E2E2E2E2E2F5E2E2E2E2E2E2E2F5E2F5F5F5E2E2E2E2E2E2E2E2E2E2E2E2E2E2E2E2F5E2E2E2E2E2E2E2E2E2E2E2E2E2E2E2E2E2E2E2E2E2E2F5F5F5F5F5F5F5F5F5F5F5F5F5F5F5F5E2E2E2E2E2E2E2E2E2F5E2E2F5E2E2F5F5E2E2F5E2F5E2E2E2E2E2F5E2E2E2E2E2E2F5E2E2E2E2E2F5E2E2E2E2E2E2E2F5E2F5F5F5
310
E2E2E2E2E2E2E2E2E2E2E2E2E2E2E2E2F5E2E2E2E2E2E2E2E2E2E2E2E2E2E2E2E2E2E2E2E2E2E2E2F5F5F5F5F5F5F5F5F5F5F5F5F5F5F5F5F5F5F5F5F5E2E2E2F5E2E2F5E2E2F5F5E2E2F5E2F5E2E2E2E2E2F5E2E2E2E2E2E2F5E2E2E2E2E2F5E2E2E2E2E2E2E2F5E2F5F5F5E2E2E2E2F5F5F5F5F5F5F5F5E2E2E2E2F5E2E2
310
E2E2E2E2E2E2E2E2E2E2E2E2E2E2E2E2E2E2E2E2E2E2E2E2E2E2E2E2E2E2E2E2E2E2E2E2E2E2E2E2E2E2E2E2E2F5E2E2F5E2E2F5F5E2E2F5E2F5E2E2E2E2E2F5E2E2E2E2E2E2F5E2E2E2E2E2F5E2E2E2E2E2E2E2F5E2F5F5F5E2E2E2F5E2E2E2E2E2E2E2E2E2E2E2E2F5E2E2E2E2E2E2E2E2E2E2E2E2E2E2E2E2E2E2E2E2E2
310
E2E2E2E2E2E2E2E2E2E2E2E2E2E2E2E2E2E2E2E2E2E2E2E2E2E2F5E2E2F5E2E2F5F5E2E2F5E2F5E2E2E2E2E2F5E2E2E2E2E2E2F5E2E2E2E2E2F5E2E2E2E2E2E2E2F5E2F5F5F5E2F5F5E2E2E2E2E2E2E2E2E2E2E2E2E2F5E2E2E2E2E2E2E2E2E2E2E2E2E2E2E2E2E2E2E2E2E2E2E2E2E2E2E2E2E2E2E2E2E2E2E2E2E2E2E2E2
310
E2E2E2E2E2E2E2F5E2E2F5E2E2F5F5E2E2F5E2F5E2E2E2E2E2F5E2E2E2E2E2E2F5E2E2E2E2E2F5E2E2E2E2E2E2E2F5E2F5F5F5F5E2E2E2E2E2E2E2E2E2E2E2E2E2E2E2F5F5E2E2E2E2E2E2E2E2E2E2E2E2E2E2E2E2E2E2E2E2E2E2E2E2E2E2E2E2E2E2E2E2E2E2E2E2E2E2E2E2E2E2E2E2E2E2F5E2E2F5E2E2F5F5E2E2F5E2
310
F5E2E2E2E2E2F5E2E2E2E2E2E2F5E2E2E2E2E2F5E2E2E2E2E2E2E2F5E2F5F5F5F5F5F5F5F5F5F5F5F5F5F5F5F5F5F5F5F5F5E2E2E2E2E2E2E2E2E2E2E2E2E2E2E2E2E2E2E2E2E2E2E2E2E2E2E2E2E2E2E2E2E2E2E2E2E2E2E2E2E2E2E2E2E2E2F5E2E2F5E2E2F5F5E2E2F5E2F5E2E2E2E2E2F5E2E2E2E2E2E2F5E2E2E2E2E2
310
F5E2E2E2E2E2E2E2F5E2F5F5F5E2E2E2E2E2E2E2E2E2E2E2E2E2E2E2E2E2E2E2E2E2E2E2E2E2E2E2E2E2E2E2E2E2E2E2E2E2E2E2E2E2E2E2E2E2E2E2E2E2E2E2E2E2E2E2E2E2E2F5F5E2E2E2E2F5E2E2F5E2E2F5F5E2E2F5E2F5E2E2E2E2E2F5E2E2E2E2E2E2F5E2E2E2E2E2F5E2E2E2E2E2E2E2F5E2F5F5F5E2E2E2E2E2E2
310
E2E2E2E2E2E2E2E2E2E2E2E2E2E2E2E2E2E2E2E2E2E2E2E2E2E2E2E2E2E2E2E2E2E2E2E2E2E2E2E2E2E2E2E2E2E2E2E2E2E2E2E2F5F5F5F5F5F5F5E2E2F5E2E2F5F5E2E2F5E2F5E2E2E2E2E2F5E2E2E2E2E2E2F5E2E2E2E2E2F5F5E2E2E2E2E2E2F5E2F5F5F5E2E2E2E2E2E2E2E2E2E2E2E2E2E2E2E2E2E2E2F5F5F5F5F5F5
310
F5F5F5F5F5F5F5F5F5F5F5F5F5E2E2E2E2E2E2E2E2E2E2E2E2E2E2E2E2E2E2E2E2E2E2F5E2E2E2F5E2E2F5E2E2F5F5E2E2F5E2F5E2E2E2E2E2F5E2E2E2E2E2E2F5E2E2E2E2E2F5F5F5F5F5F5F5F5F5F5F5F5F5F5F5F5F5F5F5F5F5F5F5F5F5F5F5F5F5F5F5F5E2F5F5F5F5F5F5F5F5F5F5F5F5F5F5F5F5F5E2E2E2F5F5F5F5
310
F5F5F5F5F5F5F5F5F5F5F5F5F5F5F5F5F5E2E2E2F5E2E2F5E2E2F5F5E2E2F5E2F5E2E2E2E2E2F5E2E2E2E2E2E2F5E2E2E2E2E2F5F5E2E2E2E2E2E2F5F5F5F5F5F5F5E2E2E2F5F5F5F5F5F5F5F5F5F5F5F5E2E2E2E2E2E2E2E2E2E2E2E2E2E2E2E2E2E2E2E2E2E2E2E2E2E2E2E2E2E2E2E2E2E2E2E2E2E2E2E2E2E2E2F5E2E2
310
E2F5E2E2F5E2E2F5F5E2E2F5E2F5E2E2E2E2E2F5E2E2E2E2E2E2F5E2E2E2E2E2F5E2E2E2E2E2E2E2F5F5F5F5F5F5F5F5F5F5F5E2E2E2E2E2E2E2E2E2E2E2E2E2E2E2E2E2E2E2E2E2E2E2E2E2E2E2E2E2E2E2E2E2E2E2E2E2E2E2E2E2E2E2E2E2E2E2E2E2E2E2E2E2E2F5E2E2E2F5E2E2F5E2E2F5F5E2E2F5E2F5E2E2E2E2E2
310
F5E2E2E2E2E2E2F5E2E2E2E2E2F5E2E2E2E2E2E2E2F5F5F5F5F5F5F5F5F5F5F5F5F5F5F5F5F5F5F5F5F5F5F5F5F5F5F5F5F5F5F5F5F5F5F5F5F5F5F5F5F5F5F5F5F5F5F5F5F5F5F5F5F5F5F5F5F5F5F5F5F5F5F5F5F5F5E2E2E2F5E2E2F5E2E2F5F5E2E2E2E2F5E2E2E2E2E2F5E2E2E2E2E2E2F5F5E2E2E2E2F5E2E2E2E2E2
310
E2E2F5E2F5F5F5F5F5F5F5F5F5F5F5F5F5F5F5F5F5F5F5F5F5F5F5F5F5F5F5F5F5F5F5F5F5F5F5F5F5F5F5F5F5F5F5F5F5F5F5F5F5F5F5F5F5F5F5F5F5F5F5F5F5F5F5F5E2E2E2F5E2E2E2E2E2F5F5E2E2E2E2F5E2E2E2E2E2F5E2E2E2E2E2E2F5F5E2E2E2E2F5E2E2E2E2E2E2E2F5F5F5F5F5E2F5E2E2E2E2E2E2E2E2E2E2
310
E2E2E2E2E2E2E2E2E2E2E2E2E2E2E2E2E2E2E2E2E2F5E2E2E2E2E2E2E2E2E2E2E2E2E2E2E2E2E2E2E2E2E2E2E2E2E2F5E2E2E2E2F5E2E2E2E2E2F5F5E2E2E2E2F5E2E2E2E2E2F5E2E2E2E2E2E2F5F5F5F5F5F5F5F5F5F5F5F5F5F5F5F5F5F5F5E2E2F5E2E2E2E2E2E2E2E2E2E2E2E2E2E2E2E2E2E2E2E2E2E2E2E2E2E2E2E2
310
E2E2F5E2E2E2E2E2E2E2E2E2E2E2E2E2E2E2E2E2E2E2E2E2E2E2E2E2F5E2E2E2E2F5E2E2E2E2E2F5F5E2E2E2E2F5E2E2E2E2E2F5F5F5F5F5F5F5F5F5F5F5F5F5F5F5F5F5F5F5F5F5F5F5F5F5F5F5F5F5F5F5F5F5F5F5F5F5F5F5F5F5F5F5F5F5F5F5F5F5F5F5F5F5F5F5F5F5F5F5F5F5F5F5F5F5F5F5F5F5F5F5F5F5F5F5F5
310
F5F5F5F5F5F5F5F5F5F5F5F5F5E2F5E2E2E2E2E2F5F5E2E2E2E2F5E2E2E2E2E2E2E2E2E2E2E2E2E2E2E2E2E2E2F5E2E2E2E2E2E2E2F5F5F5F5F5F5E2F5F5F5F5F5E2F5F5F5F5F5E2F5F5F5F5F5F5E2F5F5F5F5F5E2F5F5F5F5F5E2F5F5F5F5F5E2F5F5F5F5F5E2F5F5F5F5F5E2F5F5F5F5F5F5E2F5F5F5F5F5E2F5E2E2E2E2
310
E2F5F5E2E2E2E2F5E2E2E2E2E2E2E2E2E2E2E2E2E2E2E2E2E2E2F5E2E2E2E2E2E2E2F5F5E2F5F5F5F5F5F5F5F5F5F5F5F5E2F5F5F5F5F5E2F5F5F5F5F5E2F5F5F5F5F5E2F5F5F5F5F5E2F5F5F5F5F5F5E2F5F5F5F5F5E2F5F5F5F5F5E2F5F5F5F5F5E2F5F5F5E2F5E2E2E2E2E2F5F5E2E2E2E2F5E2E2E2E2E2E2E2E2E2E2E2
310
E2E2E2E2E2E2E2F5E2E2E2E2E2E2E2F5F5F5F5F5F5F5F5F5F5F5F5F5F5F5F5F5F5F5F5F5F5F5F5F5F5F5F5F5F5F5F5F5F5F5F5F5F5F5F5F5F5F5F5F5F5F5F5F5F5F5F5F5F5F5F5F5F5F5F5F5F5F5F5F5F5F5F5E2F5E2E2E2E2E2F5F5E2E2E2E2F5E2E2E2E2E2E2E2E2E2E2E2E2E2E2E2E2E2E2F5E2E2E2E2E2E2E2E2E2E2E2
310
E2E2E2E2E2E2F5E2E2E2E2E2E2E2E2E2E2E2E2E2E2E2E2E2E2E2E2E2E2E2E2E2E2E2E2E2E2E2E2E2E2E2E2E2E2E2E2E2E2E2E2E2E2E2E2E2E2E2E2F5F5F5F5F5F5F5E2E2E2E2E2F5F5E2E2E2E2F5E2E2E2E2E2E2E2E2E2E2E2E2E2E2E2E2E2E2F5E2F5F5F5F5F5F5F5E2E2E2E2E2E2E2E2E2F5E2F5F5F5F5F5F5F5F5F5F5F5
310
E2E2E2E2E2E2E2E2E2E2E2E2E2E2E2E2E2E2E2E2E2E2E2E2E2E2E2E2E2E2E2E2E2E2E2E2E2E2E2E2E2E2E2E2E2E2F5E2E2E2E2E2F5F5E2E2E2E2F5E2E2E2E2E2E2E2E2E2E2E2E2E2E2E2E2E2E2F5F5F5F5F5F5F5F5E2E2E2E2E2E2E2E2E2E2E2F5E2E2E2E2E2E2E2E2E2E2E2E2E2E2E2E2E2E2E2E2E2E2E2E2E2E2E2E2E2E2
310
E2E2E2E2E2E2E2E2E2E2E2E2E2E2E2E2E2E2E2E2E2E2E2E2E2E2E2F5E2E2E2E2E2F5F5E2E2F5E2F5E2E2E2E2E2E2E2E2E2E2E2E2E2E2E2E2E2E2E2E2E2F5F5F5F5F5E2E2E2E2E2E2E2E2E2E2E2E2E2E2E2E2E2E2E2E2E2E2E2E2E2E2E2E2E2E2E2E2E2E2E2E2E2E2E2E2E2E2E2E2E2E2E2E2E2E2E2E2E2E2E2E2E2E2E2E2E2
310
E2E2E2E2E2E2E2E2F5E2E2F5E2E2F5F5E2E2F5E2F5E2E2E2E2E2E2E2E2E2E2E2E2E2E2E2E2E2E2E2E2E2E2E2E2E2E2E2E2E2E2E2E2E2E2E2E2E2E2E2E2E2E2E2E2E2E2E2E2E2E2E2E2E2E2E2E2E2E2E2E2E2E2E2E2E2E2E2E2E2E2E2E2E2E2E2E2E2E2E2E2E2E2E2E2E2E2E2E2E2E2E2E2E2E2E2F5E2E2F5E2E2F5F5E2E2F5
310
E2F5E2E2E2E2E2E2E2E2E2E2E2E2E2E2E2E2E2E2E2E2E2E2E2E2E2E2E2E2E2E2E2E2E2E2E2E2E2E2E2E2E2E2E2E2E2E2E2E2E2E2E2E2E2E2E2E2E2E2E2E2E2E2E2E2E2E2E2E2E2E2E2E2E2E2E2E2E2E2E2E2E2E2E2E2E2E2E2E2E2E2E2E2E2E2E2F5E2E2F5E2E2F5F5E2E2F5E2F5E2E2E2E2E2E2E2E2E2E2E2E2E2E2E2E2E2
310
E2E2E2E2E2E2E2E2E2E2E2E2E2E2E2E2E2E2E2E2E2E2E2E2E2E2E2E2E2E2E2E2E2E2E2E2E2E2E2E2E2E2E2E2E2E2E2E2E2E2E2E2E2E2E2E2E2E2E2E2E2E2E2E2E2E2E2E2E2E2E2E2E2E2E2E2E2E2F5E2E2F5E2E2F5F5E2E2F5E2F5E2E2E2E2E2E2E2E2E2E2E2E2E2E2E2E2E2E2E2E2E2E2E2E2E2E2E2E2E2E2E2E2E2E2E2E2
310
E2E2E2E2E2E2E2E2E2E2E2E2E2E2E2E2E2E2E2E2E2E2E2E2E2E2E2E2E2E2E2E2E2E2E2E2E2E2E2E2E2E2E2E2E2E2E2E2E2E2E2E2E2E2E2E2E2E2E2F5E2E2F5E2E2F5F5E2E2F5E2F5E2E2E2E2E2E2E2E2E2E2E2E2E2E2E2E2E2E2E2E2E2E2E2E2E2E2E2E2E2E2E2E2E2E2E2E2E2E2E2E2E2E2E2E2E2E2E2E2E2E2E2E2E2E2E2
310
E2E2E2E2E2E2E2E2E2E2E2E2E2E2E2E2E2E2E2E2E2E2E2E2E2E2E2E2E2E2E2E2E2E2E2E2E2E2E2E2F5E2E2F5E2E2F5F5E2E2F5E2F5E2E2E2E2E2E2E2E2E2E2E2E2E2E2E2E2E2E2E2E2E2E2E2E2E2E2E2E2E2E2E2E2E2E2E2E2E2E2E2E2E2E2E2E2E2E2E2E2E2E2E2E2E2E2E2E2E2E2E2E2E2E2E2E2E2E2E2E2E2E2E2E2E2E2
310
E2E2E2E2E2E2E2E2E2E2E2E2E2E2E2E2E2E2E2E2E2F5E2E2F5E2E2F5F5E2E2F5E2F5E2E2E2E2E2E2E2E2E2E2E2E2E2E2E2E2E2E2E2E2E2E2E2E2E2E2E2E2E2E2E2E2E2E2E2E2E2E2E2E2E2E2E2E2E2E2E2E2E2E2E2E2E2E2E2E2E2E2E2E2E2E2E2E2E2E2E2E2E2E2E2E2E2E2E2E2E2E2E2E2E2E2E2E2E2E2E2E2E2E2E2E2E2
310
E2E2F5E2E2F5E2E2F5F5E2E2F5E2F5E2E2E2E2E2E2E2E2E2E2E2E2E2E2E2E2E2E2E2E2E2E2E2E2E2E2E2E2E2E2E2E2E2E2E2E2E2E2E2E2E2E2E2E2E2E2E2E2E2E2E2E2E2E2E2E2E2E2E2E2E2E2E2E2E2E2E2E2E2E2E2E2E2E2E2E2E2E2E2E2E2E2E2E2E2E2E2E2E2E2E2E2E2E2E2F5E2E2F5E2E2F5F5E2E2F5E2F5E2E2E2E2
310
E2E2E2E2E2E2E2E2E2E2E2E2E2E2E2E2E2E2E2E2E2E2E2E2E2E2E2E2E2E2E2E2E2E2E2E2E2E2E2E2E2E2E2E2E2E2E2E2E2E2E2E2E2E2E2E2E2E2E2E2E2E2E2E2E2E2E2E2E2E2E2E2E2E2E2E2E2E2E2E2E2E2E2E2E2E2E2E2E2E2E2F5E2E2F5E2E2F5F5E2E2F5E2F5E2E2E2E2E2E2E2E2E2E2E2E2E2E2E2E2E2E2E2E2E2E2E2
310
E2E2E2E2E2E2E2E2E2E2E2E2E2E2E2E2E2E2E2E2E2E2E2E2E2E2E2E2E2E2E2E2E2E2E2E2E2E2E2E2E2E2E2E2E2E2E2E2E2E2E2E2E2E2E2E2E2E2E2E2E2E2E2E2E2E2E2E2E2E2E2E2F5E2E2F5E2E2F5F5E2E2F5E2F5E2E2E2E2E2E2E2E2E2E2E2E2E2E2E2E2E2E2E2E2E2E2E2E2E2E2E2E2E2E2E2E2E2E2E2E2E2E2E2E2E2E2
310
E2E2E2E2E2E2E2E2E2E2E2E2E2E2E2E2E2E2E2E2E2E2E2E2E2E2E2E2E2E2E2E2E2E2E2E2E2E2E2E2E2E2E2E2E2E2E2E2E2E2E2E2E2F5E2E2F5E2E2F5F5E2E2F5E2F5E2E2E2E2E2E2E2E2E2E2E2E2E2E2E2E2E2E2E2E2E2E2E2E2E2E2E2E2E2E2E2E2E2E2E2E2E2E2E2E2E2E2E2E2E2E2E2E2E2E2E2E2E2E2E2E2E2E2E2E2E2
310
E2E2E2E2E2E2E2E2E2E2E2E2E2E2E2E2E2E2E2E2E2E2E2E2E2E2E2E2E2E2E2E2E2E2F5E2E2F5E2E2F5F5E2E2F5E2F5E2E2E2E2E2E2E2E2E2E2E2E2E2E2E2E2E2E2E2E2E2E2E2E2E2E2E2E2E2E2E2E2E2E2E2E2E2E2E2E2E2E2E2E2E2E2E2E2E2E2E2E2E2E2E2E2E2E2E2E2E2E2E2E2E2E2E2E2E2E2E2E2E2E2E2E2E2E2E2E2
310
E2E2E2E2E2E2E2E2E2E2E2E2E2E2E2F5E2E2F5E2E2F5F5E2E2F5E2F5E2E2E2E2E2E2E2E2E2E2E2E2E2E2E2E2E2E2E2E2E2E2E2E2E2E2E2E2E2E2E2E2E2E2E2E2E2E2E2E2E2E2E2E2E2E2E2E2E2E2E2E2E2E2E2E2E2E2E2E2E2E2E2E2E2E2E2E2E2E2E2E2E2E2E2E2E2E2E2E2E2E2E2E2E2E2E2E2E2E2E2E2E2E2E2F5E2E2F5
310
E2E2F5F5E2E2F5E2F5E2E2E2E2E2E2E2E2E2E2E2E2E2E2E2E2E2E2E2E2E2E2E2E2E2E2E2E2E2E2E2E2E2E2E2E2E2E2E2E2E2E2E2E2E2E2E2E2E2E2E2E2E2E2E2E2E2E2E2E2E2E2E2E2E2E2E2E2E2E2E2E2E2E2E2E2E2E2E2E2E2E2E2E2E2E2E2E2E2E2E2E2E2E2E2F5E2E2F5E2E2F5F5E2E2F5E2F5E2E2E2E2E2E2E2E2E2E2
310
E2E2E2E2E2E2E2E2E2E2E2E2E2E2E2E2E2E2E2E2E2E2E2E2E2E2E2E2E2E2E2E2E2E2E2E2E2E2E2E2E2E2E2E2E2E2E2E2E2E2E2E2E2E2E2E2E2E2E2E2E2E2E2E2E2E2E2E2E2E2E2E2E2E2E2E2E2E2E2E2E2E2E2E2E2F5E2E2F5E2E2F5F5E2E2E2E2F5E2E2E2E2E2E2E2E2E2E2E2E2E2E2E2E2E2E2E2E2E2E2E2E2E2E2E2E2E2
310
E2E2E2E2E2E2E2E2E2E2E2E2E2E2E2E2E2E2E2E2E2E2E2E2E2E2E2E2E2E2E2E2E2E2E2E2E2E2E2E2E2E2E2E2E2E2E2E2E2E2E2E2E2E2E2E2E2E2E2E2E2E2E2E2E2E2F5E2E2E2E2E2F5F5E2E2E2E2F5E2E2E2E2E2E2E2E2E2E2E2E2E2E2E2E2E2E2E2E2E2E2E2E2E2E2E2E2E2E2E2E2E2E2E2E2E2E2E2E2E2E2E2E2E2E2E2E2
310
E2E2E2E2E2E2E2E2E2E2E2E2E2E2E2E2E2E2E2E2E2E2E2E2E2E2E2E2E2E2E2E2E2E2E2E2E2E2E2E2E2E2E2E2E2E2E2F5E2E2E2E2E2F5F5E2E2E2E2F5E2E2E2E2E2E2E2E2E2E2E2E2E2E2E2E2E2E2E2E2E2E2E2E2E2E2E2E2E2E2E2E2E2E2E2E2E2E2E2E2E2E2E2E2E2E2E2E2E2E2E2E2E2E2E2E2E2E2E2E2E2E2E2E2E2E2E2
310
E2E2E2E2E2E2E2E2E2E2E2E2E2E2E2E2E2E2E2E2E2E2E2E2E2E2E2E2F5E2E2E2E2E2F5F5E2E2E2E2F5E2E2E2E2E2E2E2E2E2E2E2E2E2E2E2E2E2E2E2E2E2E2E2E2E2E2E2E2E2E2E2E2E2E2E2E2E2E2E2E2E2E2E2E2E2E2E2E2E2E2E2E2E2E2E2E2E2E2E2E2E2E2E2E2E2E2E2E2E2E2E2E2E2E2E2E2E2E2E2E2E2E2E2E2E2E2
310
E2E2E2E2E2E2E2E2E2F5E2E2E2E2E2F5F5E2E2E2E2F5E2E2E2E2E2E2E2E2E2E2E2E2E2E2E2E2E2E2E2E2E2E2E2E2E2E2E2E2E2E2E2E2E2E2E2E2E2E2E2E2E2E2E2E2E2E2E2E2E2E2E2E2E2E2E2E2E2E2E2E2E2E2E2E2E2E2E2E2E2E2E2E2E2E2E2E2E2E2E2E2E2E2E2E2E2E2E2E2E2E2E2E2E2E2E2F5E2E2E2E2E2F5F5E2E2
310
E2E2F5E2E2E2E2E2E2E2E2E2E2E2E2E2E2E2E2E2E2E2E2E2E2E2E2E2E2E2E2E2E2E2E2E2E2E2E2E2E2E2E2E2E2E2E2E2E2E2E2E2E2E2E2E2E2E2E2E2E2E2E2E2E2E2E2E2E2E2E2E2E2E2E2E2E2E2E2E2E2E2E2E2E2E2E2E2E2E2E2E2E2E2E2E2E2E2F5E2E2E2E2E2F5F5E2E2E2E2F5F5F5F5F5F5F5F5F5F5F5F5F5F5F5F5F5
310
F5F5F5F5F5F5F5F5F5F5F5F5F5F5F5F5F5F5F5F5F5F5F5F5F5F5F5F5F5F5F5F5F5F5F5F5F5F5F5F5F5F5F5F5F5F5F5F5F5F5F5F5F5F5F5F5F5F5F5F5F5F5F5F5F5F5F5F5F5F5F5F5F5F5F5F5F5F5F5F5E2E2E2E2E2F5F5E2E2E2E2E2E2E2E2E2E2E2E2E2E2E2E2E2E2E2E2E2E2E2E2E2E2E2E2E2E2E2E2E2E2E2E2E2E2E2E2
310
E2E2E2E2E2E2E2E2E2E2E2E2E2E2E2E2E2E2E2E2E2E2E2E2E2E2E2E2E2E2E2E2E2E2E2E2E2E2E2E2E2E2E2E2E2E2E2E2E2E2E2E2E2E2E2E2E2E2E2E2E2E2E2E2E2E2F5F5E2E2E2E2E2E2E2E2E2E2E2E2E2E2E2E2E2E2E2E2E2E2E2E2E2E2E2E2E2E2E2E2E2E2E2E2E2E2E2E2E2E2E2E2E2E2E2E2E2E2E2E2E2E2E2E2E2E2E2
310
E2E2E2E2E2E2E2E2E2E2E2E2E2E2E2E2E2E2E2E2E2E2E2E2E2E2E2E2E2E2E2E2E2E2E2E2E2E2E2E2E2E2E2E2E2E2E2F5F5E2E2F5E2E2E2E2E2E2E2E2E2E2E2E2E2E2E2E2E2E2E2E2E2E2E2E2E2E2E2E2E2E2E2E2E2E2E2E2E2E2E2E2E2E2E2E2E2E2E2E2E2E2E2E2E2E2E2E2E2E2E2E2E2E2E2E2E2E2E2E2E2E2E2E2E2E2E2
310
E2E2E2E2E2E2E2E2E2E2E2E2E2E2E2E2E2E2E2E2E2E2E2E2E2F5E2E2F5F5E2E2F5E2E2E2E2E2E2E2E2E2E2E2E2E2E2E2E2E2E2E2E2E2E2E2E2E2E2E2E2E2E2E2E2E2E2E2E2E2E2E2E2E2E2E2E2E2E2E2E2E2E2E2E2E2E2E2E2E2E2E2E2E2E2E2E2E2E2E2E2E2E2E2E2E2E2E2E2E2E2E2E2E2E2E2E2E2E2E2E2E2E2E2E2E2E2
310
E2E2E2E2E2E2F5E2E2F5F5E2E2F5E2E2E2E2E2E2E2E2E2E2E2E2E2E2E2E2E2E2E2E2E2E2E2E2E2E2E2E2E2E2E2E2E2E2E2E2E2E2E2E2E2E2E2E2E2E2E2E2E2E2E2E2E2E2E2E2E2E2E2E2E2E2E2E2E2E2E2E2E2E2E2E2E2E2E2E2E2E2E2E2E2E2E2E2E2E2E2E2E2E2E2E2E2E2E2E2E2E2E2E2F5E2E2F5F5E2E2F5E2E2E2E2E2
310
E2E2E2E2E2E2E2E2E2E2E2E2E2E2E2E2E2E2E2E2E2E2E2E2E2E2E2E2E2E2E2E2E2E2E2E2E2E2E2E2E2E2E2E2E2E2E2E2E2E2E2E2E2E2E2E2E2E2E2E2E2E2E2E2E2E2E2E2E2E2E2E2E2E2E2E2E2E2E2E2E2E2E2E2E2E2E2E2E2E2E2E2E2E2E2F5E2E2F5F5E2E2F5E2E2E2E2E2E2E2E2E2E2E2E2E2E2E2E2E2E2E2E2E2E2E2E2
310
E2E2E2E2E2E2E2E2E2E2E2E2E2E2E2E2E2E2E2E2E2E2E2E2E2E2E2E2E2E2E2E2E2E2E2E2E2E2E2E2E2E2E2E2E2E2E2E2E2E2E2E2E2E2E2E2E2E2E2E2E2E2E2E2E2E2E2E2E2E2E2E2E2E2E2E2F5E2E2F5F5E2E2F5E2E2E2E2E2E2E2E2E2E2E2E2E2E2E2E2E2E2E2E2E2E2E2E2E2E2E2E2E2E2E2E2E2E2E2E2E2E2E2E2E2E2E2
310
E2E2E2E2E2E2E2E2E2E2E2E2E2E2E2E2E2E2E2E2E2E2E2E2E2E2E2E2E2E2E2E2E2E2E2E2E2E2E2E2E2E2E2E2E2E2E2E2E2E2E2E2E2E2E2E2E2F5E2E2F5F5E2E2F5E2E2E2E2E2E2E2E2E2E2E2E2E2E2E2E2E2E2E2E2E2E2E2E2E2E2E2E2E2E2E2E2E2E2E2E2E2E2E2E2E2E2E2E2E2E2E2E2E2E2E2E2E2E2E2E2E2E2E2E2E2E2
310
E2E2E2E2E2E2E2E2E2E2E2E2E2E2E2E2E2E2E2E2E2E2E2E2E2E2E2E2E2E2E2E2E2E2E2E2E2E2F5E2E2F5F5E2E2F5E2E2E2E2E2E2E2E2E2E2E2E2E2E2E2E2E2E2E2E2E2E2E2E2E2E2E2E2E2E2E2E2E2E2E2E2E2E2E2E2E2E2E2E2E2E2E2E2E2E2E2E2E2E2E2E2E2E2E2E2E2E2E2E2E2E2E2E2E2E2E2E2E2E2E2E2E2E2E2E2E2
310
E2E2E2E2E2E2E2E2E2E2E2E2E2E2E2E2E2E2E2F5E2E2F5F5E2E2F5F5F5F5F5F5F5F5F5E2E2E2E2E2E2E2E2E2F5F5F5F5F5F5F5F5F5F5F5F5F5F5F5F5E2E2E2E2E2E2E2E2E2F5F5F5F5F5F5F5F5F5F5F5F5F5F5F5F5E2E2E2E2E2E2E2E2E2F5F5F5F5F5F5F5F5F5F5F5F5F5F5F5F5E2E2E2E2E2E2E2E2E2F5F5F5F5F5F5F5F5
310
F5E2E2F5F5E2E2E2E2E2E2E2E2E2E2E2E2E2E2E2E2E2E2E2E2E2E2E2E2E2E2E2E2E2E2E2E2E2E2E2E2E2E2E2E2E2E2E2E2E2E2E2E2E2E2E2E2E2E2E2E2E2E2E2E2E2E2E2E2E2E2E2E2E2E2E2E2E2E2E2E2E2E2E2E2E2E2E2E2E2E2E2E2E2E2E2E2E2E2E2E2E2E2E2E2E2E2E2E2E2E2F5F5E2E2E2E2E2E2E2E2E2E2E2E2E2E2
310
E2E2E2E2E2E2E2E2E2E2E2E2E2E2E2E2E2E2E2E2E2E2E2E2E2E2E2E2E2E2E2E2E2E2E2E2E2E2E2E2E2E2E2E2E2E2E2E2E2E2E2E2E2E2E2E2E2E2E2E2E2E2E2E2E2E2E2E2E2E2E2E2E2E2E2E2E2E2E2E2E2E2E2E2E2E2E2E2E2E2E2E2F5F5E2E2E2E2E2E2E2E2E2E2E2E2E2E2E2E2E2E2E2E2E2E2E2E2E2E2E2E2E2E2E2E2E2
310
E2E2E2E2E2E2E2E2E2E2E2E2E2E2E2E2E2E2E2E2E2E2E2E2E2E2E2E2E2E2E2E2E2E2E2E2E2E2E2E2E2E2E2E2E2E2E2E2E2E2E2E2E2E2E2E2E2E2E2E2E2E2E2E2E2E2E2E2E2E2E2E2E2F5F5F5F5F5F5F5F5F5F5F5F5F5F5F5F5F5F5F5F5F5F5F5F5F5F5F5F5F5F5F5F5F5F5F5F5F5F5F5F5F5F5F5F5F5F5F5F5F5F5F5F5F5F5
310
F5F5F5F5F5F5F5F5F5F5F5F5F5F5F5F5F5F5F5F5F5F5F5F5F5F5F5F5F5F5F5F5F5F5F5F5F5F5F5F5F5F5F5F5F5F5F5F5F5F5F5F5F5F5F5
  0
ENDSEC
  0
EOF
