  0
SECTION
  2
HEADER
  9
$ACADVER
  1
AC1021
  9
$ACADMAINTVER
 70
     1
  9
$DWGCODEPAGE
  3
ANSI_1252
  9
$LASTSAVEDBY
  1
RSutcliffe
  9
$INSBASE
 10
0.0
 20
0.0
 30
0.0
  9
$EXTMIN
 10
59.25488791868395
 20
100.9221659545217
 30
-0.0015258207003583
  9
$EXTMAX
 10
293.6887850050774
 20
275.2147829248429
 30
0.0000000349246037
  9
$LIMMIN
 10
0.0
 20
0.0
  9
$LIMMAX
 10
17.0
 20
11.0
  9
$ORTHOMODE
 70
     1
  9
$REGENMODE
 70
     1
  9
$FILLMODE
 70
     1
  9
$QTEXTMODE
 70
     0
  9
$MIRRTEXT
 70
     1
  9
$LTSCALE
 40
20.0
  9
$ATTMODE
 70
     1
  9
$TEXTSIZE
 40
2.0
  9
$TRACEWID
 40
0.05
  9
$TEXTSTYLE
  7
WEB PAGE
  9
$CLAYER
  8
0
  9
$CELTYPE
  6
BYLAYER
  9
$CECOLOR
 62
   256
  9
$CELTSCALE
 40
1.0
  9
$DISPSILH
 70
     0
  9
$DIMSCALE
 40
1.0
  9
$DIMASZ
 40
3.0
  9
$DIMEXO
 40
2.0
  9
$DIMDLI
 40
1.0
  9
$DIMRND
 40
0.0
  9
$DIMDLE
 40
0.0
  9
$DIMEXE
 40
1.0
  9
$DIMTP
 40
0.0
  9
$DIMTM
 40
0.0
  9
$DIMTXT
 40
1.75
  9
$DIMCEN
 40
1.0
  9
$DIMTSZ
 40
0.0
  9
$DIMTOL
 70
     0
  9
$DIMLIM
 70
     0
  9
$DIMTIH
 70
     1
  9
$DIMTOH
 70
     1
  9
$DIMSE1
 70
     0
  9
$DIMSE2
 70
     0
  9
$DIMTAD
 70
     0
  9
$DIMZIN
 70
     0
  9
$DIMBLK
  1

  9
$DIMASO
 70
     1
  9
$DIMSHO
 70
     1
  9
$DIMPOST
  1

  9
$DIMAPOST
  1

  9
$DIMALT
 70
     0
  9
$DIMALTD
 70
     2
  9
$DIMALTF
 40
25.4
  9
$DIMLFAC
 40
1.0
  9
$DIMTOFL
 70
     0
  9
$DIMTVP
 40
0.0
  9
$DIMTIX
 70
     0
  9
$DIMSOXD
 70
     0
  9
$DIMSAH
 70
     0
  9
$DIMBLK1
  1

  9
$DIMBLK2
  1

  9
$DIMSTYLE
  2
STANDARD
  9
$DIMCLRD
 70
     0
  9
$DIMCLRE
 70
     0
  9
$DIMCLRT
 70
     0
  9
$DIMTFAC
 40
1.0
  9
$DIMGAP
 40
1.0
  9
$DIMJUST
 70
     0
  9
$DIMSD1
 70
     0
  9
$DIMSD2
 70
     0
  9
$DIMTOLJ
 70
     1
  9
$DIMTZIN
 70
     0
  9
$DIMALTZ
 70
     0
  9
$DIMALTTZ
 70
     0
  9
$DIMUPT
 70
     0
  9
$DIMDEC
 70
     4
  9
$DIMTDEC
 70
     4
  9
$DIMALTU
 70
     2
  9
$DIMALTTD
 70
     2
  9
$DIMTXSTY
  7
WEB PAGE
  9
$DIMAUNIT
 70
     0
  9
$DIMADEC
 70
     0
  9
$DIMALTRND
 40
0.0
  9
$DIMAZIN
 70
     0
  9
$DIMDSEP
 70
    46
  9
$DIMATFIT
 70
     3
  9
$DIMFRAC
 70
     2
  9
$DIMLDRBLK
  1

  9
$DIMLUNIT
 70
     4
  9
$DIMLWD
 70
    -2
  9
$DIMLWE
 70
    -2
  9
$DIMTMOVE
 70
     0
  9
$DIMFXL
 40
1.0
  9
$DIMFXLON
 70
     0
  9
$DIMJOGANG
 40
0.7853981633974483
  9
$DIMTFILL
 70
     0
  9
$DIMTFILLCLR
 70
     0
  9
$DIMARCSYM
 70
     0
  9
$DIMLTYPE
  6

  9
$DIMLTEX1
  6

  9
$DIMLTEX2
  6

  9
$LUNITS
 70
     4
  9
$LUPREC
 70
     4
  9
$SKETCHINC
 40
0.1
  9
$FILLETRAD
 40
0.0
  9
$AUNITS
 70
     1
  9
$AUPREC
 70
     4
  9
$MENU
  1
acad
  9
$ELEVATION
 40
0.0
  9
$PELEVATION
 40
0.0
  9
$THICKNESS
 40
0.0
  9
$LIMCHECK
 70
     0
  9
$CHAMFERA
 40
0.0
  9
$CHAMFERB
 40
0.0
  9
$CHAMFERC
 40
0.0
  9
$CHAMFERD
 40
0.0
  9
$SKPOLY
 70
     0
  9
$TDCREATE
 40
2451029.636190972
  9
$TDUCREATE
 40
2451029.844524306
  9
$TDUPDATE
 40
2454132.406769919
  9
$TDUUPDATE
 40
2454132.615103252
  9
$TDINDWG
 40
3.2998657639
  9
$TDUSRTIMER
 40
3.2998657639
  9
$USRTIMER
 70
     1
  9
$ANGBASE
 50
0.0
  9
$ANGDIR
 70
     0
  9
$PDMODE
 70
     2
  9
$PDSIZE
 40
0.0
  9
$PLINEWID
 40
0.0
  9
$SPLFRAME
 70
     0
  9
$SPLINETYPE
 70
     6
  9
$SPLINESEGS
 70
     8
  9
$HANDSEED
  5
1364A
  9
$SURFTAB1
 70
     6
  9
$SURFTAB2
 70
     6
  9
$SURFTYPE
 70
     6
  9
$SURFU
 70
     6
  9
$SURFV
 70
     6
  9
$UCSBASE
  2

  9
$UCSNAME
  2

  9
$UCSORG
 10
0.0
 20
0.0
 30
0.0
  9
$UCSXDIR
 10
1.0
 20
0.0
 30
0.0
  9
$UCSYDIR
 10
0.0
 20
1.0
 30
0.0
  9
$UCSORTHOREF
  2

  9
$UCSORTHOVIEW
 70
     0
  9
$UCSORGTOP
 10
0.0
 20
0.0
 30
0.0
  9
$UCSORGBOTTOM
 10
0.0
 20
0.0
 30
0.0
  9
$UCSORGLEFT
 10
0.0
 20
0.0
 30
0.0
  9
$UCSORGRIGHT
 10
0.0
 20
0.0
 30
0.0
  9
$UCSORGFRONT
 10
0.0
 20
0.0
 30
0.0
  9
$UCSORGBACK
 10
0.0
 20
0.0
 30
0.0
  9
$PUCSBASE
  2

  9
$PUCSNAME
  2

  9
$PUCSORG
 10
0.0
 20
0.0
 30
0.0
  9
$PUCSXDIR
 10
1.0
 20
0.0
 30
0.0
  9
$PUCSYDIR
 10
0.0
 20
1.0
 30
0.0
  9
$PUCSORTHOREF
  2

  9
$PUCSORTHOVIEW
 70
     0
  9
$PUCSORGTOP
 10
0.0
 20
0.0
 30
0.0
  9
$PUCSORGBOTTOM
 10
0.0
 20
0.0
 30
0.0
  9
$PUCSORGLEFT
 10
0.0
 20
0.0
 30
0.0
  9
$PUCSORGRIGHT
 10
0.0
 20
0.0
 30
0.0
  9
$PUCSORGFRONT
 10
0.0
 20
0.0
 30
0.0
  9
$PUCSORGBACK
 10
0.0
 20
0.0
 30
0.0
  9
$USERI1
 70
     0
  9
$USERI2
 70
     0
  9
$USERI3
 70
     0
  9
$USERI4
 70
     0
  9
$USERI5
 70
     0
  9
$USERR1
 40
0.0
  9
$USERR2
 40
0.0
  9
$USERR3
 40
0.0
  9
$USERR4
 40
0.0
  9
$USERR5
 40
0.0
  9
$WORLDVIEW
 70
     1
  9
$SHADEDGE
 70
     3
  9
$SHADEDIF
 70
    70
  9
$TILEMODE
 70
     1
  9
$MAXACTVP
 70
    16
  9
$PINSBASE
 10
0.0
 20
0.0
 30
0.0
  9
$PLIMCHECK
 70
     0
  9
$PEXTMIN
 10
0.1937503629665342
 20
0.1315364683811797
 30
0.0
  9
$PEXTMAX
 10
7.991598296780178
 20
10.41007467789764
 30
0.0
  9
$PLIMMIN
 10
-0.1389152863755117
 20
-0.1570844386301567
  9
$PLIMMAX
 10
8.361084473328595
 20
10.84291532107395
  9
$UNITMODE
 70
     0
  9
$VISRETAIN
 70
     0
  9
$PLINEGEN
 70
     0
  9
$PSLTSCALE
 70
     1
  9
$TREEDEPTH
 70
  3020
  9
$CMLSTYLE
  2
STANDARD
  9
$CMLJUST
 70
     0
  9
$CMLSCALE
 40
1.0
  9
$PROXYGRAPHICS
 70
     1
  9
$MEASUREMENT
 70
     0
  9
$CELWEIGHT
370
    -1
  9
$ENDCAPS
280
     0
  9
$JOINSTYLE
280
     0
  9
$LWDISPLAY
290
     0
  9
$INSUNITS
 70
     1
  9
$HYPERLINKBASE
  1

  9
$STYLESHEET
  1

  9
$XEDIT
290
     1
  9
$CEPSNTYPE
380
     0
  9
$PSTYLEMODE
290
     1
  9
$FINGERPRINTGUID
  2
{EED38BEA-5B6B-467F-90D5-C3127D1C881D}
  9
$VERSIONGUID
  2
{37697013-B428-4926-946D-7720C9255748}
  9
$EXTNAMES
290
     1
  9
$PSVPSCALE
 40
0.0
  9
$OLESTARTUP
290
     0
  9
$SORTENTS
280
    96
  9
$INDEXCTL
280
     0
  9
$HIDETEXT
280
     0
  9
$XCLIPFRAME
290
     0
  9
$HALOGAP
280
     0
  9
$OBSCOLOR
 70
   257
  9
$OBSLTYPE
280
     0
  9
$INTERSECTIONDISPLAY
280
     0
  9
$INTERSECTIONCOLOR
 70
   257
  9
$DIMASSOC
280
     1
  9
$PROJECTNAME
  1

  9
$CAMERADISPLAY
290
     0
  9
$LENSLENGTH
 40
50.0
  9
$CAMERAHEIGHT
 40
0.0
  9
$STEPSPERSEC
 40
2.0
  9
$STEPSIZE
 40
6.0
  9
$3DDWFPREC
 40
2.0
  9
$PSOLWIDTH
 40
0.25
  9
$PSOLHEIGHT
 40
4.0
  9
$LOFTANG1
 40
1.570796326794896
  9
$LOFTANG2
 40
1.570796326794896
  9
$LOFTMAG1
 40
0.0
  9
$LOFTMAG2
 40
0.0
  9
$LOFTPARAM
 70
     7
  9
$LOFTNORMALS
280
     1
  9
$LATITUDE
 40
37.795
  9
$LONGITUDE
 40
-122.394
  9
$NORTHDIRECTION
 40
0.0
  9
$TIMEZONE
 70
 -8000
  9
$LIGHTGLYPHDISPLAY
280
     1
  9
$TILEMODELIGHTSYNCH
280
     1
  9
$CMATERIAL
347
13441
  9
$SOLIDHIST
280
     1
  9
$SHOWHIST
280
     1
  9
$DWFFRAME
280
     2
  9
$DGNFRAME
280
     0
  9
$REALWORLDSCALE
290
     1
  9
$INTERFERECOLOR
 62
     1
  9
$INTERFEREOBJVS
345
1344E
  9
$INTERFEREVPVS
346
1344B
  9
$CSHADOW
280
     0
  9
$SHADOWPLANELOCATION
 40
0.0
  0
ENDSEC
  0
SECTION
  2
CLASSES
  0
CLASS
  1
DICTIONARYVAR
  2
AcDbDictionaryVar
  3
ObjectDBX Classes
 90
        0
 91
        4
280
     0
281
     0
  0
CLASS
  1
ACDBDICTIONARYWDFLT
  2
AcDbDictionaryWithDefault
  3
ObjectDBX Classes
 90
        0
 91
        1
280
     0
281
     0
  0
CLASS
  1
MATERIAL
  2
AcDbMaterial
  3
ObjectDBX Classes
 90
     1024
 91
        3
280
     0
281
     0
  0
CLASS
  1
VISUALSTYLE
  2
AcDbVisualStyle
  3
ObjectDBX Classes
 90
     4095
 91
       16
280
     0
281
     0
  0
CLASS
  1
TABLESTYLE
  2
AcDbTableStyle
  3
ObjectDBX Classes
 90
     4095
 91
        1
280
     0
281
     0
  0
CLASS
  1
SORTENTSTABLE
  2
AcDbSortentsTable
  3
ObjectDBX Classes
 90
        0
 91
        1
280
     0
281
     0
  0
ENDSEC
  0
SECTION
  2
TABLES
  0
TABLE
  2
VPORT
  5
8
102
{ACAD_XDICTIONARY
360
13577
102
}
330
0
100
AcDbSymbolTable
 70
     1
  0
VPORT
  5
1343D
330
8
100
AcDbSymbolTableRecord
100
AcDbViewportTableRecord
  2
*Active
 70
     0
 10
0.0
 20
0.0
 11
1.0
 21
1.0
 12
176.4718364618807
 22
188.0684744396823
 13
0.0
 23
0.0
 14
1.0
 24
1.0
 15
0.25
 25
0.25
 16
0.0
 26
0.0
 36
1.0
 17
0.0
 27
0.0
 37
0.0
 40
175.6402402974113
 41
1.544516129032257
 42
50.0
 43
0.0
 44
0.0
 50
0.0
 51
0.0
 71
     0
 72
   100
 73
     1
 74
     0
 75
     0
 76
     0
 77
     0
 78
     0
281
     0
 65
     1
110
0.0
120
0.0
130
0.0
111
1.0
121
0.0
131
0.0
112
0.0
122
1.0
132
0.0
 79
     0
146
0.0
348
1344A
 60
     3
 61
     5
292
     1
282
     1
141
0.0
142
0.0
 63
   250
421
  3355443
  0
ENDTAB
  0
TABLE
  2
LTYPE
  5
5
330
0
100
AcDbSymbolTable
 70
     3
  0
LTYPE
  5
11
330
5
100
AcDbSymbolTableRecord
100
AcDbLinetypeTableRecord
  2
BYBLOCK
 70
     0
  3

 72
    65
 73
     0
 40
0.0
  0
LTYPE
  5
12
330
5
100
AcDbSymbolTableRecord
100
AcDbLinetypeTableRecord
  2
BYLAYER
 70
     0
  3

 72
    65
 73
     0
 40
0.0
  0
LTYPE
  5
13
330
5
100
AcDbSymbolTableRecord
100
AcDbLinetypeTableRecord
  2
CONTINUOUS
 70
     0
  3
Solid line
 72
    65
 73
     0
 40
0.0
  0
LTYPE
  5
12261
330
5
100
AcDbSymbolTableRecord
100
AcDbLinetypeTableRecord
  2
DASHED2
 70
     0
  3
Dashed (.5x) _ _ _ _ _ _ _ _ _ _ _ _ _ _ _ _ _
 72
    65
 73
     2
 40
0.375
 49
0.25
 74
     0
 49
-0.125
 74
     0
  0
ENDTAB
  0
TABLE
  2
LAYER
  5
2
102
{ACAD_XDICTIONARY
360
134F4
102
}
330
0
100
AcDbSymbolTable
 70
    11
  0
LAYER
  5
E
330
2
100
AcDbSymbolTableRecord
100
AcDbLayerTableRecord
  2
0
 70
     0
 62
     7
  6
CONTINUOUS
370
    -3
390
B579
347
13443
  0
LAYER
  5
41
330
2
100
AcDbSymbolTableRecord
100
AcDbLayerTableRecord
  2
BDR
 70
     0
 62
     7
  6
CONTINUOUS
370
    -3
390
B579
347
13443
  0
LAYER
  5
44
330
2
100
AcDbSymbolTableRecord
100
AcDbLayerTableRecord
  2
AME_FRZ
 70
     0
 62
     7
  6
CONTINUOUS
370
    -3
390
B579
347
13443
  0
LAYER
  5
45
330
2
100
AcDbSymbolTableRecord
100
AcDbLayerTableRecord
  2
ASHADE
 70
     0
 62
     7
  6
CONTINUOUS
370
    -3
390
B579
347
13443
  0
LAYER
  5
B91F
330
2
100
AcDbSymbolTableRecord
100
AcDbLayerTableRecord
  2
HATCH
 70
     0
 62
     4
  6
CONTINUOUS
370
    -3
390
B579
347
13443
  0
LAYER
  5
F047
330
2
100
AcDbSymbolTableRecord
100
AcDbLayerTableRecord
  2
Defpoints
 70
     0
 62
     7
  6
CONTINUOUS
290
     0
370
    -3
390
B579
347
13443
  0
LAYER
  5
F086
330
2
100
AcDbSymbolTableRecord
100
AcDbLayerTableRecord
  2
SECTION JOINTS
 70
     0
 62
     7
  6
CONTINUOUS
370
    25
390
B579
347
13443
  0
LAYER
  5
111E5
330
2
100
AcDbSymbolTableRecord
100
AcDbLayerTableRecord
  2
TEXT
 70
     0
 62
     7
  6
CONTINUOUS
370
    25
390
B579
347
13443
  0
LAYER
  5
117C7
330
2
100
AcDbSymbolTableRecord
100
AcDbLayerTableRecord
  2
FRAMING
 70
     0
 62
     7
  6
CONTINUOUS
370
    25
390
B579
347
13443
  0
ENDTAB
  0
TABLE
  2
STYLE
  5
3
330
0
100
AcDbSymbolTable
 70
     3
  0
STYLE
  5
F
330
3
100
AcDbSymbolTableRecord
100
AcDbTextStyleTableRecord
  2
STANDARD
 70
     0
 40
0.0
 41
1.0
 50
0.0
 71
     0
 42
2.0
  3
TIMES.TTF
  4

1001
ACAD
1000
Times New Roman
1071
       18
  0
STYLE
  5
1D21
330
3
100
AcDbSymbolTableRecord
100
AcDbTextStyleTableRecord
  2
SIMPLEX
 70
     0
 40
0.1
 41
0.6
 50
0.0
 71
     0
 42
0.1
  3
SIMPLEX.shx
  4

  0
STYLE
  5
10B94
330
3
100
AcDbSymbolTableRecord
100
AcDbTextStyleTableRecord
  2
WEB PAGE
 70
     0
 40
0.0
 41
1.0
 50
0.0
 71
     0
 42
2.0
  3
TIMES.TTF
  4

1001
ACAD
1000
Times New Roman
1071
       18
  0
ENDTAB
  0
TABLE
  2
VIEW
  5
6
330
0
100
AcDbSymbolTable
 70
     1
  0
ENDTAB
  0
TABLE
  2
UCS
  5
7
330
0
100
AcDbSymbolTable
 70
     0
  0
ENDTAB
  0
TABLE
  2
APPID
  5
9
330
0
100
AcDbSymbolTable
 70
     8
  0
APPID
  5
10
330
9
100
AcDbSymbolTableRecord
100
AcDbRegAppTableRecord
  2
ACAD
 70
     0
  0
APPID
  5
3F
330
9
100
AcDbSymbolTableRecord
100
AcDbRegAppTableRecord
  2
AME_SOL
 70
     0
  0
APPID
  5
40
330
9
100
AcDbSymbolTableRecord
100
AcDbRegAppTableRecord
  2
AVE_RENDER
 70
     0
  0
APPID
  5
71A7
330
9
100
AcDbSymbolTableRecord
100
AcDbRegAppTableRecord
  2
AVE_ENTITY_MATERIAL
 70
     0
  0
APPID
  5
71A8
330
9
100
AcDbSymbolTableRecord
100
AcDbRegAppTableRecord
  2
AVE_FINISH
 70
     0
  0
APPID
  5
71A9
330
9
100
AcDbSymbolTableRecord
100
AcDbRegAppTableRecord
  2
AVE_MATERIAL
 70
     0
  0
APPID
  5
71AA
330
9
100
AcDbSymbolTableRecord
100
AcDbRegAppTableRecord
  2
AVE_GLOBAL
 70
     0
  0
APPID
  5
123F8
330
9
100
AcDbSymbolTableRecord
100
AcDbRegAppTableRecord
  2
DCO15
 70
     0
  0
ENDTAB
  0
TABLE
  2
DIMSTYLE
  5
A
330
0
100
AcDbSymbolTable
 70
     1
100
AcDbDimStyleTable
 71
     1
340
190D
  0
DIMSTYLE
105
190D
102
{ACAD_REACTORS
330
11CDF
330
11CE0
330
11CE1
330
11CFE
330
11CFD
330
11D00
330
11D1F
330
11EA8
330
1205D
330
12AF1
102
}
330
A
100
AcDbSymbolTableRecord
100
AcDbDimStyleTableRecord
  2
STANDARD
 70
     0
 41
3.0
 42
2.0
 43
1.0
 44
1.0
140
1.75
141
1.0
147
1.0
276
     2
277
     4
340
10B94
  0
ENDTAB
  0
TABLE
  2
BLOCK_RECORD
  5
1
330
0
100
AcDbSymbolTable
 70
    16
  0
BLOCK_RECORD
  5
17
330
1
100
AcDbSymbolTableRecord
100
AcDbBlockTableRecord
  2
*MODEL_SPACE
340
B57C
 70
     0
280
     1
281
     0
  0
BLOCK_RECORD
  5
14
330
1
100
AcDbSymbolTableRecord
100
AcDbBlockTableRecord
  2
*PAPER_SPACE
340
B57D
 70
     0
280
     1
281
     0
  0
BLOCK_RECORD
  5
20
330
1
100
AcDbSymbolTableRecord
100
AcDbBlockTableRecord
  2
AME_NIL
340
0
102
{BLKREFS
331
3374
331
3E3C
102
}
 70
     0
280
     1
281
     0
  0
BLOCK_RECORD
  5
21
330
1
100
AcDbSymbolTableRecord
100
AcDbBlockTableRecord
  2
AME_SOL
340
0
102
{BLKREFS
331
3375
331
3E3D
102
}
 70
     0
280
     1
281
     0
  0
BLOCK_RECORD
  5
22
330
1
100
AcDbSymbolTableRecord
100
AcDbBlockTableRecord
  2
AVE_RENDER
340
0
102
{BLKREFS
331
3376
331
3377
331
3378
331
3E3E
331
3E3F
331
3E40
102
}
 70
     0
280
     1
281
     0
  0
BLOCK_RECORD
  5
11D37
330
1
100
AcDbSymbolTableRecord
100
AcDbBlockTableRecord
  2
*D3
340
0
 70
     0
280
     1
281
     0
  0
BLOCK_RECORD
  5
11D44
330
1
100
AcDbSymbolTableRecord
100
AcDbBlockTableRecord
  2
*D4
340
0
 70
     0
280
     1
281
     0
  0
BLOCK_RECORD
  5
11D51
330
1
100
AcDbSymbolTableRecord
100
AcDbBlockTableRecord
  2
*D5
340
0
 70
     0
280
     1
281
     0
  0
BLOCK_RECORD
  5
11D5E
330
1
100
AcDbSymbolTableRecord
100
AcDbBlockTableRecord
  2
*D6
340
0
 70
     0
280
     1
281
     0
  0
BLOCK_RECORD
  5
11EA9
330
1
100
AcDbSymbolTableRecord
100
AcDbBlockTableRecord
  2
*D7
340
0
 70
     0
280
     1
281
     0
  0
BLOCK_RECORD
  5
1205E
330
1
100
AcDbSymbolTableRecord
100
AcDbBlockTableRecord
  2
*D8
340
0
 70
     0
280
     1
281
     0
  0
BLOCK_RECORD
  5
1265A
330
1
100
AcDbSymbolTableRecord
100
AcDbBlockTableRecord
  2
A$C0F741633
340
0
102
{BLKREFS
331
1268C
102
}
 70
     0
280
     1
281
     0
  0
BLOCK_RECORD
  5
1268E
330
1
100
AcDbSymbolTableRecord
100
AcDbBlockTableRecord
  2
A$C2C455F4F
340
0
102
{BLKREFS
331
126A0
102
}
 70
     0
280
     1
281
     0
  0
BLOCK_RECORD
  5
127B0
330
1
100
AcDbSymbolTableRecord
100
AcDbBlockTableRecord
  2
A$C38546004
340
0
102
{BLKREFS
331
127E9
102
}
 70
     0
280
     1
281
     0
  0
BLOCK_RECORD
  5
12901
330
1
100
AcDbSymbolTableRecord
100
AcDbBlockTableRecord
  2
COMM-6-625-EBP
340
0
102
{BLKREFS
331
12919
102
}
 70
     1
280
     1
281
     0
  0
BLOCK_RECORD
  5
129BA
330
1
100
AcDbSymbolTableRecord
100
AcDbBlockTableRecord
  2
A$C4240735D
340
0
102
{BLKREFS
331
129E0
102
}
 70
     0
280
     1
281
     0
  0
BLOCK_RECORD
  5
12AF2
330
1
100
AcDbSymbolTableRecord
100
AcDbBlockTableRecord
  2
*D14
340
0
 70
     0
280
     1
281
     0
  0
ENDTAB
  0
ENDSEC
  0
SECTION
  2
BLOCKS
  0
BLOCK
  5
57
330
17
100
AcDbEntity
  8
0
100
AcDbBlockBegin
  2
*MODEL_SPACE
 70
     0
 10
0.0
 20
0.0
 30
0.0
  3
*MODEL_SPACE
  1

  0
ENDBLK
  5
58
330
17
100
AcDbEntity
  8
0
100
AcDbBlockEnd
  0
BLOCK
  5
55
330
14
100
AcDbEntity
 67
     1
  8
0
100
AcDbBlockBegin
  2
*PAPER_SPACE
 70
     0
 10
0.0
 20
0.0
 30
0.0
  3
*PAPER_SPACE
  1

  0
ENDBLK
  5
56
330
14
100
AcDbEntity
 67
     1
  8
0
100
AcDbBlockEnd
  0
BLOCK
  5
91E
330
20
100
AcDbEntity
  8
0
100
AcDbBlockBegin
  2
AME_NIL
 70
     0
 10
0.0
 20
0.0
 30
0.0
  3
AME_NIL
  1
AME_NIL
  0
ENDBLK
  5
91F
330
20
100
AcDbEntity
  8
0
100
AcDbBlockEnd
  0
BLOCK
  5
920
330
21
100
AcDbEntity
  8
0
100
AcDbBlockBegin
  2
AME_SOL
 70
     0
 10
0.0
 20
0.0
 30
0.0
  3
AME_SOL
  1
AME_SOL
  0
ENDBLK
  5
921
330
21
100
AcDbEntity
  8
0
100
AcDbBlockEnd
  0
BLOCK
  5
922
330
22
100
AcDbEntity
  8
0
100
AcDbBlockBegin
  2
AVE_RENDER
 70
     0
 10
0.0
 20
0.0
 30
0.0
  3
AVE_RENDER
  1
AVE_RENDER
  0
ENDBLK
  5
923
330
22
100
AcDbEntity
  8
0
100
AcDbBlockEnd
  0
BLOCK
  5
11D42
330
11D37
100
AcDbEntity
  8
0
100
AcDbBlockBegin
  2
*D3
 70
     1
 10
0.0
 20
0.0
 30
0.0
  3
*D3
  1

  0
LINE
  5
12B45
330
11D37
100
AcDbEntity
  8
TEXT
 62
     0
370
    -2
100
AcDbLine
 10
132.2169295018095
 20
123.0362941793405
 30
0.0
 11
68.57784519491635
 21
123.0362941793405
 31
0.0
  0
LINE
  5
12B46
330
11D37
100
AcDbEntity
  8
TEXT
 62
     0
370
    -2
100
AcDbLine
 10
136.2169295018095
 20
252.0362941793405
 30
0.0
 11
68.57784519491637
 21
252.0362941793405
 31
0.0
  0
LINE
  5
12B47
330
11D37
100
AcDbEntity
  8
TEXT
 62
     0
370
    -2
100
AcDbLine
 10
69.57784519491635
 20
126.0362941793405
 30
0.0
 11
69.57784519491636
 21
176.7512338373501
 31
0.0
  0
LINE
  5
12B48
330
11D37
100
AcDbEntity
  8
TEXT
 62
     0
370
    -2
100
AcDbLine
 10
69.57784519491638
 20
249.0362941793406
 30
0.0
 11
69.57784519491636
 21
183.4179005040168
 31
0.0
  0
SOLID
  5
12B49
330
11D37
100
AcDbEntity
  8
TEXT
 62
     0
100
AcDbTrace
 10
69.07784519491634
 20
126.0362941793405
 30
0.0
 11
70.07784519491635
 21
126.0362941793405
 31
0.0
 12
69.57784519491635
 22
123.0362941793405
 32
0.0
 13
69.57784519491635
 23
123.0362941793405
 33
0.0
  0
SOLID
  5
12B4A
330
11D37
100
AcDbEntity
  8
TEXT
 62
     0
100
AcDbTrace
 10
69.07784519491638
 20
249.0362941793406
 30
0.0
 11
70.07784519491638
 21
249.0362941793406
 31
0.0
 12
69.57784519491638
 22
252.0362941793405
 32
0.0
 13
69.57784519491638
 23
252.0362941793405
 33
0.0
  0
MTEXT
  5
12B4B
330
11D37
100
AcDbEntity
  8
TEXT
 62
     0
100
AcDbMText
 10
69.57784519491633
 20
180.0845671706835
 30
0.0
 40
1.75
 41
0.0
 46
0.0
 71
     5
 72
     1
  1
\A1;MINIMUM\PCEILING HEIGHT
  7
WEB PAGE
 73
     1
 44
1.0
  0
POINT
  5
12B4C
330
11D37
100
AcDbEntity
  8
Defpoints
 62
     0
100
AcDbPoint
 10
134.2169295018095
 20
123.0362941793405
 30
0.0
  0
POINT
  5
12B4D
330
11D37
100
AcDbEntity
  8
Defpoints
 62
     0
100
AcDbPoint
 10
138.2169295018095
 20
252.0362941793405
 30
0.0
  0
POINT
  5
12B4E
330
11D37
100
AcDbEntity
  8
Defpoints
 62
     0
100
AcDbPoint
 10
69.57784519491638
 20
252.0362941793405
 30
0.0
  0
ENDBLK
  5
11D43
330
11D37
100
AcDbEntity
  8
0
100
AcDbBlockEnd
  0
BLOCK
  5
11D4F
330
11D44
100
AcDbEntity
  8
0
100
AcDbBlockBegin
  2
*D4
 70
     1
 10
0.0
 20
0.0
 30
0.0
  3
*D4
  1

  0
LINE
  5
1342A
330
11D44
100
AcDbEntity
  8
TEXT
 62
     0
370
    -2
100
AcDbLine
 10
207.4861505668555
 20
123.0362941793405
 30
0.0
 11
174.0501848453942
 21
123.0362941793405
 31
0.0
  0
LINE
  5
1342B
330
11D44
100
AcDbEntity
  8
TEXT
 62
     0
370
    -2
100
AcDbLine
 10
145.8714281824209
 20
224.0246795016458
 30
0.0
 11
176.0501848453942
 21
224.0246795016458
 31
0.0
  0
LINE
  5
1342C
330
11D44
100
AcDbEntity
  8
TEXT
 62
     0
370
    -2
100
AcDbLine
 10
175.0501848453941
 20
126.0362941793405
 30
0.0
 11
175.0501848453941
 21
171.0873956574263
 31
0.0
  0
LINE
  5
1342D
330
11D44
100
AcDbEntity
  8
TEXT
 62
     0
370
    -2
100
AcDbLine
 10
175.0501848453942
 20
221.0246795016459
 30
0.0
 11
175.0501848453941
 21
178.6707289907596
 31
0.0
  0
SOLID
  5
1342E
330
11D44
100
AcDbEntity
  8
TEXT
 62
     0
100
AcDbTrace
 10
174.5501848453941
 20
126.0362941793405
 30
0.0
 11
175.5501848453941
 21
126.0362941793405
 31
0.0
 12
175.0501848453941
 22
123.0362941793405
 32
0.0
 13
175.0501848453941
 23
123.0362941793405
 33
0.0
  0
SOLID
  5
1342F
330
11D44
100
AcDbEntity
  8
TEXT
 62
     0
100
AcDbTrace
 10
174.5501848453942
 20
221.0246795016459
 30
0.0
 11
175.5501848453942
 21
221.0246795016459
 31
0.0
 12
175.0501848453942
 22
224.0246795016458
 32
0.0
 13
175.0501848453942
 23
224.0246795016458
 33
0.0
  0
MTEXT
  5
13430
330
11D44
100
AcDbEntity
  8
TEXT
 62
     0
100
AcDbMText
 10
175.0501848453941
 20
174.879062324093
 30
0.0
 40
1.75
 41
0.0
 46
0.0
 71
     5
 72
     1
  1
\A1;VERTICAL TRACK\P(DOOR HEIGHT - 19")
  7
WEB PAGE
 73
     1
 44
1.0
  0
POINT
  5
13431
330
11D44
100
AcDbEntity
  8
Defpoints
 62
     0
100
AcDbPoint
 10
209.4861505668555
 20
123.0362941793405
 30
0.0
  0
POINT
  5
13432
330
11D44
100
AcDbEntity
  8
Defpoints
 62
     0
100
AcDbPoint
 10
143.871428182421
 20
224.0246795016458
 30
0.0
  0
POINT
  5
13433
330
11D44
100
AcDbEntity
  8
Defpoints
 62
     0
100
AcDbPoint
 10
175.0501848453942
 20
224.0246795016458
 30
0.0
  0
ENDBLK
  5
11D50
330
11D44
100
AcDbEntity
  8
0
100
AcDbBlockEnd
  0
BLOCK
  5
11D5C
330
11D51
100
AcDbEntity
  8
0
100
AcDbBlockBegin
  2
*D5
 70
     1
 10
0.0
 20
0.0
 30
0.0
  3
*D5
  1

  0
LINE
  5
120D5
330
11D51
100
AcDbEntity
  8
TEXT
 62
     0
370
    -2
100
AcDbLine
 10
132.2169295018095
 20
243.0362941793405
 30
0.0
 11
117.0575413775432
 21
243.0362941793405
 31
0.0
  0
LINE
  5
120D6
330
11D51
100
AcDbEntity
  8
TEXT
 62
     0
370
    -2
100
AcDbLine
 10
132.2169295018095
 20
123.0362941793405
 30
0.0
 11
117.0575413775432
 21
123.0362941793405
 31
0.0
  0
LINE
  5
120D7
330
11D51
100
AcDbEntity
  8
TEXT
 62
     0
370
    -2
100
AcDbLine
 10
118.0575413775432
 20
240.0362941793405
 30
0.0
 11
118.0575413775432
 21
186.3696275126739
 31
0.0
  0
LINE
  5
120D8
330
11D51
100
AcDbEntity
  8
TEXT
 62
     0
370
    -2
100
AcDbLine
 10
118.0575413775432
 20
126.0362941793405
 30
0.0
 11
118.0575413775432
 21
179.7029608460072
 31
0.0
  0
SOLID
  5
120D9
330
11D51
100
AcDbEntity
  8
TEXT
 62
     0
100
AcDbTrace
 10
117.5575413775432
 20
240.0362941793405
 30
0.0
 11
118.5575413775432
 21
240.0362941793405
 31
0.0
 12
118.0575413775432
 22
243.0362941793405
 32
0.0
 13
118.0575413775432
 23
243.0362941793405
 33
0.0
  0
SOLID
  5
120DA
330
11D51
100
AcDbEntity
  8
TEXT
 62
     0
100
AcDbTrace
 10
117.5575413775432
 20
126.0362941793405
 30
0.0
 11
118.5575413775432
 21
126.0362941793405
 31
0.0
 12
118.0575413775432
 22
123.0362941793405
 32
0.0
 13
118.0575413775432
 23
123.0362941793405
 33
0.0
  0
MTEXT
  5
120DB
330
11D51
100
AcDbEntity
  8
TEXT
 62
     0
100
AcDbMText
 10
118.0575413775432
 20
183.0362941793405
 30
0.0
 40
1.75
 41
0.0
 46
0.0
 71
     5
 72
     1
  1
\A1;OPENING\PHEIGHT
  7
WEB PAGE
 73
     1
 44
1.0
  0
POINT
  5
120DC
330
11D51
100
AcDbEntity
  8
Defpoints
 62
     0
100
AcDbPoint
 10
134.2169295018095
 20
243.0362941793405
 30
0.0
  0
POINT
  5
120DD
330
11D51
100
AcDbEntity
  8
Defpoints
 62
     0
100
AcDbPoint
 10
134.2169295018095
 20
123.0362941793405
 30
0.0
  0
POINT
  5
120DE
330
11D51
100
AcDbEntity
  8
Defpoints
 62
     0
100
AcDbPoint
 10
118.0575413775432
 20
123.0362941793405
 30
0.0
  0
ENDBLK
  5
11D5D
330
11D51
100
AcDbEntity
  8
0
100
AcDbBlockEnd
  0
BLOCK
  5
11D6A
330
11D5E
100
AcDbEntity
  8
0
100
AcDbBlockBegin
  2
*D6
 70
     1
 10
0.0
 20
0.0
 30
0.0
  3
*D6
  1

  0
LINE
  5
129EB
330
11D5E
100
AcDbEntity
  8
TEXT
 62
     0
370
    -2
100
AcDbLine
 10
132.2169295018095
 20
243.0362941793405
 30
0.0
 11
117.0575413775432
 21
243.0362941793405
 31
0.0
  0
LINE
  5
129EC
330
11D5E
100
AcDbEntity
  8
TEXT
 62
     0
370
    -2
100
AcDbLine
 10
136.2169295018095
 20
252.0362941793405
 30
0.0
 11
117.0575413775432
 21
252.0362941793405
 31
0.0
  0
LINE
  5
129ED
330
11D5E
100
AcDbEntity
  8
TEXT
 62
     0
370
    -2
100
AcDbLine
 10
118.0575413775432
 20
246.0362941793405
 30
0.0
 11
118.0575413775432
 21
249.0362941793406
 31
0.0
  0
LINE
  5
129EE
330
11D5E
100
AcDbEntity
  8
TEXT
 62
     0
370
    -2
100
AcDbLine
 10
118.0575413775432
 20
252.0362941793405
 30
0.0
 11
118.0575413775432
 21
272.3008621425022
 31
0.0
  0
LINE
  5
129EF
330
11D5E
100
AcDbEntity
  8
TEXT
 62
     0
370
    -2
100
AcDbLine
 10
118.0575413775432
 20
272.3008621425022
 30
0.0
 11
121.0575413775432
 21
272.3008621425022
 31
0.0
  0
SOLID
  5
129F0
330
11D5E
100
AcDbEntity
  8
TEXT
 62
     0
100
AcDbTrace
 10
117.5575413775432
 20
246.0362941793405
 30
0.0
 11
118.5575413775432
 21
246.0362941793405
 31
0.0
 12
118.0575413775432
 22
243.0362941793405
 32
0.0
 13
118.0575413775432
 23
243.0362941793405
 33
0.0
  0
SOLID
  5
129F1
330
11D5E
100
AcDbEntity
  8
TEXT
 62
     0
100
AcDbTrace
 10
117.5575413775432
 20
249.0362941793406
 30
0.0
 11
118.5575413775432
 21
249.0362941793406
 31
0.0
 12
118.0575413775432
 22
252.0362941793405
 32
0.0
 13
118.0575413775432
 23
252.0362941793405
 33
0.0
  0
MTEXT
  5
129F2
330
11D5E
100
AcDbEntity
  8
TEXT
 62
     0
100
AcDbMText
 10
128.9325413775432
 20
272.3008621425022
 30
0.0
 40
1.75
 41
0.0
 46
0.0
 71
     5
 72
     1
  1
\A1;MINIMUM\PHEADROOM
  7
WEB PAGE
 73
     1
 44
1.0
  0
POINT
  5
129F3
330
11D5E
100
AcDbEntity
  8
Defpoints
 62
     0
100
AcDbPoint
 10
134.2169295018095
 20
243.0362941793405
 30
0.0
  0
POINT
  5
129F4
330
11D5E
100
AcDbEntity
  8
Defpoints
 62
     0
100
AcDbPoint
 10
138.2169295018095
 20
252.0362941793405
 30
0.0
  0
POINT
  5
129F5
330
11D5E
100
AcDbEntity
  8
Defpoints
 62
     0
100
AcDbPoint
 10
118.0575413775432
 20
252.0362941793405
 30
0.0
  0
ENDBLK
  5
11D6B
330
11D5E
100
AcDbEntity
  8
0
100
AcDbBlockEnd
  0
BLOCK
  5
11EB4
330
11EA9
100
AcDbEntity
  8
0
100
AcDbBlockBegin
  2
*D7
 70
     1
 10
0.0
 20
0.0
 30
0.0
  3
*D7
  1

  0
LINE
  5
12B54
330
11EA9
100
AcDbEntity
  8
TEXT
 62
     0
370
    -2
100
AcDbLine
 10
140.6916006889599
 20
228.0578021801172
 30
0.0
 11
140.6916006889599
 21
232.1459021664699
 31
0.0
  0
LINE
  5
12B55
330
11EA9
100
AcDbEntity
  8
TEXT
 62
     0
370
    -2
100
AcDbLine
 10
281.6072957298075
 20
241.0578021801172
 30
0.0
 11
281.6072957298075
 21
230.1459021664699
 31
0.0
  0
LINE
  5
12B56
330
11EA9
100
AcDbEntity
  8
TEXT
 62
     0
370
    -2
100
AcDbLine
 10
143.6916006889599
 20
231.1459021664699
 30
0.0
 11
186.8577815427171
 21
231.1459021664699
 31
0.0
  0
LINE
  5
12B57
330
11EA9
100
AcDbEntity
  8
TEXT
 62
     0
370
    -2
100
AcDbLine
 10
278.6072957298076
 20
231.1459021664699
 30
0.0
 11
235.4411148760504
 21
231.1459021664699
 31
0.0
  0
SOLID
  5
12B58
330
11EA9
100
AcDbEntity
  8
TEXT
 62
     0
100
AcDbTrace
 10
143.6916006889599
 20
231.6459021664699
 30
0.0
 11
143.6916006889599
 21
230.6459021664699
 31
0.0
 12
140.6916006889599
 22
231.1459021664699
 32
0.0
 13
140.6916006889599
 23
231.1459021664699
 33
0.0
  0
SOLID
  5
12B59
330
11EA9
100
AcDbEntity
  8
TEXT
 62
     0
100
AcDbTrace
 10
278.6072957298076
 20
231.6459021664699
 30
0.0
 11
278.6072957298076
 21
230.6459021664699
 31
0.0
 12
281.6072957298075
 22
231.1459021664699
 32
0.0
 13
281.6072957298075
 23
231.1459021664699
 33
0.0
  0
MTEXT
  5
12B5A
330
11EA9
100
AcDbEntity
  8
TEXT
 62
     0
100
AcDbMText
 10
211.1494482093837
 20
231.1459021664699
 30
0.0
 40
1.75
 41
0.0
 46
0.0
 71
     5
 72
     1
  1
\A1;HORIZONTAL TRACK LENGTH\P(BACKROOM: DOOR HEIGHT + 21")
  7
WEB PAGE
 73
     1
 44
1.0
  0
POINT
  5
12B5B
330
11EA9
100
AcDbEntity
  8
Defpoints
 62
     0
100
AcDbPoint
 10
140.6916006889599
 20
226.0578021801172
 30
0.0
  0
POINT
  5
12B5C
330
11EA9
100
AcDbEntity
  8
Defpoints
 62
     0
100
AcDbPoint
 10
281.6072957298075
 20
243.0578021801172
 30
0.0
  0
POINT
  5
12B5D
330
11EA9
100
AcDbEntity
  8
Defpoints
 62
     0
100
AcDbPoint
 10
281.6072957298075
 20
231.1459021664699
 30
0.0
  0
ENDBLK
  5
11EB5
330
11EA9
100
AcDbEntity
  8
0
100
AcDbBlockEnd
  0
BLOCK
  5
1206B
330
1205E
100
AcDbEntity
  8
0
100
AcDbBlockBegin
  2
*D8
 70
     1
 10
0.0
 20
0.0
 30
0.0
  3
*D8
  1

  0
ARC
  5
12A7E
330
1205E
100
AcDbEntity
  8
TEXT
 62
     0
370
    -2
100
AcDbCircle
 10
233.9576424280576
 20
203.862748318824
 30
0.0
 40
5.663360582444588
100
AcDbArc
 50
118.5653662259098
 51
149.2826831129549
  0
ARC
  5
12A7F
330
1205E
100
AcDbEntity
  8
TEXT
 62
     0
370
    -2
100
AcDbCircle
 10
233.9576424280576
 20
203.862748318824
 30
0.0
 40
5.663360582444588
100
AcDbArc
 50
255.7173168870451
 51
286.4346337740902
  0
SOLID
  5
12A80
330
1205E
100
AcDbEntity
  8
TEXT
 62
     0
100
AcDbTrace
 10
229.5710064546562
 20
206.6231784071733
 30
0.0
 11
228.6067196903784
 21
206.8880388161413
 31
0.0
 12
228.2942818456131
 22
203.862748318824
 32
0.0
 13
228.2942818456131
 23
203.862748318824
 33
0.0
  0
SOLID
  5
12A81
330
1205E
100
AcDbEntity
  8
TEXT
 62
     0
100
AcDbTrace
 10
232.3131721003516
 20
197.9398711396935
 30
0.0
 11
232.8077412191317
 21
198.8090094409718
 31
0.0
 12
229.9530417559065
 22
199.8581476466728
 32
0.0
 13
229.9530417559065
 23
199.8581476466728
 33
0.0
  0
MTEXT
  5
12A82
330
1205E
100
AcDbEntity
  8
TEXT
 62
     0
100
AcDbMText
 10
228.6325828664698
 20
201.9346939232405
 30
0.0
 40
1.75
 41
0.0
 46
0.0
 71
     5
 72
     1
  1
\A1;45°
  7
WEB PAGE
 73
     1
 44
1.0
  0
POINT
  5
12A83
330
1205E
100
AcDbEntity
  8
Defpoints
 62
     0
100
AcDbPoint
 10
229.0530282928691
 20
201.0310680276017
 30
0.0
  0
POINT
  5
12A84
330
1205E
100
AcDbEntity
  8
Defpoints
 62
     0
100
AcDbPoint
 10
222.2254093810239
 20
192.1305152717902
 30
0.0
  0
POINT
  5
12A85
330
1205E
100
AcDbEntity
  8
Defpoints
 62
     0
100
AcDbPoint
 10
244.0451271338456
 20
203.862748318824
 30
0.0
  0
POINT
  5
12A86
330
1205E
100
AcDbEntity
  8
Defpoints
 62
     0
100
AcDbPoint
 10
222.2254093810239
 20
203.862748318824
 30
0.0
  0
POINT
  5
12A87
330
1205E
100
AcDbEntity
  8
Defpoints
 62
     0
100
AcDbPoint
 10
233.9576424280576
 20
203.862748318824
 30
0.0
  0
ENDBLK
  5
1206C
330
1205E
100
AcDbEntity
  8
0
100
AcDbBlockEnd
  0
BLOCK
  5
1268A
330
1265A
100
AcDbEntity
  8
0
100
AcDbBlockBegin
  2
A$C0F741633
 70
     0
 10
0.0
 20
0.0
 30
0.0
  3
A$C0F741633
  1

  0
LINE
  5
1265B
330
1265A
100
AcDbEntity
  8
0
100
AcDbLine
 10
0.0851365451697994
 20
-0.0000000896693848
 30
0.0
 11
0.085136545169803
 21
122.9999999103306
 31
0.0
  0
LINE
  5
1265C
330
1265A
100
AcDbEntity
  8
0
100
AcDbLine
 10
3.610728949046347
 20
27.62999991033061
 30
0.0
 11
3.322916449046399
 21
-0.0000000896693848
 31
0.0
  0
LINE
  5
1265D
330
1265A
100
AcDbEntity
  8
0
100
AcDbLine
 10
-0.0000002176202543
 20
-0.0000000896693848
 30
0.0
 11
-0.0000002176202543
 21
122.9999999103306
 31
0.0
  0
LINE
  5
1265E
330
1265A
100
AcDbEntity
  8
0
100
AcDbLine
 10
-0.0000002176202543
 20
-0.0000000896693848
 30
0.0
 11
3.322916449046399
 21
-0.0000000896693848
 31
0.0
  0
LINE
  5
1265F
330
1265A
100
AcDbEntity
  8
0
100
AcDbLine
 10
2.924866468411039
 20
2.859148648361838
 30
0.0
 11
1.203351044348494
 21
2.859148648361838
 31
0.0
  0
LINE
  5
12660
330
1265A
100
AcDbEntity
  8
0
100
AcDbLine
 10
1.203351044348494
 20
3.140851172299363
 30
0.0
 11
2.924866468411039
 21
3.140851172299363
 31
0.0
  0
ARC
  5
12661
330
1265A
100
AcDbEntity
  8
0
100
AcDbCircle
 10
1.203351044348494
 20
2.999999910330615
 30
0.0
 40
0.14085126196875
100
AcDbArc
 50
90.0
 51
270.0
  0
ARC
  5
12662
330
1265A
100
AcDbEntity
  8
0
100
AcDbCircle
 10
2.924866468411039
 20
2.999999910330615
 30
0.0
 40
0.14085126196875
100
AcDbArc
 50
270.0
 51
90.0
  0
LINE
  5
12663
330
1265A
100
AcDbEntity
  8
0
100
AcDbLine
 10
4.552083115712971
 20
117.9999999103307
 30
0.0
 11
3.670624782379718
 21
33.37999991033061
 31
0.0
  0
LINE
  5
12664
330
1265A
100
AcDbEntity
  8
0
100
AcDbLine
 10
1.812499782379745
 20
27.62999991033061
 30
0.0
 11
1.812499782379745
 21
33.37999991033061
 31
0.0
  0
LINE
  5
12665
330
1265A
100
AcDbEntity
  8
0
100
AcDbLine
 10
3.174866468410925
 20
26.85914864836187
 30
0.0
 11
1.453351044348494
 21
26.85914864836187
 31
0.0
  0
LINE
  5
12666
330
1265A
100
AcDbEntity
  8
0
100
AcDbLine
 10
1.453351044348494
 20
27.14085117229934
 30
0.0
 11
3.174866468410925
 21
27.14085117229934
 31
0.0
  0
ARC
  5
12667
330
1265A
100
AcDbEntity
  8
0
100
AcDbCircle
 10
1.453351044348494
 20
26.99999991033062
 30
0.0
 40
0.14085126196875
100
AcDbArc
 50
90.0
 51
270.0
  0
LINE
  5
12668
330
1265A
100
AcDbEntity
  8
0
100
AcDbLine
 10
1.812499782379745
 20
27.62999991033061
 30
0.0
 11
3.610728949046347
 21
27.62999991033061
 31
0.0
  0
ARC
  5
12669
330
1265A
100
AcDbEntity
  8
0
100
AcDbCircle
 10
3.174866468410925
 20
26.99999991033062
 30
0.0
 40
0.14085126196875
100
AcDbArc
 50
270.0
 51
90.0
  0
ARC
  5
1266A
330
1265A
100
AcDbEntity
  8
0
100
AcDbCircle
 10
1.453348897812645
 20
33.9992222986302
 30
0.0
 40
0.14085126196875
100
AcDbArc
 50
90.0
 51
270.0
  0
ARC
  5
1266B
330
1265A
100
AcDbEntity
  8
0
100
AcDbCircle
 10
3.174864321875077
 20
33.9992222986302
 30
0.0
 40
0.14085126196875
100
AcDbArc
 50
270.0
 51
90.0
  0
LINE
  5
1266C
330
1265A
100
AcDbEntity
  8
0
100
AcDbLine
 10
3.174864321875077
 20
33.85837103666145
 30
0.0
 11
1.453348897812645
 21
33.85837103666145
 31
0.0
  0
LINE
  5
1266D
330
1265A
100
AcDbEntity
  8
0
100
AcDbLine
 10
1.812499782379745
 20
33.37999991033061
 30
0.0
 11
3.670624782379718
 21
33.37999991033061
 31
0.0
  0
LINE
  5
1266E
330
1265A
100
AcDbEntity
  8
0
100
AcDbLine
 10
1.453348897812645
 20
34.14007356059892
 30
0.0
 11
3.174864321875077
 21
34.14007356059892
 31
0.0
  0
ARC
  5
1266F
330
1265A
100
AcDbEntity
  8
0
100
AcDbCircle
 10
1.703351044348494
 20
50.99996861673369
 30
0.0
 40
0.14085126196875
100
AcDbArc
 50
90.0
 51
270.0
  0
ARC
  5
12670
330
1265A
100
AcDbEntity
  8
0
100
AcDbCircle
 10
3.424866468411039
 20
50.99996861673369
 30
0.0
 40
0.14085126196875
100
AcDbArc
 50
270.0
 51
90.0
  0
LINE
  5
12671
330
1265A
100
AcDbEntity
  8
0
100
AcDbLine
 10
1.703351044348494
 20
51.1408198787025
 30
0.0
 11
3.424866468411039
 21
51.1408198787025
 31
0.0
  0
LINE
  5
12672
330
1265A
100
AcDbEntity
  8
0
100
AcDbLine
 10
3.424866468411039
 20
50.85911735476495
 30
0.0
 11
1.703351044348494
 21
50.85911735476495
 31
0.0
  0
ARC
  5
12673
330
1265A
100
AcDbEntity
  8
0
100
AcDbCircle
 10
1.948679633650193
 20
74.9999686167337
 30
0.0
 40
0.14085126196875
100
AcDbArc
 50
90.0
 51
270.0
  0
LINE
  5
12674
330
1265A
100
AcDbEntity
  8
0
100
AcDbLine
 10
3.670195057712739
 20
74.85911735476495
 30
0.0
 11
1.948679633650193
 21
74.85911735476495
 31
0.0
  0
LINE
  5
12675
330
1265A
100
AcDbEntity
  8
0
100
AcDbLine
 10
1.948679633650193
 20
75.1408198787025
 30
0.0
 11
3.670195057712739
 21
75.1408198787025
 31
0.0
  0
ARC
  5
12676
330
1265A
100
AcDbEntity
  8
0
100
AcDbCircle
 10
3.670195057712739
 20
74.9999686167337
 30
0.0
 40
0.14085126196875
100
AcDbArc
 50
270.0
 51
90.0
  0
ARC
  5
12677
330
1265A
100
AcDbEntity
  8
0
100
AcDbCircle
 10
2.217826185655862
 20
101.5937186167337
 30
0.0
 40
0.14085126196875
100
AcDbArc
 50
90.0
 51
270.0
  0
ARC
  5
12678
330
1265A
100
AcDbEntity
  8
0
100
AcDbCircle
 10
3.939341609718294
 20
101.5937186167337
 30
0.0
 40
0.14085126196875
100
AcDbArc
 50
270.0
 51
90.0
  0
LINE
  5
12679
330
1265A
100
AcDbEntity
  8
0
100
AcDbLine
 10
3.939341609718294
 20
101.4528673547649
 30
0.0
 11
2.217826185655862
 21
101.4528673547649
 31
0.0
  0
LINE
  5
1267A
330
1265A
100
AcDbEntity
  8
0
100
AcDbLine
 10
2.217826185655862
 20
101.7345698787024
 30
0.0
 11
3.939341609718294
 21
101.7345698787024
 31
0.0
  0
ARC
  5
1267B
330
1265A
100
AcDbEntity
  8
0
100
AcDbCircle
 10
2.217826185655862
 20
100.4062186167337
 30
0.0
 40
0.14085126196875
100
AcDbArc
 50
90.0
 51
270.0
  0
ARC
  5
1267C
330
1265A
100
AcDbEntity
  8
0
100
AcDbCircle
 10
3.939341609718294
 20
100.4062186167337
 30
0.0
 40
0.14085126196875
100
AcDbArc
 50
270.0
 51
90.0
  0
LINE
  5
1267D
330
1265A
100
AcDbEntity
  8
0
100
AcDbLine
 10
3.939341609718294
 20
100.2653673547649
 30
0.0
 11
2.217826185655862
 21
100.2653673547649
 31
0.0
  0
LINE
  5
1267E
330
1265A
100
AcDbEntity
  8
0
100
AcDbLine
 10
2.217826185655862
 20
100.5470698787024
 30
0.0
 11
3.939341609718294
 21
100.5470698787024
 31
0.0
  0
LINE
  5
1267F
330
1265A
100
AcDbEntity
  8
0
100
AcDbLine
 10
1.874999782379745
 20
117.9999999103306
 30
0.0
 11
1.874999782379745
 21
122.9999999103306
 31
0.0
  0
LINE
  5
12680
330
1265A
100
AcDbEntity
  8
0
100
AcDbLine
 10
1.375301465004667
 20
117.4614005696284
 30
0.0
 11
1.375301465004667
 21
119.5898196393784
 31
0.0
  0
LINE
  5
12681
330
1265A
100
AcDbEntity
  8
0
100
AcDbLine
 10
0.9996980997545961
 20
119.5898196393784
 30
0.0
 11
0.9996980997545961
 21
117.4614005696284
 31
0.0
  0
ARC
  5
12682
330
1265A
100
AcDbEntity
  8
0
100
AcDbCircle
 10
1.187499782379745
 20
119.5898196393784
 30
0.0
 40
0.187801682625
100
AcDbArc
 50
0.0
 51
180.0
  0
ARC
  5
12683
330
1265A
100
AcDbEntity
  8
0
100
AcDbCircle
 10
1.187499782379745
 20
117.4614005696284
 30
0.0
 40
0.187801682625
100
AcDbArc
 50
180.0
 51
0.0
  0
LINE
  5
12684
330
1265A
100
AcDbEntity
  8
0
100
AcDbLine
 10
1.874999782379745
 20
117.9999999103306
 30
0.0
 11
4.552083115712971
 21
117.9999999103307
 31
0.0
  0
LINE
  5
12685
330
1265A
100
AcDbEntity
  8
0
100
AcDbLine
 10
-0.0000002176202543
 20
122.9999999103306
 30
0.0
 11
1.874999782379745
 21
122.9999999103306
 31
0.0
  0
LINE
  5
12686
330
1265A
100
AcDbEntity
  8
0
100
AcDbLine
 10
1.375301465004667
 20
120.3707763535807
 30
0.0
 11
1.375301465004667
 21
122.4991954233306
 31
0.0
  0
LINE
  5
12687
330
1265A
100
AcDbEntity
  8
0
100
AcDbLine
 10
0.9996980997545961
 20
122.4991954233306
 30
0.0
 11
0.9996980997545961
 21
120.3707763535807
 31
0.0
  0
ARC
  5
12688
330
1265A
100
AcDbEntity
  8
0
100
AcDbCircle
 10
1.187499782379745
 20
120.3707763535807
 30
0.0
 40
0.187801682625
100
AcDbArc
 50
180.0
 51
0.0
  0
ARC
  5
12689
330
1265A
100
AcDbEntity
  8
0
100
AcDbCircle
 10
1.187499782379745
 20
122.4991954233306
 30
0.0
 40
0.187801682625
100
AcDbArc
 50
0.0
 51
180.0
  0
ENDBLK
  5
1268B
330
1265A
100
AcDbEntity
  8
0
100
AcDbBlockEnd
  0
BLOCK
  5
1269E
330
1268E
100
AcDbEntity
  8
0
100
AcDbBlockBegin
  2
A$C2C455F4F
 70
     0
 10
0.0
 20
0.0
 30
0.0
  3
A$C2C455F4F
  1

  0
LINE
  5
1268F
330
1268E
100
AcDbEntity
  8
0
  6
DASHED2
100
AcDbLine
 10
3.601871267359683
 20
101.0010830236907
 30
0.0
 11
2.549861668113422
 21
0.006562004958738
 31
0.0
  0
LINE
  5
12690
330
1268E
100
AcDbEntity
  8
0
100
AcDbLine
 10
4.231837091535908
 20
100.9945209836162
 30
0.0
 11
3.179827492289675
 21
-0.000000035115761
 31
0.0
  0
LINE
  5
12691
330
1268E
100
AcDbEntity
  8
0
100
AcDbLine
 10
1.052009598074846
 20
101.0276436620875
 30
0.0
 11
-0.0000000011713865
 21
0.0331226433555685
 31
0.0
  0
LINE
  5
12692
330
1268E
100
AcDbEntity
  8
0
100
AcDbLine
 10
3.179827492289675
 20
-0.000000035115761
 30
0.0
 11
-0.0000000011713865
 21
0.0331226433555685
 31
0.0
  0
LWPOLYLINE
  5
12693
330
1268E
100
AcDbEntity
  8
0
100
AcDbPolyline
 90
        4
 70
     1
 43
0.0
 10
0.7498026783611067
 20
2.41044170939736
 42
0.9999999999999998
 10
1.019788031579508
 20
2.407629406508277
 10
1.032599633629729
 20
3.637562682280957
 42
0.9999999999999998
 10
0.7626142804113272
 20
3.640374985170041
  0
LWPOLYLINE
  5
12694
330
1268E
100
AcDbEntity
  8
0
100
AcDbPolyline
 90
        4
 70
     1
 43
0.0
 10
0.9997851573898799
 20
26.40913977325445
 42
0.9999999999999998
 10
1.269770510608282
 20
26.4063274703654
 10
1.282582112658502
 20
27.63626074613808
 42
0.9999999999999998
 10
1.0125967594401
 20
27.63907304902713
  0
LWPOLYLINE
  5
12695
330
1268E
100
AcDbEntity
  8
0
100
AcDbPolyline
 90
        4
 70
     1
 43
0.0
 10
1.249767636418653
 20
50.40783783711157
 42
0.9999999999999998
 10
1.519752989637055
 20
50.40502553422249
 10
1.532564591687275
 20
51.63495880999514
 42
0.9999999999999998
 10
1.262579238468873
 20
51.63777111288422
  0
ARC
  5
12696
330
1268E
100
AcDbEntity
  8
0
100
AcDbCircle
 10
1.647554394106862
 20
75.6350630252968
 30
0.0
 40
0.1349999999999981
100
AcDbArc
 50
359.4031999999982
 51
179.4031999999982
  0
LINE
  5
12697
330
1268E
100
AcDbEntity
  8
0
100
AcDbLine
 10
1.769735468665828
 20
74.40372359807961
 30
0.0
 11
1.782547070716077
 21
75.63365687385226
 31
0.0
  0
ARC
  5
12698
330
1268E
100
AcDbEntity
  8
0
100
AcDbCircle
 10
1.634742792056641
 20
74.40512974952415
 30
0.0
 40
0.1349999999999907
100
AcDbArc
 50
179.4031999999982
 51
359.4031999999982
  0
LINE
  5
12699
330
1268E
100
AcDbEntity
  8
0
100
AcDbLine
 10
1.512561717497675
 20
75.63646917674134
 30
0.0
 11
1.499750115447454
 21
74.40653590096869
 31
0.0
  0
CIRCLE
  5
1269A
330
1268E
100
AcDbEntity
  8
0
100
AcDbCircle
 10
1.766720923767508
 20
100.4201663201836
 30
0.0
 40
0.136
  0
LINE
  5
1269B
330
1268E
100
AcDbEntity
  8
0
100
AcDbLine
 10
4.231837091535908
 20
100.9945209836162
 30
0.0
 11
1.052009598074846
 21
101.0276436620875
 31
0.0
  0
CIRCLE
  5
1269C
330
1268E
100
AcDbEntity
  8
0
100
AcDbCircle
 10
2.516680238263035
 20
100.4123543677139
 30
0.0
 40
0.136
  0
ARC
  5
1269D
330
1268E
100
AcDbEntity
  8
0
100
AcDbCircle
 10
2.100932066617758
 20
99.76664974656458
 30
0.0
 40
0.203
100
AcDbArc
 50
250.1314345350511
 51
179.4042453669326
  0
ENDBLK
  5
1269F
330
1268E
100
AcDbEntity
  8
0
100
AcDbBlockEnd
  0
BLOCK
  5
127E7
330
127B0
100
AcDbEntity
  8
0
100
AcDbBlockBegin
  2
A$C38546004
 70
     0
 10
0.0
 20
0.0
 30
0.0
  3
A$C38546004
  1

  0
LINE
  5
127B1
330
127B0
100
AcDbEntity
  8
0
100
AcDbLine
 10
95.99970834185688
 20
24.93700008238622
 30
0.0
 11
0.0000003462249083
 21
24.93700008238622
 31
0.0
  0
LINE
  5
127B2
330
127B0
100
AcDbEntity
  8
0
100
AcDbLine
 10
95.99970834185688
 20
19.43700008238622
 30
0.0
 11
0.0000003462249083
 21
19.43700008238619
 31
0.0
  0
LINE
  5
127B3
330
127B0
100
AcDbEntity
  8
0
100
AcDbLine
 10
95.51924276621708
 20
22.18700008238622
 30
0.0
 11
14.13953477058516
 21
22.18700008238622
 31
0.0
  0
LINE
  5
127B4
330
127B0
100
AcDbEntity
  8
0
100
AcDbLine
 10
20.57653477058517
 20
19.0000000823862
 30
0.0
 11
143.3052298114328
 21
19.00000008238624
 31
0.0
  0
LINE
  5
127B5
330
127B0
100
AcDbEntity
  8
0
100
AcDbLine
 10
14.13953477058516
 20
25.3740000823862
 30
0.0
 11
143.3052298114328
 21
25.3740000823862
 31
0.0
  0
ARC
  5
127B6
330
127B0
100
AcDbEntity
  8
0
100
AcDbCircle
 10
14.13953477058516
 20
7.187000082386219
 30
0.0
 40
15.0
100
AcDbArc
 50
125.2475069920521
 51
158.4531637549481
  0
ARC
  5
127B7
330
127B0
100
AcDbEntity
  8
0
100
AcDbCircle
 10
14.13953477058516
 20
7.187000082386219
 30
0.0
 40
18.187
100
AcDbArc
 50
102.5855233423738
 51
140.0967208821129
  0
ARC
  5
127B8
330
127B0
100
AcDbEntity
  8
0
100
AcDbCircle
 10
20.57653477058517
 20
4.000000082386208
 30
0.0
 40
18.187
100
AcDbArc
 50
121.9193587142875
 51
180.0
  0
LWPOLYLINE
  5
127B9
330
127B0
100
AcDbEntity
  8
0
100
AcDbPolyline
 90
        4
 70
     1
 43
0.0
 10
0.192299941671024
 20
21.38816292311918
 42
-0.9999999999999998
 10
0.5982999416709732
 20
21.38816292311918
 10
0.5982999416709732
 20
20.29416292311919
 42
-0.9999999999999998
 10
0.192299941671024
 20
20.29416292311919
  0
LINE
  5
127BA
330
127B0
100
AcDbEntity
  8
0
100
AcDbLine
 10
0.0000003462249651
 20
19.43700008238619
 30
0.0
 11
0.0000003462249083
 21
24.93700008238622
 31
0.0
  0
LINE
  5
127BB
330
127B0
100
AcDbEntity
  8
0
100
AcDbLine
 10
0.1877698414696738
 20
12.69592514656187
 30
0.0
 11
0.1877698414696738
 21
18.85384302993174
 31
0.0
  0
CIRCLE
  5
127BC
330
127B0
100
AcDbEntity
  8
0
100
AcDbCircle
 10
21.00000034622496
 20
20.43700008238622
 30
0.0
 40
0.25
  0
ARC
  5
127BD
330
127B0
100
AcDbEntity
  8
0
100
AcDbCircle
 10
20.57653477058517
 20
4.000000082386208
 30
0.0
 40
18.187
100
AcDbArc
 50
90.0
 51
121.9193587142875
  0
ARC
  5
127BE
330
127B0
100
AcDbEntity
  8
0
100
AcDbCircle
 10
20.57653477058517
 20
4.000000082386208
 30
0.0
 40
15.0
100
AcDbArc
 50
90.0
 51
180.0
  0
ARC
  5
127BF
330
127B0
100
AcDbEntity
  8
0
100
AcDbCircle
 10
14.13953477058516
 20
7.187000082386219
 30
0.0
 40
15.0
100
AcDbArc
 50
90.0
 51
125.2475069920521
  0
LINE
  5
127C0
330
127B0
100
AcDbEntity
  8
0
100
AcDbLine
 10
4.826534770585169
 20
0.5000000823862081
 30
0.0
 11
3.139534770585157
 21
0.5000000823862081
 31
0.0
  0
LINE
  5
127C1
330
127B0
100
AcDbEntity
  8
0
100
AcDbLine
 10
5.576534770585169
 20
0.0000000823862081
 30
0.0
 11
2.389534770585157
 21
0.0000000823862081
 31
0.0
  0
CIRCLE
  5
127C2
330
127B0
100
AcDbEntity
  8
0
100
AcDbCircle
 10
3.139534770585157
 20
0.5000000823862081
 30
0.0
 40
0.195
  0
LINE
  5
127C3
330
127B0
100
AcDbEntity
  8
0
100
AcDbLine
 10
2.389534770585157
 20
4.000000082386208
 30
0.0
 11
2.389534770585157
 21
0.0000000823862081
 31
0.0
  0
LINE
  5
127C4
330
127B0
100
AcDbEntity
  8
0
100
AcDbLine
 10
5.576534770585169
 20
4.000000082386208
 30
0.0
 11
5.576534770585169
 21
0.0000000823862081
 31
0.0
  0
CIRCLE
  5
127C5
330
127B0
100
AcDbEntity
  8
0
100
AcDbCircle
 10
4.826534770585169
 20
0.5000000823862081
 30
0.0
 40
0.195
  0
ARC
  5
127C6
330
127B0
100
AcDbEntity
  8
0
100
AcDbCircle
 10
14.13953477058516
 20
7.187000082386219
 30
0.0
 40
18.187
100
AcDbArc
 50
90.0
 51
102.5855233423738
  0
ARC
  5
127C7
330
127B0
100
AcDbEntity
  8
0
100
AcDbCircle
 10
3.930000346224915
 20
23.99200008238623
 30
0.0
 40
0.195
100
AcDbArc
 50
270.0
 51
0.0
  0
LINE
  5
127C8
330
127B0
100
AcDbEntity
  8
0
100
AcDbLine
 10
4.125000346224851
 20
23.99200008238623
 30
0.0
 11
4.125000346224908
 21
23.99200008238623
 31
0.0
  0
ARC
  5
127C9
330
127B0
100
AcDbEntity
  8
0
100
AcDbCircle
 10
3.930000346224915
 20
23.99200008238623
 30
0.0
 40
0.195
100
AcDbArc
 50
0.0
 51
90.0
  0
LINE
  5
127CA
330
127B0
100
AcDbEntity
  8
0
100
AcDbLine
 10
3.930000346224915
 20
24.18700008238622
 30
0.0
 11
1.820000346224901
 21
24.18700008238622
 31
0.0
  0
LINE
  5
127CB
330
127B0
100
AcDbEntity
  8
0
100
AcDbLine
 10
3.930000346224915
 20
23.79700008238623
 30
0.0
 11
1.820000346224901
 21
23.79700008238623
 31
0.0
  0
ARC
  5
127CC
330
127B0
100
AcDbEntity
  8
0
100
AcDbCircle
 10
1.820000346224901
 20
23.99200008238623
 30
0.0
 40
0.195
100
AcDbArc
 50
180.0
 51
270.0
  0
LINE
  5
127CD
330
127B0
100
AcDbEntity
  8
0
100
AcDbLine
 10
1.625000346224965
 20
23.99200008238623
 30
0.0
 11
1.625000346224908
 21
23.99200008238623
 31
0.0
  0
ARC
  5
127CE
330
127B0
100
AcDbEntity
  8
0
100
AcDbCircle
 10
1.820000346224901
 20
23.99200008238623
 30
0.0
 40
0.195
100
AcDbArc
 50
90.0
 51
180.0
  0
ARC
  5
127CF
330
127B0
100
AcDbEntity
  8
0
100
AcDbCircle
 10
6.617000346224926
 20
23.99200008238623
 30
0.0
 40
0.195
100
AcDbArc
 50
270.0
 51
0.0
  0
ARC
  5
127D0
330
127B0
100
AcDbEntity
  8
0
100
AcDbCircle
 10
6.617000346224926
 20
23.99200008238623
 30
0.0
 40
0.195
100
AcDbArc
 50
0.0
 51
90.0
  0
LINE
  5
127D1
330
127B0
100
AcDbEntity
  8
0
100
AcDbLine
 10
6.81200034622492
 20
23.99200008238623
 30
0.0
 11
6.81200034622492
 21
23.99200008238623
 31
0.0
  0
ARC
  5
127D2
330
127B0
100
AcDbEntity
  8
0
100
AcDbCircle
 10
4.507000346224913
 20
23.99200008238623
 30
0.0
 40
0.195
100
AcDbArc
 50
180.0
 51
270.0
  0
LINE
  5
127D3
330
127B0
100
AcDbEntity
  8
0
100
AcDbLine
 10
4.31200034622492
 20
23.99200008238623
 30
0.0
 11
4.31200034622492
 21
23.99200008238623
 31
0.0
  0
ARC
  5
127D4
330
127B0
100
AcDbEntity
  8
0
100
AcDbCircle
 10
4.507000346224913
 20
23.99200008238623
 30
0.0
 40
0.195
100
AcDbArc
 50
90.0
 51
180.0
  0
LINE
  5
127D5
330
127B0
100
AcDbEntity
  8
0
100
AcDbLine
 10
4.507000346224913
 20
24.18700008238622
 30
0.0
 11
6.617000346224926
 21
24.18700008238622
 31
0.0
  0
LINE
  5
127D6
330
127B0
100
AcDbEntity
  8
0
100
AcDbLine
 10
4.507000346224913
 20
23.79700008238623
 30
0.0
 11
6.617000346224926
 21
23.79700008238623
 31
0.0
  0
CIRCLE
  5
127D7
330
127B0
100
AcDbEntity
  8
0
100
AcDbCircle
 10
21.00000034622496
 20
23.93700008238622
 30
0.0
 40
0.25
  0
LINE
  5
127D8
330
127B0
100
AcDbEntity
  8
0
100
AcDbLine
 10
143.3052298114328
 20
22.18700008238625
 30
0.0
 11
95.51924276621708
 21
22.18700008238622
 31
0.0
  0
CIRCLE
  5
127D9
330
127B0
100
AcDbEntity
  8
0
100
AcDbCircle
 10
94.99970834185688
 20
20.43700008238622
 30
0.0
 40
0.25
  0
LINE
  5
127DA
330
127B0
100
AcDbEntity
  8
0
100
AcDbLine
 10
95.99970834185688
 20
24.93700008238622
 30
0.0
 11
95.99970834185688
 21
19.43700008238622
 31
0.0
  0
CIRCLE
  5
127DB
330
127B0
100
AcDbEntity
  8
0
100
AcDbCircle
 10
94.99970834185688
 20
23.93700008238622
 30
0.0
 40
0.25
  0
LINE
  5
127DC
330
127B0
100
AcDbEntity
  8
0
100
AcDbLine
 10
119.5237317626902
 20
20.99148251938112
 30
0.0
 11
121.4987317626901
 21
20.99148251938107
 31
0.0
  0
LINE
  5
127DD
330
127B0
100
AcDbEntity
  8
0
100
AcDbLine
 10
121.4987317626902
 20
24.09148251938103
 30
0.0
 11
119.5237317626902
 21
24.09148251938109
 31
0.0
  0
LINE
  5
127DE
330
127B0
100
AcDbEntity
  8
0
100
AcDbLine
 10
119.3237317626901
 20
23.8914825193811
 30
0.0
 11
119.3237317626901
 21
21.19148251938111
 31
0.0
  0
ARC
  5
127DF
330
127B0
100
AcDbEntity
  8
0
100
AcDbCircle
 10
119.5237317626902
 20
21.19148251938111
 30
0.0
 40
0.2
100
AcDbArc
 50
180.0
 51
270.0
  0
ARC
  5
127E0
330
127B0
100
AcDbEntity
  8
0
100
AcDbCircle
 10
119.5237317626902
 20
23.8914825193811
 30
0.0
 40
0.2
100
AcDbArc
 50
90.0
 51
180.0
  0
LINE
  5
127E1
330
127B0
100
AcDbEntity
  8
0
100
AcDbLine
 10
121.6987317626901
 20
21.19148251938111
 30
0.0
 11
121.6987317626901
 21
23.89148251938104
 31
0.0
  0
CIRCLE
  5
127E2
330
127B0
100
AcDbEntity
  8
0
100
AcDbCircle
 10
120.5697998906849
 20
21.50781672205528
 30
0.0
 40
0.136
  0
CIRCLE
  5
127E3
330
127B0
100
AcDbEntity
  8
0
100
AcDbCircle
 10
120.5501163019543
 20
23.68163526991779
 30
0.0
 40
0.136
  0
ARC
  5
127E4
330
127B0
100
AcDbEntity
  8
0
100
AcDbCircle
 10
121.4987317626901
 20
21.19148251938111
 30
0.0
 40
0.2
100
AcDbArc
 50
270.0
 51
0.0
  0
ARC
  5
127E5
330
127B0
100
AcDbEntity
  8
0
100
AcDbCircle
 10
121.4987317626902
 20
23.89148251938104
 30
0.0
 40
0.2
100
AcDbArc
 50
0.0
 51
90.0
  0
LINE
  5
127E6
330
127B0
100
AcDbEntity
  8
0
100
AcDbLine
 10
143.3052298114328
 20
25.3740000823862
 30
0.0
 11
143.3052298114328
 21
19.00000008238624
 31
0.0
  0
ENDBLK
  5
127E8
330
127B0
100
AcDbEntity
  8
0
100
AcDbBlockEnd
  0
BLOCK
  5
12917
330
12901
100
AcDbEntity
  8
0
100
AcDbBlockBegin
  2
COMM-6-625-EBP
 70
     0
 10
0.0
 20
0.0
 30
0.0
  3
COMM-6-625-EBP
  1

  0
LINE
  5
12902
330
12901
100
AcDbEntity
  8
BDR
100
AcDbLine
 10
-1.986449456068953
 20
-23.51413607581674
 30
0.0
 11
-5.423949456068953
 21
-23.51413607581674
 31
0.0
  0
LINE
  5
12903
330
12901
100
AcDbEntity
  8
BDR
100
AcDbLine
 10
-1.986449456068953
 20
-16.88913607581674
 30
0.0
 11
-5.423949456068953
 21
-16.88913607581674
 31
0.0
  0
LINE
  5
12904
330
12901
100
AcDbEntity
  8
BDR
100
AcDbLine
 10
-5.423949456068953
 20
-23.51413607581674
 30
0.0
 11
-5.423949456068953
 21
-16.88913607581674
 31
0.0
  0
LINE
  5
12905
330
12901
100
AcDbEntity
  8
BDR
100
AcDbLine
 10
-1.986449456068953
 20
-16.88913607581674
 30
0.0
 11
-1.986449456068953
 21
-23.51413607581671
 31
0.0
  0
CIRCLE
  5
12906
330
12901
100
AcDbEntity
  8
BDR
100
AcDbCircle
 10
-3.705199456068953
 20
-18.32663607581674
 30
0.0
 40
0.5
  0
ARC
  5
12907
330
12901
100
AcDbEntity
  8
BDR
100
AcDbCircle
 10
-5.092949456068936
 20
-21.95163607581674
 30
0.0
 40
0.206
100
AcDbArc
 50
90.0
 51
270.0
  0
ARC
  5
12908
330
12901
100
AcDbEntity
  8
BDR
100
AcDbCircle
 10
-4.812949456068963
 20
-21.95163607581674
 30
0.0
 40
0.206
100
AcDbArc
 50
270.0
 51
90.0
  0
LINE
  5
12909
330
12901
100
AcDbEntity
  8
BDR
100
AcDbLine
 10
-4.812949456068963
 20
-21.74563607581675
 30
0.0
 11
-5.092949456068936
 21
-21.74563607581675
 31
0.0
  0
LINE
  5
1290A
330
12901
100
AcDbEntity
  8
BDR
100
AcDbLine
 10
-5.092949456068936
 20
-22.15763607581672
 30
0.0
 11
-4.812949456068963
 21
-22.15763607581672
 31
0.0
  0
LINE
  5
1290B
330
12901
100
AcDbEntity
  8
BDR
100
AcDbLine
 10
-4.812949456068963
 20
-22.74563607581672
 30
0.0
 11
-5.092949456068936
 21
-22.74563607581672
 31
0.0
  0
LINE
  5
1290C
330
12901
100
AcDbEntity
  8
BDR
100
AcDbLine
 10
-5.092949456068936
 20
-23.1576360758167
 30
0.0
 11
-4.812949456068963
 21
-23.1576360758167
 31
0.0
  0
ARC
  5
1290D
330
12901
100
AcDbEntity
  8
BDR
100
AcDbCircle
 10
-4.812949456068963
 20
-22.95163607581671
 30
0.0
 40
0.206
100
AcDbArc
 50
270.0
 51
90.0
  0
ARC
  5
1290E
330
12901
100
AcDbEntity
  8
BDR
100
AcDbCircle
 10
-5.092949456068936
 20
-22.95163607581671
 30
0.0
 40
0.206
100
AcDbArc
 50
90.0
 51
270.0
  0
ARC
  5
1290F
330
12901
100
AcDbEntity
  8
BDR
100
AcDbCircle
 10
-2.797699456068926
 20
-21.95163607581674
 30
0.0
 40
0.206
100
AcDbArc
 50
90.0
 51
270.0
  0
ARC
  5
12910
330
12901
100
AcDbEntity
  8
BDR
100
AcDbCircle
 10
-2.517699456068953
 20
-21.95163607581674
 30
0.0
 40
0.206
100
AcDbArc
 50
270.0
 51
90.0
  0
LINE
  5
12911
330
12901
100
AcDbEntity
  8
BDR
100
AcDbLine
 10
-2.797699456068926
 20
-22.15763607581672
 30
0.0
 11
-2.517699456068953
 21
-22.15763607581672
 31
0.0
  0
LINE
  5
12912
330
12901
100
AcDbEntity
  8
BDR
100
AcDbLine
 10
-2.517699456068953
 20
-21.74563607581675
 30
0.0
 11
-2.797699456068926
 21
-21.74563607581675
 31
0.0
  0
LINE
  5
12913
330
12901
100
AcDbEntity
  8
BDR
100
AcDbLine
 10
-2.517699456068953
 20
-22.74563607581672
 30
0.0
 11
-2.797699456068926
 21
-22.74563607581672
 31
0.0
  0
LINE
  5
12914
330
12901
100
AcDbEntity
  8
BDR
100
AcDbLine
 10
-2.797699456068926
 20
-23.1576360758167
 30
0.0
 11
-2.517699456068953
 21
-23.1576360758167
 31
0.0
  0
ARC
  5
12915
330
12901
100
AcDbEntity
  8
BDR
100
AcDbCircle
 10
-2.517699456068953
 20
-22.95163607581671
 30
0.0
 40
0.206
100
AcDbArc
 50
270.0
 51
90.0
  0
ARC
  5
12916
330
12901
100
AcDbEntity
  8
BDR
100
AcDbCircle
 10
-2.797699456068926
 20
-22.95163607581671
 30
0.0
 40
0.206
100
AcDbArc
 50
90.0
 51
270.0
  0
ENDBLK
  5
12918
330
12901
100
AcDbEntity
  8
0
100
AcDbBlockEnd
  0
BLOCK
  5
129DE
330
129BA
100
AcDbEntity
  8
0
100
AcDbBlockBegin
  2
A$C4240735D
 70
     0
 10
0.0
 20
0.0
 30
0.0
  3
A$C4240735D
  1

  0
CIRCLE
  5
129BB
330
129BA
100
AcDbEntity
  8
0
100
AcDbCircle
 10
3.269508196262208
 20
3.86895110931988
 30
0.0
 40
0.2204671789323538
  0
CIRCLE
  5
129BC
330
129BA
100
AcDbEntity
  8
0
100
AcDbCircle
 10
3.269508196262208
 20
2.106739279353831
 30
0.0
 40
0.2204671789323538
  0
ARC
  5
129BD
330
129BA
100
AcDbEntity
  8
0
100
AcDbCircle
 10
4.795628407860547
 20
2.987845194337495
 30
0.0
 40
2.290873856398875
100
AcDbArc
 50
190.1389447448883
 51
341.5284804893809
  0
ARC
  5
129BE
330
129BA
100
AcDbEntity
  8
0
100
AcDbCircle
 10
4.795628407860547
 20
2.987845194337495
 30
0.0
 40
2.995761633497868
100
AcDbArc
 50
6.413187862225092
 51
165.2542373720439
  0
ARC
  5
129BF
330
129BA
100
AcDbEntity
  8
0
100
AcDbCircle
 10
4.795628407860547
 20
2.987845194337495
 30
0.0
 40
2.819540958020104
100
AcDbArc
 50
7.082767155180935
 51
164.5846580790888
  0
ARC
  5
129C0
330
129BA
100
AcDbEntity
  8
0
100
AcDbCircle
 10
4.795628407860547
 20
2.987845194337495
 30
0.0
 40
2.290873856398875
100
AcDbArc
 50
9.725658093038106
 51
161.9417671412298
  0
ARC
  5
129C1
330
129BA
100
AcDbEntity
  8
0
100
AcDbCircle
 10
4.795628407860547
 20
2.987845194337495
 30
0.0
 40
2.995761633497868
100
AcDbArc
 50
186.7251705371359
 51
344.9422546971332
  0
ARC
  5
129C2
330
129BA
100
AcDbEntity
  8
0
100
AcDbCircle
 10
4.795628407860547
 20
2.987845194337495
 30
0.0
 40
2.819540958020104
100
AcDbArc
 50
187.4150193928653
 51
344.2524058414045
  0
ARC
  5
129C3
330
129BA
100
AcDbEntity
  8
0
100
AcDbCircle
 10
3.269508196262208
 20
3.86895110931988
 30
0.0
 40
0.2204671789323538
100
AcDbArc
 50
13.42933540712231
 51
158.446524803177
  0
ARC
  5
129C4
330
129BA
100
AcDbEntity
  8
0
100
AcDbCircle
 10
3.269508196262208
 20
2.106739279353831
 30
0.0
 40
0.2204671789323538
100
AcDbArc
 50
133.0836476128144
 51
38.79221259748778
  0
LINE
  5
129C5
330
129BA
100
AcDbEntity
  8
0
100
AcDbLine
 10
0.0790591517968125
 20
3.88289518738108
 30
0.0
 11
9.588067620746301
 21
3.190222250225843
 31
0.0
  0
LINE
  5
129C6
330
129BA
100
AcDbEntity
  8
0
100
AcDbLine
 10
9.509008604439372
 20
2.076958266728212
 30
0.0
 11
0.0000001354898842
 21
2.769631203883449
 31
0.0
  0
LINE
  5
129C7
330
129BA
100
AcDbEntity
  8
0
100
AcDbLine
 10
0.0000001354898842
 20
2.769631203883449
 30
0.0
 11
0.0790591517968125
 21
3.88289518738108
 31
0.0
  0
LINE
  5
129C8
330
129BA
100
AcDbEntity
  8
0
100
AcDbLine
 10
1.523412764238585
 20
2.661445269869744
 30
0.0
 11
1.602471780545513
 21
3.774709253366637
 31
0.0
  0
LINE
  5
129C9
330
129BA
100
AcDbEntity
  8
0
100
AcDbLine
 10
0.4371953241637386
 20
3.121358287103788
 30
0.0
 11
0.4621612536266895
 21
3.472914268747189
 31
0.0
  0
LINE
  5
129CA
330
129BA
100
AcDbEntity
  8
0
100
AcDbLine
 10
0.7887513058070823
 20
3.096392357640837
 30
0.0
 11
0.8137172352700332
 21
3.447948339284238
 31
0.0
  0
ARC
  5
129CB
330
129BA
100
AcDbEntity
  8
0
100
AcDbCircle
 10
0.6129733149854389
 20
3.108875322372313
 30
0.0
 40
0.1762206754777815
100
AcDbArc
 50
175.9379301051611
 51
355.9379301051513
  0
ARC
  5
129CC
330
129BA
100
AcDbEntity
  8
0
100
AcDbCircle
 10
0.637939244448333
 20
3.460431304015713
 30
0.0
 40
0.1762206754777665
100
AcDbArc
 50
355.9379301051513
 51
175.9379301051513
  0
ARC
  5
129CD
330
129BA
100
AcDbEntity
  8
0
100
AcDbCircle
 10
8.975094441250746
 20
2.850978131736923
 30
0.0
 40
0.1762206754777665
100
AcDbArc
 50
355.9379301051513
 51
175.9379301051513
  0
ARC
  5
129CE
330
129BA
100
AcDbEntity
  8
0
100
AcDbCircle
 10
8.950128511787852
 20
2.499422150093579
 30
0.0
 40
0.1762206754777815
100
AcDbArc
 50
175.9379301051611
 51
355.9379301051513
  0
ARC
  5
129CF
330
129BA
100
AcDbEntity
  8
0
100
AcDbCircle
 10
4.795628407860547
 20
2.987845194337495
 30
0.0
 40
0.9251610838522317
100
AcDbArc
 50
213.5560450076031
 51
318.1113802266653
  0
ARC
  5
129D0
330
129BA
100
AcDbEntity
  8
0
100
AcDbCircle
 10
4.795628407860547
 20
2.987845194337495
 30
0.0
 40
0.9251610838522317
100
AcDbArc
 50
32.31157602726393
 51
139.3558492070062
  0
CIRCLE
  5
129D1
330
129BA
100
AcDbEntity
  8
0
 62
   255
100
AcDbCircle
 10
4.795628407860547
 20
2.987845194337495
 30
0.0
 40
0.3415419661621924
  0
CIRCLE
  5
129D2
330
129BA
100
AcDbEntity
  8
0
100
AcDbCircle
 10
4.795628407860547
 20
1.225633364371446
 30
0.0
 40
0.2204671789323538
  0
CIRCLE
  5
129D3
330
129BA
100
AcDbEntity
  8
0
100
AcDbCircle
 10
4.795628407860547
 20
2.987845194337495
 30
0.0
 40
0.2643310132166469
  0
LINE
  5
129D4
330
129BA
100
AcDbEntity
  8
0
 62
   255
100
AcDbLine
 10
4.922386250972337
 20
2.987845194337495
 30
0.0
 11
4.668870564748843
 21
2.987845194337495
 31
0.0
  0
CIRCLE
  5
129D5
330
129BA
100
AcDbEntity
  8
0
100
AcDbCircle
 10
4.795628407860547
 20
4.75005702430235
 30
0.0
 40
0.2204671789323538
  0
LINE
  5
129D6
330
129BA
100
AcDbEntity
  8
0
 62
   255
100
AcDbLine
 10
4.795628407860547
 20
2.861087351225705
 30
0.0
 11
4.795628407860547
 21
3.114603037449199
 31
0.0
  0
CIRCLE
  5
129D7
330
129BA
100
AcDbEntity
  8
0
100
AcDbCircle
 10
6.321748619461189
 20
3.86895110931988
 30
0.0
 40
0.2204671789323538
  0
ARC
  5
129D8
330
129BA
100
AcDbEntity
  8
0
100
AcDbCircle
 10
6.321748619461189
 20
2.106739279353831
 30
0.0
 40
0.2204671789323538
100
AcDbArc
 50
109.5447421324402
 51
62.12268310183104
  0
ARC
  5
129D9
330
129BA
100
AcDbEntity
  8
0
100
AcDbCircle
 10
6.321748619461189
 20
3.86895110931988
 30
0.0
 40
0.2204671789323538
100
AcDbArc
 50
313.083647612864
 51
218.7922125974379
  0
LINE
  5
129DA
330
129BA
100
AcDbEntity
  8
0
100
AcDbLine
 10
8.064654991997599
 20
3.298408184239491
 30
0.0
 11
7.985595975690671
 21
2.185144200742655
 31
0.0
  0
LINE
  5
129DB
330
129BA
100
AcDbEntity
  8
0
100
AcDbLine
 10
8.77435052096763
 20
2.511905114824998
 30
0.0
 11
8.79931645043058
 21
2.863461096468398
 31
0.0
  0
LINE
  5
129DC
330
129BA
100
AcDbEntity
  8
0
100
AcDbLine
 10
9.12590650261103
 20
2.486939185362103
 30
0.0
 11
9.150872432073924
 21
2.838495167005447
 31
0.0
  0
LINE
  5
129DD
330
129BA
100
AcDbEntity
  8
0
100
AcDbLine
 10
9.588067620746301
 20
3.190222250225843
 30
0.0
 11
9.509008604439372
 21
2.076958266728212
 31
0.0
  0
ENDBLK
  5
129DF
330
129BA
100
AcDbEntity
  8
0
100
AcDbBlockEnd
  0
BLOCK
  5
12AFD
330
12AF2
100
AcDbEntity
  8
0
100
AcDbBlockBegin
  2
*D14
 70
     1
 10
0.0
 20
0.0
 30
0.0
  3
*D14
  1

  0
LINE
  5
12B60
330
12AF2
100
AcDbEntity
  8
TEXT
 62
     0
370
    -2
100
AcDbLine
 10
132.2169295018095
 20
123.0362941793405
 30
0.0
 11
94.42660556630379
 21
123.0362941793405
 31
0.0
  0
LINE
  5
12B61
330
12AF2
100
AcDbEntity
  8
TEXT
 62
     0
370
    -2
100
AcDbLine
 10
136.2169295018095
 20
246.0362941793405
 30
0.0
 11
94.42660556630382
 21
246.0362941793405
 31
0.0
  0
LINE
  5
12B62
330
12AF2
100
AcDbEntity
  8
TEXT
 62
     0
370
    -2
100
AcDbLine
 10
95.42660556630378
 20
126.0362941793405
 30
0.0
 11
95.4266055663038
 21
179.4112941793405
 31
0.0
  0
LINE
  5
12B63
330
12AF2
100
AcDbEntity
  8
TEXT
 62
     0
370
    -2
100
AcDbLine
 10
95.42660556630382
 20
243.0362941793405
 30
0.0
 11
95.4266055663038
 21
189.6612941793405
 31
0.0
  0
SOLID
  5
12B64
330
12AF2
100
AcDbEntity
  8
TEXT
 62
     0
100
AcDbTrace
 10
94.92660556630379
 20
126.0362941793405
 30
0.0
 11
95.92660556630379
 21
126.0362941793405
 31
0.0
 12
95.42660556630378
 22
123.0362941793405
 32
0.0
 13
95.42660556630378
 23
123.0362941793405
 33
0.0
  0
SOLID
  5
12B65
330
12AF2
100
AcDbEntity
  8
TEXT
 62
     0
100
AcDbTrace
 10
94.92660556630381
 20
243.0362941793405
 30
0.0
 11
95.92660556630383
 21
243.0362941793405
 31
0.0
 12
95.42660556630382
 22
246.0362941793405
 32
0.0
 13
95.42660556630382
 23
246.0362941793405
 33
0.0
  0
MTEXT
  5
12B66
330
12AF2
100
AcDbEntity
  8
TEXT
 62
     0
100
AcDbMText
 10
95.42660556630378
 20
184.5362941793405
 30
0.0
 40
1.75
 41
0.0
 46
0.0
 71
     5
 72
     1
  1
\A1;3" TAPERED REVERSE\PANGLE\PDOOR HEIGHT+3"
  7
WEB PAGE
 73
     1
 44
1.0
  0
POINT
  5
12B67
330
12AF2
100
AcDbEntity
  8
Defpoints
 62
     0
100
AcDbPoint
 10
134.2169295018095
 20
123.0362941793405
 30
0.0
  0
POINT
  5
12B68
330
12AF2
100
AcDbEntity
  8
Defpoints
 62
     0
100
AcDbPoint
 10
138.2169295018095
 20
246.0362941793405
 30
0.0
  0
POINT
  5
12B69
330
12AF2
100
AcDbEntity
  8
Defpoints
 62
     0
100
AcDbPoint
 10
95.42660556630382
 20
246.0362941793405
 30
0.0
  0
ENDBLK
  5
12AFE
330
12AF2
100
AcDbEntity
  8
0
100
AcDbBlockEnd
  0
ENDSEC
  0
SECTION
  2
ENTITIES
  0
INSERT
  5
3374
330
17
100
AcDbEntity
  8
AME_FRZ
100
AcDbBlockReference
  2
AME_NIL
 10
0.0
 20
0.0
 30
0.0
 41
24.609375
 42
24.609375
 43
24.609375
  0
INSERT
  5
3375
330
17
100
AcDbEntity
  8
AME_FRZ
100
AcDbBlockReference
  2
AME_SOL
 10
0.0
 20
0.0
 30
0.0
 41
24.609375
 42
24.609375
 43
24.609375
1001
AME_SOL
1000
R2.1
1000
AME2
1000
sq cm
1070
     3
1070
     0
1070
     3
1000
wire
1040
45.0
1000
U
1040
1.0
1000
cm
1000
gm
1000
MILD_STEEL
1070
    25
1000
CSG
1070
     1
1070
     3
1070
     3
1070
     3
1070
     0
1000
cu cm
1070
     1
1070
     0
1005
2D0D
  0
INSERT
  5
3376
330
17
100
AcDbEntity
  8
ASHADE
 62
     1
100
AcDbBlockReference
  2
AVE_RENDER
 10
0.0
 20
0.0
 30
0.0
 41
24.609375
 42
24.609375
 43
24.609375
1001
AVE_RENDER
1002
{
1070
     2
1000
Pref
1070
    30
1070
    20
1070
     0
1070
     0
1000

1070
    10
1070
     0
1070
    30
1040
1.0
1070
     1
1040
0.3
1040
0.7
1040
0.0
1040
10.0
1010
-1.0
1020
-1.0
1030
-1.0
1040
0.3
1070
    49
1002
}
  0
INSERT
  5
3377
330
17
100
AcDbEntity
  8
ASHADE
 62
     3
100
AcDbBlockReference
  2
AVE_RENDER
 10
0.0
 20
0.0
 30
0.0
 41
24.609375
 42
24.609375
 43
24.609375
1001
AVE_RENDER
1002
{
1070
     0
1000
Full Opt
1070
     0
1070
     1
1070
     1
1070
     1
1070
     0
1070
     0
1070
     0
1070
     1
1070
     1
1040
0.0001
1040
0.0001
1002
}
  0
INSERT
  5
3378
330
17
100
AcDbEntity
  8
ASHADE
 62
     4
100
AcDbBlockReference
  2
AVE_RENDER
 10
0.0
 20
0.0
 30
0.0
 41
24.609375
 42
24.609375
 43
24.609375
1001
AVE_RENDER
1002
{
1070
     0
1000
Quick Opt
1070
     0
1070
     1
1070
     1
1070
     1
1070
     0
1070
     0
1070
     1
1002
}
  0
INSERT
  5
3E3C
330
17
100
AcDbEntity
  8
AME_FRZ
100
AcDbBlockReference
  2
AME_NIL
 10
0.0
 20
0.0
 30
0.0
 41
34.993056
 42
34.993056
 43
34.993056
  0
INSERT
  5
3E3D
330
17
100
AcDbEntity
  8
AME_FRZ
100
AcDbBlockReference
  2
AME_SOL
 10
0.0
 20
0.0
 30
0.0
 41
34.993056
 42
34.993056
 43
34.993056
1001
AME_SOL
1000
R2.1
1000
AME2
1000
sq cm
1070
     3
1070
     0
1070
     3
1000
wire
1040
45.0
1000
U
1040
1.0
1000
cm
1000
gm
1000
MILD_STEEL
1070
    25
1000
CSG
1070
     1
1070
     3
1070
     3
1070
     3
1070
     0
1000
cu cm
1070
     1
1070
     0
1005
2D0D
  0
INSERT
  5
3E3E
330
17
100
AcDbEntity
  8
ASHADE
 62
     1
100
AcDbBlockReference
  2
AVE_RENDER
 10
0.0
 20
0.0
 30
0.0
 41
34.993056
 42
34.993056
 43
34.993056
1001
AVE_RENDER
1002
{
1070
     2
1000
Pref
1070
    30
1070
    20
1070
     0
1070
     0
1000

1070
    10
1070
     0
1070
    30
1040
1.0
1070
     1
1040
0.3
1040
0.7
1040
0.0
1040
10.0
1010
-1.0
1020
-1.0
1030
-1.0
1040
0.3
1070
    49
1002
}
  0
INSERT
  5
3E3F
330
17
100
AcDbEntity
  8
ASHADE
 62
     3
100
AcDbBlockReference
  2
AVE_RENDER
 10
0.0
 20
0.0
 30
0.0
 41
34.993056
 42
34.993056
 43
34.993056
1001
AVE_RENDER
1002
{
1070
     0
1000
Full Opt
1070
     0
1070
     1
1070
     1
1070
     1
1070
     0
1070
     0
1070
     0
1070
     1
1070
     1
1040
0.0001
1040
0.0001
1002
}
  0
INSERT
  5
3E40
330
17
100
AcDbEntity
  8
ASHADE
 62
     4
100
AcDbBlockReference
  2
AVE_RENDER
 10
0.0
 20
0.0
 30
0.0
 41
34.993056
 42
34.993056
 43
34.993056
1001
AVE_RENDER
1002
{
1070
     0
1000
Quick Opt
1070
     0
1070
     1
1070
     1
1070
     1
1070
     0
1070
     0
1070
     1
1002
}
  0
MTEXT
  5
405A
330
17
100
AcDbEntity
  8
BDR
100
AcDbMText
 10
353.0635595970848
 20
56.58463448330076
 30
0.0
 40
0.1
 41
37.627
 46
0.0
 71
     1
 72
     5
  1

  7
SIMPLEX
 73
     1
 44
1.0
  0
MTEXT
  5
8913
330
17
100
AcDbEntity
  8
BDR
100
AcDbMText
 10
877.3233813939555
 20
282.200335478095
 30
0.0
 40
3.0
 41
0.0
 46
0.0
 71
     4
 72
     1
  1
\A1;
 73
     1
 44
1.0
  0
MTEXT
  5
BB0D
330
17
100
AcDbEntity
  8
HATCH
 48
0.5
100
AcDbMText
 10
862.711853351133
 20
170.0626199810501
 30
0.0
 40
1.1
 41
0.0
 46
0.0
 71
     4
 72
     1
  1

 73
     1
 44
1.0
  0
MTEXT
  5
BD7C
330
17
100
AcDbEntity
  8
BDR
100
AcDbMText
 10
648.3700742151118
 20
223.690432353357
 30
0.0
 40
2.5
 41
0.0
 46
0.0
 71
     1
 72
     1
  1

 73
     1
 44
1.0
  0
MTEXT
  5
CE5A
330
17
100
AcDbEntity
  8
BDR
100
AcDbMText
 10
645.7641368582438
 20
217.5930814931963
 30
0.0
 40
2.5
 41
0.0
 46
0.0
 71
     1
 72
     1
  1

 73
     1
 44
1.0
  0
MTEXT
  5
D3E4
330
17
100
AcDbEntity
  8
0
100
AcDbMText
 10
393.5054431651311
 20
218.3654697964034
 30
0.0
 40
2.5
 41
0.0
 46
0.0
 71
     1
 72
     1
  1

 73
     1
 44
1.0
  0
MTEXT
  5
D891
330
17
100
AcDbEntity
  8
BDR
100
AcDbMText
 10
278.8170020773584
 20
330.6127380359346
 30
0.0
 40
2.5
 41
0.0
 46
0.0
 71
     1
 72
     1
  1

 73
     1
 44
1.0
  0
MTEXT
  5
D894
330
17
100
AcDbEntity
  8
BDR
100
AcDbMText
 10
282.4572809863948
 20
283.699790306357
 30
0.0
 40
2.5
 41
0.0
 46
0.0
 71
     1
 72
     1
  1

 73
     1
 44
1.0
  0
MTEXT
  5
D8BC
330
17
100
AcDbEntity
  8
BDR
100
AcDbMText
 10
280.6377852630108
 20
262.5297979250931
 30
0.0
 40
2.5
 41
0.0
 46
0.0
 71
     1
 72
     1
  1

 73
     1
 44
1.0
  0
MTEXT
  5
D8BE
330
17
100
AcDbEntity
  8
BDR
100
AcDbMText
 10
280.052229178619
 20
230.2002619872308
 30
0.0
 40
2.5
 41
0.0
 46
0.0
 71
     1
 72
     1
  1

 73
     1
 44
1.0
  0
MTEXT
  5
D8C2
330
17
100
AcDbEntity
  8
BDR
100
AcDbMText
 10
210.2931674542633
 20
331.4813092531851
 30
0.0
 40
2.5
 41
0.0
 46
0.0
 71
     9
 72
     1
  1

 73
     1
 44
1.0
  0
MTEXT
  5
DE82
330
17
100
AcDbEntity
  8
0
100
AcDbMText
 10
230.9601867147205
 20
186.4290317625283
 30
0.0
 40
3.5
 41
0.0
 46
0.0
 71
     1
 72
     1
  1

 73
     1
 44
1.0
  0
DIMENSION
  5
11CDF
330
17
100
AcDbEntity
  8
TEXT
100
AcDbDimension
  2
*D3
 10
69.57784519491638
 20
252.0362941793405
 30
0.0
 11
69.57784519491633
 21
180.0845671706835
 31
0.0
 70
   160
  1
MINIMUM\PCEILING HEIGHT
 71
     5
 42
129.0
 73
     0
 74
     0
 75
     0
  3
STANDARD
100
AcDbAlignedDimension
 13
134.2169295018095
 23
123.0362941793405
 33
0.0
 14
138.2169295018095
 24
252.0362941793405
 34
0.0
 50
90.0
100
AcDbRotatedDimension
1001
ACAD
1000
DSTYLE
1002
{
1070
    40
1040
1.0
1002
}
  0
DIMENSION
  5
11CE0
330
17
100
AcDbEntity
  8
TEXT
100
AcDbDimension
  2
*D4
 10
175.0501848453942
 20
224.0246795016458
 30
0.0
 11
175.0501848453941
 21
174.879062324093
 31
0.0
 70
   160
  1
VERTICAL TRACK\P(DOOR HEIGHT - 19")
 71
     5
 42
100.9883853223053
 73
     0
 74
     0
 75
     0
  3
STANDARD
100
AcDbAlignedDimension
 13
209.4861505668555
 23
123.0362941793405
 33
0.0
 14
143.871428182421
 24
224.0246795016458
 34
0.0
 50
90.0
100
AcDbRotatedDimension
1001
ACAD
1000
DSTYLE
1002
{
1070
    40
1040
1.0
1002
}
  0
DIMENSION
  5
11CE1
330
17
100
AcDbEntity
  8
TEXT
100
AcDbDimension
  2
*D5
 10
118.0575413775432
 20
123.0362941793405
 30
0.0
 11
118.0575413775432
 21
183.0362941793405
 31
0.0
 70
    32
  1
OPENING\PHEIGHT
 71
     5
 42
120.0
 73
     0
 74
     0
 75
     0
  3
STANDARD
100
AcDbAlignedDimension
 13
134.2169295018095
 23
243.0362941793405
 33
0.0
 14
134.2169295018095
 24
123.0362941793405
 34
0.0
 50
90.0
100
AcDbRotatedDimension
1001
ACAD
1000
DSTYLE
1002
{
1070
    40
1040
1.0
1002
}
  0
LINE
  5
11CE2
102
{ACAD_REACTORS
330
128D4
102
}
330
17
100
AcDbEntity
  8
BDR
100
AcDbLine
 10
134.2169295018095
 20
123.0362941793405
 30
0.0
 11
134.2169295018095
 21
256.0362941793406
 31
0.0
  0
LINE
  5
11CE3
102
{ACAD_REACTORS
330
128D4
102
}
330
17
100
AcDbEntity
  8
BDR
100
AcDbLine
 10
138.2169295018095
 20
123.0362941793405
 30
0.0
 11
138.2169295018095
 21
252.0362941793405
 31
0.0
  0
LINE
  5
11CE5
330
17
100
AcDbEntity
  8
BDR
100
AcDbLine
 10
221.5803211345133
 20
123.0362941793405
 30
0.0
 11
134.2169295018095
 21
123.0362941793405
 31
0.0
  0
MTEXT
  5
11CF6
330
17
100
AcDbEntity
  8
TEXT
100
AcDbMText
 10
159.3213248607085
 20
238.3380744638925
 30
0.0
 40
1.75
 41
0.0
 46
0.0
 71
     1
 72
     1
  1
TAPERED REVERSE\PANGLE
  7
WEB PAGE
 73
     1
 44
1.0
  0
MTEXT
  5
11CF7
330
17
100
AcDbEntity
  8
TEXT
100
AcDbMText
 10
187.4151805609416
 20
259.2500161195159
 30
0.0
 40
1.75
 41
0.0
 46
0.0
 71
     6
 72
     1
  1
LOW HEADROOM STARTER
  7
WEB PAGE
 73
     1
 44
1.0
  0
LINE
  5
11CF8
102
{ACAD_REACTORS
330
128D4
102
}
330
17
100
AcDbEntity
  8
BDR
100
AcDbLine
 10
138.2169295018095
 20
252.0362941793405
 30
0.0
 11
286.026584289913
 21
252.0362941793405
 31
0.0
  0
LEADER
  5
11CFD
330
17
100
AcDbEntity
  8
TEXT
100
AcDbLeader
  3
STANDARD
 73
     0
 74
     0
 75
     1
 40
3.5
 76
     3
 10
142.7470386501749
 20
248.8721105703509
 30
0.0
 10
149.0787639309657
 20
259.1829843324945
 30
0.0
 10
152.0787639309657
 20
259.1829843324945
 30
0.0
213
-30.35839136054324
223
2.172941992376536
233
0.0
1001
ACAD
1000
DSTYLE
1002
{
1070
    40
1040
1.0
1070
   147
1040
3.0
1002
}
  0
DIMENSION
  5
11CFE
330
17
100
AcDbEntity
  8
TEXT
100
AcDbDimension
  2
*D6
 10
118.0575413775432
 20
252.0362941793405
 30
0.0
 11
128.9325413775432
 21
272.3008621425022
 31
0.0
 70
   160
  1
MINIMUM\PHEADROOM
 71
     5
 42
9.000000000000028
 73
     0
 74
     0
 75
     0
  3
STANDARD
100
AcDbAlignedDimension
 13
134.2169295018095
 23
243.0362941793405
 33
0.0
 14
138.2169295018095
 24
252.0362941793405
 34
0.0
 50
90.0
100
AcDbRotatedDimension
1001
ACAD
1000
DSTYLE
1002
{
1070
    40
1040
1.0
1002
}
  0
LEADER
  5
11D00
330
17
100
AcDbEntity
  8
TEXT
100
AcDbLeader
  3
STANDARD
 73
     0
 40
3.5
 76
     2
 10
141.5534877896161
 20
237.0491040248769
 30
0.0
 10
158.3834190818052
 20
237.0471866481528
 30
0.0
213
-28.01915490533588
223
-1.822965986319815
233
0.0
1001
ACAD
1000
DSTYLE
1002
{
1070
    40
1040
1.0
1070
   147
1040
3.0
1002
}
  0
LINE
  5
11D06
102
{ACAD_REACTORS
330
128D4
102
}
330
17
100
AcDbEntity
  8
BDR
100
AcDbLine
 10
138.2169295018095
 20
243.0362941793405
 30
0.0
 11
134.2169295018095
 21
243.0362941793405
 31
0.0
  0
LINE
  5
11D0E
330
17
100
AcDbEntity
  8
0
100
AcDbLine
 10
209.4856597711092
 20
244.1868586387286
 30
0.0
 11
207.99412207018
 21
244.1868586387286
 31
0.0
  0
LINE
  5
11D0F
330
17
100
AcDbEntity
  8
0
100
AcDbLine
 10
207.99412207018
 20
244.1868586387286
 30
0.0
 11
207.99412207018
 21
252.0362941793406
 31
0.0
  0
LINE
  5
11D10
330
17
100
AcDbEntity
  8
0
100
AcDbLine
 10
208.1184566529351
 20
244.1868586387286
 30
0.0
 11
208.1184566529349
 21
252.0362941793406
 31
0.0
  0
LINE
  5
11D12
330
17
100
AcDbEntity
  8
0
100
AcDbLine
 10
209.485659771109
 20
244.1868586387286
 30
0.0
 11
209.4856597711093
 21
252.0362941793406
 31
0.0
  0
CIRCLE
  5
11D14
330
17
100
AcDbEntity
  8
0
100
AcDbCircle
 10
208.7398909206446
 20
244.8561181934961
 30
0.0
 40
0.2171678892550922
  0
CIRCLE
  5
11D15
330
17
100
AcDbEntity
  8
0
100
AcDbCircle
 10
208.7398909206446
 20
246.8488125619356
 30
0.0
 40
0.2171678892550922
  0
CIRCLE
  5
11D16
330
17
100
AcDbEntity
  8
0
100
AcDbCircle
 10
208.7398909206446
 20
247.842773285834
 30
0.0
 40
0.2171678892550922
  0
CIRCLE
  5
11D17
330
17
100
AcDbEntity
  8
0
100
AcDbCircle
 10
208.7398909206446
 20
245.8500789173945
 30
0.0
 40
0.2171678892550922
  0
CIRCLE
  5
11D18
330
17
100
AcDbEntity
  8
0
100
AcDbCircle
 10
208.7398909206446
 20
249.8354676542736
 30
0.0
 40
0.2171678892550922
  0
CIRCLE
  5
11D19
330
17
100
AcDbEntity
  8
0
100
AcDbCircle
 10
208.7398909206446
 20
248.8415069303751
 30
0.0
 40
0.2171678892550922
  0
MTEXT
  5
11D1B
330
17
100
AcDbEntity
  8
TEXT
100
AcDbMText
 10
246.8734860953873
 20
213.1190879627309
 30
0.0
 40
1.75
 41
0.0
 46
0.0
 71
     4
 72
     1
  1
BACK AND INTERMEDIATE HANGERS\PSUPPLIED BY OTHERS
  7
WEB PAGE
 73
     1
 44
1.0
  0
LINE
  5
11D1C
330
17
100
AcDbEntity
  8
0
100
AcDbLine
 10
276.1739876782647
 20
244.6221346916471
 30
0.0
 11
276.1739876782647
 21
252.0362941793406
 31
0.0
  0
LINE
  5
11D1D
330
17
100
AcDbEntity
  8
0
100
AcDbLine
 10
276.2983222610198
 20
244.6221346916471
 30
0.0
 11
276.2983222610193
 21
252.0362941793406
 31
0.0
  0
LINE
  5
11D1E
330
17
100
AcDbEntity
  8
0
100
AcDbLine
 10
277.6655253791937
 20
244.6221346916471
 30
0.0
 11
277.6655253791942
 21
252.0362941793406
 31
0.0
  0
LEADER
  5
11D1F
330
17
100
AcDbEntity
  8
TEXT
100
AcDbLeader
  3
STANDARD
 73
     0
 74
     0
 75
     1
 40
3.5
 76
     3
 10
239.2584214912772
 20
206.413821224406
 30
0.0
 10
243.1570780782128
 20
214.4181492780475
 30
0.0
 10
246.1570780782129
 20
214.4181492780475
 30
0.0
213
-30.73869949890218
223
37.29359984281018
233
0.0
1001
ACAD
1000
DSTYLE
1002
{
1070
    40
1040
1.0
1002
}
  0
LINE
  5
11D20
330
17
100
AcDbEntity
  8
0
100
AcDbLine
 10
277.6655253791939
 20
244.6221346916471
 30
0.0
 11
276.1739876782647
 21
244.6221346916471
 31
0.0
  0
CIRCLE
  5
11D21
330
17
100
AcDbEntity
  8
0
100
AcDbCircle
 10
276.9197565287293
 20
245.2913942464146
 30
0.0
 40
0.2075
  0
CIRCLE
  5
11D22
330
17
100
AcDbEntity
  8
0
100
AcDbCircle
 10
276.9197565287293
 20
248.2780493387525
 30
0.0
 40
0.2171678892550922
  0
CIRCLE
  5
11D23
330
17
100
AcDbEntity
  8
0
100
AcDbCircle
 10
276.9197565287293
 20
249.2767829832936
 30
0.0
 40
0.2171678892550922
  0
CIRCLE
  5
11D24
330
17
100
AcDbEntity
  8
0
100
AcDbCircle
 10
276.9197565287293
 20
250.270743707192
 30
0.0
 40
0.2171678892550922
  0
CIRCLE
  5
11D25
330
17
100
AcDbEntity
  8
0
100
AcDbCircle
 10
276.9197565287293
 20
246.285354970313
 30
0.0
 40
0.2171678892550922
  0
CIRCLE
  5
11D26
330
17
100
AcDbEntity
  8
0
100
AcDbCircle
 10
276.9197565287293
 20
247.2840886148541
 30
0.0
 40
0.2171678892550922
  0
LINE
  5
11D29
102
{ACAD_REACTORS
330
128D4
102
}
330
17
100
AcDbEntity
  8
BDR
100
AcDbLine
 10
286.026584289913
 20
256.0362941793405
 30
0.0
 11
286.026584289913
 21
252.0362941793405
 31
0.0
  0
DIMENSION
  5
11EA8
330
17
100
AcDbEntity
  8
TEXT
100
AcDbDimension
  2
*D7
 10
281.6072957298075
 20
231.1459021664699
 30
0.0
 11
211.1494482093837
 21
231.1459021664699
 31
0.0
 70
    32
  1
HORIZONTAL TRACK LENGTH\P(BACKROOM: DOOR HEIGHT + 21")
 71
     5
 42
140.9156950408476
 73
     0
 74
     0
 75
     0
  3
STANDARD
100
AcDbAlignedDimension
 13
140.6916006889599
 23
226.0578021801172
 33
0.0
 14
281.6072957298075
 24
243.0578021801172
 34
0.0
100
AcDbRotatedDimension
  0
LWPOLYLINE
  5
12008
330
17
100
AcDbEntity
  8
FRAMING
100
AcDbPolyline
 90
        6
 70
     0
 43
0.0
 10
219.7254093810238
 20
203.862748318824
 10
216.0451271338457
 20
203.862748318824
 10
216.0451271338457
 20
206.3627483188241
 10
244.0451271338456
 20
206.3627483188241
 10
244.0451271338456
 20
203.862748318824
 10
222.2254093810239
 20
203.862748318824
  0
LWPOLYLINE
  5
1200A
330
17
100
AcDbEntity
  8
FRAMING
100
AcDbPolyline
 90
        2
 70
     0
 43
0.0
 10
222.2254093810239
 20
192.1305152717902
 10
233.9576424280576
 20
203.862748318824
  0
CIRCLE
  5
1200B
330
17
100
AcDbEntity
  8
FRAMING
100
AcDbCircle
 10
220.9754093810238
 20
183.112748318824
 30
0.0
 40
0.5
  0
CIRCLE
  5
1200C
330
17
100
AcDbEntity
  8
FRAMING
100
AcDbCircle
 10
220.9754093810238
 20
185.1127483188241
 30
0.0
 40
0.5
  0
CIRCLE
  5
1200D
330
17
100
AcDbEntity
  8
FRAMING
100
AcDbCircle
 10
220.9754093810238
 20
187.112748318824
 30
0.0
 40
0.5
  0
CIRCLE
  5
1200E
330
17
100
AcDbEntity
  8
FRAMING
100
AcDbCircle
 10
220.9754093810238
 20
189.112748318824
 30
0.0
 40
0.5
  0
CIRCLE
  5
1200F
330
17
100
AcDbEntity
  8
FRAMING
100
AcDbCircle
 10
220.9754093810238
 20
191.112748318824
 30
0.0
 40
0.5
  0
CIRCLE
  5
12010
330
17
100
AcDbEntity
  8
FRAMING
100
AcDbCircle
 10
220.9754093810238
 20
193.112748318824
 30
0.0
 40
0.5
  0
CIRCLE
  5
12011
330
17
100
AcDbEntity
  8
FRAMING
100
AcDbCircle
 10
220.9754093810238
 20
195.112748318824
 30
0.0
 40
0.5
  0
CIRCLE
  5
12012
330
17
100
AcDbEntity
  8
FRAMING
100
AcDbCircle
 10
220.9754093810238
 20
197.112748318824
 30
0.0
 40
0.5
  0
CIRCLE
  5
12013
330
17
100
AcDbEntity
  8
FRAMING
100
AcDbCircle
 10
220.9754093810238
 20
199.112748318824
 30
0.0
 40
0.5
  0
CIRCLE
  5
12014
330
17
100
AcDbEntity
  8
FRAMING
100
AcDbCircle
 10
220.9754093810238
 20
201.1127483188241
 30
0.0
 40
0.5
  0
CIRCLE
  5
12015
330
17
100
AcDbEntity
  8
FRAMING
100
AcDbCircle
 10
220.9754093810238
 20
203.1127483188241
 30
0.0
 40
0.5
  0
CIRCLE
  5
12016
330
17
100
AcDbEntity
  8
FRAMING
100
AcDbCircle
 10
220.9754093810238
 20
205.1127483188241
 30
0.0
 40
0.5
  0
CIRCLE
  5
12017
330
17
100
AcDbEntity
  8
FRAMING
100
AcDbCircle
 10
220.9754093810238
 20
205.1127483188241
 30
0.0
 40
0.5
  0
CIRCLE
  5
12018
330
17
100
AcDbEntity
  8
FRAMING
100
AcDbCircle
 10
222.9754093810238
 20
205.1127483188241
 30
0.0
 40
0.5
  0
CIRCLE
  5
12019
330
17
100
AcDbEntity
  8
FRAMING
100
AcDbCircle
 10
224.9754093810238
 20
205.1127483188241
 30
0.0
 40
0.5
  0
CIRCLE
  5
1201A
330
17
100
AcDbEntity
  8
FRAMING
100
AcDbCircle
 10
226.9754093810238
 20
205.1127483188241
 30
0.0
 40
0.5
  0
CIRCLE
  5
1201B
330
17
100
AcDbEntity
  8
FRAMING
100
AcDbCircle
 10
228.9754093810238
 20
205.1127483188241
 30
0.0
 40
0.5
  0
CIRCLE
  5
1201C
330
17
100
AcDbEntity
  8
FRAMING
100
AcDbCircle
 10
230.9754093810238
 20
205.1127483188241
 30
0.0
 40
0.5
  0
CIRCLE
  5
1201D
330
17
100
AcDbEntity
  8
FRAMING
100
AcDbCircle
 10
232.9754093810239
 20
205.1127483188241
 30
0.0
 40
0.5
  0
CIRCLE
  5
1201E
330
17
100
AcDbEntity
  8
FRAMING
100
AcDbCircle
 10
234.9754093810239
 20
205.1127483188241
 30
0.0
 40
0.5
  0
CIRCLE
  5
1201F
330
17
100
AcDbEntity
  8
FRAMING
100
AcDbCircle
 10
236.9754093810239
 20
205.1127483188241
 30
0.0
 40
0.5
  0
CIRCLE
  5
12020
330
17
100
AcDbEntity
  8
FRAMING
100
AcDbCircle
 10
238.9754093810239
 20
205.1127483188241
 30
0.0
 40
0.5
  0
CIRCLE
  5
12021
330
17
100
AcDbEntity
  8
FRAMING
100
AcDbCircle
 10
240.9754093810239
 20
205.1127483188241
 30
0.0
 40
0.5
  0
CIRCLE
  5
12022
330
17
100
AcDbEntity
  8
FRAMING
100
AcDbCircle
 10
242.9754093810238
 20
205.1127483188241
 30
0.0
 40
0.5
  0
CIRCLE
  5
12023
330
17
100
AcDbEntity
  8
FRAMING
100
AcDbCircle
 10
227.0759144444122
 20
195.2132533822124
 30
0.0
 40
0.5
  0
CIRCLE
  5
12024
330
17
100
AcDbEntity
  8
FRAMING
100
AcDbCircle
 10
225.6617008820391
 20
193.7990398198392
 30
0.0
 40
0.5
  0
CIRCLE
  5
12025
330
17
100
AcDbEntity
  8
FRAMING
100
AcDbCircle
 10
224.247487319666
 20
192.3848262574662
 30
0.0
 40
0.5
  0
CIRCLE
  5
12026
330
17
100
AcDbEntity
  8
FRAMING
100
AcDbCircle
 10
222.8332737572929
 20
190.9706126950931
 30
0.0
 40
0.5
  0
CIRCLE
  5
12028
330
17
100
AcDbEntity
  8
FRAMING
100
AcDbCircle
 10
234.1469822562777
 20
202.2843211940779
 30
0.0
 40
0.5
  0
CIRCLE
  5
12029
330
17
100
AcDbEntity
  8
FRAMING
100
AcDbCircle
 10
232.7327686939046
 20
200.8701076317048
 30
0.0
 40
0.5
  0
CIRCLE
  5
1202A
330
17
100
AcDbEntity
  8
FRAMING
100
AcDbCircle
 10
231.3185551315315
 20
199.4558940693316
 30
0.0
 40
0.5
  0
CIRCLE
  5
1202B
330
17
100
AcDbEntity
  8
FRAMING
100
AcDbCircle
 10
229.9043415691584
 20
198.0416805069586
 30
0.0
 40
0.5
  0
CIRCLE
  5
1202C
330
17
100
AcDbEntity
  8
FRAMING
100
AcDbCircle
 10
228.4901280067853
 20
196.6274669445855
 30
0.0
 40
0.5
  0
CIRCLE
  5
1202D
330
17
100
AcDbEntity
  8
FRAMING
100
AcDbCircle
 10
236.9754093810239
 20
205.1127483188241
 30
0.0
 40
0.5
  0
ARC
  5
1202E
330
17
100
AcDbEntity
  8
FRAMING
100
AcDbCircle
 10
235.5611958186507
 20
203.698534756451
 30
0.0
 40
0.5
100
AcDbArc
 50
160.8266638561468
 51
19.17333614385317
  0
CIRCLE
  5
12030
330
17
100
AcDbEntity
  8
FRAMING
100
AcDbCircle
 10
218.9754093810238
 20
205.1127483188241
 30
0.0
 40
0.5
  0
CIRCLE
  5
12032
330
17
100
AcDbEntity
  8
FRAMING
100
AcDbCircle
 10
216.9754093810238
 20
205.1127483188241
 30
0.0
 40
0.5
  0
LINE
  5
12047
330
17
100
AcDbEntity
  8
FRAMING
100
AcDbLine
 10
219.7254093810238
 20
206.0510440727055
 30
0.0
 11
222.2254093810239
 21
206.0510440727055
 31
0.0
  0
LINE
  5
12048
330
17
100
AcDbEntity
  8
FRAMING
100
AcDbLine
 10
222.2254093810239
 20
206.0510440727055
 30
0.0
 11
222.2254093810239
 21
182.0510440727055
 31
0.0
  0
LINE
  5
12049
330
17
100
AcDbEntity
  8
FRAMING
100
AcDbLine
 10
222.2254093810239
 20
182.0510440727055
 30
0.0
 11
219.7254093810238
 21
182.0510440727055
 31
0.0
  0
LINE
  5
1204A
330
17
100
AcDbEntity
  8
FRAMING
100
AcDbLine
 10
219.7254093810238
 20
182.0510440727055
 30
0.0
 11
219.7254093810238
 21
206.0510440727055
 31
0.0
  0
LINE
  5
1204B
330
17
100
AcDbEntity
  8
FRAMING
100
AcDbLine
 10
220.0183890113544
 20
182.0510440727055
 30
0.0
 11
220.0183890113544
 21
206.0510440727055
 31
0.0
  0
LWPOLYLINE
  5
1204C
330
17
100
AcDbEntity
  8
FRAMING
100
AcDbPolyline
 90
        2
 70
     0
 43
0.0
 10
237.4931763339903
 20
203.862748318824
 10
222.2254093810239
 20
188.5949813658576
  0
DIMENSION
  5
1205D
330
17
100
AcDbEntity
  8
TEXT
100
AcDbDimension
  2
*D8
 10
233.9576424280576
 20
203.862748318824
 30
0.0
 11
228.6325828664698
 21
201.9346939232405
 31
0.0
 70
   162
 71
     5
 42
0.7853981633974483
 73
     0
 74
     0
 75
     0
  3
STANDARD
100
AcDb2LineAngularDimension
 13
244.0451271338456
 23
203.862748318824
 33
0.0
 14
222.2254093810239
 24
203.862748318824
 34
0.0
 15
222.2254093810239
 25
192.1305152717902
 35
0.0
 16
229.0530282928691
 26
201.0310680276017
 36
0.0
  0
TEXT
  5
12085
330
17
100
AcDbEntity
  8
SECTION JOINTS
100
AcDbText
 10
280.2551596243139
 20
222.2837133039166
 30
0.0
 40
2.0
  1
A
  7
WEB PAGE
100
AcDbText
  0
TEXT
  5
12088
330
17
100
AcDbEntity
  8
SECTION JOINTS
100
AcDbText
 10
280.2551596243139
 20
265.0592455799655
 30
0.0
 40
2.0
  1
A
  7
WEB PAGE
100
AcDbText
  0
SOLID
  5
12091
330
17
100
AcDbEntity
  8
SECTION JOINTS
100
AcDbTrace
 10
286.6294629092014
 20
223.7315336952292
 30
0.0
 11
283.6294629092014
 21
223.2315336952291
 31
0.0
 12
286.6294629092014
 22
222.7315336952291
 32
0.0
 13
286.6294629092014
 23
222.7315336952291
 33
0.0
1001
ACAD
1000
DSTYLE
1002
{
1070
   147
1040
1.0
1070
    77
1070
     0
1002
}
  0
LINE
  5
12092
330
17
100
AcDbEntity
  8
SECTION JOINTS
100
AcDbLine
 10
293.6798219243809
 20
266.0070659712781
 30
0.0
 11
293.6798219243809
 21
223.2315336952291
 31
0.0
1001
ACAD
1000
DSTYLE
1002
{
1070
   147
1040
1.0
1070
    77
1070
     0
1002
}
  0
LINE
  5
12093
330
17
100
AcDbEntity
  8
SECTION JOINTS
100
AcDbLine
 10
286.6294629092014
 20
223.2315336952291
 30
0.0
 11
293.6798219243809
 21
223.2315336952291
 31
0.0
1001
ACAD
1000
DSTYLE
1002
{
1070
   147
1040
1.0
1070
    77
1070
     0
1002
}
  0
LINE
  5
12094
330
17
100
AcDbEntity
  8
SECTION JOINTS
100
AcDbLine
 10
286.6294629092014
 20
266.0070659712781
 30
0.0
 11
293.6798219243809
 21
266.0070659712781
 31
0.0
1001
ACAD
1000
DSTYLE
1002
{
1070
   147
1040
1.0
1070
    77
1070
     0
1002
}
  0
SOLID
  5
12095
330
17
100
AcDbEntity
  8
SECTION JOINTS
100
AcDbTrace
 10
286.6294629092014
 20
266.507065971278
 30
0.0
 11
283.6294629092014
 21
266.0070659712781
 31
0.0
 12
286.6294629092014
 22
265.5070659712781
 32
0.0
 13
286.6294629092014
 23
265.5070659712781
 33
0.0
1001
ACAD
1000
DSTYLE
1002
{
1070
   147
1040
1.0
1070
    77
1070
     0
1002
}
  0
TEXT
  5
12096
330
17
100
AcDbEntity
  8
TEXT
100
AcDbText
 10
227.2240919037813
 20
177.1684355630455
 30
0.0
 40
3.0
  1
%%USECTION A-A
  7
WEB PAGE
100
AcDbText
  0
TEXT
  5
12097
330
17
100
AcDbEntity
  8
TEXT
100
AcDbText
 10
217.1876729718929
 20
171.2619353755249
 30
0.0
 40
3.0
  1
%%USUPPORT HANGER DETAIL
  7
WEB PAGE
100
AcDbText
  0
LINE
  5
12437
102
{ACAD_REACTORS
330
128D4
102
}
330
17
100
AcDbEntity
  8
BDR
100
AcDbLine
 10
134.2169295018095
 20
256.0362941793406
 30
0.0
 11
286.026584289913
 21
256.0362941793405
 31
0.0
  0
INSERT
  5
1268C
102
{ACAD_REACTORS
330
128D4
102
}
330
17
100
AcDbEntity
  8
FRAMING
100
AcDbBlockReference
  2
A$C0F741633
 10
138.2169297194298
 20
123.0362942690099
 30
0.0
  0
INSERT
  5
126A0
330
17
100
AcDbEntity
  8
FRAMING
100
AcDbBlockReference
  2
A$C2C455F4F
 10
139.639591090885
 20
123.0301585180296
 30
0.0
  0
INSERT
  5
127E9
330
17
100
AcDbEntity
  8
FRAMING
100
AcDbBlockReference
  2
A$C38546004
 10
138.3020659183747
 20
224.0578020977309
 30
0.0
  0
HATCH
  5
128D4
330
17
100
AcDbEntity
  8
FRAMING
100
AcDbHatch
 10
0.0
 20
0.0
 30
0.0
210
0.0
220
0.0
230
1.0
  2
ANSI31
 70
     0
 71
     1
 91
        1
 92
        7
 72
     0
 73
     1
 93
        7
 10
286.026584289913
 20
256.0362941793405
 10
134.2169295018095
 20
256.0362941793406
 10
134.2169295018095
 20
243.0362941793405
 10
138.2169295018095
 20
243.0362941793406
 10
138.2169295018095
 20
246.0362941793405
 10
138.2169295018095
 20
252.0362941793405
 10
286.026584289913
 20
252.0362941793406
 97
        7
330
12437
330
11CE2
330
11D06
330
1268C
330
11CE3
330
11CF8
330
11D29
 75
     0
 76
     1
 52
0.0
 41
15.0
 77
     0
 78
     1
 53
45.0
 43
0.0
 44
0.0
 45
-1.325825214724776
 46
1.325825214724776
 79
     0
 47
0.2415089106888068
 98
        1
 10
175.1309664512514
 20
257.0383154841926
  0
LINE
  5
128D5
330
17
100
AcDbEntity
  8
0
100
AcDbLine
 10
219.7254093810238
 20
187.8534936231186
 30
0.0
 11
217.7254093810238
 21
187.8534936231186
 31
0.0
  0
LINE
  5
128D6
330
17
100
AcDbEntity
  8
0
100
AcDbLine
 10
219.6154093810238
 20
187.7434936231186
 30
0.0
 11
217.7254093810238
 21
187.7434936231186
 31
0.0
  0
LINE
  5
128D7
330
17
100
AcDbEntity
  8
0
100
AcDbLine
 10
218.0296742697669
 20
183.1100205966993
 30
0.0
 11
218.3999464625082
 21
182.6687473807621
 31
0.0
  0
LINE
  5
128D8
330
17
100
AcDbEntity
  8
0
100
AcDbLine
 10
217.9454093810238
 20
183.0393139596337
 30
0.0
 11
218.0296742697669
 21
183.1100205966993
 31
0.0
  0
LINE
  5
128D9
330
17
100
AcDbEntity
  8
0
100
AcDbLine
 10
219.2728521733777
 20
182.8305541979468
 30
0.0
 11
219.6154093810238
 21
183.599950283486
 31
0.0
  0
LINE
  5
128DA
330
17
100
AcDbEntity
  8
0
100
AcDbLine
 10
219.3752012398773
 20
182.7899886981665
 30
0.0
 11
219.7254093810238
 21
183.5765690617023
 31
0.0
  0
ARC
  5
128DB
330
17
100
AcDbEntity
  8
0
100
AcDbCircle
 10
218.7906291284988
 20
182.9965690617023
 30
0.0
 40
0.51
100
AcDbArc
 50
220.0000000000001
 51
341.002957950965
  0
LINE
  5
128DC
330
17
100
AcDbEntity
  8
0
100
AcDbLine
 10
217.9454093810238
 20
183.0393139596337
 30
0.0
 11
218.3156815737651
 21
182.5980407436966
 31
0.0
  0
ARC
  5
128DD
330
17
100
AcDbEntity
  8
0
100
AcDbCircle
 10
218.7906291284988
 20
182.9965690617023
 30
0.0
 40
0.6200000000000001
100
AcDbArc
 50
220.0000000000001
 51
340.5372384316827
  0
LINE
  5
128DE
330
17
100
AcDbEntity
  8
0
100
AcDbLine
 10
219.7254093810238
 20
184.7545690617023
 30
0.0
 11
219.6154093810238
 21
184.7545690617023
 31
0.0
  0
LINE
  5
128DF
330
17
100
AcDbEntity
  8
0
100
AcDbLine
 10
219.7254093810238
 20
185.2985690617023
 30
0.0
 11
219.6154093810238
 21
185.2985690617023
 31
0.0
  0
LINE
  5
128E0
330
17
100
AcDbEntity
  8
0
100
AcDbLine
 10
219.6154093810238
 20
183.599950283486
 30
0.0
 11
219.6154093810238
 21
187.7434936231186
 31
0.0
  0
LINE
  5
128E1
330
17
100
AcDbEntity
  8
0
100
AcDbLine
 10
219.7254093810238
 20
183.5765690617023
 30
0.0
 11
219.7254093810238
 21
187.8534936231186
 31
0.0
  0
LINE
  5
128E2
330
17
100
AcDbEntity
  8
0
100
AcDbLine
 10
217.7254093810238
 20
187.8534936231186
 30
0.0
 11
217.7254093810238
 21
187.7434936231186
 31
0.0
  0
LINE
  5
128E3
330
17
100
AcDbEntity
  8
0
100
AcDbLine
 10
219.3752012398773
 20
188.4595400581702
 30
0.0
 11
219.7254093810238
 21
189.246120421706
 31
0.0
  0
LINE
  5
128E4
330
17
100
AcDbEntity
  8
0
100
AcDbLine
 10
219.2728521733777
 20
188.5001055579505
 30
0.0
 11
219.6154093810238
 21
189.2695016434897
 31
0.0
  0
ARC
  5
128E5
330
17
100
AcDbEntity
  8
0
100
AcDbCircle
 10
218.7906291284988
 20
188.666120421706
 30
0.0
 40
0.6200000000000001
100
AcDbArc
 50
220.0000000000001
 51
340.5372384316827
  0
ARC
  5
128E6
330
17
100
AcDbEntity
  8
0
100
AcDbCircle
 10
218.7906291284988
 20
188.666120421706
 30
0.0
 40
0.51
100
AcDbArc
 50
220.0000000000001
 51
341.002957950965
  0
LINE
  5
128E7
330
17
100
AcDbEntity
  8
0
100
AcDbLine
 10
217.9454093810238
 20
188.7088653196375
 30
0.0
 11
218.3156815737651
 21
188.2675921037003
 31
0.0
  0
LINE
  5
128E8
330
17
100
AcDbEntity
  8
0
100
AcDbLine
 10
217.9454093810238
 20
188.7088653196375
 30
0.0
 11
218.0296742697669
 21
188.779571956703
 31
0.0
  0
LINE
  5
128E9
330
17
100
AcDbEntity
  8
0
100
AcDbLine
 10
218.0296742697669
 20
188.779571956703
 30
0.0
 11
218.3999464625082
 21
188.3382987407658
 31
0.0
  0
LINE
  5
128EA
330
17
100
AcDbEntity
  8
0
100
AcDbLine
 10
219.7254093810238
 20
193.5230449831223
 30
0.0
 11
217.7254093810238
 21
193.5230449831223
 31
0.0
  0
LINE
  5
128EB
330
17
100
AcDbEntity
  8
0
100
AcDbLine
 10
219.6154093810238
 20
193.4130449831222
 30
0.0
 11
217.7254093810238
 21
193.4130449831222
 31
0.0
  0
LINE
  5
128EC
330
17
100
AcDbEntity
  8
0
100
AcDbLine
 10
217.7254093810238
 20
193.5230449831223
 30
0.0
 11
217.7254093810238
 21
193.4130449831222
 31
0.0
  0
LINE
  5
128ED
330
17
100
AcDbEntity
  8
0
100
AcDbLine
 10
219.6154093810238
 20
189.2695016434897
 30
0.0
 11
219.6154093810238
 21
193.4130449831222
 31
0.0
  0
LINE
  5
128EE
330
17
100
AcDbEntity
  8
0
100
AcDbLine
 10
219.7254093810238
 20
189.246120421706
 30
0.0
 11
219.7254093810238
 21
193.5230449831223
 31
0.0
  0
LINE
  5
128EF
330
17
100
AcDbEntity
  8
0
100
AcDbLine
 10
219.7254093810238
 20
190.968120421706
 30
0.0
 11
219.6154093810238
 21
190.968120421706
 31
0.0
  0
LINE
  5
128F0
330
17
100
AcDbEntity
  8
0
100
AcDbLine
 10
219.7254093810238
 20
190.424120421706
 30
0.0
 11
219.6154093810238
 21
190.424120421706
 31
0.0
  0
TEXT
  5
128F8
330
17
100
AcDbEntity
  8
TEXT
100
AcDbText
 10
136.007451202448
 20
108.4730632051299
 30
0.0
 40
3.0
  1
%%USTANDARD LIFT LOW HEADROOM TO THE REAR
  7
WEB PAGE
 72
     1
 11
187.0885615124696
 21
108.4730632051299
 31
0.0
100
AcDbText
  0
TEXT
  5
128F9
330
17
100
AcDbEntity
  8
TEXT
100
AcDbText
 10
128.8902918657501
 20
101.8932832923801
 30
0.0
 40
3.0
  1
%%UTAPERED REVERSE ANGLE MOUNT TRACK SET DETAIL
  7
WEB PAGE
 72
     1
 11
187.0885615124696
 21
101.8932832923801
 31
0.0
100
AcDbText
  0
INSERT
  5
12919
330
17
100
AcDbEntity
  8
FRAMING
100
AcDbBlockReference
  2
COMM-6-625-EBP
 10
302.9393529549923
 20
242.8498530785224
 30
0.0
 50
270.0
  0
CIRCLE
  5
1291A
330
17
100
AcDbEntity
  8
FRAMING
100
AcDbCircle
 10
284.6127168791756
 20
246.5550525345914
 30
0.0
 40
2.375
  0
INSERT
  5
129E0
330
17
100
AcDbEntity
  8
FRAMING
100
AcDbBlockReference
  2
A$C4240735D
 10
146.4395406346883
 20
244.5489493670203
 30
0.0
  0
TEXT
  5
12AA3
330
17
100
AcDbEntity
  8
TEXT
100
AcDbText
 10
200.9727586530827
 20
127.8729882833991
 30
0.0
 40
1.75
  1
* ADD 4" FOR OPERATOR.
  7
WEB PAGE
 72
     1
 11
216.5391789847338
 21
127.8729882833991
 31
0.0
100
AcDbText
  0
TEXT
  5
12AA4
330
17
100
AcDbEntity
  8
TEXT
100
AcDbText
 10
202.543309192126
 20
135.8912304480238
 30
0.0
 40
1.75
  1
13' - 18'
  7
WEB PAGE
 72
     1
 11
206.6691202952262
 21
135.8912304480238
 31
0.0
100
AcDbText
  0
TEXT
  5
12AA5
330
17
100
AcDbEntity
  8
TEXT
100
AcDbText
 10
202.7301676135888
 20
132.3853972697925
 30
0.0
 40
1.75
  1
19' - 20'
  7
WEB PAGE
 72
     1
 11
206.855978716689
 21
132.3853972697925
 31
0.0
100
AcDbText
  0
LINE
  5
12AA6
330
17
100
AcDbEntity
  8
TEXT
100
AcDbLine
 10
235.911480619588
 20
135.0973933562007
 30
0.0
 11
197.2058248256463
 21
135.0973933562007
 31
0.0
  0
LINE
  5
12AA7
330
17
100
AcDbEntity
  8
TEXT
100
AcDbLine
 10
197.2058248256463
 20
142.364612958137
 30
0.0
 11
235.911480619588
 21
142.364612958137
 31
0.0
  0
LINE
  5
12AA8
330
17
100
AcDbEntity
  8
TEXT
100
AcDbLine
 10
197.2058248256463
 20
149.2482227591052
 30
0.0
 11
235.911480619588
 21
149.2482227591052
 31
0.0
  0
LINE
  5
12AA9
330
17
100
AcDbEntity
  8
TEXT
100
AcDbLine
 10
235.911480619588
 20
138.7310031571689
 30
0.0
 11
197.2058248256463
 21
138.7310031571688
 31
0.0
  0
LINE
  5
12AAA
330
17
100
AcDbEntity
  8
TEXT
100
AcDbLine
 10
197.2058248256463
 20
159.4867472227897
 30
0.0
 11
235.911480619588
 21
159.4867472227896
 31
0.0
  0
LINE
  5
12AAB
330
17
100
AcDbEntity
  8
TEXT
100
AcDbLine
 10
235.911480619588
 20
131.4637835552326
 30
0.0
 11
197.2058248256463
 21
131.4637835552325
 31
0.0
  0
LINE
  5
12AAC
330
17
100
AcDbEntity
  8
TEXT
100
AcDbLine
 10
197.2058248256463
 20
149.2482227591052
 30
0.0
 11
197.2058248256463
 21
159.4867472227897
 31
0.0
  0
LINE
  5
12AAD
330
17
100
AcDbEntity
  8
TEXT
100
AcDbLine
 10
197.2058248256463
 20
149.2482227591052
 30
0.0
 11
197.2058248256463
 21
131.4637835552325
 31
0.0
  0
TEXT
  5
12AAE
330
17
100
AcDbEntity
  8
TEXT
100
AcDbText
 10
218.74031540463
 20
143.5175277746465
 30
0.0
 40
1.75
  1
HEADROOM
  7
WEB PAGE
 72
     1
 11
226.2052577261874
 21
143.5175277746465
 31
0.0
100
AcDbText
  0
TEXT
  5
12AAF
330
17
100
AcDbEntity
  8
TEXT
100
AcDbText
 10
220.0323125207079
 20
146.5633667370184
 30
0.0
 40
1.75
  1
MINIMUM
  7
WEB PAGE
 72
     1
 11
226.2052577261874
 21
146.5633667370184
 31
0.0
100
AcDbText
  0
TEXT
  5
12AB0
330
17
100
AcDbEntity
  8
TEXT
100
AcDbText
 10
223.9449634311988
 20
139.6749728054544
 30
0.0
 40
1.75
  1
7-5/8"
  7
WEB PAGE
 72
     1
 11
227.1995596821
 21
139.6749728054544
 31
0.0
100
AcDbText
  0
TEXT
  5
12AB1
330
17
100
AcDbEntity
  8
TEXT
100
AcDbText
 10
223.9449634311988
 20
136.148734442654
 30
0.0
 40
1.75
  1
7-5/8"
  7
WEB PAGE
 72
     1
 11
227.1995596821
 21
136.148734442654
 31
0.0
100
AcDbText
  0
TEXT
  5
12AB3
330
17
100
AcDbEntity
  8
TEXT
100
AcDbText
 10
223.9449634311988
 20
132.4790727741605
 30
0.0
 40
1.75
  1
8-1/2"
  7
WEB PAGE
 72
     1
 11
227.1995596821
 21
132.4790727741605
 31
0.0
100
AcDbText
  0
TEXT
  5
12AB4
330
17
100
AcDbEntity
  8
TEXT
100
AcDbText
 10
203.6825865816663
 20
139.6749728054544
 30
0.0
 40
1.75
  1
7' - 12'
  7
WEB PAGE
 72
     1
 11
207.1623991267276
 21
139.6749728054544
 31
0.0
100
AcDbText
  0
TEXT
  5
12AB5
330
17
100
AcDbEntity
  8
TEXT
100
AcDbText
 10
203.3760641462453
 20
146.5633667370184
 30
0.0
 40
1.75
  1
DOOR
  7
WEB PAGE
 72
     1
 11
207.0482883711912
 21
146.5633667370184
 31
0.0
100
AcDbText
  0
TEXT
  5
12AB6
330
17
100
AcDbEntity
  8
TEXT
100
AcDbText
 10
202.2405198059425
 20
143.5175277746465
 30
0.0
 40
1.75
  1
HEIGHT
  7
WEB PAGE
 72
     1
 11
207.0482883711912
 21
143.5175277746465
 31
0.0
100
AcDbText
  0
LINE
  5
12AB7
330
17
100
AcDbEntity
  8
TEXT
100
AcDbLine
 10
216.6526088041194
 20
149.2482227591052
 30
0.0
 11
216.6526088041194
 21
131.4637835552325
 31
0.0
  0
LINE
  5
12AB8
330
17
100
AcDbEntity
  8
TEXT
100
AcDbLine
 10
235.911480619588
 20
149.2482227591052
 30
0.0
 11
235.911480619588
 21
159.4867472227896
 31
0.0
  0
LINE
  5
12AB9
330
17
100
AcDbEntity
  8
TEXT
100
AcDbLine
 10
235.911480619588
 20
149.2482227591052
 30
0.0
 11
235.911480619588
 21
131.4637835552326
 31
0.0
  0
DIMENSION
  5
12AF1
330
17
100
AcDbEntity
  8
TEXT
100
AcDbDimension
  2
*D14
 10
95.42660556630382
 20
246.0362941793405
 30
0.0
 11
95.42660556630378
 21
184.5362941793405
 31
0.0
 70
    32
  1
3" TAPERED REVERSE\PANGLE\PDOOR HEIGHT+3"
 71
     5
 42
123.0
 73
     0
 74
     0
 75
     0
  3
STANDARD
100
AcDbAlignedDimension
 13
134.2169295018095
 23
123.0362941793405
 33
0.0
 14
138.2169295018095
 24
246.0362941793405
 34
0.0
 50
90.0
100
AcDbRotatedDimension
  0
MTEXT
  5
13556
330
17
100
AcDbEntity
  8
TEXT
100
AcDbMText
 10
216.762544349262
 20
158.2572482155117
 30
0.0
 40
2.6
 41
37.3125
 46
0.0
 71
     2
 72
     5
  1
HEADROOM\PREQUIREMENTS
 73
     1
 44
1.0
  0
VIEWPORT
  5
C943
330
14
100
AcDbEntity
 67
     1
  8
0
100
AcDbViewport
 10
4.09289033367175
 20
5.270741383944708
 30
0.0
 40
18.16460703518682
 41
11.76071048644092
 68
     1
 69
     1
 12
4.09289033367175
 22
5.270741383944708
 13
0.0
 23
0.0
 14
0.5
 24
0.5
 15
0.5
 25
0.5
 16
0.0
 26
0.0
 36
1.0
 17
0.0
 27
0.0
 37
0.0
 42
50.0
 43
0.0
 44
0.0
 45
11.76071048644092
 50
0.0
 51
0.0
 72
   100
 90
    32800
  1

281
     0
 71
     1
 74
     0
110
0.0
120
0.0
130
0.0
111
1.0
121
0.0
131
0.0
112
0.0
122
1.0
132
0.0
 79
     0
146
0.0
170
     0
 61
     5
348
1344A
292
     1
282
     1
141
0.0
142
0.0
 63
   250
421
  3355443
  0
VIEWPORT
  5
13402
330
14
100
AcDbEntity
 67
     1
  8
Defpoints
100
AcDbViewport
 10
4.110323810396871
 20
4.879591289504969
 30
0.0
 40
7.620151324406918
 41
9.174914722807512
 68
     2
 69
     2
 12
176.8311387305133
 22
187.9613189476123
 13
0.0
 23
0.0
 14
1.0
 24
1.0
 15
0.25
 25
0.25
 16
0.0
 26
0.0
 36
1.0
 17
0.0
 27
0.0
 37
0.0
 42
50.0
 43
0.0
 44
0.0
 45
287.2159646772389
 50
0.0
 51
0.0
 72
   100
 90
    32768
  1

281
     0
 71
     1
 74
     0
110
0.0
120
0.0
130
0.0
111
1.0
121
0.0
131
0.0
112
0.0
122
1.0
132
0.0
 79
     0
146
0.0
170
     0
 61
     5
348
1344A
292
     1
282
     1
141
0.0
142
0.0
 63
   250
421
  3355443
  0
ENDSEC
  0
SECTION
  2
OBJECTS
  0
DICTIONARY
  5
C
330
0
100
AcDbDictionary
281
     1
  3
ACAD_COLOR
350
13455
  3
ACAD_GROUP
350
D
  3
ACAD_LAYOUT
350
B57A
  3
ACAD_MATERIAL
350
13440
  3
ACAD_MLINESTYLE
350
1A
  3
ACAD_PLOTSETTINGS
350
B57B
  3
ACAD_PLOTSTYLENAME
350
B578
  3
ACAD_TABLESTYLE
350
13456
  3
ACAD_VISUALSTYLE
350
13444
  3
AcadDim
350
119E2
  3
ACDBVARIABLEDICTIONARY
350
59
  3
ASE_INDEX_DICTIONARY
350
123F7
  0
DICTIONARY
  5
13577
330
8
100
AcDbDictionary
280
     1
281
     1
  0
DICTIONARY
  5
134F4
330
2
100
AcDbDictionary
280
     1
281
     1
  3
ACAD_LAYERSTATES
360
134F5
  0
DICTIONARY
  5
13455
102
{ACAD_REACTORS
330
C
102
}
330
C
100
AcDbDictionary
281
     1
  0
DICTIONARY
  5
D
102
{ACAD_REACTORS
330
C
102
}
330
C
100
AcDbDictionary
281
     1
  0
DICTIONARY
  5
B57A
102
{ACAD_REACTORS
330
C
102
}
330
C
100
AcDbDictionary
281
     1
  3
Layout1
350
B57D
  3
Model
350
B57C
  0
DICTIONARY
  5
13440
102
{ACAD_REACTORS
330
C
102
}
330
C
100
AcDbDictionary
281
     1
  3
ByBlock
350
13442
  3
ByLayer
350
13441
  3
Global
350
13443
  0
DICTIONARY
  5
1A
102
{ACAD_REACTORS
330
C
102
}
330
C
100
AcDbDictionary
281
     1
  3
STANDARD
350
1B
  0
DICTIONARY
  5
B57B
102
{ACAD_REACTORS
330
C
102
}
330
C
100
AcDbDictionary
281
     1
  0
ACDBDICTIONARYWDFLT
  5
B578
102
{ACAD_REACTORS
330
C
102
}
330
C
100
AcDbDictionary
281
     1
  3
Normal
350
B579
100
AcDbDictionaryWithDefault
340
B579
  0
DICTIONARY
  5
13456
102
{ACAD_REACTORS
330
C
102
}
330
C
100
AcDbDictionary
281
     1
  3
Standard
350
13457
  0
DICTIONARY
  5
13444
102
{ACAD_REACTORS
330
C
102
}
330
C
100
AcDbDictionary
281
     1
  3
2dWireframe
350
1344A
  3
3D Hidden
350
1344C
  3
3dWireframe
350
1344B
  3
Basic
350
13449
  3
Brighten
350
13450
  3
ColorChange
350
13454
  3
Conceptual
350
1344D
  3
Dim
350
1344F
  3
Facepattern
350
13453
  3
Flat
350
13445
  3
FlatWithEdges
350
13446
  3
Gouraud
350
13447
  3
GouraudWithEdges
350
13448
  3
Linepattern
350
13452
  3
Realistic
350
1344E
  3
Thicken
350
13451
  0
XRECORD
  5
119E2
102
{ACAD_REACTORS
330
C
102
}
330
C
100
AcDbXrecord
280
     1
 90
   990106
  3

 60
     0
 61
     0
 62
     1
 63
     3
 64
     0
 65
     0
 66
     0
 67
     3
 68
     1
 69
     0
 70
     0
 71
     0
 72
     0
 40
0.0
170
     0
340
0
  0
DICTIONARY
  5
59
102
{ACAD_REACTORS
330
C
102
}
330
C
100
AcDbDictionary
281
     1
  3
CTABLESTYLE
350
13571
  3
DIMADEC
350
5A
  3
DIMASSOC
350
1343E
  3
SORTENTS
350
769A
  0
DICTIONARY
  5
123F7
102
{ACAD_REACTORS
330
C
102
}
330
C
100
AcDbDictionary
281
     1
  3
ASEBlockHierarchyIndexRecord
350
123F9
1001
DCO15
1040
1434891614.2
  0
DICTIONARY
  5
134F5
102
{ACAD_REACTORS
330
134F4
102
}
330
134F4
100
AcDbDictionary
281
     1
  0
LAYOUT
  5
B57D
102
{ACAD_XDICTIONARY
360
1350A
102
}
102
{ACAD_REACTORS
330
B57A
102
}
330
B57A
100
AcDbPlotSettings
  1

  2
Adobe PDF
  4
Letter
  6

 40
3.174999952316284
 41
3.174999952316284
 42
3.175003051757812
 43
3.17498779296875
 44
215.8999938964844
 45
279.3999938964844
 46
4.318
 47
4.571999999999999
 48
0.0
 49
0.0
140
0.0
141
0.0
142
1.0
143
1.0
 70
   692
 72
     0
 73
     0
 74
     1
  7

 75
    16
147
1.0
 76
     0
 77
     2
 78
   300
148
-3.964551678378286
149
-3.757055211110303
100
AcDbLayout
  1
Layout1
 70
     1
 71
     1
 10
-0.1389152863755117
 20
-0.1570844386301567
 11
8.361084473328595
 21
10.84291532107395
 12
0.0
 22
0.0
 32
0.0
 14
0.1937503629665342
 24
0.1315364683811797
 34
0.0
 15
7.991598296780178
 25
10.41007467789764
 35
0.0
146
0.0
 13
0.0
 23
0.0
 33
0.0
 16
1.0
 26
0.0
 36
0.0
 17
0.0
 27
1.0
 37
0.0
 76
     0
330
14
331
C943
  0
LAYOUT
  5
B57C
102
{ACAD_REACTORS
330
B57A
102
}
330
B57A
100
AcDbPlotSettings
  1

  2
Adobe PDF
  4
Letter
  6

 40
3.174999952316284
 41
3.174999952316284
 42
3.175003051757812
 43
3.17498779296875
 44
215.8999938964844
 45
279.3999938964844
 46
0.0
 47
59.18199999999999
 48
139.3684830884462
 49
213.5442578355003
140
281.5818113799604
141
346.2220205485337
142
1.0
143
28.43826784491264
 70
 11956
 72
     0
 73
     0
 74
     1
  7

 75
     0
147
0.035163885699842
 76
     0
 77
     2
 78
   300
148
-1511.953798245498
149
-2572.541369322576
100
AcDbLayout
  1
Model
 70
     1
 71
     0
 10
0.0
 20
0.0
 11
12.0
 21
9.0
 12
0.0
 22
0.0
 32
0.0
 14
0.0
 24
0.0
 34
0.0
 15
0.0
 25
0.0
 35
0.0
146
0.0
 13
0.0
 23
0.0
 33
0.0
 16
1.0
 26
0.0
 36
0.0
 17
0.0
 27
1.0
 37
0.0
 76
     0
330
17
331
1343D
  0
MATERIAL
  5
13442
102
{ACAD_REACTORS
330
13440
102
}
330
13440
100
AcDbMaterial
  1
ByBlock
  0
MATERIAL
  5
13441
102
{ACAD_REACTORS
330
13440
102
}
330
13440
100
AcDbMaterial
  1
ByLayer
  0
MATERIAL
  5
13443
102
{ACAD_REACTORS
330
13440
102
}
330
13440
100
AcDbMaterial
  1
Global
  0
MLINESTYLE
  5
1B
102
{ACAD_REACTORS
330
1A
102
}
330
1A
100
AcDbMlineStyle
  2
STANDARD
 70
     0
  3

 62
   256
 51
90.0
 52
90.0
 71
     2
 49
0.5
 62
   256
  6
BYLAYER
 49
-0.5
 62
   256
  6
BYLAYER
  0
ACDBPLACEHOLDER
  5
B579
102
{ACAD_REACTORS
330
B578
102
}
330
B578
  0
TABLESTYLE
  5
13457
102
{ACAD_REACTORS
330
13456
102
}
330
13456
100
AcDbTableStyle
  3
Standard
 70
     0
 71
     0
 40
0.06
 41
0.06
280
     0
281
     0
  7
STANDARD
140
0.18
170
     2
 62
     0
 63
     7
283
     0
 90
      512
 91
        0
  1

274
    -2
284
     1
 64
     0
275
    -2
285
     1
 65
     0
276
    -2
286
     1
 66
     0
277
    -2
287
     1
 67
     0
278
    -2
288
     1
 68
     0
279
    -2
289
     1
 69
     0
  7
STANDARD
140
0.25
170
     5
 62
     0
 63
     7
283
     0
 90
      512
 91
        0
  1

274
    -2
284
     1
 64
     0
275
    -2
285
     1
 65
     0
276
    -2
286
     1
 66
     0
277
    -2
287
     1
 67
     0
278
    -2
288
     1
 68
     0
279
    -2
289
     1
 69
     0
  7
STANDARD
140
0.18
170
     5
 62
     0
 63
     7
283
     0
 90
      512
 91
        0
  1

274
    -2
284
     1
 64
     0
275
    -2
285
     1
 65
     0
276
    -2
286
     1
 66
     0
277
    -2
287
     1
 67
     0
278
    -2
288
     1
 68
     0
279
    -2
289
     1
 69
     0
  0
VISUALSTYLE
  5
1344A
102
{ACAD_REACTORS
330
13444
102
}
330
13444
100
AcDbVisualStyle
  2
2dWireframe
 70
     4
 71
     0
 72
     2
 73
     0
 90
        0
 40
-0.6
 41
-30.0
 62
     5
 63
     7
421
 16777215
 74
     1
 91
        4
 64
     7
 65
   257
 75
     1
175
     1
 42
1.0
 92
        0
 66
   257
 43
1.0
 76
     1
 77
     6
 78
     2
 67
     7
 79
     5
170
     0
171
     0
290
     0
174
     0
 93
        1
 44
0.0
173
     0
291
     0
 45
0.0
  0
VISUALSTYLE
  5
1344C
102
{ACAD_REACTORS
330
13444
102
}
330
13444
100
AcDbVisualStyle
  2
3D Hidden
 70
     6
 71
     1
 72
     2
 73
     2
 90
        0
 40
-0.6
 41
-30.0
 62
     5
 63
     7
421
 16777215
 74
     2
 91
        2
 64
     7
 65
   257
 75
     2
175
     1
 42
40.0
 92
        0
 66
   257
 43
1.0
 76
     1
 77
     6
 78
     2
 67
     7
 79
     3
170
     0
171
     0
290
     0
174
     0
 93
        1
 44
0.0
173
     0
291
     0
 45
0.0
  0
VISUALSTYLE
  5
1344B
102
{ACAD_REACTORS
330
13444
102
}
330
13444
100
AcDbVisualStyle
  2
3dWireframe
 70
     5
 71
     0
 72
     2
 73
     0
 90
        0
 40
-0.6
 41
-30.0
 62
     5
 63
     7
421
 16777215
 74
     1
 91
        4
 64
     7
 65
   257
 75
     1
175
     1
 42
1.0
 92
        0
 66
   257
 43
1.0
 76
     1
 77
     6
 78
     2
 67
     7
 79
     5
170
     0
171
     0
290
     0
174
     0
 93
        1
 44
0.0
173
     0
291
     0
 45
0.0
  0
VISUALSTYLE
  5
13449
102
{ACAD_REACTORS
330
13444
102
}
330
13444
100
AcDbVisualStyle
  2
Basic
 70
     7
 71
     1
 72
     0
 73
     1
 90
        0
 40
-0.6
 41
-30.0
 62
     5
 63
     7
421
 16777215
 74
     0
 91
        4
 64
     7
 65
   257
 75
     1
175
     1
 42
1.0
 92
        8
 66
     7
 43
1.0
 76
     1
 77
     6
 78
     2
 67
     7
 79
     5
170
     0
171
     0
290
     0
174
     0
 93
        1
 44
0.0
173
     0
291
     1
 45
0.0
  0
VISUALSTYLE
  5
13450
102
{ACAD_REACTORS
330
13444
102
}
330
13444
100
AcDbVisualStyle
  2
Brighten
 70
    12
 71
     2
 72
     2
 73
     0
 90
        0
 40
-0.6
 41
-30.0
 62
     5
 63
     7
421
 16777215
 74
     1
 91
        4
 64
     7
 65
   257
 75
     1
175
     1
 42
1.0
 92
        8
 66
     7
 43
1.0
 76
     1
 77
     6
 78
     2
 67
     7
 79
     5
170
     0
171
     0
290
     0
174
     0
 93
        1
 44
50.0
173
     0
291
     1
 45
0.0
  0
VISUALSTYLE
  5
13454
102
{ACAD_REACTORS
330
13444
102
}
330
13444
100
AcDbVisualStyle
  2
ColorChange
 70
    16
 71
     2
 72
     2
 73
     3
 90
        0
 40
-0.6
 41
-30.0
 62
     5
 63
     8
421
  8421504
 74
     1
 91
        4
 64
     7
 65
   257
 75
     1
175
     1
 42
1.0
 92
        8
 66
     8
424
  8421504
 43
1.0
 76
     1
 77
     6
 78
     2
 67
     7
 79
     5
170
     0
171
     0
290
     0
174
     0
 93
        1
 44
0.0
173
     0
291
     1
 45
0.0
  0
VISUALSTYLE
  5
1344D
102
{ACAD_REACTORS
330
13444
102
}
330
13444
100
AcDbVisualStyle
  2
Conceptual
 70
     9
 71
     3
 72
     2
 73
     0
 90
        0
 40
-0.6
 41
-30.0
 62
     5
 63
     7
421
 16777215
 74
     2
 91
        2
 64
     7
 65
   257
 75
     1
175
     1
 42
40.0
 92
        8
 66
     7
 43
1.0
 76
     1
 77
     6
 78
     2
 67
     7
 79
     3
170
     0
171
     0
290
     0
174
     0
 93
        1
 44
0.0
173
     0
291
     0
 45
0.0
  0
VISUALSTYLE
  5
1344F
102
{ACAD_REACTORS
330
13444
102
}
330
13444
100
AcDbVisualStyle
  2
Dim
 70
    11
 71
     2
 72
     2
 73
     0
 90
        0
 40
-0.6
 41
-30.0
 62
     5
 63
     7
421
 16777215
 74
     1
 91
        4
 64
     7
 65
   257
 75
     1
175
     1
 42
1.0
 92
        8
 66
     7
 43
1.0
 76
     1
 77
     6
 78
     2
 67
     7
 79
     5
170
     0
171
     0
290
     0
174
     0
 93
        1
 44
-50.0
173
     0
291
     1
 45
0.0
  0
VISUALSTYLE
  5
13453
102
{ACAD_REACTORS
330
13444
102
}
330
13444
100
AcDbVisualStyle
  2
Facepattern
 70
    15
 71
     2
 72
     2
 73
     0
 90
        0
 40
-0.6
 41
-30.0
 62
     5
 63
     7
421
 16777215
 74
     1
 91
        4
 64
     7
 65
   257
 75
     1
175
     1
 42
1.0
 92
        8
 66
     7
 43
1.0
 76
     1
 77
     6
 78
     2
 67
     7
 79
     5
170
     0
171
     0
290
     0
174
     0
 93
        1
 44
0.0
173
     0
291
     1
 45
0.0
  0
VISUALSTYLE
  5
13445
102
{ACAD_REACTORS
330
13444
102
}
330
13444
100
AcDbVisualStyle
  2
Flat
 70
     0
 71
     2
 72
     1
 73
     1
 90
        2
 40
-0.6
 41
30.0
 62
     5
 63
     7
421
 16777215
 74
     0
 91
        4
 64
     7
 65
   257
 75
     1
175
     1
 42
1.0
 92
        8
 66
     7
 43
1.0
 76
     1
 77
     6
 78
     2
 67
     7
 79
     5
170
     0
171
     0
290
     0
174
     0
 93
       13
 44
0.0
173
     0
291
     1
 45
0.0
  0
VISUALSTYLE
  5
13446
102
{ACAD_REACTORS
330
13444
102
}
330
13444
100
AcDbVisualStyle
  2
FlatWithEdges
 70
     1
 71
     2
 72
     1
 73
     1
 90
        2
 40
-0.6
 41
30.0
 62
     5
 63
     7
421
 16777215
 74
     1
 91
        4
 64
     7
 65
   257
 75
     1
175
     1
 42
1.0
 92
        0
 66
   257
 43
1.0
 76
     1
 77
     6
 78
     2
 67
     7
 79
     5
170
     0
171
     0
290
     0
174
     0
 93
       13
 44
0.0
173
     0
291
     1
 45
0.0
  0
VISUALSTYLE
  5
13447
102
{ACAD_REACTORS
330
13444
102
}
330
13444
100
AcDbVisualStyle
  2
Gouraud
 70
     2
 71
     2
 72
     2
 73
     1
 90
        2
 40
-0.6
 41
30.0
 62
     5
 63
     7
421
 16777215
 74
     0
 91
        4
 64
     7
 65
   257
 75
     1
175
     1
 42
1.0
 92
        0
 66
     7
 43
1.0
 76
     1
 77
     6
 78
     2
 67
     7
 79
     5
170
     0
171
     0
290
     0
174
     0
 93
       13
 44
0.0
173
     0
291
     1
 45
0.0
  0
VISUALSTYLE
  5
13448
102
{ACAD_REACTORS
330
13444
102
}
330
13444
100
AcDbVisualStyle
  2
GouraudWithEdges
 70
     3
 71
     2
 72
     2
 73
     1
 90
        2
 40
-0.6
 41
30.0
 62
     5
 63
     7
421
 16777215
 74
     1
 91
        4
 64
     7
 65
   257
 75
     1
175
     1
 42
1.0
 92
        0
 66
   257
 43
1.0
 76
     1
 77
     6
 78
     2
 67
     7
 79
     5
170
     0
171
     0
290
     0
174
     0
 93
       13
 44
0.0
173
     0
291
     1
 45
0.0
  0
VISUALSTYLE
  5
13452
102
{ACAD_REACTORS
330
13444
102
}
330
13444
100
AcDbVisualStyle
  2
Linepattern
 70
    14
 71
     2
 72
     2
 73
     0
 90
        0
 40
-0.6
 41
-30.0
 62
     5
 63
     7
421
 16777215
 74
     1
 91
        4
 64
     7
 65
   257
 75
     7
175
     7
 42
1.0
 92
        8
 66
     7
 43
1.0
 76
     1
 77
     6
 78
     2
 67
     7
 79
     5
170
     0
171
     0
290
     0
174
     0
 93
        1
 44
0.0
173
     0
291
     1
 45
0.0
  0
VISUALSTYLE
  5
1344E
102
{ACAD_REACTORS
330
13444
102
}
330
13444
100
AcDbVisualStyle
  2
Realistic
 70
     8
 71
     2
 72
     2
 73
     0
 90
        0
 40
-0.6
 41
-30.0
 62
     5
 63
     7
421
 16777215
 74
     1
 91
        0
 64
     7
 65
   257
 75
     1
175
     1
 42
1.0
 92
        8
 66
     8
424
  7895160
 43
1.0
 76
     1
 77
     6
 78
     2
 67
     7
 79
     5
170
     0
171
     0
290
     0
174
     0
 93
       13
 44
0.0
173
     0
291
     0
 45
0.0
  0
VISUALSTYLE
  5
13451
102
{ACAD_REACTORS
330
13444
102
}
330
13444
100
AcDbVisualStyle
  2
Thicken
 70
    13
 71
     2
 72
     2
 73
     0
 90
        0
 40
-0.6
 41
-30.0
 62
     5
 63
     7
421
 16777215
 74
     1
 91
        4
 64
     7
 65
   257
 75
     1
175
     1
 42
1.0
 92
       12
 66
     7
 43
1.0
 76
     1
 77
     6
 78
     2
 67
     7
 79
     5
170
     0
171
     0
290
     0
174
     0
 93
        1
 44
0.0
173
     0
291
     1
 45
0.0
  0
DICTIONARYVAR
  5
13571
102
{ACAD_REACTORS
330
59
102
}
330
59
100
DictionaryVariables
280
     0
  1
STANDARD
  0
DICTIONARYVAR
  5
5A
102
{ACAD_REACTORS
330
59
102
}
330
59
100
DictionaryVariables
280
     0
  1
0
  0
DICTIONARYVAR
  5
1343E
102
{ACAD_REACTORS
330
59
102
}
330
59
100
DictionaryVariables
280
     0
  1
1
  0
DICTIONARYVAR
  5
769A
102
{ACAD_REACTORS
330
59
102
}
330
59
100
DictionaryVariables
280
     0
  1
96
  0
XRECORD
  5
123F9
102
{ACAD_REACTORS
330
123F7
102
}
330
123F7
100
AcDbXrecord
280
     1
330
3374
330
3375
330
3376
330
3377
330
3378
330
3E3C
330
3E3D
330
3E3E
330
3E3F
330
3E40
330
0
330
0
330
0
330
0
330
0
330
0
330
0
330
0
330
0
330
0
330
0
330
0
330
0
330
0
330
0
330
0
330
0
330
0
330
0
330
0
330
0
330
0
330
0
330
0
330
0
330
0
330
0
330
0
330
0
330
0
330
0
330
0
330
0
330
0
330
0
330
0
330
0
330
0
330
0
330
0
330
0
330
0
330
0
330
0
330
0
330
0
330
0
330
0
330
0
330
0
330
0
330
0
330
0
330
0
330
0
330
0
330
0
330
0
330
0
330
0
330
0
330
0
330
0
330
0
330
0
330
0
330
0
330
0
330
0
330
0
330
0
  0
DICTIONARY
  5
1350A
330
B57D
100
AcDbDictionary
280
     1
281
     1
  3
ADSK_XREC_LAYOUTTHUMBNAIL
360
1350B
  0
XRECORD
  5
1350B
102
{ACAD_REACTORS
330
1350A
102
}
330
1350A
100
AcDbXrecord
280
     1
310
280000006B0000008C0000000100080000000000103B0000000000000000000000010000000000000000000000000000FFFFFF000000000000000000000000000000000000000000000000000000000000000000330000006600000099000000CC000000FF00000000330000333300006633000099330000CC330000FF3300
310
0000660000336600006666000099660000CC660000FF66000000990000339900006699000099990000CC990000FF99000000CC000033CC000066CC000099CC0000CCCC0000FFCC000000FF000033FF000066FF000099FF0000CCFF0000FFFF000000003300330033006600330099003300CC003300FF003300003333003333
310
33006633330099333300CC333300FF33330000663300336633006666330099663300CC663300FF66330000993300339933006699330099993300CC993300FF99330000CC330033CC330066CC330099CC3300CCCC3300FFCC330000FF330033FF330066FF330099FF3300CCFF3300FFFF330000006600330066006600660099
310
006600CC006600FF00660000336600333366006633660099336600CC336600FF33660000666600336666006666660099666600CC666600FF66660000996600339966006699660099996600CC996600FF99660000CC660033CC660066CC660099CC6600CCCC6600FFCC660000FF660033FF660066FF660099FF6600CCFF6600
310
FFFF660000009900330099006600990099009900CC009900FF00990000339900333399006633990099339900CC339900FF33990000669900336699006666990099669900CC669900FF66990000999900339999006699990099999900CC999900FF99990000CC990033CC990066CC990099CC9900CCCC9900FFCC990000FF99
310
0033FF990066FF990099FF9900CCFF9900FFFF99000000CC003300CC006600CC009900CC00CC00CC00FF00CC000033CC003333CC006633CC009933CC00CC33CC00FF33CC000066CC003366CC006666CC009966CC00CC66CC00FF66CC000099CC003399CC006699CC009999CC00CC99CC00FF99CC0000CCCC0033CCCC0066CC
310
CC0099CCCC00CCCCCC00FFCCCC0000FFCC0033FFCC0066FFCC0099FFCC00CCFFCC00FFFFCC000000FF003300FF006600FF009900FF00CC00FF00FF00FF000033FF003333FF006633FF009933FF00CC33FF00FF33FF000066FF003366FF006666FF009966FF00CC66FF00FF66FF000099FF003399FF006699FF009999FF00CC
310
99FF00FF99FF0000CCFF0033CCFF0066CCFF0099CCFF00CCCCFF00FFCCFF0000FFFF0033FFFF0066FFFF0099FFFF00CCFFFF00FFFFFF00000000000D0D0D001A1A1A00282828003535350043434300505050005D5D5D006B6B6B00787878008686860093939300A1A1A100AEAEAE00BBBBBB00C9C9C900D6D6D600E4E4E400
310
F1F1F100FFFFFF0000000000000000000000000000000000000000000000000000000000000000000000000000000000F5F5F5F5F5F5F5F5F5F5F5F5F5F5F5F5F5F5F5F5F5F5F5F5F5F5F5F5F5F5F5F5F5F5F5F5F5F5F5F5F5F5F5F5F5F5F5F5F5F5F5F5F5F5F5F5F5F5F5F5F5F5F5F5F5F5F5F5F5F5F5F5F5F5F5F5F5F5F5
310
F5F5F5F5F5F5F5F5F5F5F5F5F5F5F5F5F5F5F5F5F5F5F5F5F5F5F5F500F5E2E2E2E2E2E2E2E2E2E2E2E2E2E2E2E2E2E2E2E2E2E2E2E2E2E2E2E2E2E2E2E2E2E2E2E2E2E2E2E2E2E2E2E2E2E2E2E2E2E2E2E2E2E2E2E2E2E2E2E2E2E2E2E2E2E2E2E2E2E2E2E2E2E2E2E2E2E2E2E2E2E2E2E2E2E2E2E2E2E2E2E2E2E2E2E2E2
310
E2E2E2E2E2E2E2E2E200F5E2F5F5F5F5F5F5F5F5F5E2E2E2E2E2E2E2E2E2F5F5F5F5F5F5F5F5F5F5F5F5F5F5F5F5E2E2E2E2E2E2E2E2E2E2F5F5F5F5F5F5F5F5F5F5F5F5F5F5F5F5E2E2E2E2E2E2E2E2E2E2F5F5F5F5F5F5F5F5F5F5F5F5F5F5F5F5E2E2E2E2E2E2E2E2E2F5F5F5F5F5F5F5F5F5E233F5E2F5E2E2E2E2E2E2
310
E2E2E2E2E2E2E2E2E2E2E2E2E2E2E2E2E2E2E2E2E2E2E2E2E2E2E2E2E2E2E2E2E2E2E2E2E2E2E2E2E2E2E2E2E2E2E2E2E2E2E2E2E2E2E2E2E2E2E2E2E2E2E2E2E2E2E2E2E2E2E2E2E2E2E2E2E2E2E2E2E2E2E2E2E2E2E2E2E2E2E2E2E2E2E2E2F5E20EF5E2F5E2E2E2E2E2E2E2E2E2E2E2E2E2E2E2E2E2E2E2E2E2E2E2E2E2
310
E2E2E2E2E2E2E2E2E2E2E2E2E2E2E2E2E2E2E2E2E2E2E2E2E2E2E2E2E2E2E2E2E2E2E2E2E2E2E2E2E2E2E2E2E2E2E2E2E2E2E2E2E2E2E2E2E2E2E2E2E2E2E2E2E2E2E2E2E2E2E2E2E2E2E2E2E2F5E200F5E2F5E2E2E2E2E2E2E2E2E2E2E2E2E2E2E2E2E2E2E2E2E2E2E2E2E2E2E2E2E2E2E2E2E2E2E2E2E2E2E2E2E2E2E2E2
310
E2E2E2E2E2E2E2E2E2E2E2E2E2E2E2E2E2E2E2E2E2E2E2E2E2E2E2E2E2E2E2E2E2E2E2E2E2E2E2E2E2E2E2E2E2E2E2E2E2E2E2E2E2E2E2E2E2E2F5E200F5E2F5E2E2E2F5F5F5F5F5F5F5F5F5F5F5F5F5F5F5F5F5F5F5F5F5F5F5F5F5F5F5F5F5F5F5F5F5F5F5F5F5F5F5F5F5F5F5F5F5F5F5F5F5F5F5F5F5F5F5F5F5F5F5F5
310
F5F5F5F5F5F5F5F5F5F5F5F5F5F5F5F5F5F5F5F5F5F5F5F5F5F5F5F5F5F5F5F5F5F5F5F5E2E2E2F5E233F5E2F5E2E2E2F5E2E2E2E2E2E2E2E2E2E2E2E2E2E2E2E2E2E2E2E2E2E2E2E2E2E2E2E2E2E2E2E2E2E2E2E2E2E2E2E2E2E2E2E2E2E2E2E2E2E2E2E2E2E2E2E2E2E2E2E2E2E2E2E2E2E2E2E2E2E2E2E2E2E2E2E2E2E2
310
E2E2E2E2E2E2E2E2E2E2E2E2E2E2E2E2F5E2E2E2F5E200F5E2F5E2E2E2F5E2E2E2E2E2E2E2E2E2E2E2E2E2E2E2E2E2E2E2E2E2E2E2E2E2E2E2E2E2E2E2E2E2E2E2E2E2E2E2E2E2E2E2E2E2E2E2E2E2E2E2E2E2E2E2E2E2E2E2E2E2E2E2E2E2E2E2E2E2E2E2E2E2E2E2E2E2E2E2E2E2E2E2E2E2E2E2E2E2E2E2E2E2E2F5E2E2
310
E2F5E27EF5E2F5E2E2E2F5E2E2E2E2E2E2E2E2E2E2E2E2E2E2E2E2E2E2E2E2E2E2E2E2E2E2E2E2E2E2E2E2E2E2E2E2E2E2E2E2E2E2E2E2E2E2E2E2E2E2E2E2E2E2E2E2E2E2E2E2E2E2E2E2E2E2E2E2E2E2E2E2E2E2E2E2E2E2E2E2E2E2E2E2E2E2E2E2E2E2E2E2E2E2F5E2E2E2F5E233F5E2F5E2E2E2F5E2E2E2E2E2E2E2E2
310
E2E2E2E2E2E2E2E2E2E2E2E2E2E2E2E2E2E2E2E2E2E2E2E2E2E2E2E2E2E2E2E2E2E2E2E2E2E2E2E2E2E2E2E2E2E2E2E2E2E2E2E2E2E2E2E2E2E2E2E2E2E2E2E2E2E2E2E2E2E2E2E2E2E2E2E2E2E2E2E2E2E2E2E2E2E2F5E2E2E2F5E27EF5E2E2E2E2E2F5E2E2E2E2E2E2E2E2E2E2E2E2E2E2E2E2E2E2E2E2E2E2E2E2E2E2E2
310
E2E2E2E2E2E2E2E2E2E2E2E2E2E2E2E2E2E2E2E2E2E2E2E2E2E2E2E2E2E2E2E2E2E2E2E2E2E2E2E2E2E2E2E2E2E2E2E2E2E2E2E2E2E2E2E2E2E2E2E2E2E2E2E2E2E2E2F5E2E2E2E2E200F5E2E2E2E2E2F5E2E2E2E2E2E2E2E2E2E2E2E2E2E2E2E2E2E2E2E2E2E2E2E2E2E2E2E2E2E2E2E2E2E2E2E2E2E2E2E2E2E2E2E2E2E2
310
E2E2E2E2E2E2E2E2E2E2E2E2E2E2E2E2E2E2E2E2E2E2E2E2E2E2E2E2E2E2E2E2E2E2E2E2E2E2E2E2E2E2E2E2E2E2E2E2F5E2E2E2E2E200F5E2E2E2E2E2F5E2E2E2E2E2E2E2E2E2E2E2E2E2E2E2E2E2E2E2E2E2E2E2E2E2E2E2E2E2E2E2E2E2E2E2E2E2E2E2E2E2E2E2E2E2E2E2E2E2E2E2E2E2E2E2E2E2E2E2E2E2E2E2E2E2
310
E2E2E2E2E2E2E2E2E2E2E2E2E2E2E2E2E2E2E2E2E2E2E2E2E2E2E2E2E2F5E2E2E2E2E200F5E2E2E2E2E2F5E2E2E2E2E2E2E2E2E2E2E2E2E2E2E2E2E2E2E2E2E2E2E2E2E2E2E2E2E2E2E2E2E2E2E2E2E2E2E2E2E2E2E2E2E2E2E2E2E2E2E2E2E2E2E2E2E2E2E2E2E2E2E2E2E2E2E2E2E2E2E2E2E2E2E2E2E2E2E2E2E2E2E2E2
310
E2E2E2E2E2E2E2E2E2E2F5E2E2E2E2E200F5E2E2E2E2E2F5E2E2E2E2E2E2E2E2E2E2E2E2E2E2E2E2E2E2E2E2E2E2E2E2E2E2E2E2E2E2E2E2E2E2E2E2E2E2E2E2E2E2E2E2E2E2E2E2E2E2E2E2E2E2E2E2E2E2E2E2E2E2E2E2E2E2E2E2E2E2E2E2E2E2E2E2E2E2E2E2E2E2E2E2E2E2E2E2E2E2E2E2E2E2F5E2E2E2E2E200F5E2
310
E2E2E2E2F5E2E2E2E2E2E2E2E2E2E2E2E2E2E2E2E2E2E2E2E2E2E2E2E2E2E2E2E2E2E2E2E2E2E2E2E2E2E2E2E2E2E2E2E2E2E2E2E2E2E2E2E2E2E2E2E2E2E2E2E2E2E2E2E2E2E2E2E2E2E2E2E2E2E2E2E2E2E2E2E2E2E2E2E2E2E2E2E2E2E2E2E2E2E2F5E2E2E2E2E200F5E2E2E2E2E2F5E2E2E2E2E2E2E2E2E2E2E2E2E2E2
310
E2E2E2E2E2E2E2E2E2E2E2E2E2E2E2E2E2E2E2E2E2E2E2E2E2E2E2E2E2E2E2E2E2E2E2E2E2E2E2E2E2E2E2E2E2E2E2E2E2E2E2E2E2E2E2E2E2E2E2E2E2E2E2E2E2E2E2E2E2E2E2E2E2E2E2E2E2E2E2E2F5E2E2E2E2E200F5E2E2E2E2E2F5E2E2E2E2E2E2E2E2E2E2E2E2E2E2E2E2E2E2E2E2E2E2E2E2E2E2E2E2E2E2E2E2E2
310
E2E2E2E2E2E2E2E2E2E2E2E2E2E2E2E2E2E2E2E2E2E2E2E2E2E2E2E2E2E2E2E2E2E2E2E2E2E2E2E2E2E2E2E2E2E2E2E2E2E2E2E2E2E2E2E2E2E2E2E2E2F5E2E2E2E2E200F5E2E2E2E2E2F5E2E2E2E2E2E2E2E2E2E2E2E2E2E2E2E2E2E2E2E2E2E2E2E2E2E2E2E2E2E2E2E2E2E2E2E2E2E2E2E2E2E2E2E2E2E2E2E2E2E2E2E2
310
E2E2E2E2E2E2E2E2E2E2E2E2E2E2E2E2E2E2E2E2E2E2E2E2E2E2E2E2E2E2E2E2E2E2E2E2E2E2E2E2E2E2F5E2E2E2E2E200F5E2E2E2E2E2F5E2E2E2E2E2E2E2E2E2E2E2E2E2E2E2E2E2E2E2E2E2E2E2E2E2E2E2E2E2E2E2E2E2E2E2E2E2E2E2E2E2E2E2E2E2E2E2E2E2E2E2E2E2E2E2E2E2E2E2E2E2E2E2E2E2E2E2E2E2E2E2
310
E2E2E2E2E2E2E2E2E2E2E2E2E2E2E2E2E2E2E2E2E2E2E2F5E2E2E2E2E200F5E2F5E2E2E2F5E2E2E2E2E2E2E2E2E2E2E2E2E2E2E2E2E2E2E2E2E2E2E2E2E2E2E2E2E2E2E2E2E2E2E2E2E2E2E2E2E2E2E2E2E2E2E2E2E2E2E2E2E2E2E2E2E2E2E2E2E2E2E2E2E2E2E2E2E2E2E2E2E2E2E2E2E2E2E2E2E2E2E2E2E2E2E2E2E2E2
310
E2E2E2E2F5E2E2E2F5E22AF5E2F5E2E2E2F5E2E2E2E2E2E2E2E2E2E2E2E2E2E2E2E2E2E2E2E2E2E2E2E2E2E2E2E2E2E2E2E2E2E2E2E2E2E2E2E2E2E2E2E2E2E2E2E2E2E2E2E2E2E2E2E2E2E2E2E2E2E2E2E2E2E2E2E2E2E2E2E2E2E2E2E2E2E2E2E2E2E2E2E2E2E2E2E2E2E2E2E2E2E2F5E2E2E2F5E242F5E2F5E2E2E2F5E2
310
E2E2E2E2E2E2E2E2E2E2E2E2E2E2E2E2E2E2E2E2E2E2E2E2E2E2E2E2E2E2E2E2E2E2E2E2E2E2E2E2E2E2E2E2E2E2E2E2E2E2E2E2E2E2E2E2E2E2E2E2E2E2E2E2E2E2E2E2E2E2E2E2E2E2E2E2E2E2E2E2E2E2E2E2E2E2E2E2E2E2E2E2E2F5E2E2E2F5E200F5E2F5E2E2E2F5E2E2E2E2E2E2E2E2E2E2E2E2E2E2E2E2E2E2E2E2
310
E2E2E2E2E2E2E2E2E2E2E2E2E2E2E2E2E2E2E2E2E2E2E2E2E2E2E2E2E2E2E2E2E2E2E2E2E2E2E2E2E2E2E2E2E2E2E2E2E2E2E2E2E2E2E2E2E2E2E2E2E2E2E2E2E2E2E2E2E2E2E2E2E2E2F5E2E2E2F5E2CDF5E2F5E2E2E2F5E2E2E2E2E2E2E2E2E2E2E2E2E2E2E2E2E2E2E2E2E2E2E2E2E2E2E2E2E2E2E2E2E2E2E2E2E2E2E2
310
E2E2E2E2E2E2E2E2E2E2E2E2E2E2E2E2E2E2E2E2E2E2E2E2E2E2E2E2E2E2E2E2E2E2E2E2E2E2E2E2E2E2E2E2E2E2E2E2E2E2E2E2E2E2E2F5E2E2E2F5E200F5E2F5E2E2E2F5E2E2E2E2E2E2E2E2E2E2E2E2E2E2E2E2E2E2E2E2E2E2E2E2E2E2E2E2E2E2E2E2E2E2E2E2E2E2E2E2E2E2E2E2E2E2E2E2E2E2E2E2E2E2E2E2E2E2
310
E2E2E2E2E2E2E2E2E2E2E2E2E2E2E2E2E2E2E2E2E2E2E2E2E2E2E2E2E2E2E2E2E2E2E2E2F5E2E2E2F5E2CDF5E2F5E2E2E2F5E2E2E2E2E2E2E2E2E2E2E2E2E2E2E2E2E2E2E2E2E2E2E2E2E2E2E2E2E2E2E2E2E2E2E2E2E2E2E2E2E2E2E2E2E2E2E2E2E2E2E2E2E2E2E2E2E2E2E2E2E2E2E2E2E2E2E2E2E2E2E2E2E2E2E2E2E2
310
E2E2E2E2E2E2E2E2E2E2E2E2E2E2E2E2E2F5E2E2E2F5E200F5E2F5E2E2E2F5E2E2E2E2E2E2E2E2E2E2E2E2E2E2E2E2E2E2E2E2E2E2E2E2E2E2E2F5F5F5F5F5F5F5F5F5F5F5F5F5F5F5F5F5F5F5F5F5F5F5F5F5F5F5F5F5F5F5F5F5F5F5F5F5F5F5F5F5F5F5F5F5F5F5F5E2E2E2E2E2E2E2E2E2E2E2E2E2E2E2E2E2E2E2F5E2
310
E2E2F5E2CDF5E2F5E2E2E2F5E2E2E2E2E2E2E2E2E2E2E2E2E2E2E2E2E2E2E2E2E2E2E2E2E2E2E2F5F5F5F5F5F5F5F5F5F5F5F5F5F5F5F5F5F5F5F5F5F5F5F5F5F5F5F5F5F5F5F5F5F5F5F5F5F5F5F5F5F5F5F5F5F5F5E2E2E2E2E2E2E2E2E2E2E2E2E2E2E2E2E2E2E2E2F5E2E2E2F5E200F5E2F5E2E2E2F5E2E2E2E2E2E2E2
310
E2E2E2E2E2E2E2E2E2E2E2E2E2E2E2E2E2E2E2E2E2E2E2E2E2E2E2E2E2E2E2E2E2E2E2E2E2E2E2E2E2E2E2E2E2E2E2E2E2E2E2E2E2E2E2E2E2E2E2E2E2E2E2E2E2E2E2E2E2E2E2E2E2E2E2E2E2E2E2E2E2E2E2E2E2E2E2F5E2E2E2F5E2CDF5E2F5E2E2E2F5E2E2E2E2E2E2E2E2E2E2E2E2E2E2E2E2E2E2E2E2E2E2E2E2E2E2
310
E2E2E2E2F5F5F5F5F5F5F5F5F5F5F5F5F5F5F5F5F5F5F5F5F5F5F5F5F5F5F5F5F5F5F5F5F5F5F5F5F5F5F5F5F5F5E2E2E2E2E2E2E2E2E2E2E2E2E2E2E2E2E2E2E2E2E2E2F5E2E2E2F5E200F5E2F5E2E2E2F5E2E2E2E2E2E2E2E2E2E2E2E2E2E2E2E2E2E2E2E2E2E2E2E2E2E2E2E2E2E2F5F5F5F5F5F5F5F5F5F5F5F5F5F5F5
310
F5F5F5F5F5F5F5F5F5F5F5F5F5F5F5F5F5F5F5F5F5F5F5F5F5F5E2E2E2E2E2E2E2E2E2E2E2E2E2E2E2E2E2E2E2E2E2E2E2F5E2E2E2F5E2CDF5E2F5E2E2E2F5E2E2E2E2E2E2E2E2E2E2E2E2E2E2E2E2E2E2E2E2E2E2E2E2E2E2E2E2E2E2E2E2E2E2E2E2E2E2E2E2E2E2E2E2E2E2E2E2E2E2E2E2E2E2E2E2E2E2E2E2E2E2E2E2
310
E2E2E2E2E2E2E2E2E2E2E2E2E2E2E2E2E2E2E2E2E2E2E2E2E2E2E2E2E2E2F5E2E2E2F5E200F5E2F5E2E2E2F5E2E2E2E2E2E2E2E2E2E2E2E2E2E2E2E2E2E2E2E2E2E2E2E2E2E2E2E2E2E2E2E2E2E2E2E2E2E2E2E2E2E2E2E2E2E2E2E2E2E2E2E2E2E2E2E2E2E2E2E2E2E2E2E2E2E2E2E2E2E2E2E2E2E2E2E2E2E2E2E2E2E2E2
310
E2E2E2E2E2E2E2E2E2E2E2F5E2E2E2F5E2CDF5E2F5E2E2E2F5E2E2E2E2E2E2E2E2E2E2E2E2E2E2E2E2E2E2E2E2E2E2E2E2E2E2E2E2E2E2E2E2E2E2E2E2E2E2E2E2E2E2E2E2E2E2E2E2E2E2E2E2E2E2E2E2E2E2E2E2E2E2E2E2E2E2E2E2E2E2E2E2E2E2E2E2E2E2E2E2E2E2E2E2E2E2E2E2E2E2E2E2E2E2F5E2E2E2F5E200F5
310
E2F5E2E2E2F5E2E2E2E2E2E2E2E2E2E2E2E2E2E2E2E2E2E2E2E2E2E2E2E2E2E2E2E2E2E2E2E2E2E2E2E2E2E2E2E2E2E2E2E2E2E2E2E2E2E2E2E2E2E2E2E2E2E2E2E2E2E2E2E2E2E2E2E2E2E2E2E2E2E2E2E2E2E2E2E2E2E2E2E2E2E2E2E2E2E2E2E2E2E2F5E2E2E2F5E2CDF5E2F5E2E2E2F5E2E2E2F5F5F5F5F5F5F5F5F5F5
310
F5F5F5F5F5F5F5F5F5F5F5F5F5F5F5F5F5F5F5F5F5F5F5F5F5F5F5F5F5F5F5F5F5F5F5F5F5F5F5F5F5F5F5F5F5F5F5F5F5F5F5F5E2E2E2E2E2E2E2E2E2E2E2E2E2E2E2E2E2E2E2E2E2E2E2E2E2E2E2E2E2F5E2E2E2F5E200F5E2E2E2E2E2F5E2E2E2F5F5E2E2E2E2E2E2E2E2E2F5E2E2E2E2E2E2E2E2F5E2E2E2E2E2F5E2F5
310
F5F5E2E2E2E2E2E2E2E2E2E2E2E2F5E2E2E2E2E2E2E2E2E2E2E2E2E2E2E2E2E2E2E2E2E2E2E2E2E2E2E2E2E2E2E2E2E2E2E2E2E2E2E2E2E2E2E2E2E2E2E2F5E2E2E2E2E2CDF5E2E2E2E2E2F5E2E2E2E2F5E2E2E2E2E2E2E2E2E2F5E2E2E2E2E2E2E2E2F5E2E2E2E2E2F5E2F5F5F5E2E2E2E2E2E2E2E2E2E2E2E2F5E2E2E2E2
310
E2E2E2E2E2F5F5F5F5F5F5F5F5F5F5F5F5F5E2E2E2E2E2E2E2E2E2E2E2E2E2E2E2E2E2E2E2E2E2E2E2E2E2F5E2E2E2E2E200F5E2E2E2E2E2F5E2E2E2E2F5E2E2E2E2E2E2E2E2E2F5E2E2E2E2E2E2E2E2F5E2E2E2E2E2F5E2F5F5F5E2E2E2E2E2E2E2E2E2E2E2E2F5E2E2E2E2E2E2E2E2E2E2E2E2E2E2E2E2E2E2E2E2E2E2E2
310
E2E2E2E2E2E2E2E2E2E2E2E2E2E2E2E2E2E2E2E2E2E2E2E2F5E2E2E2E2E2CDF5E2E2E2E2E2F5E2E2E2E2F5E2E2E2E2E2E2E2E2E2F5E2E2E2E2E2E2E2E2F5E2E2E2E2E2F5E2F5F5F5E2E2E2E2E2E2E2E2E2E2E2E2F5E2E2E2E2E2E2E2E2F5F5F5F5F5F5F5F5F5F5F5F5F5F5F5F5E2E2E2E2E2E2E2E2E2E2E2E2E2E2E2E2E2E2
310
E2E2E2E2E2F5E2E2E2E2E200F5E2E2E2E2E2F5E2E2E2E2F5E2E2E2E2E2E2E2E2E2F5E2E2E2E2E2E2E2E2F5E2E2E2E2E2F5E2F5F5F5E2E2E2E2E2E2E2E2E2E2E2E2F5E2E2E2E2E2E2E2E2F5F5F5F5F5F5F5F5F5F5F5F5F5F5F5F5E2E2E2E2E2E2E2E2E2E2E2E2E2E2E2E2E2E2E2E2E2E2E2F5E2E2E2E2E2CDF5E2E2E2E2E2F5
310
E2E2E2E2F5E2E2E2E2E2E2E2E2E2F5E2E2E2E2E2E2E2E2F5E2E2E2E2E2F5E2F5F5F5E2E2E2E2E2E2E2E2E2E2E2E2F5E2E2E2E2E2E2E2E2F5F5F5F5F5F5F5F5F5F5F5F5F5F5F5F5E2E2E2E2E2E2E2E2E2E2E2E2E2E2E2E2E2E2E2E2E2E2E2F5E2E2E2E2E200F5E2E2E2E2E2F5E2E2E2E2F5E2E2E2E2E2E2E2E2E2F5E2E2E2E2
310
E2E2E2E2F5E2E2E2E2E2F5E2F5F5F5E2E2E2E2E2E2E2E2E2E2E2E2F5E2E2E2E2E2E2E2E2F5E2F5F5F5E2E2F5E2E2F5F5F5E2E2F5E2E2E2E2E2E2E2E2E2E2E2E2E2E2E2E2E2E2E2E2E2E2E2F5E2E2E2E2E2CDF5E2E2E2E2E2F5E2E2E2E2F5E2E2E2E2E2E2E2E2E2F5E2E2E2E2E2E2E2E2F5E2E2E2E2E2F5E2F5F5F5E2E2E2E2
310
E2E2E2E2E2E2E2E2F5E2E2E2E2E2E2E2E2F5F5F5F5F5F5F5F5F5F5F5F5F5F5F5F5E2E2E2E2E2E2E2E2E2E2E2E2E2E2E2E2E2E2E2E2E2E2E2F5E2E2E2E2E200F5E2E2E2E2E2F5E2E2E2E2F5E2E2E2E2E2E2E2E2E2F5E2E2E2E2E2E2E2E2F5E2E2E2E2E2F5E2F5F5F5E2E2E2E2E2E2E2E2E2E2E2E2F5E2E2E2E2E2E2E2E2F5E2
310
F5F5F5E2E2F5E2F5F5F5F5F5E2F5E2E2E2E2E2E2E2E2E2E2E2E2E2E2E2E2E2E2E2E2E2E2E2F5E2E2E2E2E2CDF5E2E2E2E2E2F5E2E2E2E2F5E2E2E2E2E2E2E2E2E2F5E2E2E2E2E2E2E2E2F5E2E2E2E2E2F5E2F5F5F5E2E2E2E2E2E2E2E2E2E2E2E2F5E2E2E2E2E2E2E2E2F5E2E2E2E2E2E2F5E2E2E2E2E2E2E2F5E2E2E2E2E2
310
E2E2E2E2E2E2E2E2E2E2E2E2E2E2E2E2E2E2F5E2E2E2E2E200F5E2F5E2E2E2F5E2E2E2E2F5E2E2E2E2E2E2E2E2E2F5E2E2E2E2E2E2E2E2F5E2E2E2E2E2F5E2F5F5F5E2E2E2E2E2E2E2E2E2E2E2E2F5E2E2E2E2E2E2E2E2F5F5F5F5F5F5F5F5F5F5F5F5F5F5F5F5E2E2E2E2E2E2E2E2E2E2E2E2E2E2E2E2E2E2E2E2E2E2E2F5
310
E2E2E2F5E2CDF5E2F5E2E2E2F5E2E2E2E2F5E2E2E2E2E2E2E2E2E2F5E2E2E2E2E2E2E2E2F5E2E2E2E2E2F5E2F5F5F5E2E2E2E2E2E2E2E2E2E2E2E2F5E2E2E2E2E2E2E2E2F5E2F5F5F5F5F5F5F5F5F5F5F5E2E2F5E2E2E2E2E2E2E2E2E2E2E2E2E2E2E2E2E2E2E2E2E2E2E2F5E2E2E2F5E200F5E2F5E2E2E2F5E2E2E2E2F5E2
310
E2E2E2E2E2E2E2E2F5E2E2E2E2E2E2E2E2F5E2E2E2E2E2F5E2F5F5F5E2E2E2E2E2E2E2E2E2E2E2E2F5E2E2E2E2E2E2E2E2F5E2E2F5F5F5F5F5F5F5F5F5E2E2E2F5E2E2E2E2E2E2E2E2E2E2E2E2E2E2E2E2E2E2E2E2E2E2E2F5E2E2E2F5E2CDF5E2F5E2E2E2F5E2E2E2E2F5E2E2E2E2E2E2E2E2E2F5E2E2E2E2E2E2E2E2F5E2
310
E2E2E2E2F5E2F5F5F5E2E2E2E2E2E2E2E2E2E2E2E2F5E2E2E2E2E2E2E2E2F5E2E2E2E2E2E2E2E2E2E2E2E2E2E2F5E2E2E2E2E2E2E2E2E2E2E2E2E2E2E2E2E2E2E2E2E2E2E2F5E2E2E2F5E200F5E2F5E2E2E2F5E2E2E2E2F5E2E2E2E2E2E2E2E2E2F5E2E2E2E2E2E2E2E2F5E2E2E2E2E2F5E2F5F5F5E2E2E2E2E2E2E2E2E2E2
310
E2E2F5E2E2E2E2E2E2E2E2F5F5F5F5F5F5F5F5F5F5F5F5F5F5F5F5E2E2E2E2E2E2E2E2E2E2E2E2E2E2E2E2E2E2E2E2E2E2E2F5E2E2E2F5E2CDF5E2F5E2E2E2F5E2E2E2E2F5E2E2E2E2E2E2E2E2E2F5E2E2E2E2E2E2E2E2F5E2E2E2E2E2F5E2F5F5F5E2E2E2E2E2E2E2E2E2E2E2E2F5E2E2E2E2E2E2E2E2E2E2E2E2E2E2E2E2
310
E2E2E2E2E2E2E2E2E2E2E2E2E2E2E2E2E2E2E2E2E2E2E2E2E2E2E2E2E2E2E2F5E2E2E2F5E200F5E2F5E2E2E2F5E2E2E2E2F5E2E2E2E2E2E2E2E2E2F5E2E2E2E2E2E2E2E2F5E2E2E2E2E2F5E2F5F5F5E2E2E2E2E2E2E2E2E2E2E2E2F5E2E2E2E2E2E2E2E2E2E2E2E2E2E2E2E2E2E2E2E2E2E2E2E2E2E2E2E2E2E2E2E2E2E2E2
310
E2E2E2E2E2E2E2E2E2E2E2E2F5E2E2E2F5E2CDF5E2F5E2E2E2F5E2E2E2E2F5E2E2E2E2E2E2E2E2E2F5E2E2E2E2E2E2E2E2F5E2E2E2E2E2F5E2F5F5F5E2E2E2E2E2E2E2E2E2E2E2E2F5E2E2E2E2E2E2E2E2E2E2E2E2E2E2E2E2E2E2E2E2E2E2E2E2E2E2E2E2E2E2E2E2E2E2E2E2E2E2E2E2E2E2E2E2E2E2E2F5E2E2E2F5E200
310
F5E2F5E2E2E2F5E2E2E2E2F5E2E2E2E2E2E2E2E2E2F5E2E2E2E2E2E2E2E2F5E2E2E2E2E2F5E2F5F5F5E2E2E2E2E2E2E2E2E2E2E2E2F5E2E2E2E2E2E2E2E2E2E2E2E2E2E2E2E2F5F5F5F5F5F5F5F5F5F5F5F5F5F5F5F5F5F5F5F5F5F5F5E2E2E2E2E2E2E2E2F5E2E2E2F5E2CDF5E2F5E2E2E2F5E2E2E2E2F5E2E2E2E2E2E2E2
310
E2E2F5E2E2E2E2E2E2E2E2F5E2E2E2E2E2F5E2F5F5F5E2E2E2E2E2E2E2F5F5F5F5F5F5F5F5F5F5E2E2E2E2E2E2E2E2E2E2E2E2F5F5F5F5F5F5F5F5F5F5F5F5F5F5F5F5F5F5F5F5F5F5E2E2E2E2E2E2E2E2E2F5E2E2E2F5E200F5E2F5E2E2E2F5E2E2E2E2F5E2E2E2E2E2E2E2E2E2F5E2E2E2E2E2E2E2E2F5E2E2E2E2E2F5E2
310
F5F5F5E2E2E2E2E2E2E2F5F5F5F5F5F5F5F5F5E2E2E2E2E2E2E2E2E2E2E2E2E2E2E2E2E2F5F5F5F5F5F5F5F5F5F5F5F5E2E2E2E2E2E2E2E2E2E2E2E2E2E2E2F5E2E2E2F5E2CDF5E2F5E2E2E2F5F5F5F5F5F5F5F5F5E2E2E2E2E2E2F5E2E2E2E2E2E2E2E2F5E2E2E2E2E2F5E2F5F5F5E2E2E2E2E2E2E2E2E2E2E2E2F5E2E2E2
310
E2E2E2E2E2E2E2E2E2E2E2E2E2E2E2E2E2F5F5F5F5F5F5F5F5F5F5F5E2E2E2E2E2E2E2E2E2E2E2E2E2E2E2E2F5E2E2E2F5E200F5E2F5E2E2E2F5E2F5F5F5F5F5E2E2E2E2F5F5F5F5F5F5F5F5E2E2E2F5F5F5F5E2E2E2E2F5E2F5F5F5E2E2E2E2E2E2E2E2E2E2E2E2F5E2E2E2E2E2E2E2E2E2E2E2E2E2E2E2E2E2E2E2E2E2E2
310
E2E2E2E2E2E2E2E2E2E2E2E2E2E2E2E2E2E2E2E2E2E2E2E2E2F5E2E2E2F5E2CDF5E2F5E2E2E2F5E2E2E2E2F5E2E2E2E2E2E2E2F5F5F5F5E2E2E2E2E2F5F5F5F5E2E2E2E2F5E2F5F5F5E2E2E2E2E2E2E2E2E2E2E2E2F5E2E2E2E2E2E2E2E2E2E2E2E2E2E2E2E2F5F5F5E2E2E2E2E2E2E2E2E2E2E2E2E2E2E2E2E2E2E2E2E2E2
310
E2E2E2E2E2E2F5E2E2E2F5E200F5E2F5E2E2E2F5E2E2E2E2F5E2E2E2E2F5F5F5F5F5F5F5F5F5F5E2E2E2E2F5E2E2E2E2E2F5E2F5F5F5E2E2E2E2E2E2E2E2E2E2E2E2F5E2E2E2E2E2E2E2E2E2E2E2E2E2E2E2E2E2F5F5E2E2E2E2E2E2E2E2E2E2E2E2E2E2E2E2E2E2E2E2E2E2E2E2E2E2E2E2F5E2E2E2F5E2CDF5E2F5E2E2E2
310
F5E2E2E2E2F5E2E2E2E2E2E2E2E2E2E2E2E2E2E2E2E2E2E2F5E2E2E2E2E2F5E2F5F5F5E2E2E2E2E2E2E2E2E2E2E2E2F5E2E2E2E2E2E2E2E2E2E2E2E2E2E2E2E2F5F5F5E2E2E2E2E2E2E2E2E2E2E2E2E2E2E2E2E2E2E2E2E2E2E2E2E2E2E2E2F5E2E2E2F5E200F5E2F5E2E2E2F5E2E2E2E2F5E2E2E2E2E2E2E2E2E2F5E2E2E2
310
E2E2E2E2E2F5E2E2E2E2E2F5E2F5F5F5E2E2E2E2E2E2E2E2E2E2E2E2F5E2E2E2E2E2E2E2E2E2E2E2E2E2E2E2E2E2F5F5F5E2E2E2E2E2E2E2E2E2E2E2E2E2E2E2E2E2E2E2E2E2E2E2E2E2E2E2F5E2E2E2F5E2CDF5E2E2E2E2E2F5E2E2E2E2F5E2E2E2E2E2E2E2E2E2F5E2E2E2E2E2E2E2E2F5E2E2E2E2E2F5E2F5F5F5E2E2E2
310
E2E2E2E2E2E2E2E2E2F5E2E2E2E2E2E2E2E2E2E2E2E2E2E2E2E2F5F5F5F5F5E2E2E2E2E2E2E2E2E2E2E2E2E2E2E2E2E2E2E2E2E2E2E2E2E2E2F5E2E2E2E2E200F5E2E2E2E2E2F5E2E2E2E2F5E2E2E2E2E2E2E2E2E2F5E2E2E2E2E2E2E2E2F5E2E2E2E2E2F5E2F5F5F5E2E2E2E2E2E2E2E2E2E2E2E2F5E2E2E2E2E2E2E2E2E2
310
E2E2E2E2E2E2E2E2F5F5F5F5F5E2E2E2E2E2E2E2E2E2E2E2E2E2E2E2E2E2E2E2E2E2E2E2E2E2F5E2E2E2E2E2CDF5E2E2E2E2E2F5E2E2E2E2F5E2E2E2E2E2E2E2E2E2F5E2E2E2E2E2E2E2E2F5E2E2E2E2E2F5E2F5F5F5E2E2E2E2E2E2E2E2E2E2E2E2F5E2E2E2E2E2E2E2E2E2E2E2E2E2E2E2E2E2F5F5E2F5F5F5F5E2E2E2E2
310
E2E2E2E2E2E2E2E2E2E2E2E2E2E2E2E2E2E2E2F5E2E2E2E2E200F5E2E2E2E2E2F5E2E2E2E2F5E2E2E2E2E2E2E2E2E2F5E2E2E2E2E2E2E2E2F5E2E2E2E2E2F5E2F5F5F5E2E2E2E2E2E2E2E2E2E2E2E2F5E2E2E2E2E2E2E2E2E2E2E2E2E2E2E2E2E2F5F5E2F5F5F5F5E2E2E2E2E2E2E2E2E2E2E2E2E2E2E2E2E2E2E2E2E2E2E2
310
F5E2E2E2E2E2CDF5E2E2E2E2E2F5E2E2E2E2F5E2E2E2E2E2E2E2E2E2F5E2E2E2E2E2E2E2E2F5E2E2E2E2E2F5E2F5F5F5E2E2E2E2E2E2E2E2E2E2E2E2F5E2E2E2E2E2E2E2E2E2E2E2E2E2E2E2F5F5F5F5F5F5F5F5F5F5F5F5E2E2E2E2E2E2E2E2E2E2E2E2E2E2E2E2E2E2E2E2F5E2E2E2E2E200F5E2E2E2E2E2F5E2E2E2E2F5
310
E2E2E2E2E2E2E2E2E2F5E2E2E2E2E2E2E2E2F5E2E2E2E2E2F5E2F5F5F5E2E2E2E2E2E2E2E2E2E2E2E2F5E2E2E2E2E2E2E2E2E2E2E2E2E2E2E2F5F5F5F5F5F5F5F5F5F5F5F5E2E2E2E2E2E2E2E2E2E2E2E2E2E2E2E2E2E2E2E2F5E2E2E2E2E2CDF5E2E2E2E2E2F5E2E2E2E2F5E2E2E2E2E2E2E2E2E2F5E2E2E2E2E2E2E2E2F5
310
E2E2E2E2E2F5E2F5F5F5E2E2E2E2E2E2E2E2E2E2E2E2F5E2E2E2E2E2E2E2E2E2E2E2E2E2E2E2E2E2E2E2E2F5F5E2E2E2F5E2E2E2E2E2E2E2E2E2E2E2E2E2E2E2E2E2E2E2E2E2F5E2E2E2E2E200F5E2E2E2E2E2F5E2E2E2E2F5E2E2E2E2E2E2E2E2E2F5E2E2E2E2E2E2E2E2F5E2E2E2E2E2F5E2F5F5F5E2E2E2E2E2E2E2E2E2
310
E2E2E2F5E2E2E2E2E2E2E2E2E2E2E2E2E2E2E2E2E2E2E2E2E2E2E2E2E2F5E2F5F5F5F5F5F5F5F5F5F5F5E2E2E2E2E2E2E2E2E2F5E2E2E2E2E2CDF5E2E2E2E2E2F5E2E2E2E2F5E2E2E2E2E2E2E2E2E2F5E2E2E2E2E2E2E2E2F5E2E2E2E2E2F5E2F5F5F5E2E2E2E2E2E2E2E2E2E2E2E2F5E2E2E2E2E2E2E2E2E2E2E2E2E2E2E2
310
E2E2E2E2E2E2E2E2E2E2E2F5F5F5F5F5F5F5F5F5F5F5F5F5F5F5F5F5F5F5F5E2F5E2E2E2E2E200F5E2F5E2E2E2F5E2E2E2E2F5E2E2E2E2E2E2E2E2E2F5E2E2E2E2E2E2E2E2F5E2E2E2E2E2F5E2F5F5F5E2E2E2E2E2E2E2E2E2E2E2E2F5E2E2E2E2E2E2E2E2E2E2E2E2E2E2E2E2E2E2E2E2E2E2E2E2E2E2F5F5E2E2E2E2E2E2
310
E2E2E2E2E2E2E2E2E2E2E2E2E2F5E2E2E2F5E2CDF5E2F5E2E2E2F5E2E2E2E2F5E2E2E2E2E2E2E2E2E2F5E2E2E2E2E2E2E2E2F5E2E2E2E2E2F5E2F5F5F5E2E2E2E2E2E2E2E2E2E2E2E2F5E2E2E2E2E2E2E2E2E2E2E2E2E2E2E2E2E2E2E2E2E2E2E2E2E2E2E2E2E2E2E2E2E2E2E2E2E2E2E2E2E2E2E2E2E2E2E2F5E2E2E2F5E2
310
00F5E2F5E2E2E2F5E2E2E2E2F5E2E2E2E2E2E2E2E2E2F5E2E2E2E2E2E2E2E2F5E2E2E2E2E2F5E2F5F5F5E2E2E2E2E2E2E2E2E2E2E2E2F5E2E2E2E2E2E2E2E2E2E2E2E2E2E2E2E2E2E2E2E2E2E2E2E2E2E2E2E2E2E2E2E2E2E2E2E2E2E2E2E2E2F5F5E2E2E2E2F5E2E2E2F5E2CDF5E2F5E2E2E2F5E2E2E2E2F5E2E2E2E2E2E2
310
E2E2E2F5E2E2E2E2E2E2E2E2F5E2E2E2E2E2F5E2F5F5F5F5F5F5F5F5F5F5F5F5F5F5F5F5E2E2E2E2E2E2E2E2E2E2E2E2E2E2E2E2E2E2E2E2E2E2E2E2E2E2E2E2E2E2E2E2E2E2E2E2E2E2E2E2E2F5F5F5F5F5F5F5E2E2E2F5E200F5E2F5E2E2E2F5E2E2E2E2F5E2E2E2E2E2E2E2E2E2F5E2E2E2E2E2E2E2E2F5E2E2E2E2E2F5
310
E2F5F5F5E2E2E2E2E2E2E2E2E2E2E2E2E2E2E2E2E2E2E2E2E2E2E2E2E2E2E2E2E2E2E2E2E2E2E2E2E2E2E2E2E2E2E2E2E2E2E2E2E2E2E2E2E2E2E2E2E2E2E2F5F5E2E2E2F5E2CDF5E2F5E2E2E2F5E2E2E2E2F5E2E2E2E2E2E2E2E2E2F5E2E2E2E2E2E2E2E2F5E2E2E2E2E2F5E2F5F5F5E2E2E2E2E2E2E2E2E2E2E2E2E2E2E2
310
E2E2E2F5F5F5F5F5F5F5F5F5F5F5F5F5F5F5F5F5E2E2E2E2E2E2E2E2E2E2E2E2E2E2E2E2E2E2E2E2E2E2E2E2F5F5E2E2E2F5E200F5E2F5E2E2E2F5E2E2E2E2F5E2E2E2E2E2E2E2E2E2F5E2E2E2E2E2E2E2E2F5E2E2E2E2E2F5E2F5F5F5F5F5F5F5F5F5F5F5F5F5F5F5F5F5F5F5F5F5E2F5F5F5F5F5F5F5F5F5F5F5F5F5F5F5
310
E2E2F5F5F5F5F5F5F5F5F5F5F5F5F5F5F5F5F5F5F5E2E2E2E2F5F5E2E2E2F5E2CDF5E2F5E2E2E2F5E2E2E2E2F5E2E2E2E2E2E2E2E2E2F5E2E2E2E2E2E2E2E2F5E2E2E2E2E2F5E2F5F5F5F5E2E2E2E2F5F5F5F5E2E2E2E2E2E2E2E2E2E2E2E2E2E2E2E2E2E2E2E2E2E2E2E2E2E2E2E2E2E2E2E2E2E2E2E2E2E2E2E2E2E2E2E2
310
E2F5E2E2E2E2F5F5E2E2E2F5E200F5E2F5E2E2E2F5E2E2E2E2F5E2E2E2E2E2E2E2E2E2F5E2E2E2E2E2E2E2E2F5E2E2E2E2E2F5E2F5E2F5F5E2E2E2E2F5F5F5F5F5F5F5F5F5F5E2E2E2E2E2E2E2E2E2E2E2E2E2E2E2E2E2E2E2E2E2E2E2E2E2E2E2E2E2E2E2E2E2E2E2E2E2E2E2F5E2E2E2E2F5F5E2E2E2F5E2CDF5E2F5E2E2
310
E2F5E2E2E2E2F5E2E2E2E2E2E2E2E2E2F5E2E2E2E2E2E2E2E2F5E2E2E2E2E2F5E2F5F5F5F5F5F5F5F5F5E2E2E2E2E2E2E2E2E2E2E2E2E2E2E2E2E2E2E2E2E2E2E2E2E2E2E2E2E2E2E2E2E2E2E2E2E2E2E2E2E2E2E2E2E2E2E2E2F5E2E2E2E2F5F5E2E2E2F5E200F5E2F5E2E2E2F5E2E2E2E2F5E2E2E2E2E2E2E2E2E2F5E2E2
310
E2E2E2E2E2E2F5E2E2E2E2E2F5E2F5F5F5E2F5F5E2E2E2E2E2E2E2E2E2E2E2E2E2E2E2E2E2E2E2E2E2E2E2E2E2E2E2E2E2E2E2E2E2E2E2E2E2E2E2E2E2E2E2E2E2E2E2E2E2E2E2F5E2E2E2E2F5F5E2E2E2F5E2CDF5E2F5E2E2E2F5E2E2E2E2F5E2E2E2E2E2E2E2E2E2F5E2E2E2E2E2E2E2E2F5F5F5F5F5F5F5F5F5F5F5F5F5
310
F5F5F5F5F5F5F5F5F5F5F5F5F5F5F5F5F5F5F5F5F5F5F5F5F5F5F5F5F5F5F5F5F5F5F5F5F5F5F5F5F5F5F5F5F5F5F5F5F5F5F5F5F5E2F5E2E2F5F5E2E2E2F5E200F5E2F5E2E2E2F5E2E2E2E2F5E2E2E2E2E2E2E2E2E2F5F5F5F5F5F5F5F5F5F5F5F5F5F5F5F5F5F5F5F5F5F5F5F5F5F5F5F5F5F5F5F5F5F5F5F5F5F5F5F5F5
310
F5F5F5F5F5F5F5F5F5F5F5F5F5F5F5F5F5F5F5F5F5F5F5F5F5F5F5F5F5F5F5F5F5F5F5F5F5E2F5F5E2E2E2F5E2CDF5E2F5E2E2E2F5E2E2E2F5F5E2E2E2E2E2E2E2E2E2E2E2E2E2E2E2E2E2E2F5E2E2E2E2E2F5F5F5F5F5F5F5F5F5F5F5F5F5F5F5F5F5F5F5F5F5F5F5F5F5F5F5F5F5F5F5F5F5F5F5F5F5F5F5F5F5F5F5F5F5
310
F5F5F5F5F5F5F5F5F5F5F5F5F5F5F5F5F5E2E2F5F5E2E2E2F5E200F5E2F5E2E2E2F5E2E2E2E2F5E2E2E2E2E2E2E2E2E2E2E2E2E2E2E2E2E2E2F5E2E2E2E2E2F5F5F5E2F5F5E2F5F5E2E2E2E2E2E2E2E2E2E2E2E2E2E2E2E2E2E2E2E2E2F5F5E2E2E2E2E2E2E2E2E2E2E2E2E2E2E2E2E2E2E2E2E2E2E2E2E2F5F5E2E2E2E2E2
310
F5F5E2E2E2F5E2CDF5E2F5E2E2E2F5E2E2E2F5F5F5F5F5F5F5F5F5F5F5F5F5F5F5F5F5F5F5F5F5F5F5F5F5F5F5F5F5F5F5F5F5F5F5F5F5F5F5F5F5F5F5F5F5F5F5F5F5F5F5F5F5F5F5F5F5F5F5F5F5F5F5F5F5F5F5F5F5F5F5F5F5F5F5F5F5F5F5F5F5F5F5F5F5F5F5F5E2E2F5F5E2E2E2F5E200F5E2F5E2E2E2F5E2E2E2E2
310
E2E2E2E2E2E2E2E2E2E2E2E2E2E2E2E2E2E2E2F5E2E2E2E2E2F5F5F5F5F5F5F5F5F5F5F5F5F5F5F5F5F5F5F5F5F5F5F5F5F5F5F5F5F5F5F5F5F5F5F5F5F5F5F5F5F5F5F5F5F5F5F5F5F5F5F5F5F5F5F5F5F5F5F5F5F5F5E2E2F5F5E2E2E2F5E2CDF5E2E2E2E2E2F5E2E2E2E2E2E2E2E2E2E2E2E2E2E2E2E2E2E2E2E2E2E2E2
310
F5E2E2E2E2E2E2E2E2E2E2E2F5F5F5F5F5F5F5F5F5F5F5F5F5F5F5F5E2E2E2E2E2E2E2E2E2E2E2E2E2E2E2E2E2E2E2E2E2E2E2E2E2E2E2E2E2E2E2E2E2E2E2E2E2E2E2E2E2E2F5F5E2E2E2E2E200F5E2E2E2E2E2F5E2E2E2E2E2E2E2E2E2E2E2E2E2E2E2E2E2E2E2E2E2E2E2F5E2E2E2E2E2E2E2E2E2E2E2E2E2E2E2E2E2E2
310
E2E2E2E2E2E2E2E2E2E2E2E2E2E2E2E2E2E2E2E2E2E2E2E2E2E2E2E2E2E2E2E2E2E2E2E2E2E2E2E2E2E2E2E2E2E2E2E2E2E2E2F5F5E2E2E2E2E2CDF5E2E2E2E2E2F5E2E2E2E2E2E2E2E2E2E2E2E2E2E2E2E2E2E2E2E2E2E2E2F5E2E2E2E2E2E2E2E2E2E2E2E2E2E2E2E2E2E2E2E2E2E2E2E2E2E2E2E2E2E2E2E2E2E2E2E2E2
310
E2E2E2E2E2E2E2E2E2E2E2E2E2E2E2E2E2E2E2E2E2E2E2E2E2E2E2F5F5E2E2E2F5F5E2E2E2E2E200F5E2E2E2E2E2F5E2E2E2E2E2E2E2E2E2E2E2E2E2E2E2E2E2E2E2E2E2E2E2F5E2E2E2E2E2E2E2E2E2E2E2E2E2E2E2E2E2E2E2E2E2E2E2E2E2E2E2E2E2E2E2E2E2E2E2E2E2E2E2E2E2E2E2E2E2E2E2E2E2E2E2E2E2E2E2E2
310
E2E2E2E2E2E2E2E2F5F5F5F5F5F5F5E2E2E2E2E2CDF5E2E2E2E2E2F5E2E2E2E2E2E2E2E2E2E2E2E2E2E2E2E2E2E2E2E2E2E2E2F5F5F5F5F5F5F5E2E2E2E2E2E2E2E2E2E2E2E2E2E2E2E2E2E2E2E2E2E2E2E2E2E2E2E2E2E2E2E2E2E2E2E2E2E2E2E2E2E2E2E2E2E2E2E2E2E2E2E2E2E2E2E2E2E2E2E2E2E2E2E2F5E2E2E2E2
310
E200F5E2E2E2E2E2F5E2E2E2E2E2E2E2E2E2E2E2E2E2E2E2E2E2E2E2E2E2E2E2F5F5F5F5F5F5F5E2E2E2E2E2E2E2E2E2E2E2E2E2E2E2E2E2E2E2E2E2E2E2E2E2E2E2E2E2E2E2E2E2E2E2E2E2E2E2E2E2E2E2E2E2E2E2E2E2E2E2E2E2E2E2E2E2E2E2E2E2E2E2E2F5E2E2E2E2E2CDF5E2E2E2E2E2F5E2E2E2E2E2E2E2E2E2E2
310
E2E2E2E2E2E2E2E2E2E2E2E2E2F5F5F5F5F5F5F5E2E2E2E2E2E2E2E2E2E2E2E2E2E2E2E2E2E2E2E2E2E2E2E2E2E2E2E2E2E2E2E2E2E2E2E2E2E2E2E2E2E2E2E2E2E2E2E2E2E2E2E2E2E2E2E2E2E2E2E2E2E2E2E2F5E2E2E2E2E200F5E2E2E2E2E2F5E2E2E2E2E2E2E2E2E2E2E2E2E2E2E2E2E2E2E2E2E2E2E2E2E2E2E2E2E2
310
E2E2E2E2E2E2E2E2E2E2E2E2E2E2E2E2E2E2E2E2E2E2E2E2E2E2E2E2E2E2E2E2E2E2E2E2E2E2E2E2E2E2E2E2E2E2E2E2E2E2E2E2E2E2E2E2E2E2E2E2E2E2E2E2E2F5E2E2E2E2E200F5E2E2E2E2E2F5E2E2E2E2E2E2E2E2E2E2E2E2E2E2E2E2E2E2E2E2E2E2E2E2E2E2E2E2E2E2E2E2E2E2E2E2E2E2E2E2E2E2E2E2E2E2E2E2
310
E2E2E2E2E2E2E2E2E2E2E2E2E2E2E2E2E2E2E2E2E2E2E2E2E2E2E2E2E2E2E2E2E2E2E2E2E2E2E2E2E2E2E2E2E2E2F5E2E2E2E2E200F5E2E2E2E2E2F5E2E2E2E2E2E2E2E2E2E2E2E2E2E2E2E2E2E2E2E2E2E2E2E2E2E2E2E2E2E2E2E2E2E2E2E2E2E2E2E2E2E2E2E2E2E2E2E2E2E2E2E2E2E2E2E2E2E2E2E2E2E2E2E2E2E2E2
310
E2E2E2E2E2E2E2E2E2E2E2E2E2E2E2E2E2E2E2E2E2E2E2E2E2E2E2F5E2E2E2E2E2CDF5E2F5E2E2E2F5E2E2E2E2E2E2E2E2E2E2E2E2E2E2E2E2E2E2E2E2E2E2E2E2E2E2E2E2E2E2E2E2E2E2E2E2E2E2E2E2E2E2E2E2E2E2E2E2E2E2E2E2E2E2E2E2E2E2E2E2E2E2E2E2E2E2E2E2E2E2E2E2E2E2E2E2E2E2E2E2E2E2E2E2E2E2
310
E2E2E2E2E2E2E2E2F5E2E2E2F5E200F5E2F5E2E2E2F5E2E2E2E2E2E2E2E2E2E2E2E2E2E2E2E2E2E2E2E2E2E2E2E2E2E2E2E2E2E2E2E2E2E2E2E2E2E2E2E2E2E2E2E2E2E2E2E2E2E2E2E2E2E2E2E2E2E2E2E2E2E2E2E2E2E2E2E2E2E2E2E2E2E2E2E2E2E2E2E2E2E2E2E2E2E2E2E2E2E2E2E2E2E2F5E2E2E2F5E2CDF5E2F5E2
310
E2E2F5E2E2E2E2E2E2E2E2E2E2E2E2E2E2E2E2E2E2E2E2E2E2E2E2E2E2E2E2E2E2E2E2E2E2E2E2E2E2E2E2E2E2E2E2E2E2E2E2E2E2E2E2E2E2E2E2E2E2E2E2E2E2E2E2E2E2E2E2E2E2E2E2E2E2E2E2E2E2E2E2E2E2E2E2E2E2E2E2E2E2E2E2E2E2F5E2E2E2F5E200F5E2F5E2E2E2F5E2E2E2E2E2E2E2E2E2E2E2E2E2E2E2E2
310
E2E2E2E2E2E2E2E2E2E2E2E2E2E2E2E2E2E2E2E2E2E2E2E2E2E2E2E2E2E2E2E2E2E2E2E2E2E2E2E2E2E2E2E2E2E2E2E2E2E2E2E2E2E2E2E2E2E2E2E2E2E2E2E2E2E2E2E2E2E2E2E2E2E2E2E2E2E2F5E2E2E2F5E2CDF5E2F5E2E2E2F5E2E2E2E2E2E2E2E2E2E2E2E2E2E2E2E2E2E2E2E2E2E2E2E2E2E2E2E2E2E2E2E2E2E2E2
310
E2E2E2E2E2E2E2E2E2E2E2E2E2E2E2E2E2E2E2E2E2E2E2E2E2E2E2E2E2E2E2E2E2E2E2E2E2E2E2E2E2E2E2E2E2E2E2E2E2E2E2E2E2E2E2E2E2E2E2F5E2E2E2F5E200F5E2F5E2E2E2F5E2E2E2E2E2E2E2E2E2E2E2E2E2E2E2E2E2E2E2E2E2E2E2E2E2E2E2E2E2E2E2E2E2E2E2E2E2E2E2E2E2E2E2E2E2E2E2E2E2E2E2E2E2E2
310
E2E2E2E2E2E2E2E2E2E2E2E2E2E2E2E2E2E2E2E2E2E2E2E2E2E2E2E2E2E2E2E2E2E2E2E2E2E2E2E2F5E2E2E2F5E2CDF5E2F5E2E2E2F5E2E2E2E2E2E2E2E2E2E2E2E2E2E2E2E2E2E2E2E2E2E2E2E2E2E2E2E2E2E2E2E2E2E2E2E2E2E2E2E2E2E2E2E2E2E2E2E2E2E2E2E2E2E2E2E2E2E2E2E2E2E2E2E2E2E2E2E2E2E2E2E2E2
310
E2E2E2E2E2E2E2E2E2E2E2E2E2E2E2E2E2E2E2E2E2F5E2E2E2F5E200F5E2F5E2E2E2F5E2E2E2E2E2E2E2E2E2E2E2E2E2E2E2E2E2E2E2E2E2E2E2E2E2E2E2E2E2E2E2E2E2E2E2E2E2E2E2E2E2E2E2E2E2E2E2E2E2E2E2E2E2E2E2E2E2E2E2E2E2E2E2E2E2E2E2E2E2E2E2E2E2E2E2E2E2E2E2E2E2E2E2E2E2E2E2E2E2E2E2E2
310
E2E2F5E2E2E2F5E2CDF5E2F5E2E2E2F5E2E2E2E2E2E2E2E2E2E2E2E2E2E2E2E2E2E2E2E2E2E2E2E2E2E2E2E2E2E2E2E2E2E2E2E2E2E2E2E2E2E2E2E2E2E2E2E2E2E2E2E2E2E2E2E2E2E2E2E2E2E2E2E2E2E2E2E2E2E2E2E2E2E2E2E2E2E2E2E2E2E2E2E2E2E2E2E2E2E2E2E2E2E2F5E2E2E2F5E200F5E2F5E2E2E2F5E2E2E2
310
E2E2E2E2E2E2E2E2E2E2E2E2E2E2E2E2E2E2E2E2E2E2E2E2E2E2E2E2E2E2E2E2E2E2E2E2E2E2E2E2E2E2E2E2E2E2E2E2E2E2E2E2E2E2E2E2E2E2E2E2E2E2E2E2E2E2E2E2E2E2E2E2E2E2E2E2E2E2E2E2E2E2E2E2E2E2E2E2E2E2E2F5E2E2E2F5E2CDF5E2F5E2E2E2F5E2E2E2E2E2E2E2E2E2E2E2E2E2E2E2E2E2E2E2E2E2E2
310
E2E2E2E2E2E2E2E2E2E2E2E2E2E2E2E2E2E2E2E2E2E2E2E2E2E2E2E2E2E2E2E2E2E2E2E2E2E2E2E2E2E2E2E2E2E2E2E2E2E2E2E2E2E2E2E2E2E2E2E2E2E2E2E2E2E2E2E2E2E2E2E2F5E2E2E2F5E200F5E2F5E2E2E2F5E2E2E2E2E2E2E2E2E2E2E2E2E2E2E2E2E2E2E2E2E2E2E2E2E2E2E2E2E2E2E2E2E2E2E2E2E2E2E2E2E2
310
E2E2E2E2E2E2E2E2E2E2E2E2E2E2E2E2E2E2E2E2E2E2E2E2E2E2E2E2E2E2E2E2E2E2E2E2E2E2E2E2E2E2E2E2E2E2E2E2E2E2E2E2E2F5E2E2E2F5E2CDF5E2F5E2E2E2F5E2E2E2E2E2E2E2E2E2E2E2E2E2E2E2E2E2E2E2E2E2E2E2E2E2E2E2E2E2E2E2E2E2E2E2E2E2E2E2E2E2E2E2E2E2E2E2E2E2E2E2E2E2E2E2E2E2E2E2E2
310
E2E2E2E2E2E2E2E2E2E2E2E2E2E2E2E2E2E2E2E2E2E2E2E2E2E2E2E2E2E2E2E2E2E2F5E2E2E2F5E200F5E2F5E2E2E2F5E2E2E2E2E2E2E2E2E2E2E2E2E2E2E2E2E2E2E2E2E2E2E2E2E2E2E2E2E2E2E2E2E2E2E2E2E2E2E2E2E2E2E2E2E2E2E2E2E2E2E2E2E2E2E2E2E2E2E2E2E2E2E2E2E2E2E2E2E2E2E2E2E2E2E2E2E2E2E2
310
E2E2E2E2E2E2E2E2E2E2E2E2E2E2E2F5E2E2E2F5E2CDF5E2F5E2E2E2F5E2E2E2E2E2E2E2E2E2E2E2E2E2E2E2E2E2E2E2E2E2E2E2E2E2E2E2E2E2E2E2E2E2E2E2E2E2E2E2E2E2E2E2E2E2E2E2E2E2E2E2E2E2E2E2E2E2E2E2E2E2E2E2E2E2E2E2E2E2E2E2E2E2E2E2E2E2E2E2E2E2E2E2E2E2E2E2E2E2E2E2E2E2E2F5E2E2E2
310
F5E200F5E2F5E2E2E2F5E2E2E2E2E2E2E2E2E2E2E2E2E2E2E2E2E2E2E2E2E2E2E2E2E2E2E2E2E2E2E2E2E2E2E2E2E2E2E2E2E2E2E2E2E2E2E2E2E2E2E2E2E2E2E2E2E2E2E2E2E2E2E2E2E2E2E2E2E2E2E2E2E2E2E2E2E2E2E2E2E2E2E2E2E2E2E2E2E2E2E2E2E2E2F5E2E2E2F5E2CDF5E2F5E2E2E2F5E2E2E2E2E2E2E2E2E2
310
E2E2E2E2E2E2E2E2E2E2E2E2E2E2E2E2E2E2E2E2E2E2E2E2E2E2E2E2E2E2E2E2E2E2E2E2E2E2E2E2E2E2E2E2E2E2E2E2E2E2E2E2E2E2E2E2E2E2E2E2E2E2E2E2E2E2E2E2E2E2E2E2E2E2E2E2E2E2E2E2E2E2E2E2E2F5E2E2E2F5E200F5E2E2E2E2E2F5E2E2E2E2E2E2E2E2E2E2E2E2E2E2E2E2E2E2E2E2E2E2E2E2E2E2E2E2
310
E2E2E2E2E2E2E2E2E2E2E2E2E2E2E2E2E2E2E2E2E2E2E2E2E2E2E2E2E2E2E2E2E2E2E2E2E2E2E2E2E2E2E2E2E2E2E2E2E2E2E2E2E2E2E2E2E2E2E2E2E2E2E2E2E2E2F5E2E2E2E2E2CDF5E2E2E2E2E2F5E2E2E2E2E2E2E2E2E2E2E2E2E2E2E2E2E2E2E2E2E2E2E2E2E2E2E2E2E2E2E2E2E2E2E2E2E2E2E2E2E2E2E2E2E2E2E2
310
E2E2E2E2E2E2E2E2E2E2E2E2E2E2E2E2E2E2E2E2E2E2E2E2E2E2E2E2E2E2E2E2E2E2E2E2E2E2E2E2E2E2E2E2E2E2E2F5E2E2E2E2E200F5E2E2E2E2E2F5F5F5F5F5F5F5F5F5F5F5F5F5F5F5F5F5F5F5F5F5F5F5F5F5F5F5F5F5F5F5F5F5F5F5F5F5F5F5F5F5F5F5F5F5F5F5F5F5F5F5F5F5F5F5F5F5F5F5F5F5F5F5F5F5F5F5
310
F5F5F5F5F5F5F5F5F5F5F5F5F5F5F5F5F5F5F5F5F5F5F5F5F5F5F5F5F5E2E2E2E2E2CDF5E2E2E2E2E2E2E2E2E2E2E2E2E2E2E2E2E2E2E2E2E2E2E2E2E2E2E2E2E2E2E2E2E2E2E2E2E2E2E2E2E2E2E2E2E2E2E2E2E2E2E2E2E2E2E2E2E2E2E2E2E2E2E2E2E2E2E2E2E2E2E2E2E2E2E2E2E2E2E2E2E2E2E2E2E2E2E2E2E2E2E2
310
E2E2E2E2E2E2E2E2E2E2E2E2E2E2E200F5E2E2E2E2E2E2E2E2E2E2E2E2E2E2E2E2E2E2E2E2E2E2E2E2E2E2E2E2E2E2E2E2E2E2E2E2E2E2E2E2E2E2E2E2E2E2E2E2E2E2E2E2E2E2E2E2E2E2E2E2E2E2E2E2E2E2E2E2E2E2E2E2E2E2E2E2E2E2E2E2E2E2E2E2E2E2E2E2E2E2E2E2E2E2E2E2E2E2E2E2E2E2E2E2E2E2CDF5E2E2
310
E2E2E2E2E2E2E2E2E2E2E2E2E2E2E2E2E2E2E2E2E2E2E2E2E2E2E2E2E2E2E2E2E2E2E2E2E2E2E2E2E2E2E2E2E2E2E2E2E2E2E2E2E2E2E2E2E2E2E2E2E2E2E2E2E2E2E2E2E2E2E2E2E2E2E2E2E2E2E2E2E2E2E2E2E2E2E2E2E2E2E2E2E2E2E2E2E2E2E2E2E2E2E2E200F5E2E2E2E2E2E2E2E2E2E2E2E2E2E2E2E2E2E2E2E2E2
310
E2E2E2E2E2E2E2E2E2E2E2E2E2E2E2E2E2E2E2E2E2E2E2E2E2E2E2E2E2E2E2E2E2E2E2E2E2E2E2E2E2E2E2E2E2E2E2E2E2E2E2E2E2E2E2E2E2E2E2E2E2E2E2E2E2E2E2E2E2E2E2E2E2E2E2E2E2E2E2E2E2E2E2E2E2CDF5E2E2E2E2E2E2E2E2E2E2E2E2E2E2E2E2E2E2E2E2E2E2E2E2E2E2E2E2E2E2E2E2E2E2E2E2E2E2E2E2
310
E2E2E2E2E2E2E2E2E2E2E2E2E2E2E2E2E2E2E2E2E2E2E2E2E2E2E2E2E2E2E2E2E2E2E2E2E2E2E2E2E2E2E2E2E2E2E2E2E2E2E2E2E2E2E2E2E2E2E2E2E2E2E2E2E2E200F5E2E2E2E2E2E2E2E2E2E2E2E2E2E2E2E2E2E2E2E2E2E2E2E2E2E2E2E2E2E2E2E2E2E2E2E2E2E2E2E2E2E2E2E2E2E2E2E2E2E2E2E2E2E2E2E2E2E2E2
310
E2E2E2E2E2E2E2E2E2E2E2E2E2E2E2E2E2E2E2E2E2E2E2E2E2E2E2E2E2E2E2E2E2E2E2E2E2E2E2E2E2E2E2E2E2E2E2CDF5E2E2E2E2E2E2E2E2E2E2E2E2E2E2E2E2E2E2E2E2E2E2E2E2E2E2E2E2E2E2E2E2E2E2E2E2E2E2E2E2E2E2E2E2E2E2E2E2E2E2E2E2E2E2E2E2E2E2E2E2E2E2E2E2E2E2E2E2E2E2E2E2E2E2E2E2E2E2
310
E2E2E2E2E2E2E2E2E2E2E2E2E2E2E2E2E2E2E2E2E2E2E2E2E2E2E2E200F5E2F5E2E2E2E2E2E2E2E2E2E2E2E2E2E2E2E2E2E2E2E2E2E2E2E2E2E2E2E2E2E2E2E2E2E2E2E2E2E2E2E2E2E2E2E2E2E2E2E2E2E2E2E2E2E2E2E2E2E2E2E2E2E2E2E2E2E2E2E2E2E2E2E2E2E2E2E2E2E2E2E2E2E2E2E2E2E2E2E2E2E2E2E2E2E2E2
310
E2E2E2E2E2E2E2F5E2CDF5E2F5E2E2E2E2E2E2E2E2E2E2E2E2E2E2E2E2E2E2E2E2E2E2E2E2E2E2E2E2E2E2E2E2E2E2E2E2E2E2E2E2E2E2E2E2E2E2E2E2E2E2E2E2E2E2E2E2E2E2E2E2E2E2E2E2E2E2E2E2E2E2E2E2E2E2E2E2E2E2E2E2E2E2E2E2E2E2E2E2E2E2E2E2E2E2E2E2E2E2E2E2E2E2F5E200F5E2F5E2E2E2E2E2E2
310
E2E2E2E2E2E2E2E2E2E2E2E2E2E2E2E2E2E2E2E2E2E2E2E2E2E2E2E2E2E2E2E2E2E2E2E2E2E2E2E2E2E2E2E2E2E2E2E2E2E2E2E2E2E2E2E2E2E2E2E2E2E2E2E2E2E2E2E2E2E2E2E2E2E2E2E2E2E2E2E2E2E2E2E2E2E2E2E2E2E2E2E2E2E2E2E2F5E2CDF5E2F5E2E2E2E2E2E2E2E2E2E2E2E2E2E2E2E2E2E2E2E2E2E2E2E2E2
310
E2E2E2E2E2E2E2E2E2E2E2E2E2E2E2E2E2E2E2E2E2E2E2E2E2E2E2E2E2E2E2E2E2E2E2E2E2E2E2E2E2E2E2E2E2E2E2E2E2E2E2E2E2E2E2E2E2E2E2E2E2E2E2E2E2E2E2E2E2E2E2E2E2E2E2E2E2F5E200F5E2F5E2E2E2E2E2E2E2E2E2E2E2E2E2E2E2E2E2E2E2E2E2E2E2E2E2E2E2E2E2E2E2E2E2E2E2E2E2E2E2E2E2E2E2E2
310
E2E2E2E2E2E2E2E2E2E2E2E2E2E2E2E2E2E2E2E2E2E2E2E2E2E2E2E2E2E2E2E2E2E2E2E2E2E2E2E2E2E2E2E2E2E2E2E2E2E2E2E2E2E2E2E2E2E2F5E2CDF5E2F5E2E2E2E2E2E2E2E2E2E2E2E2E2E2E2E2E2E2E2E2E2E2E2E2E2E2E2E2E2E2E2E2E2E2E2E2E2E2E2E2E2E2E2E2E2E2E2E2E2E2E2E2E2E2E2E2E2E2E2E2E2E2E2
310
E2E2E2E2E2E2E2E2E2E2E2E2E2E2E2E2E2E2E2E2E2E2E2E2E2E2E2E2E2E2E2E2E2E2E2E2E2E2E2F5E200F5E2F5E2E2E2E2E2E2E2E2E2E2E2E2E2E2E2E2E2E2E2E2E2E2E2E2E2E2E2E2E2E2E2E2E2E2E2E2E2E2E2E2E2E2E2E2E2E2E2E2E2E2E2E2E2E2E2E2E2E2E2E2E2E2E2E2E2E2E2E2E2E2E2E2E2E2E2E2E2E2E2E2E2E2
310
E2E2E2E2E2E2E2E2E2E2E2E2E2E2E2E2E2E2E2E2F5E2CDF5E2F5E2E2E2E2E2E2E2E2E2E2E2E2E2E2E2E2E2E2E2E2E2E2E2E2E2E2E2E2E2E2E2E2E2E2E2E2E2E2E2E2E2E2E2E2E2E2E2E2E2E2E2E2E2E2E2E2E2E2E2E2E2E2E2E2E2E2E2E2E2E2E2E2E2E2E2E2E2E2E2E2E2E2E2E2E2E2E2E2E2E2E2E2E2E2E2E2E2E2E2E2E2
310
E2F5E200F5E2F5F5F5F5F5F5F5F5F5E2E2E2E2E2E2E2E2E2F5F5F5F5F5F5F5F5F5F5F5F5F5F5F5F5E2E2E2E2E2E2E2E2E2E2F5F5F5F5F5F5F5F5F5F5F5F5F5F5F5F5E2E2E2E2E2E2E2E2E2E2F5F5F5F5F5F5F5F5F5F5F5F5F5F5F5F5E2E2E2E2E2E2E2E2E2F5F5F5F5F5F5F5F5F5E233F5E2E2E2E2E2E2E2E2E2E2E2E2E2E2
310
E2E2E2E2E2E2E2E2E2E2E2E2E2E2E2E2E2E2E2E2E2E2E2E2E2E2E2E2E2E2E2E2E2E2E2E2E2E2E2E2E2E2E2E2E2E2E2E2E2E2E2E2E2E2E2E2E2E2E2E2E2E2E2E2E2E2E2E2E2E2E2E2E2E2E2E2E2E2E2E2E2E2E2E2E2E2E2E2E2E2E2E20EF5F5F5F5F5F5F5F5F5F5F5F5F5F5F5F5F5F5F5F5F5F5F5F5F5F5F5F5F5F5F5F5F5F5
310
F5F5F5F5F5F5F5F5F5F5F5F5F5F5F5F5F5F5F5F5F5F5F5F5F5F5F5F5F5F5F5F5F5F5F5F5F5F5F5F5F5F5F5F5F5F5F5F5F5F5F5F5F5F5F5F5F5F5F5F5F5F5F5F5F5F5F5F5F5F5F5F5F500EFEFEFEFEFEFEFEFEFEFEFEFEFEFEFEFEFEFEFEFEFEFEFEFEFEFEFEFEFEFEFEFEFEFEFEFEFEFEFEFEFEFEFEFEFEFEFEFEFEFEFEFEF
310
EFEFEFEFEFEFEFEFEFEFEFEFEFEFEFEFEFEFEFEFEFEFEFEFEFEFEFEFEFEFEFEFEFEFEFEFEFEFEFEFEFEFEFEFEFEFEFEFEFEFEFEFEFEF00
  0
ENDSEC
  0
EOF
