  0
SECTION
  2
HEADER
  9
$ACADVER
  1
AC1021
  9
$ACADMAINTVER
 70
     1
  9
$DWGCODEPAGE
  3
ANSI_1252
  9
$LASTSAVEDBY
  1
RSutcliffe
  9
$INSBASE
 10
0.0
 20
0.0
 30
0.0
  9
$EXTMIN
 10
42.69685960945139
 20
100.9221659545217
 30
-0.0015258207003583
  9
$EXTMAX
 10
293.6887850050774
 20
275.2147829248429
 30
0.0000000349246037
  9
$LIMMIN
 10
0.0
 20
0.0
  9
$LIMMAX
 10
17.0
 20
11.0
  9
$ORTHOMODE
 70
     1
  9
$REGENMODE
 70
     1
  9
$FILLMODE
 70
     1
  9
$QTEXTMODE
 70
     0
  9
$MIRRTEXT
 70
     1
  9
$LTSCALE
 40
20.0
  9
$ATTMODE
 70
     1
  9
$TEXTSIZE
 40
2.0
  9
$TRACEWID
 40
0.05
  9
$TEXTSTYLE
  7
WEB PAGE
  9
$CLAYER
  8
0
  9
$CELTYPE
  6
BYLAYER
  9
$CECOLOR
 62
   256
  9
$CELTSCALE
 40
1.0
  9
$DISPSILH
 70
     0
  9
$DIMSCALE
 40
1.0
  9
$DIMASZ
 40
3.0
  9
$DIMEXO
 40
2.0
  9
$DIMDLI
 40
1.0
  9
$DIMRND
 40
0.0
  9
$DIMDLE
 40
0.0
  9
$DIMEXE
 40
1.0
  9
$DIMTP
 40
0.0
  9
$DIMTM
 40
0.0
  9
$DIMTXT
 40
1.75
  9
$DIMCEN
 40
1.0
  9
$DIMTSZ
 40
0.0
  9
$DIMTOL
 70
     0
  9
$DIMLIM
 70
     0
  9
$DIMTIH
 70
     1
  9
$DIMTOH
 70
     1
  9
$DIMSE1
 70
     0
  9
$DIMSE2
 70
     0
  9
$DIMTAD
 70
     0
  9
$DIMZIN
 70
     0
  9
$DIMBLK
  1

  9
$DIMASO
 70
     1
  9
$DIMSHO
 70
     1
  9
$DIMPOST
  1

  9
$DIMAPOST
  1

  9
$DIMALT
 70
     0
  9
$DIMALTD
 70
     2
  9
$DIMALTF
 40
25.4
  9
$DIMLFAC
 40
1.0
  9
$DIMTOFL
 70
     0
  9
$DIMTVP
 40
0.0
  9
$DIMTIX
 70
     0
  9
$DIMSOXD
 70
     0
  9
$DIMSAH
 70
     0
  9
$DIMBLK1
  1

  9
$DIMBLK2
  1

  9
$DIMSTYLE
  2
STANDARD
  9
$DIMCLRD
 70
     0
  9
$DIMCLRE
 70
     0
  9
$DIMCLRT
 70
     0
  9
$DIMTFAC
 40
1.0
  9
$DIMGAP
 40
1.0
  9
$DIMJUST
 70
     0
  9
$DIMSD1
 70
     0
  9
$DIMSD2
 70
     0
  9
$DIMTOLJ
 70
     1
  9
$DIMTZIN
 70
     0
  9
$DIMALTZ
 70
     0
  9
$DIMALTTZ
 70
     0
  9
$DIMUPT
 70
     0
  9
$DIMDEC
 70
     4
  9
$DIMTDEC
 70
     4
  9
$DIMALTU
 70
     2
  9
$DIMALTTD
 70
     2
  9
$DIMTXSTY
  7
WEB PAGE
  9
$DIMAUNIT
 70
     0
  9
$DIMADEC
 70
     0
  9
$DIMALTRND
 40
0.0
  9
$DIMAZIN
 70
     0
  9
$DIMDSEP
 70
    46
  9
$DIMATFIT
 70
     3
  9
$DIMFRAC
 70
     2
  9
$DIMLDRBLK
  1

  9
$DIMLUNIT
 70
     4
  9
$DIMLWD
 70
    -2
  9
$DIMLWE
 70
    -2
  9
$DIMTMOVE
 70
     0
  9
$DIMFXL
 40
1.0
  9
$DIMFXLON
 70
     0
  9
$DIMJOGANG
 40
0.7853981633974483
  9
$DIMTFILL
 70
     0
  9
$DIMTFILLCLR
 70
     0
  9
$DIMARCSYM
 70
     0
  9
$DIMLTYPE
  6

  9
$DIMLTEX1
  6

  9
$DIMLTEX2
  6

  9
$LUNITS
 70
     4
  9
$LUPREC
 70
     4
  9
$SKETCHINC
 40
0.1
  9
$FILLETRAD
 40
0.0
  9
$AUNITS
 70
     1
  9
$AUPREC
 70
     4
  9
$MENU
  1
acad
  9
$ELEVATION
 40
0.0
  9
$PELEVATION
 40
0.0
  9
$THICKNESS
 40
0.0
  9
$LIMCHECK
 70
     0
  9
$CHAMFERA
 40
0.0
  9
$CHAMFERB
 40
0.0
  9
$CHAMFERC
 40
0.0
  9
$CHAMFERD
 40
0.0
  9
$SKPOLY
 70
     0
  9
$TDCREATE
 40
2451029.636190972
  9
$TDUCREATE
 40
2451029.844524306
  9
$TDUPDATE
 40
2454105.483742222
  9
$TDUUPDATE
 40
2454105.692075556
  9
$TDINDWG
 40
3.0455465856
  9
$TDUSRTIMER
 40
3.0455465856
  9
$USRTIMER
 70
     1
  9
$ANGBASE
 50
0.0
  9
$ANGDIR
 70
     0
  9
$PDMODE
 70
     2
  9
$PDSIZE
 40
0.0
  9
$PLINEWID
 40
0.0
  9
$SPLFRAME
 70
     0
  9
$SPLINETYPE
 70
     6
  9
$SPLINESEGS
 70
     8
  9
$HANDSEED
  5
134B0
  9
$SURFTAB1
 70
     6
  9
$SURFTAB2
 70
     6
  9
$SURFTYPE
 70
     6
  9
$SURFU
 70
     6
  9
$SURFV
 70
     6
  9
$UCSBASE
  2

  9
$UCSNAME
  2

  9
$UCSORG
 10
0.0
 20
0.0
 30
0.0
  9
$UCSXDIR
 10
1.0
 20
0.0
 30
0.0
  9
$UCSYDIR
 10
0.0
 20
1.0
 30
0.0
  9
$UCSORTHOREF
  2

  9
$UCSORTHOVIEW
 70
     0
  9
$UCSORGTOP
 10
0.0
 20
0.0
 30
0.0
  9
$UCSORGBOTTOM
 10
0.0
 20
0.0
 30
0.0
  9
$UCSORGLEFT
 10
0.0
 20
0.0
 30
0.0
  9
$UCSORGRIGHT
 10
0.0
 20
0.0
 30
0.0
  9
$UCSORGFRONT
 10
0.0
 20
0.0
 30
0.0
  9
$UCSORGBACK
 10
0.0
 20
0.0
 30
0.0
  9
$PUCSBASE
  2

  9
$PUCSNAME
  2

  9
$PUCSORG
 10
0.0
 20
0.0
 30
0.0
  9
$PUCSXDIR
 10
1.0
 20
0.0
 30
0.0
  9
$PUCSYDIR
 10
0.0
 20
1.0
 30
0.0
  9
$PUCSORTHOREF
  2

  9
$PUCSORTHOVIEW
 70
     0
  9
$PUCSORGTOP
 10
0.0
 20
0.0
 30
0.0
  9
$PUCSORGBOTTOM
 10
0.0
 20
0.0
 30
0.0
  9
$PUCSORGLEFT
 10
0.0
 20
0.0
 30
0.0
  9
$PUCSORGRIGHT
 10
0.0
 20
0.0
 30
0.0
  9
$PUCSORGFRONT
 10
0.0
 20
0.0
 30
0.0
  9
$PUCSORGBACK
 10
0.0
 20
0.0
 30
0.0
  9
$USERI1
 70
     0
  9
$USERI2
 70
     0
  9
$USERI3
 70
     0
  9
$USERI4
 70
     0
  9
$USERI5
 70
     0
  9
$USERR1
 40
0.0
  9
$USERR2
 40
0.0
  9
$USERR3
 40
0.0
  9
$USERR4
 40
0.0
  9
$USERR5
 40
0.0
  9
$WORLDVIEW
 70
     1
  9
$SHADEDGE
 70
     3
  9
$SHADEDIF
 70
    70
  9
$TILEMODE
 70
     1
  9
$MAXACTVP
 70
    16
  9
$PINSBASE
 10
0.0
 20
0.0
 30
0.0
  9
$PLIMCHECK
 70
     0
  9
$PEXTMIN
 10
0.1725343329193563
 20
0.1527350014287716
 30
0.0
  9
$PEXTMAX
 10
7.970382266733001
 20
10.43127321094523
 30
0.0
  9
$PLIMMIN
 10
-0.1566242155846284
 20
-0.1325595626902465
  9
$PLIMMAX
 10
8.34337554411948
 20
10.86744019701386
  9
$UNITMODE
 70
     0
  9
$VISRETAIN
 70
     0
  9
$PLINEGEN
 70
     0
  9
$PSLTSCALE
 70
     1
  9
$TREEDEPTH
 70
  3020
  9
$CMLSTYLE
  2
STANDARD
  9
$CMLJUST
 70
     0
  9
$CMLSCALE
 40
1.0
  9
$PROXYGRAPHICS
 70
     1
  9
$MEASUREMENT
 70
     0
  9
$CELWEIGHT
370
    -1
  9
$ENDCAPS
280
     0
  9
$JOINSTYLE
280
     0
  9
$LWDISPLAY
290
     0
  9
$INSUNITS
 70
     1
  9
$HYPERLINKBASE
  1

  9
$STYLESHEET
  1

  9
$XEDIT
290
     1
  9
$CEPSNTYPE
380
     0
  9
$PSTYLEMODE
290
     1
  9
$FINGERPRINTGUID
  2
{EED38BEA-5B6B-467F-90D5-C3127D1C881D}
  9
$VERSIONGUID
  2
{B84D5C1E-A9D1-4AD7-A7AF-82D624DDB1C9}
  9
$EXTNAMES
290
     1
  9
$PSVPSCALE
 40
0.0
  9
$OLESTARTUP
290
     0
  9
$SORTENTS
280
    96
  9
$INDEXCTL
280
     0
  9
$HIDETEXT
280
     0
  9
$XCLIPFRAME
290
     0
  9
$HALOGAP
280
     0
  9
$OBSCOLOR
 70
   257
  9
$OBSLTYPE
280
     0
  9
$INTERSECTIONDISPLAY
280
     0
  9
$INTERSECTIONCOLOR
 70
   257
  9
$DIMASSOC
280
     1
  9
$PROJECTNAME
  1

  9
$CAMERADISPLAY
290
     0
  9
$LENSLENGTH
 40
50.0
  9
$CAMERAHEIGHT
 40
0.0
  9
$STEPSPERSEC
 40
2.0
  9
$STEPSIZE
 40
6.0
  9
$3DDWFPREC
 40
2.0
  9
$PSOLWIDTH
 40
0.25
  9
$PSOLHEIGHT
 40
4.0
  9
$LOFTANG1
 40
1.570796326794896
  9
$LOFTANG2
 40
1.570796326794896
  9
$LOFTMAG1
 40
0.0
  9
$LOFTMAG2
 40
0.0
  9
$LOFTPARAM
 70
     7
  9
$LOFTNORMALS
280
     1
  9
$LATITUDE
 40
37.795
  9
$LONGITUDE
 40
-122.394
  9
$NORTHDIRECTION
 40
0.0
  9
$TIMEZONE
 70
 -8000
  9
$LIGHTGLYPHDISPLAY
280
     1
  9
$TILEMODELIGHTSYNCH
280
     1
  9
$CMATERIAL
347
13361
  9
$SOLIDHIST
280
     1
  9
$SHOWHIST
280
     1
  9
$DWFFRAME
280
     2
  9
$DGNFRAME
280
     0
  9
$REALWORLDSCALE
290
     1
  9
$INTERFERECOLOR
 62
     1
  9
$INTERFEREOBJVS
345
1336E
  9
$INTERFEREVPVS
346
1336B
  9
$CSHADOW
280
     0
  9
$SHADOWPLANELOCATION
 40
0.0
  0
ENDSEC
  0
SECTION
  2
CLASSES
  0
CLASS
  1
DICTIONARYVAR
  2
AcDbDictionaryVar
  3
ObjectDBX Classes
 90
        0
 91
        3
280
     0
281
     0
  0
CLASS
  1
ACDBDICTIONARYWDFLT
  2
AcDbDictionaryWithDefault
  3
ObjectDBX Classes
 90
        0
 91
        1
280
     0
281
     0
  0
CLASS
  1
MATERIAL
  2
AcDbMaterial
  3
ObjectDBX Classes
 90
     1024
 91
        3
280
     0
281
     0
  0
CLASS
  1
VISUALSTYLE
  2
AcDbVisualStyle
  3
ObjectDBX Classes
 90
     4095
 91
       16
280
     0
281
     0
  0
CLASS
  1
TABLESTYLE
  2
AcDbTableStyle
  3
ObjectDBX Classes
 90
     4095
 91
        1
280
     0
281
     0
  0
CLASS
  1
SORTENTSTABLE
  2
AcDbSortentsTable
  3
ObjectDBX Classes
 90
        0
 91
        1
280
     0
281
     0
  0
ENDSEC
  0
SECTION
  2
TABLES
  0
TABLE
  2
VPORT
  5
8
102
{ACAD_XDICTIONARY
360
1343F
102
}
330
0
100
AcDbSymbolTable
 70
     1
  0
VPORT
  5
1335E
330
8
100
AcDbSymbolTableRecord
100
AcDbViewportTableRecord
  2
*Active
 70
     0
 10
0.0
 20
0.0
 11
1.0
 21
1.0
 12
168.1928223072644
 22
188.0684744396823
 13
0.0
 23
0.0
 14
1.0
 24
1.0
 15
0.25
 25
0.25
 16
0.0
 26
0.0
 36
1.0
 17
0.0
 27
0.0
 37
0.0
 40
175.6402402974113
 41
1.544516129032257
 42
50.0
 43
0.0
 44
0.0
 50
0.0
 51
0.0
 71
     0
 72
   100
 73
     1
 74
     0
 75
     0
 76
     0
 77
     0
 78
     0
281
     0
 65
     1
110
0.0
120
0.0
130
0.0
111
1.0
121
0.0
131
0.0
112
0.0
122
1.0
132
0.0
 79
     0
146
0.0
348
1336A
 60
     3
 61
     5
292
     1
282
     1
141
0.0
142
0.0
 63
   250
421
  3355443
  0
ENDTAB
  0
TABLE
  2
LTYPE
  5
5
330
0
100
AcDbSymbolTable
 70
     7
  0
LTYPE
  5
11
330
5
100
AcDbSymbolTableRecord
100
AcDbLinetypeTableRecord
  2
BYBLOCK
 70
     0
  3

 72
    65
 73
     0
 40
0.0
  0
LTYPE
  5
12
330
5
100
AcDbSymbolTableRecord
100
AcDbLinetypeTableRecord
  2
BYLAYER
 70
     0
  3

 72
    65
 73
     0
 40
0.0
  0
LTYPE
  5
13
330
5
100
AcDbSymbolTableRecord
100
AcDbLinetypeTableRecord
  2
CONTINUOUS
 70
     0
  3
Solid line
 72
    65
 73
     0
 40
0.0
  0
LTYPE
  5
12261
330
5
100
AcDbSymbolTableRecord
100
AcDbLinetypeTableRecord
  2
DASHED2
 70
     0
  3
Dashed (.5x) _ _ _ _ _ _ _ _ _ _ _ _ _ _ _ _ _
 72
    65
 73
     2
 40
0.375
 49
0.25
 74
     0
 49
-0.125
 74
     0
  0
ENDTAB
  0
TABLE
  2
LAYER
  5
2
102
{ACAD_XDICTIONARY
360
13414
102
}
330
0
100
AcDbSymbolTable
 70
    38
  0
LAYER
  5
E
330
2
100
AcDbSymbolTableRecord
100
AcDbLayerTableRecord
  2
0
 70
     0
 62
     7
  6
CONTINUOUS
370
    -3
390
B579
347
13363
  0
LAYER
  5
41
330
2
100
AcDbSymbolTableRecord
100
AcDbLayerTableRecord
  2
BDR
 70
     0
 62
     7
  6
CONTINUOUS
370
    -3
390
B579
347
13363
  0
LAYER
  5
44
330
2
100
AcDbSymbolTableRecord
100
AcDbLayerTableRecord
  2
AME_FRZ
 70
     0
 62
     7
  6
CONTINUOUS
370
    -3
390
B579
347
13363
  0
LAYER
  5
45
330
2
100
AcDbSymbolTableRecord
100
AcDbLayerTableRecord
  2
ASHADE
 70
     0
 62
     7
  6
CONTINUOUS
370
    -3
390
B579
347
13363
  0
LAYER
  5
B91F
330
2
100
AcDbSymbolTableRecord
100
AcDbLayerTableRecord
  2
HATCH
 70
     0
 62
     4
  6
CONTINUOUS
370
    -3
390
B579
347
13363
  0
LAYER
  5
F047
330
2
100
AcDbSymbolTableRecord
100
AcDbLayerTableRecord
  2
Defpoints
 70
     0
 62
     7
  6
CONTINUOUS
290
     0
370
    -3
390
B579
347
13363
  0
LAYER
  5
F086
330
2
100
AcDbSymbolTableRecord
100
AcDbLayerTableRecord
  2
SECTION JOINTS
 70
     0
 62
     7
  6
CONTINUOUS
370
    25
390
B579
347
13363
  0
LAYER
  5
111E5
330
2
100
AcDbSymbolTableRecord
100
AcDbLayerTableRecord
  2
TEXT
 70
     0
 62
     7
  6
CONTINUOUS
370
    25
390
B579
347
13363
  0
LAYER
  5
117C7
330
2
100
AcDbSymbolTableRecord
100
AcDbLayerTableRecord
  2
FRAMING
 70
     0
 62
     7
  6
CONTINUOUS
370
    25
390
B579
347
13363
  0
ENDTAB
  0
TABLE
  2
STYLE
  5
3
330
0
100
AcDbSymbolTable
 70
     7
  0
STYLE
  5
F
330
3
100
AcDbSymbolTableRecord
100
AcDbTextStyleTableRecord
  2
STANDARD
 70
     0
 40
0.0
 41
1.0
 50
0.0
 71
     0
 42
2.0
  3
TIMES.TTF
  4

1001
ACAD
1000
Times New Roman
1071
       18
  0
STYLE
  5
1D21
330
3
100
AcDbSymbolTableRecord
100
AcDbTextStyleTableRecord
  2
SIMPLEX
 70
     0
 40
0.1
 41
0.6
 50
0.0
 71
     0
 42
0.1
  3
SIMPLEX.shx
  4

  0
STYLE
  5
10B94
330
3
100
AcDbSymbolTableRecord
100
AcDbTextStyleTableRecord
  2
WEB PAGE
 70
     0
 40
0.0
 41
1.0
 50
0.0
 71
     0
 42
2.0
  3
TIMES.TTF
  4

1001
ACAD
1000
Times New Roman
1071
       18
  0
ENDTAB
  0
TABLE
  2
VIEW
  5
6
330
0
100
AcDbSymbolTable
 70
     1
  0
ENDTAB
  0
TABLE
  2
UCS
  5
7
330
0
100
AcDbSymbolTable
 70
     0
  0
ENDTAB
  0
TABLE
  2
APPID
  5
9
330
0
100
AcDbSymbolTable
 70
     9
  0
APPID
  5
10
330
9
100
AcDbSymbolTableRecord
100
AcDbRegAppTableRecord
  2
ACAD
 70
     0
  0
APPID
  5
3F
330
9
100
AcDbSymbolTableRecord
100
AcDbRegAppTableRecord
  2
AME_SOL
 70
     0
  0
APPID
  5
40
330
9
100
AcDbSymbolTableRecord
100
AcDbRegAppTableRecord
  2
AVE_RENDER
 70
     0
  0
APPID
  5
71A7
330
9
100
AcDbSymbolTableRecord
100
AcDbRegAppTableRecord
  2
AVE_ENTITY_MATERIAL
 70
     0
  0
APPID
  5
71A8
330
9
100
AcDbSymbolTableRecord
100
AcDbRegAppTableRecord
  2
AVE_FINISH
 70
     0
  0
APPID
  5
71A9
330
9
100
AcDbSymbolTableRecord
100
AcDbRegAppTableRecord
  2
AVE_MATERIAL
 70
     0
  0
APPID
  5
71AA
330
9
100
AcDbSymbolTableRecord
100
AcDbRegAppTableRecord
  2
AVE_GLOBAL
 70
     0
  0
APPID
  5
123F8
330
9
100
AcDbSymbolTableRecord
100
AcDbRegAppTableRecord
  2
DCO15
 70
     0
  0
APPID
  5
13413
330
9
100
AcDbSymbolTableRecord
100
AcDbRegAppTableRecord
  2
ACAD_PSEXT
 70
     0
  0
ENDTAB
  0
TABLE
  2
DIMSTYLE
  5
A
330
0
100
AcDbSymbolTable
 70
     2
100
AcDbDimStyleTable
 71
     1
340
190D
  0
DIMSTYLE
105
190D
102
{ACAD_REACTORS
330
11CDE
330
11CDF
330
11CE0
330
11CE1
330
11CFE
330
11CFD
330
11D00
330
11D1F
330
11EA8
330
1205D
330
1292C
102
}
330
A
100
AcDbSymbolTableRecord
100
AcDbDimStyleTableRecord
  2
STANDARD
 70
     0
 41
3.0
 42
2.0
 43
1.0
 44
1.0
140
1.75
141
1.0
147
1.0
276
     2
277
     4
340
10B94
  0
ENDTAB
  0
TABLE
  2
BLOCK_RECORD
  5
1
330
0
100
AcDbSymbolTable
 70
   108
  0
BLOCK_RECORD
  5
17
330
1
100
AcDbSymbolTableRecord
100
AcDbBlockTableRecord
  2
*MODEL_SPACE
340
B57C
 70
     0
280
     1
281
     0
  0
BLOCK_RECORD
  5
14
330
1
100
AcDbSymbolTableRecord
100
AcDbBlockTableRecord
  2
*PAPER_SPACE
340
B57D
 70
     0
280
     1
281
     0
  0
BLOCK_RECORD
  5
20
330
1
100
AcDbSymbolTableRecord
100
AcDbBlockTableRecord
  2
AME_NIL
340
0
102
{BLKREFS
331
3374
331
3E3C
102
}
 70
     0
280
     1
281
     0
  0
BLOCK_RECORD
  5
21
330
1
100
AcDbSymbolTableRecord
100
AcDbBlockTableRecord
  2
AME_SOL
340
0
102
{BLKREFS
331
3375
331
3E3D
102
}
 70
     0
280
     1
281
     0
  0
BLOCK_RECORD
  5
22
330
1
100
AcDbSymbolTableRecord
100
AcDbBlockTableRecord
  2
AVE_RENDER
340
0
102
{BLKREFS
331
3376
331
3377
331
3378
331
3E3E
331
3E3F
331
3E40
331
120FE
331
120FF
331
12100
331
12101
331
12102
331
12103
331
12104
331
12105
102
}
 70
     0
280
     1
281
     0
  0
BLOCK_RECORD
  5
11D2A
330
1
100
AcDbSymbolTableRecord
100
AcDbBlockTableRecord
  2
*D64
340
0
 70
     0
280
     1
281
     0
  0
BLOCK_RECORD
  5
11D37
330
1
100
AcDbSymbolTableRecord
100
AcDbBlockTableRecord
  2
*D65
340
0
 70
     0
280
     1
281
     0
  0
BLOCK_RECORD
  5
11D44
330
1
100
AcDbSymbolTableRecord
100
AcDbBlockTableRecord
  2
*D66
340
0
 70
     0
280
     1
281
     0
  0
BLOCK_RECORD
  5
11D51
330
1
100
AcDbSymbolTableRecord
100
AcDbBlockTableRecord
  2
*D67
340
0
 70
     0
280
     1
281
     0
  0
BLOCK_RECORD
  5
11D5E
330
1
100
AcDbSymbolTableRecord
100
AcDbBlockTableRecord
  2
*D68
340
0
 70
     0
280
     1
281
     0
  0
BLOCK_RECORD
  5
11E49
330
1
100
AcDbSymbolTableRecord
100
AcDbBlockTableRecord
  2
WD-9-3-38
340
0
102
{BLKREFS
331
11E5B
102
}
 70
     1
280
     1
281
     0
  0
BLOCK_RECORD
  5
11EA9
330
1
100
AcDbSymbolTableRecord
100
AcDbBlockTableRecord
  2
*D71
340
0
 70
     0
280
     1
281
     0
  0
BLOCK_RECORD
  5
1205E
330
1
100
AcDbSymbolTableRecord
100
AcDbBlockTableRecord
  2
*D73
340
0
 70
     0
280
     1
281
     0
  0
BLOCK_RECORD
  5
1265A
330
1
100
AcDbSymbolTableRecord
100
AcDbBlockTableRecord
  2
A$C0F741633
340
0
102
{BLKREFS
331
1268C
102
}
 70
     0
280
     1
281
     0
  0
BLOCK_RECORD
  5
1268E
330
1
100
AcDbSymbolTableRecord
100
AcDbBlockTableRecord
  2
A$C2C455F4F
340
0
102
{BLKREFS
331
126A0
102
}
 70
     0
280
     1
281
     0
  0
BLOCK_RECORD
  5
127B0
330
1
100
AcDbSymbolTableRecord
100
AcDbBlockTableRecord
  2
A$C38546004
340
0
102
{BLKREFS
331
127E9
102
}
 70
     0
280
     1
281
     0
  0
BLOCK_RECORD
  5
1292D
330
1
100
AcDbSymbolTableRecord
100
AcDbBlockTableRecord
  2
*D99
340
0
 70
     0
280
     1
281
     0
  0
ENDTAB
  0
ENDSEC
  0
SECTION
  2
BLOCKS
  0
BLOCK
  5
57
330
17
100
AcDbEntity
  8
0
100
AcDbBlockBegin
  2
*MODEL_SPACE
 70
     0
 10
0.0
 20
0.0
 30
0.0
  3
*MODEL_SPACE
  1

  0
ENDBLK
  5
58
330
17
100
AcDbEntity
  8
0
100
AcDbBlockEnd
  0
BLOCK
  5
55
330
14
100
AcDbEntity
 67
     1
  8
0
100
AcDbBlockBegin
  2
*PAPER_SPACE
 70
     0
 10
0.0
 20
0.0
 30
0.0
  3
*PAPER_SPACE
  1

  0
ENDBLK
  5
56
330
14
100
AcDbEntity
 67
     1
  8
0
100
AcDbBlockEnd
  0
BLOCK
  5
91E
330
20
100
AcDbEntity
  8
0
100
AcDbBlockBegin
  2
AME_NIL
 70
     0
 10
0.0
 20
0.0
 30
0.0
  3
AME_NIL
  1
AME_NIL
  0
ENDBLK
  5
91F
330
20
100
AcDbEntity
  8
0
100
AcDbBlockEnd
  0
BLOCK
  5
920
330
21
100
AcDbEntity
  8
0
100
AcDbBlockBegin
  2
AME_SOL
 70
     0
 10
0.0
 20
0.0
 30
0.0
  3
AME_SOL
  1
AME_SOL
  0
ENDBLK
  5
921
330
21
100
AcDbEntity
  8
0
100
AcDbBlockEnd
  0
BLOCK
  5
922
330
22
100
AcDbEntity
  8
0
100
AcDbBlockBegin
  2
AVE_RENDER
 70
     0
 10
0.0
 20
0.0
 30
0.0
  3
AVE_RENDER
  1
AVE_RENDER
  0
ENDBLK
  5
923
330
22
100
AcDbEntity
  8
0
100
AcDbBlockEnd
  0
BLOCK
  5
11D35
330
11D2A
100
AcDbEntity
  8
0
100
AcDbBlockBegin
  2
*D64
 70
     1
 10
0.0
 20
0.0
 30
0.0
  3
*D64
  1

  0
LINE
  5
1294E
330
11D2A
100
AcDbEntity
  8
TEXT
 62
     0
370
    -2
100
AcDbLine
 10
132.2169295018095
 20
123.0362941793405
 30
0.0
 11
73.2512690305639
 21
123.0362941793405
 31
0.0
  0
LINE
  5
1294F
330
11D2A
100
AcDbEntity
  8
TEXT
 62
     0
370
    -2
100
AcDbLine
 10
139.5919295018095
 20
252.2998021801172
 30
0.0
 11
73.25126903056393
 21
252.2998021801172
 31
0.0
  0
LINE
  5
12950
330
11D2A
100
AcDbEntity
  8
TEXT
 62
     0
370
    -2
100
AcDbLine
 10
74.25126903056391
 20
126.0362941793405
 30
0.0
 11
74.25126903056392
 21
199.4565655181477
 31
0.0
  0
LINE
  5
12951
330
11D2A
100
AcDbEntity
  8
TEXT
 62
     0
370
    -2
100
AcDbLine
 10
74.25126903056393
 20
249.2998021801172
 30
0.0
 11
74.25126903056392
 21
206.1232321848144
 31
0.0
  0
SOLID
  5
12952
330
11D2A
100
AcDbEntity
  8
TEXT
 62
     0
100
AcDbTrace
 10
73.7512690305639
 20
126.0362941793405
 30
0.0
 11
74.7512690305639
 21
126.0362941793405
 31
0.0
 12
74.25126903056391
 22
123.0362941793405
 32
0.0
 13
74.25126903056391
 23
123.0362941793405
 33
0.0
  0
SOLID
  5
12953
330
11D2A
100
AcDbEntity
  8
TEXT
 62
     0
100
AcDbTrace
 10
73.75126903056393
 20
249.2998021801172
 30
0.0
 11
74.75126903056393
 21
249.2998021801172
 31
0.0
 12
74.25126903056393
 22
252.2998021801172
 32
0.0
 13
74.25126903056393
 23
252.2998021801172
 33
0.0
  0
MTEXT
  5
12954
330
11D2A
100
AcDbEntity
  8
TEXT
 62
     0
100
AcDbMText
 10
74.25126903056389
 20
202.7898988514811
 30
0.0
 40
1.75
 41
0.0
 46
0.0
 71
     5
 72
     1
  1
\A1;FLOOR TO\PSHAFT CENTER
  7
WEB PAGE
 73
     1
 44
1.0
  0
POINT
  5
12955
330
11D2A
100
AcDbEntity
  8
Defpoints
 62
     0
100
AcDbPoint
 10
134.2169295018095
 20
123.0362941793405
 30
0.0
  0
POINT
  5
12956
330
11D2A
100
AcDbEntity
  8
Defpoints
 62
     0
100
AcDbPoint
 10
141.5919295018095
 20
252.2998021801172
 30
0.0
  0
POINT
  5
12957
330
11D2A
100
AcDbEntity
  8
Defpoints
 62
     0
100
AcDbPoint
 10
74.25126903056393
 20
252.2998021801172
 30
0.0
  0
ENDBLK
  5
11D36
330
11D2A
100
AcDbEntity
  8
0
100
AcDbBlockEnd
  0
BLOCK
  5
11D42
330
11D37
100
AcDbEntity
  8
0
100
AcDbBlockBegin
  2
*D65
 70
     1
 10
0.0
 20
0.0
 30
0.0
  3
*D65
  1

  0
LINE
  5
12944
330
11D37
100
AcDbEntity
  8
TEXT
 62
     0
370
    -2
100
AcDbLine
 10
132.2169295018095
 20
123.0362941793405
 30
0.0
 11
52.02921622124929
 21
123.0362941793405
 31
0.0
  0
LINE
  5
12945
330
11D37
100
AcDbEntity
  8
TEXT
 62
     0
370
    -2
100
AcDbLine
 10
136.2169295018095
 20
255.6748021801172
 30
0.0
 11
52.02921622124931
 21
255.6748021801172
 31
0.0
  0
LINE
  5
12946
330
11D37
100
AcDbEntity
  8
TEXT
 62
     0
370
    -2
100
AcDbLine
 10
53.02921622124928
 20
126.0362941793405
 30
0.0
 11
53.0292162212493
 21
178.0912897901557
 31
0.0
  0
LINE
  5
12947
330
11D37
100
AcDbEntity
  8
TEXT
 62
     0
370
    -2
100
AcDbLine
 10
53.02921622124931
 20
252.6748021801172
 30
0.0
 11
53.0292162212493
 21
184.7579564568223
 31
0.0
  0
SOLID
  5
12948
330
11D37
100
AcDbEntity
  8
TEXT
 62
     0
100
AcDbTrace
 10
52.52921622124929
 20
126.0362941793405
 30
0.0
 11
53.52921622124928
 21
126.0362941793405
 31
0.0
 12
53.02921622124928
 22
123.0362941793405
 32
0.0
 13
53.02921622124928
 23
123.0362941793405
 33
0.0
  0
SOLID
  5
12949
330
11D37
100
AcDbEntity
  8
TEXT
 62
     0
100
AcDbTrace
 10
52.52921622124931
 20
252.6748021801172
 30
0.0
 11
53.52921622124931
 21
252.6748021801172
 31
0.0
 12
53.02921622124931
 22
255.6748021801172
 32
0.0
 13
53.02921622124931
 23
255.6748021801172
 33
0.0
  0
MTEXT
  5
1294A
330
11D37
100
AcDbEntity
  8
TEXT
 62
     0
100
AcDbMText
 10
53.02921622124927
 20
181.424623123489
 30
0.0
 40
1.75
 41
0.0
 46
0.0
 71
     5
 72
     1
  1
\A1;MINIMUM\PCEILING HEIGHT
  7
WEB PAGE
 73
     1
 44
1.0
  0
POINT
  5
1294B
330
11D37
100
AcDbEntity
  8
Defpoints
 62
     0
100
AcDbPoint
 10
134.2169295018095
 20
123.0362941793405
 30
0.0
  0
POINT
  5
1294C
330
11D37
100
AcDbEntity
  8
Defpoints
 62
     0
100
AcDbPoint
 10
138.2169295018095
 20
255.6748021801172
 30
0.0
  0
POINT
  5
1294D
330
11D37
100
AcDbEntity
  8
Defpoints
 62
     0
100
AcDbPoint
 10
53.02921622124931
 20
255.6748021801172
 30
0.0
  0
ENDBLK
  5
11D43
330
11D37
100
AcDbEntity
  8
0
100
AcDbBlockEnd
  0
BLOCK
  5
11D4F
330
11D44
100
AcDbEntity
  8
0
100
AcDbBlockBegin
  2
*D66
 70
     1
 10
0.0
 20
0.0
 30
0.0
  3
*D66
  1

  0
LINE
  5
12A26
330
11D44
100
AcDbEntity
  8
TEXT
 62
     0
370
    -2
100
AcDbLine
 10
207.4861505668555
 20
123.0362941793405
 30
0.0
 11
166.4463991642274
 21
123.0362941793405
 31
0.0
  0
LINE
  5
12A27
330
11D44
100
AcDbEntity
  8
TEXT
 62
     0
370
    -2
100
AcDbLine
 10
145.8714281824209
 20
224.0246795016458
 30
0.0
 11
168.4463991642274
 21
224.0246795016458
 31
0.0
  0
LINE
  5
12A28
330
11D44
100
AcDbEntity
  8
TEXT
 62
     0
370
    -2
100
AcDbLine
 10
167.4463991642274
 20
126.0362941793405
 30
0.0
 11
167.4463991642274
 21
171.379062324093
 31
0.0
  0
LINE
  5
12A29
330
11D44
100
AcDbEntity
  8
TEXT
 62
     0
370
    -2
100
AcDbLine
 10
167.4463991642274
 20
221.0246795016459
 30
0.0
 11
167.4463991642274
 21
178.379062324093
 31
0.0
  0
SOLID
  5
12A2A
330
11D44
100
AcDbEntity
  8
TEXT
 62
     0
100
AcDbTrace
 10
166.9463991642274
 20
126.0362941793405
 30
0.0
 11
167.9463991642274
 21
126.0362941793405
 31
0.0
 12
167.4463991642274
 22
123.0362941793405
 32
0.0
 13
167.4463991642274
 23
123.0362941793405
 33
0.0
  0
SOLID
  5
12A2B
330
11D44
100
AcDbEntity
  8
TEXT
 62
     0
100
AcDbTrace
 10
166.9463991642274
 20
221.0246795016459
 30
0.0
 11
167.9463991642274
 21
221.0246795016459
 31
0.0
 12
167.4463991642274
 22
224.0246795016458
 32
0.0
 13
167.4463991642274
 23
224.0246795016458
 33
0.0
  0
MTEXT
  5
12A2C
330
11D44
100
AcDbEntity
  8
TEXT
 62
     0
100
AcDbMText
 10
167.4463991642274
 20
174.879062324093
 30
0.0
 40
1.75
 41
0.0
 46
0.0
 71
     5
 72
     1
  1
\A1;VERTICAL TRACK\PDOOR HEIGHT-19"
  7
WEB PAGE
 73
     1
 44
1.0
  0
POINT
  5
12A2D
330
11D44
100
AcDbEntity
  8
Defpoints
 62
     0
100
AcDbPoint
 10
209.4861505668555
 20
123.0362941793405
 30
0.0
  0
POINT
  5
12A2E
330
11D44
100
AcDbEntity
  8
Defpoints
 62
     0
100
AcDbPoint
 10
143.871428182421
 20
224.0246795016458
 30
0.0
  0
POINT
  5
12A2F
330
11D44
100
AcDbEntity
  8
Defpoints
 62
     0
100
AcDbPoint
 10
167.4463991642274
 20
224.0246795016458
 30
0.0
  0
ENDBLK
  5
11D50
330
11D44
100
AcDbEntity
  8
0
100
AcDbBlockEnd
  0
BLOCK
  5
11D5C
330
11D51
100
AcDbEntity
  8
0
100
AcDbBlockBegin
  2
*D67
 70
     1
 10
0.0
 20
0.0
 30
0.0
  3
*D67
  1

  0
LINE
  5
120D5
330
11D51
100
AcDbEntity
  8
TEXT
 62
     0
370
    -2
100
AcDbLine
 10
132.2169295018095
 20
243.0362941793405
 30
0.0
 11
117.0575413775432
 21
243.0362941793405
 31
0.0
  0
LINE
  5
120D6
330
11D51
100
AcDbEntity
  8
TEXT
 62
     0
370
    -2
100
AcDbLine
 10
132.2169295018095
 20
123.0362941793405
 30
0.0
 11
117.0575413775432
 21
123.0362941793405
 31
0.0
  0
LINE
  5
120D7
330
11D51
100
AcDbEntity
  8
TEXT
 62
     0
370
    -2
100
AcDbLine
 10
118.0575413775432
 20
240.0362941793405
 30
0.0
 11
118.0575413775432
 21
186.3696275126739
 31
0.0
  0
LINE
  5
120D8
330
11D51
100
AcDbEntity
  8
TEXT
 62
     0
370
    -2
100
AcDbLine
 10
118.0575413775432
 20
126.0362941793405
 30
0.0
 11
118.0575413775432
 21
179.7029608460072
 31
0.0
  0
SOLID
  5
120D9
330
11D51
100
AcDbEntity
  8
TEXT
 62
     0
100
AcDbTrace
 10
117.5575413775432
 20
240.0362941793405
 30
0.0
 11
118.5575413775432
 21
240.0362941793405
 31
0.0
 12
118.0575413775432
 22
243.0362941793405
 32
0.0
 13
118.0575413775432
 23
243.0362941793405
 33
0.0
  0
SOLID
  5
120DA
330
11D51
100
AcDbEntity
  8
TEXT
 62
     0
100
AcDbTrace
 10
117.5575413775432
 20
126.0362941793405
 30
0.0
 11
118.5575413775432
 21
126.0362941793405
 31
0.0
 12
118.0575413775432
 22
123.0362941793405
 32
0.0
 13
118.0575413775432
 23
123.0362941793405
 33
0.0
  0
MTEXT
  5
120DB
330
11D51
100
AcDbEntity
  8
TEXT
 62
     0
100
AcDbMText
 10
118.0575413775432
 20
183.0362941793405
 30
0.0
 40
1.75
 41
0.0
 46
0.0
 71
     5
 72
     1
  1
\A1;OPENING\PHEIGHT
  7
WEB PAGE
 73
     1
 44
1.0
  0
POINT
  5
120DC
330
11D51
100
AcDbEntity
  8
Defpoints
 62
     0
100
AcDbPoint
 10
134.2169295018095
 20
243.0362941793405
 30
0.0
  0
POINT
  5
120DD
330
11D51
100
AcDbEntity
  8
Defpoints
 62
     0
100
AcDbPoint
 10
134.2169295018095
 20
123.0362941793405
 30
0.0
  0
POINT
  5
120DE
330
11D51
100
AcDbEntity
  8
Defpoints
 62
     0
100
AcDbPoint
 10
118.0575413775432
 20
123.0362941793405
 30
0.0
  0
ENDBLK
  5
11D5D
330
11D51
100
AcDbEntity
  8
0
100
AcDbBlockEnd
  0
BLOCK
  5
11D6A
330
11D5E
100
AcDbEntity
  8
0
100
AcDbBlockBegin
  2
*D68
 70
     1
 10
0.0
 20
0.0
 30
0.0
  3
*D68
  1

  0
LINE
  5
12828
330
11D5E
100
AcDbEntity
  8
TEXT
 62
     0
370
    -2
100
AcDbLine
 10
132.2169295018095
 20
243.0362941793405
 30
0.0
 11
117.0575413775432
 21
243.0362941793405
 31
0.0
  0
LINE
  5
12829
330
11D5E
100
AcDbEntity
  8
TEXT
 62
     0
370
    -2
100
AcDbLine
 10
136.2169295018095
 20
255.6748021801172
 30
0.0
 11
117.0575413775432
 21
255.6748021801172
 31
0.0
  0
LINE
  5
1282A
330
11D5E
100
AcDbEntity
  8
TEXT
 62
     0
370
    -2
100
AcDbLine
 10
118.0575413775432
 20
246.0362941793405
 30
0.0
 11
118.0575413775432
 21
252.6748021801172
 31
0.0
  0
LINE
  5
1282B
330
11D5E
100
AcDbEntity
  8
TEXT
 62
     0
370
    -2
100
AcDbLine
 10
118.0575413775432
 20
255.6748021801172
 30
0.0
 11
118.0575413775432
 21
272.3008621425022
 31
0.0
  0
LINE
  5
1282C
330
11D5E
100
AcDbEntity
  8
TEXT
 62
     0
370
    -2
100
AcDbLine
 10
118.0575413775432
 20
272.3008621425022
 30
0.0
 11
121.0575413775432
 21
272.3008621425022
 31
0.0
  0
SOLID
  5
1282D
330
11D5E
100
AcDbEntity
  8
TEXT
 62
     0
100
AcDbTrace
 10
117.5575413775432
 20
246.0362941793405
 30
0.0
 11
118.5575413775432
 21
246.0362941793405
 31
0.0
 12
118.0575413775432
 22
243.0362941793405
 32
0.0
 13
118.0575413775432
 23
243.0362941793405
 33
0.0
  0
SOLID
  5
1282E
330
11D5E
100
AcDbEntity
  8
TEXT
 62
     0
100
AcDbTrace
 10
117.5575413775432
 20
252.6748021801172
 30
0.0
 11
118.5575413775432
 21
252.6748021801172
 31
0.0
 12
118.0575413775432
 22
255.6748021801172
 32
0.0
 13
118.0575413775432
 23
255.6748021801172
 33
0.0
  0
MTEXT
  5
1282F
330
11D5E
100
AcDbEntity
  8
TEXT
 62
     0
100
AcDbMText
 10
128.9325413775432
 20
272.3008621425022
 30
0.0
 40
1.75
 41
0.0
 46
0.0
 71
     5
 72
     1
  1
\A1;MINIMUM\PHEADROOM
  7
WEB PAGE
 73
     1
 44
1.0
  0
POINT
  5
12830
330
11D5E
100
AcDbEntity
  8
Defpoints
 62
     0
100
AcDbPoint
 10
134.2169295018095
 20
243.0362941793405
 30
0.0
  0
POINT
  5
12831
330
11D5E
100
AcDbEntity
  8
Defpoints
 62
     0
100
AcDbPoint
 10
138.2169295018095
 20
255.6748021801172
 30
0.0
  0
POINT
  5
12832
330
11D5E
100
AcDbEntity
  8
Defpoints
 62
     0
100
AcDbPoint
 10
118.0575413775432
 20
255.6748021801172
 30
0.0
  0
ENDBLK
  5
11D6B
330
11D5E
100
AcDbEntity
  8
0
100
AcDbBlockEnd
  0
BLOCK
  5
11E59
330
11E49
100
AcDbEntity
  8
0
100
AcDbBlockBegin
  2
WD-9-3-38
 70
     0
 10
0.0
 20
0.0
 30
0.0
  3
WD-9-3-38
  1

  0
LINE
  5
11E4A
330
11E49
100
AcDbEntity
  8
0
100
AcDbLine
 10
0.0
 20
4.25
 30
0.0
 11
0.0
 21
0.0
 31
0.0
  0
LINE
  5
11E4B
330
11E49
100
AcDbEntity
  8
0
100
AcDbLine
 10
5.0
 20
4.25
 30
0.0
 11
5.0
 21
-2.0
 31
0.0
  0
LINE
  5
11E4C
330
11E49
100
AcDbEntity
  8
0
100
AcDbLine
 10
0.0
 20
0.0
 30
0.0
 11
2.25
 21
-0.0000000000000142
 31
0.0
  0
LINE
  5
11E4D
330
11E49
100
AcDbEntity
  8
0
100
AcDbLine
 10
4.4375
 20
-1.462500000000005
 30
0.0
 11
3.1875
 21
-1.462500000000005
 31
0.0
  0
LINE
  5
11E4E
330
11E49
100
AcDbEntity
  8
0
100
AcDbLine
 10
3.1875
 20
-1.837500000000005
 30
0.0
 11
4.4375
 21
-1.837500000000005
 31
0.0
  0
LINE
  5
11E4F
330
11E49
100
AcDbEntity
  8
0
100
AcDbLine
 10
5.0
 20
-2.0
 30
0.0
 11
2.25
 21
-2.0
 31
0.0
  0
LINE
  5
11E50
330
11E49
100
AcDbEntity
  8
0
100
AcDbLine
 10
2.25
 20
-2.0
 30
0.0
 11
2.25
 21
-1.837500000000019
 31
0.0
  0
LINE
  5
11E51
330
11E49
100
AcDbEntity
  8
0
100
AcDbLine
 10
2.25
 20
-1.462500000000019
 30
0.0
 11
2.25
 21
-0.0000000000000142
 31
0.0
  0
LINE
  5
11E52
330
11E49
100
AcDbEntity
  8
0
100
AcDbLine
 10
2.5
 20
-1.462500000000005
 30
0.0
 11
2.25
 21
-1.462500000000019
 31
0.0
  0
LINE
  5
11E53
330
11E49
100
AcDbEntity
  8
0
100
AcDbLine
 10
2.25
 20
-1.837500000000019
 30
0.0
 11
2.5
 21
-1.837500000000005
 31
0.0
  0
ARC
  5
11E54
330
11E49
100
AcDbEntity
  8
0
100
AcDbCircle
 10
3.1875
 20
-1.650000000000005
 30
0.0
 40
0.1875
100
AcDbArc
 50
90.0
 51
270.0
  0
ARC
  5
11E55
330
11E49
100
AcDbEntity
  8
0
100
AcDbCircle
 10
2.5
 20
-1.650000000000005
 30
0.0
 40
0.1875
100
AcDbArc
 50
270.0
 51
90.0
  0
ARC
  5
11E56
330
11E49
100
AcDbEntity
  8
0
100
AcDbCircle
 10
4.4375
 20
-1.650000000000005
 30
0.0
 40
0.1875
100
AcDbArc
 50
270.0
 51
90.0
  0
LINE
  5
11E57
330
11E49
100
AcDbEntity
  8
0
100
AcDbLine
 10
0.0
 20
4.25
 30
0.0
 11
5.0
 21
4.25
 31
0.0
  0
CIRCLE
  5
11E58
330
11E49
100
AcDbEntity
  8
0
100
AcDbCircle
 10
3.375
 20
2.599999999999994
 30
0.0
 40
0.5
  0
ENDBLK
  5
11E5A
330
11E49
100
AcDbEntity
  8
0
100
AcDbBlockEnd
  0
BLOCK
  5
11EB4
330
11EA9
100
AcDbEntity
  8
0
100
AcDbBlockBegin
  2
*D71
 70
     1
 10
0.0
 20
0.0
 30
0.0
  3
*D71
  1

  0
LINE
  5
12959
330
11EA9
100
AcDbEntity
  8
TEXT
 62
     0
370
    -2
100
AcDbLine
 10
140.6916006889599
 20
228.0578021801172
 30
0.0
 11
140.6916006889599
 21
232.1459021664699
 31
0.0
  0
LINE
  5
1295A
330
11EA9
100
AcDbEntity
  8
TEXT
 62
     0
370
    -2
100
AcDbLine
 10
281.6072957298075
 20
241.0578021801172
 30
0.0
 11
281.6072957298075
 21
230.1459021664699
 31
0.0
  0
LINE
  5
1295B
330
11EA9
100
AcDbEntity
  8
TEXT
 62
     0
370
    -2
100
AcDbLine
 10
143.6916006889599
 20
231.1459021664699
 30
0.0
 11
186.8577815427171
 21
231.1459021664699
 31
0.0
  0
LINE
  5
1295C
330
11EA9
100
AcDbEntity
  8
TEXT
 62
     0
370
    -2
100
AcDbLine
 10
278.6072957298076
 20
231.1459021664699
 30
0.0
 11
235.4411148760504
 21
231.1459021664699
 31
0.0
  0
SOLID
  5
1295D
330
11EA9
100
AcDbEntity
  8
TEXT
 62
     0
100
AcDbTrace
 10
143.6916006889599
 20
231.6459021664699
 30
0.0
 11
143.6916006889599
 21
230.6459021664699
 31
0.0
 12
140.6916006889599
 22
231.1459021664699
 32
0.0
 13
140.6916006889599
 23
231.1459021664699
 33
0.0
  0
SOLID
  5
1295E
330
11EA9
100
AcDbEntity
  8
TEXT
 62
     0
100
AcDbTrace
 10
278.6072957298076
 20
231.6459021664699
 30
0.0
 11
278.6072957298076
 21
230.6459021664699
 31
0.0
 12
281.6072957298075
 22
231.1459021664699
 32
0.0
 13
281.6072957298075
 23
231.1459021664699
 33
0.0
  0
MTEXT
  5
1295F
330
11EA9
100
AcDbEntity
  8
TEXT
 62
     0
100
AcDbMText
 10
211.1494482093837
 20
231.1459021664699
 30
0.0
 40
1.75
 41
0.0
 46
0.0
 71
     5
 72
     1
  1
\A1;HORIZONTAL TRACK LENGTH\P(BACKROOM: DOOR HEIGHT + 21")
  7
WEB PAGE
 73
     1
 44
1.0
  0
POINT
  5
12960
330
11EA9
100
AcDbEntity
  8
Defpoints
 62
     0
100
AcDbPoint
 10
140.6916006889599
 20
226.0578021801172
 30
0.0
  0
POINT
  5
12961
330
11EA9
100
AcDbEntity
  8
Defpoints
 62
     0
100
AcDbPoint
 10
281.6072957298075
 20
243.0578021801172
 30
0.0
  0
POINT
  5
12962
330
11EA9
100
AcDbEntity
  8
Defpoints
 62
     0
100
AcDbPoint
 10
281.6072957298075
 20
231.1459021664699
 30
0.0
  0
ENDBLK
  5
11EB5
330
11EA9
100
AcDbEntity
  8
0
100
AcDbBlockEnd
  0
BLOCK
  5
1206B
330
1205E
100
AcDbEntity
  8
0
100
AcDbBlockBegin
  2
*D73
 70
     1
 10
0.0
 20
0.0
 30
0.0
  3
*D73
  1

  0
ARC
  5
12963
330
1205E
100
AcDbEntity
  8
TEXT
 62
     0
370
    -2
100
AcDbCircle
 10
233.9576424280576
 20
206.0931119005166
 30
0.0
 40
5.663360582444585
100
AcDbArc
 50
118.5653662259098
 51
149.2826831129549
  0
ARC
  5
12964
330
1205E
100
AcDbEntity
  8
TEXT
 62
     0
370
    -2
100
AcDbCircle
 10
233.9576424280576
 20
206.0931119005166
 30
0.0
 40
5.663360582444585
100
AcDbArc
 50
255.7173168870451
 51
286.4346337740902
  0
SOLID
  5
12965
330
1205E
100
AcDbEntity
  8
TEXT
 62
     0
100
AcDbTrace
 10
229.5710064546562
 20
208.8535419888659
 30
0.0
 11
228.6067196903784
 21
209.1184023978339
 31
0.0
 12
228.2942818456131
 22
206.0931119005167
 32
0.0
 13
228.2942818456131
 23
206.0931119005167
 33
0.0
  0
SOLID
  5
12966
330
1205E
100
AcDbEntity
  8
TEXT
 62
     0
100
AcDbTrace
 10
232.3131721003516
 20
200.1702347213861
 30
0.0
 11
232.8077412191317
 21
201.0393730226645
 31
0.0
 12
229.9530417559064
 22
202.0885112283655
 32
0.0
 13
229.9530417559064
 23
202.0885112283655
 33
0.0
  0
MTEXT
  5
12967
330
1205E
100
AcDbEntity
  8
TEXT
 62
     0
100
AcDbMText
 10
228.6325828664698
 20
204.1650575049331
 30
0.0
 40
1.75
 41
0.0
 46
0.0
 71
     5
 72
     1
  1
\A1;45°
  7
WEB PAGE
 73
     1
 44
1.0
  0
POINT
  5
12968
330
1205E
100
AcDbEntity
  8
Defpoints
 62
     0
100
AcDbPoint
 10
229.0530282928692
 20
203.2614316092943
 30
0.0
  0
POINT
  5
12969
330
1205E
100
AcDbEntity
  8
Defpoints
 62
     0
100
AcDbPoint
 10
222.2254093810239
 20
194.3608788534828
 30
0.0
  0
POINT
  5
1296A
330
1205E
100
AcDbEntity
  8
Defpoints
 62
     0
100
AcDbPoint
 10
244.0451271338456
 20
206.0931119005166
 30
0.0
  0
POINT
  5
1296B
330
1205E
100
AcDbEntity
  8
Defpoints
 62
     0
100
AcDbPoint
 10
222.2254093810239
 20
206.0931119005167
 30
0.0
  0
POINT
  5
1296C
330
1205E
100
AcDbEntity
  8
Defpoints
 62
     0
100
AcDbPoint
 10
233.9576424280576
 20
206.0931119005167
 30
0.0
  0
ENDBLK
  5
1206C
330
1205E
100
AcDbEntity
  8
0
100
AcDbBlockEnd
  0
BLOCK
  5
1268A
330
1265A
100
AcDbEntity
  8
0
100
AcDbBlockBegin
  2
A$C0F741633
 70
     0
 10
0.0
 20
0.0
 30
0.0
  3
A$C0F741633
  1

  0
LINE
  5
1265B
330
1265A
100
AcDbEntity
  8
0
100
AcDbLine
 10
0.0851365451697994
 20
-0.0000000896693848
 30
0.0
 11
0.085136545169803
 21
122.9999999103306
 31
0.0
  0
LINE
  5
1265C
330
1265A
100
AcDbEntity
  8
0
100
AcDbLine
 10
3.610728949046347
 20
27.62999991033061
 30
0.0
 11
3.322916449046399
 21
-0.0000000896693848
 31
0.0
  0
LINE
  5
1265D
330
1265A
100
AcDbEntity
  8
0
100
AcDbLine
 10
-0.0000002176202543
 20
-0.0000000896693848
 30
0.0
 11
-0.0000002176202543
 21
122.9999999103306
 31
0.0
  0
LINE
  5
1265E
330
1265A
100
AcDbEntity
  8
0
100
AcDbLine
 10
-0.0000002176202543
 20
-0.0000000896693848
 30
0.0
 11
3.322916449046399
 21
-0.0000000896693848
 31
0.0
  0
LINE
  5
1265F
330
1265A
100
AcDbEntity
  8
0
100
AcDbLine
 10
2.924866468411039
 20
2.859148648361838
 30
0.0
 11
1.203351044348494
 21
2.859148648361838
 31
0.0
  0
LINE
  5
12660
330
1265A
100
AcDbEntity
  8
0
100
AcDbLine
 10
1.203351044348494
 20
3.140851172299363
 30
0.0
 11
2.924866468411039
 21
3.140851172299363
 31
0.0
  0
ARC
  5
12661
330
1265A
100
AcDbEntity
  8
0
100
AcDbCircle
 10
1.203351044348494
 20
2.999999910330615
 30
0.0
 40
0.14085126196875
100
AcDbArc
 50
90.0
 51
270.0
  0
ARC
  5
12662
330
1265A
100
AcDbEntity
  8
0
100
AcDbCircle
 10
2.924866468411039
 20
2.999999910330615
 30
0.0
 40
0.14085126196875
100
AcDbArc
 50
270.0
 51
90.0
  0
LINE
  5
12663
330
1265A
100
AcDbEntity
  8
0
100
AcDbLine
 10
4.552083115712971
 20
117.9999999103307
 30
0.0
 11
3.670624782379718
 21
33.37999991033061
 31
0.0
  0
LINE
  5
12664
330
1265A
100
AcDbEntity
  8
0
100
AcDbLine
 10
1.812499782379745
 20
27.62999991033061
 30
0.0
 11
1.812499782379745
 21
33.37999991033061
 31
0.0
  0
LINE
  5
12665
330
1265A
100
AcDbEntity
  8
0
100
AcDbLine
 10
3.174866468410925
 20
26.85914864836187
 30
0.0
 11
1.453351044348494
 21
26.85914864836187
 31
0.0
  0
LINE
  5
12666
330
1265A
100
AcDbEntity
  8
0
100
AcDbLine
 10
1.453351044348494
 20
27.14085117229934
 30
0.0
 11
3.174866468410925
 21
27.14085117229934
 31
0.0
  0
ARC
  5
12667
330
1265A
100
AcDbEntity
  8
0
100
AcDbCircle
 10
1.453351044348494
 20
26.99999991033062
 30
0.0
 40
0.14085126196875
100
AcDbArc
 50
90.0
 51
270.0
  0
LINE
  5
12668
330
1265A
100
AcDbEntity
  8
0
100
AcDbLine
 10
1.812499782379745
 20
27.62999991033061
 30
0.0
 11
3.610728949046347
 21
27.62999991033061
 31
0.0
  0
ARC
  5
12669
330
1265A
100
AcDbEntity
  8
0
100
AcDbCircle
 10
3.174866468410925
 20
26.99999991033062
 30
0.0
 40
0.14085126196875
100
AcDbArc
 50
270.0
 51
90.0
  0
ARC
  5
1266A
330
1265A
100
AcDbEntity
  8
0
100
AcDbCircle
 10
1.453348897812645
 20
33.9992222986302
 30
0.0
 40
0.14085126196875
100
AcDbArc
 50
90.0
 51
270.0
  0
ARC
  5
1266B
330
1265A
100
AcDbEntity
  8
0
100
AcDbCircle
 10
3.174864321875077
 20
33.9992222986302
 30
0.0
 40
0.14085126196875
100
AcDbArc
 50
270.0
 51
90.0
  0
LINE
  5
1266C
330
1265A
100
AcDbEntity
  8
0
100
AcDbLine
 10
3.174864321875077
 20
33.85837103666145
 30
0.0
 11
1.453348897812645
 21
33.85837103666145
 31
0.0
  0
LINE
  5
1266D
330
1265A
100
AcDbEntity
  8
0
100
AcDbLine
 10
1.812499782379745
 20
33.37999991033061
 30
0.0
 11
3.670624782379718
 21
33.37999991033061
 31
0.0
  0
LINE
  5
1266E
330
1265A
100
AcDbEntity
  8
0
100
AcDbLine
 10
1.453348897812645
 20
34.14007356059892
 30
0.0
 11
3.174864321875077
 21
34.14007356059892
 31
0.0
  0
ARC
  5
1266F
330
1265A
100
AcDbEntity
  8
0
100
AcDbCircle
 10
1.703351044348494
 20
50.99996861673369
 30
0.0
 40
0.14085126196875
100
AcDbArc
 50
90.0
 51
270.0
  0
ARC
  5
12670
330
1265A
100
AcDbEntity
  8
0
100
AcDbCircle
 10
3.424866468411039
 20
50.99996861673369
 30
0.0
 40
0.14085126196875
100
AcDbArc
 50
270.0
 51
90.0
  0
LINE
  5
12671
330
1265A
100
AcDbEntity
  8
0
100
AcDbLine
 10
1.703351044348494
 20
51.1408198787025
 30
0.0
 11
3.424866468411039
 21
51.1408198787025
 31
0.0
  0
LINE
  5
12672
330
1265A
100
AcDbEntity
  8
0
100
AcDbLine
 10
3.424866468411039
 20
50.85911735476495
 30
0.0
 11
1.703351044348494
 21
50.85911735476495
 31
0.0
  0
ARC
  5
12673
330
1265A
100
AcDbEntity
  8
0
100
AcDbCircle
 10
1.948679633650193
 20
74.9999686167337
 30
0.0
 40
0.14085126196875
100
AcDbArc
 50
90.0
 51
270.0
  0
LINE
  5
12674
330
1265A
100
AcDbEntity
  8
0
100
AcDbLine
 10
3.670195057712739
 20
74.85911735476495
 30
0.0
 11
1.948679633650193
 21
74.85911735476495
 31
0.0
  0
LINE
  5
12675
330
1265A
100
AcDbEntity
  8
0
100
AcDbLine
 10
1.948679633650193
 20
75.1408198787025
 30
0.0
 11
3.670195057712739
 21
75.1408198787025
 31
0.0
  0
ARC
  5
12676
330
1265A
100
AcDbEntity
  8
0
100
AcDbCircle
 10
3.670195057712739
 20
74.9999686167337
 30
0.0
 40
0.14085126196875
100
AcDbArc
 50
270.0
 51
90.0
  0
ARC
  5
12677
330
1265A
100
AcDbEntity
  8
0
100
AcDbCircle
 10
2.217826185655862
 20
101.5937186167337
 30
0.0
 40
0.14085126196875
100
AcDbArc
 50
90.0
 51
270.0
  0
ARC
  5
12678
330
1265A
100
AcDbEntity
  8
0
100
AcDbCircle
 10
3.939341609718294
 20
101.5937186167337
 30
0.0
 40
0.14085126196875
100
AcDbArc
 50
270.0
 51
90.0
  0
LINE
  5
12679
330
1265A
100
AcDbEntity
  8
0
100
AcDbLine
 10
3.939341609718294
 20
101.4528673547649
 30
0.0
 11
2.217826185655862
 21
101.4528673547649
 31
0.0
  0
LINE
  5
1267A
330
1265A
100
AcDbEntity
  8
0
100
AcDbLine
 10
2.217826185655862
 20
101.7345698787024
 30
0.0
 11
3.939341609718294
 21
101.7345698787024
 31
0.0
  0
ARC
  5
1267B
330
1265A
100
AcDbEntity
  8
0
100
AcDbCircle
 10
2.217826185655862
 20
100.4062186167337
 30
0.0
 40
0.14085126196875
100
AcDbArc
 50
90.0
 51
270.0
  0
ARC
  5
1267C
330
1265A
100
AcDbEntity
  8
0
100
AcDbCircle
 10
3.939341609718294
 20
100.4062186167337
 30
0.0
 40
0.14085126196875
100
AcDbArc
 50
270.0
 51
90.0
  0
LINE
  5
1267D
330
1265A
100
AcDbEntity
  8
0
100
AcDbLine
 10
3.939341609718294
 20
100.2653673547649
 30
0.0
 11
2.217826185655862
 21
100.2653673547649
 31
0.0
  0
LINE
  5
1267E
330
1265A
100
AcDbEntity
  8
0
100
AcDbLine
 10
2.217826185655862
 20
100.5470698787024
 30
0.0
 11
3.939341609718294
 21
100.5470698787024
 31
0.0
  0
LINE
  5
1267F
330
1265A
100
AcDbEntity
  8
0
100
AcDbLine
 10
1.874999782379745
 20
117.9999999103306
 30
0.0
 11
1.874999782379745
 21
122.9999999103306
 31
0.0
  0
LINE
  5
12680
330
1265A
100
AcDbEntity
  8
0
100
AcDbLine
 10
1.375301465004667
 20
117.4614005696284
 30
0.0
 11
1.375301465004667
 21
119.5898196393784
 31
0.0
  0
LINE
  5
12681
330
1265A
100
AcDbEntity
  8
0
100
AcDbLine
 10
0.9996980997545961
 20
119.5898196393784
 30
0.0
 11
0.9996980997545961
 21
117.4614005696284
 31
0.0
  0
ARC
  5
12682
330
1265A
100
AcDbEntity
  8
0
100
AcDbCircle
 10
1.187499782379745
 20
119.5898196393784
 30
0.0
 40
0.187801682625
100
AcDbArc
 50
0.0
 51
180.0
  0
ARC
  5
12683
330
1265A
100
AcDbEntity
  8
0
100
AcDbCircle
 10
1.187499782379745
 20
117.4614005696284
 30
0.0
 40
0.187801682625
100
AcDbArc
 50
180.0
 51
0.0
  0
LINE
  5
12684
330
1265A
100
AcDbEntity
  8
0
100
AcDbLine
 10
1.874999782379745
 20
117.9999999103306
 30
0.0
 11
4.552083115712971
 21
117.9999999103307
 31
0.0
  0
LINE
  5
12685
330
1265A
100
AcDbEntity
  8
0
100
AcDbLine
 10
-0.0000002176202543
 20
122.9999999103306
 30
0.0
 11
1.874999782379745
 21
122.9999999103306
 31
0.0
  0
LINE
  5
12686
330
1265A
100
AcDbEntity
  8
0
100
AcDbLine
 10
1.375301465004667
 20
120.3707763535807
 30
0.0
 11
1.375301465004667
 21
122.4991954233306
 31
0.0
  0
LINE
  5
12687
330
1265A
100
AcDbEntity
  8
0
100
AcDbLine
 10
0.9996980997545961
 20
122.4991954233306
 30
0.0
 11
0.9996980997545961
 21
120.3707763535807
 31
0.0
  0
ARC
  5
12688
330
1265A
100
AcDbEntity
  8
0
100
AcDbCircle
 10
1.187499782379745
 20
120.3707763535807
 30
0.0
 40
0.187801682625
100
AcDbArc
 50
180.0
 51
0.0
  0
ARC
  5
12689
330
1265A
100
AcDbEntity
  8
0
100
AcDbCircle
 10
1.187499782379745
 20
122.4991954233306
 30
0.0
 40
0.187801682625
100
AcDbArc
 50
0.0
 51
180.0
  0
ENDBLK
  5
1268B
330
1265A
100
AcDbEntity
  8
0
100
AcDbBlockEnd
  0
BLOCK
  5
1269E
330
1268E
100
AcDbEntity
  8
0
100
AcDbBlockBegin
  2
A$C2C455F4F
 70
     0
 10
0.0
 20
0.0
 30
0.0
  3
A$C2C455F4F
  1

  0
LINE
  5
1268F
330
1268E
100
AcDbEntity
  8
0
  6
DASHED2
100
AcDbLine
 10
3.601871267359683
 20
101.0010830236907
 30
0.0
 11
2.549861668113422
 21
0.006562004958738
 31
0.0
  0
LINE
  5
12690
330
1268E
100
AcDbEntity
  8
0
100
AcDbLine
 10
4.231837091535908
 20
100.9945209836162
 30
0.0
 11
3.179827492289675
 21
-0.000000035115761
 31
0.0
  0
LINE
  5
12691
330
1268E
100
AcDbEntity
  8
0
100
AcDbLine
 10
1.052009598074846
 20
101.0276436620875
 30
0.0
 11
-0.0000000011713865
 21
0.0331226433555685
 31
0.0
  0
LINE
  5
12692
330
1268E
100
AcDbEntity
  8
0
100
AcDbLine
 10
3.179827492289675
 20
-0.000000035115761
 30
0.0
 11
-0.0000000011713865
 21
0.0331226433555685
 31
0.0
  0
LWPOLYLINE
  5
12693
330
1268E
100
AcDbEntity
  8
0
100
AcDbPolyline
 90
        4
 70
     1
 43
0.0
 10
0.7498026783611067
 20
2.41044170939736
 42
0.9999999999999998
 10
1.019788031579508
 20
2.407629406508277
 10
1.032599633629729
 20
3.637562682280957
 42
0.9999999999999998
 10
0.7626142804113272
 20
3.640374985170041
  0
LWPOLYLINE
  5
12694
330
1268E
100
AcDbEntity
  8
0
100
AcDbPolyline
 90
        4
 70
     1
 43
0.0
 10
0.9997851573898799
 20
26.40913977325445
 42
0.9999999999999998
 10
1.269770510608282
 20
26.4063274703654
 10
1.282582112658502
 20
27.63626074613808
 42
0.9999999999999998
 10
1.0125967594401
 20
27.63907304902713
  0
LWPOLYLINE
  5
12695
330
1268E
100
AcDbEntity
  8
0
100
AcDbPolyline
 90
        4
 70
     1
 43
0.0
 10
1.249767636418653
 20
50.40783783711157
 42
0.9999999999999998
 10
1.519752989637055
 20
50.40502553422249
 10
1.532564591687275
 20
51.63495880999514
 42
0.9999999999999998
 10
1.262579238468873
 20
51.63777111288422
  0
ARC
  5
12696
330
1268E
100
AcDbEntity
  8
0
100
AcDbCircle
 10
1.647554394106862
 20
75.6350630252968
 30
0.0
 40
0.1349999999999981
100
AcDbArc
 50
359.4031999999982
 51
179.4031999999982
  0
LINE
  5
12697
330
1268E
100
AcDbEntity
  8
0
100
AcDbLine
 10
1.769735468665828
 20
74.40372359807961
 30
0.0
 11
1.782547070716077
 21
75.63365687385226
 31
0.0
  0
ARC
  5
12698
330
1268E
100
AcDbEntity
  8
0
100
AcDbCircle
 10
1.634742792056641
 20
74.40512974952415
 30
0.0
 40
0.1349999999999907
100
AcDbArc
 50
179.4031999999982
 51
359.4031999999982
  0
LINE
  5
12699
330
1268E
100
AcDbEntity
  8
0
100
AcDbLine
 10
1.512561717497675
 20
75.63646917674134
 30
0.0
 11
1.499750115447454
 21
74.40653590096869
 31
0.0
  0
CIRCLE
  5
1269A
330
1268E
100
AcDbEntity
  8
0
100
AcDbCircle
 10
1.766720923767508
 20
100.4201663201836
 30
0.0
 40
0.136
  0
LINE
  5
1269B
330
1268E
100
AcDbEntity
  8
0
100
AcDbLine
 10
4.231837091535908
 20
100.9945209836162
 30
0.0
 11
1.052009598074846
 21
101.0276436620875
 31
0.0
  0
CIRCLE
  5
1269C
330
1268E
100
AcDbEntity
  8
0
100
AcDbCircle
 10
2.516680238263035
 20
100.4123543677139
 30
0.0
 40
0.136
  0
ARC
  5
1269D
330
1268E
100
AcDbEntity
  8
0
100
AcDbCircle
 10
2.100932066617758
 20
99.76664974656458
 30
0.0
 40
0.203
100
AcDbArc
 50
250.1314345350511
 51
179.4042453669326
  0
ENDBLK
  5
1269F
330
1268E
100
AcDbEntity
  8
0
100
AcDbBlockEnd
  0
BLOCK
  5
127E7
330
127B0
100
AcDbEntity
  8
0
100
AcDbBlockBegin
  2
A$C38546004
 70
     0
 10
0.0
 20
0.0
 30
0.0
  3
A$C38546004
  1

  0
LINE
  5
127B1
330
127B0
100
AcDbEntity
  8
0
100
AcDbLine
 10
95.99970834185688
 20
24.93700008238622
 30
0.0
 11
0.0000003462249083
 21
24.93700008238622
 31
0.0
  0
LINE
  5
127B2
330
127B0
100
AcDbEntity
  8
0
100
AcDbLine
 10
95.99970834185688
 20
19.43700008238622
 30
0.0
 11
0.0000003462249083
 21
19.43700008238619
 31
0.0
  0
LINE
  5
127B3
330
127B0
100
AcDbEntity
  8
0
100
AcDbLine
 10
95.51924276621708
 20
22.18700008238622
 30
0.0
 11
14.13953477058516
 21
22.18700008238622
 31
0.0
  0
LINE
  5
127B4
330
127B0
100
AcDbEntity
  8
0
100
AcDbLine
 10
20.57653477058517
 20
19.0000000823862
 30
0.0
 11
143.3052298114328
 21
19.00000008238624
 31
0.0
  0
LINE
  5
127B5
330
127B0
100
AcDbEntity
  8
0
100
AcDbLine
 10
14.13953477058516
 20
25.3740000823862
 30
0.0
 11
143.3052298114328
 21
25.3740000823862
 31
0.0
  0
ARC
  5
127B6
330
127B0
100
AcDbEntity
  8
0
100
AcDbCircle
 10
14.13953477058516
 20
7.187000082386219
 30
0.0
 40
15.0
100
AcDbArc
 50
125.2475069920521
 51
158.4531637549481
  0
ARC
  5
127B7
330
127B0
100
AcDbEntity
  8
0
100
AcDbCircle
 10
14.13953477058516
 20
7.187000082386219
 30
0.0
 40
18.187
100
AcDbArc
 50
102.5855233423738
 51
140.0967208821129
  0
ARC
  5
127B8
330
127B0
100
AcDbEntity
  8
0
100
AcDbCircle
 10
20.57653477058517
 20
4.000000082386208
 30
0.0
 40
18.187
100
AcDbArc
 50
121.9193587142875
 51
180.0
  0
LWPOLYLINE
  5
127B9
330
127B0
100
AcDbEntity
  8
0
100
AcDbPolyline
 90
        4
 70
     1
 43
0.0
 10
0.192299941671024
 20
21.38816292311918
 42
-0.9999999999999998
 10
0.5982999416709732
 20
21.38816292311918
 10
0.5982999416709732
 20
20.29416292311919
 42
-0.9999999999999998
 10
0.192299941671024
 20
20.29416292311919
  0
LINE
  5
127BA
330
127B0
100
AcDbEntity
  8
0
100
AcDbLine
 10
0.0000003462249651
 20
19.43700008238619
 30
0.0
 11
0.0000003462249083
 21
24.93700008238622
 31
0.0
  0
LINE
  5
127BB
330
127B0
100
AcDbEntity
  8
0
100
AcDbLine
 10
0.1877698414696738
 20
12.69592514656187
 30
0.0
 11
0.1877698414696738
 21
18.85384302993174
 31
0.0
  0
CIRCLE
  5
127BC
330
127B0
100
AcDbEntity
  8
0
100
AcDbCircle
 10
21.00000034622496
 20
20.43700008238622
 30
0.0
 40
0.25
  0
ARC
  5
127BD
330
127B0
100
AcDbEntity
  8
0
100
AcDbCircle
 10
20.57653477058517
 20
4.000000082386208
 30
0.0
 40
18.187
100
AcDbArc
 50
90.0
 51
121.9193587142875
  0
ARC
  5
127BE
330
127B0
100
AcDbEntity
  8
0
100
AcDbCircle
 10
20.57653477058517
 20
4.000000082386208
 30
0.0
 40
15.0
100
AcDbArc
 50
90.0
 51
180.0
  0
ARC
  5
127BF
330
127B0
100
AcDbEntity
  8
0
100
AcDbCircle
 10
14.13953477058516
 20
7.187000082386219
 30
0.0
 40
15.0
100
AcDbArc
 50
90.0
 51
125.2475069920521
  0
LINE
  5
127C0
330
127B0
100
AcDbEntity
  8
0
100
AcDbLine
 10
4.826534770585169
 20
0.5000000823862081
 30
0.0
 11
3.139534770585157
 21
0.5000000823862081
 31
0.0
  0
LINE
  5
127C1
330
127B0
100
AcDbEntity
  8
0
100
AcDbLine
 10
5.576534770585169
 20
0.0000000823862081
 30
0.0
 11
2.389534770585157
 21
0.0000000823862081
 31
0.0
  0
CIRCLE
  5
127C2
330
127B0
100
AcDbEntity
  8
0
100
AcDbCircle
 10
3.139534770585157
 20
0.5000000823862081
 30
0.0
 40
0.195
  0
LINE
  5
127C3
330
127B0
100
AcDbEntity
  8
0
100
AcDbLine
 10
2.389534770585157
 20
4.000000082386208
 30
0.0
 11
2.389534770585157
 21
0.0000000823862081
 31
0.0
  0
LINE
  5
127C4
330
127B0
100
AcDbEntity
  8
0
100
AcDbLine
 10
5.576534770585169
 20
4.000000082386208
 30
0.0
 11
5.576534770585169
 21
0.0000000823862081
 31
0.0
  0
CIRCLE
  5
127C5
330
127B0
100
AcDbEntity
  8
0
100
AcDbCircle
 10
4.826534770585169
 20
0.5000000823862081
 30
0.0
 40
0.195
  0
ARC
  5
127C6
330
127B0
100
AcDbEntity
  8
0
100
AcDbCircle
 10
14.13953477058516
 20
7.187000082386219
 30
0.0
 40
18.187
100
AcDbArc
 50
90.0
 51
102.5855233423738
  0
ARC
  5
127C7
330
127B0
100
AcDbEntity
  8
0
100
AcDbCircle
 10
3.930000346224915
 20
23.99200008238623
 30
0.0
 40
0.195
100
AcDbArc
 50
270.0
 51
0.0
  0
LINE
  5
127C8
330
127B0
100
AcDbEntity
  8
0
100
AcDbLine
 10
4.125000346224851
 20
23.99200008238623
 30
0.0
 11
4.125000346224908
 21
23.99200008238623
 31
0.0
  0
ARC
  5
127C9
330
127B0
100
AcDbEntity
  8
0
100
AcDbCircle
 10
3.930000346224915
 20
23.99200008238623
 30
0.0
 40
0.195
100
AcDbArc
 50
0.0
 51
90.0
  0
LINE
  5
127CA
330
127B0
100
AcDbEntity
  8
0
100
AcDbLine
 10
3.930000346224915
 20
24.18700008238622
 30
0.0
 11
1.820000346224901
 21
24.18700008238622
 31
0.0
  0
LINE
  5
127CB
330
127B0
100
AcDbEntity
  8
0
100
AcDbLine
 10
3.930000346224915
 20
23.79700008238623
 30
0.0
 11
1.820000346224901
 21
23.79700008238623
 31
0.0
  0
ARC
  5
127CC
330
127B0
100
AcDbEntity
  8
0
100
AcDbCircle
 10
1.820000346224901
 20
23.99200008238623
 30
0.0
 40
0.195
100
AcDbArc
 50
180.0
 51
270.0
  0
LINE
  5
127CD
330
127B0
100
AcDbEntity
  8
0
100
AcDbLine
 10
1.625000346224965
 20
23.99200008238623
 30
0.0
 11
1.625000346224908
 21
23.99200008238623
 31
0.0
  0
ARC
  5
127CE
330
127B0
100
AcDbEntity
  8
0
100
AcDbCircle
 10
1.820000346224901
 20
23.99200008238623
 30
0.0
 40
0.195
100
AcDbArc
 50
90.0
 51
180.0
  0
ARC
  5
127CF
330
127B0
100
AcDbEntity
  8
0
100
AcDbCircle
 10
6.617000346224926
 20
23.99200008238623
 30
0.0
 40
0.195
100
AcDbArc
 50
270.0
 51
0.0
  0
ARC
  5
127D0
330
127B0
100
AcDbEntity
  8
0
100
AcDbCircle
 10
6.617000346224926
 20
23.99200008238623
 30
0.0
 40
0.195
100
AcDbArc
 50
0.0
 51
90.0
  0
LINE
  5
127D1
330
127B0
100
AcDbEntity
  8
0
100
AcDbLine
 10
6.81200034622492
 20
23.99200008238623
 30
0.0
 11
6.81200034622492
 21
23.99200008238623
 31
0.0
  0
ARC
  5
127D2
330
127B0
100
AcDbEntity
  8
0
100
AcDbCircle
 10
4.507000346224913
 20
23.99200008238623
 30
0.0
 40
0.195
100
AcDbArc
 50
180.0
 51
270.0
  0
LINE
  5
127D3
330
127B0
100
AcDbEntity
  8
0
100
AcDbLine
 10
4.31200034622492
 20
23.99200008238623
 30
0.0
 11
4.31200034622492
 21
23.99200008238623
 31
0.0
  0
ARC
  5
127D4
330
127B0
100
AcDbEntity
  8
0
100
AcDbCircle
 10
4.507000346224913
 20
23.99200008238623
 30
0.0
 40
0.195
100
AcDbArc
 50
90.0
 51
180.0
  0
LINE
  5
127D5
330
127B0
100
AcDbEntity
  8
0
100
AcDbLine
 10
4.507000346224913
 20
24.18700008238622
 30
0.0
 11
6.617000346224926
 21
24.18700008238622
 31
0.0
  0
LINE
  5
127D6
330
127B0
100
AcDbEntity
  8
0
100
AcDbLine
 10
4.507000346224913
 20
23.79700008238623
 30
0.0
 11
6.617000346224926
 21
23.79700008238623
 31
0.0
  0
CIRCLE
  5
127D7
330
127B0
100
AcDbEntity
  8
0
100
AcDbCircle
 10
21.00000034622496
 20
23.93700008238622
 30
0.0
 40
0.25
  0
LINE
  5
127D8
330
127B0
100
AcDbEntity
  8
0
100
AcDbLine
 10
143.3052298114328
 20
22.18700008238625
 30
0.0
 11
95.51924276621708
 21
22.18700008238622
 31
0.0
  0
CIRCLE
  5
127D9
330
127B0
100
AcDbEntity
  8
0
100
AcDbCircle
 10
94.99970834185688
 20
20.43700008238622
 30
0.0
 40
0.25
  0
LINE
  5
127DA
330
127B0
100
AcDbEntity
  8
0
100
AcDbLine
 10
95.99970834185688
 20
24.93700008238622
 30
0.0
 11
95.99970834185688
 21
19.43700008238622
 31
0.0
  0
CIRCLE
  5
127DB
330
127B0
100
AcDbEntity
  8
0
100
AcDbCircle
 10
94.99970834185688
 20
23.93700008238622
 30
0.0
 40
0.25
  0
LINE
  5
127DC
330
127B0
100
AcDbEntity
  8
0
100
AcDbLine
 10
119.5237317626902
 20
20.99148251938112
 30
0.0
 11
121.4987317626901
 21
20.99148251938107
 31
0.0
  0
LINE
  5
127DD
330
127B0
100
AcDbEntity
  8
0
100
AcDbLine
 10
121.4987317626902
 20
24.09148251938103
 30
0.0
 11
119.5237317626902
 21
24.09148251938109
 31
0.0
  0
LINE
  5
127DE
330
127B0
100
AcDbEntity
  8
0
100
AcDbLine
 10
119.3237317626901
 20
23.8914825193811
 30
0.0
 11
119.3237317626901
 21
21.19148251938111
 31
0.0
  0
ARC
  5
127DF
330
127B0
100
AcDbEntity
  8
0
100
AcDbCircle
 10
119.5237317626902
 20
21.19148251938111
 30
0.0
 40
0.2
100
AcDbArc
 50
180.0
 51
270.0
  0
ARC
  5
127E0
330
127B0
100
AcDbEntity
  8
0
100
AcDbCircle
 10
119.5237317626902
 20
23.8914825193811
 30
0.0
 40
0.2
100
AcDbArc
 50
90.0
 51
180.0
  0
LINE
  5
127E1
330
127B0
100
AcDbEntity
  8
0
100
AcDbLine
 10
121.6987317626901
 20
21.19148251938111
 30
0.0
 11
121.6987317626901
 21
23.89148251938104
 31
0.0
  0
CIRCLE
  5
127E2
330
127B0
100
AcDbEntity
  8
0
100
AcDbCircle
 10
120.5697998906849
 20
21.50781672205528
 30
0.0
 40
0.136
  0
CIRCLE
  5
127E3
330
127B0
100
AcDbEntity
  8
0
100
AcDbCircle
 10
120.5501163019543
 20
23.68163526991779
 30
0.0
 40
0.136
  0
ARC
  5
127E4
330
127B0
100
AcDbEntity
  8
0
100
AcDbCircle
 10
121.4987317626901
 20
21.19148251938111
 30
0.0
 40
0.2
100
AcDbArc
 50
270.0
 51
0.0
  0
ARC
  5
127E5
330
127B0
100
AcDbEntity
  8
0
100
AcDbCircle
 10
121.4987317626902
 20
23.89148251938104
 30
0.0
 40
0.2
100
AcDbArc
 50
0.0
 51
90.0
  0
LINE
  5
127E6
330
127B0
100
AcDbEntity
  8
0
100
AcDbLine
 10
143.3052298114328
 20
25.3740000823862
 30
0.0
 11
143.3052298114328
 21
19.00000008238624
 31
0.0
  0
ENDBLK
  5
127E8
330
127B0
100
AcDbEntity
  8
0
100
AcDbBlockEnd
  0
BLOCK
  5
12938
330
1292D
100
AcDbEntity
  8
0
100
AcDbBlockBegin
  2
*D99
 70
     1
 10
0.0
 20
0.0
 30
0.0
  3
*D99
  1

  0
LINE
  5
1293A
330
1292D
100
AcDbEntity
  8
FRAMING
 62
     0
370
    -2
100
AcDbLine
 10
132.2169295018095
 20
123.0362941793405
 30
0.0
 11
94.21078772093141
 21
123.0362941793405
 31
0.0
  0
LINE
  5
1293B
330
1292D
100
AcDbEntity
  8
FRAMING
 62
     0
370
    -2
100
AcDbLine
 10
136.2169295018095
 20
246.0362941793405
 30
0.0
 11
94.21078772093144
 21
246.0362941793405
 31
0.0
  0
LINE
  5
1293C
330
1292D
100
AcDbEntity
  8
FRAMING
 62
     0
370
    -2
100
AcDbLine
 10
95.2107877209314
 20
126.0362941793405
 30
0.0
 11
95.21078772093142
 21
179.4112941793405
 31
0.0
  0
LINE
  5
1293D
330
1292D
100
AcDbEntity
  8
FRAMING
 62
     0
370
    -2
100
AcDbLine
 10
95.21078772093144
 20
243.0362941793405
 30
0.0
 11
95.21078772093142
 21
189.6612941793405
 31
0.0
  0
SOLID
  5
1293E
330
1292D
100
AcDbEntity
  8
FRAMING
 62
     0
100
AcDbTrace
 10
94.71078772093141
 20
126.0362941793405
 30
0.0
 11
95.71078772093141
 21
126.0362941793405
 31
0.0
 12
95.2107877209314
 22
123.0362941793405
 32
0.0
 13
95.2107877209314
 23
123.0362941793405
 33
0.0
  0
SOLID
  5
1293F
330
1292D
100
AcDbEntity
  8
FRAMING
 62
     0
100
AcDbTrace
 10
94.71078772093143
 20
243.0362941793405
 30
0.0
 11
95.71078772093143
 21
243.0362941793405
 31
0.0
 12
95.21078772093144
 22
246.0362941793405
 32
0.0
 13
95.21078772093144
 23
246.0362941793405
 33
0.0
  0
MTEXT
  5
12940
330
1292D
100
AcDbEntity
  8
FRAMING
 62
     0
100
AcDbMText
 10
95.21078772093138
 20
184.5362941793405
 30
0.0
 40
1.75
 41
0.0
 46
0.0
 71
     5
 72
     1
  1
\A1;3"TAPERED REVERSE\PANGLE\PDOOR HEIGHT+3"
  7
WEB PAGE
 73
     1
 44
1.0
  0
POINT
  5
12941
330
1292D
100
AcDbEntity
  8
Defpoints
 62
     0
100
AcDbPoint
 10
134.2169295018095
 20
123.0362941793405
 30
0.0
  0
POINT
  5
12942
330
1292D
100
AcDbEntity
  8
Defpoints
 62
     0
100
AcDbPoint
 10
138.2169295018095
 20
246.0362941793405
 30
0.0
  0
POINT
  5
12943
330
1292D
100
AcDbEntity
  8
Defpoints
 62
     0
100
AcDbPoint
 10
95.21078772093144
 20
246.0362941793405
 30
0.0
  0
ENDBLK
  5
12939
330
1292D
100
AcDbEntity
  8
0
100
AcDbBlockEnd
  0
ENDSEC
  0
SECTION
  2
ENTITIES
  0
INSERT
  5
3374
330
17
100
AcDbEntity
  8
AME_FRZ
100
AcDbBlockReference
  2
AME_NIL
 10
0.0
 20
0.0
 30
0.0
 41
24.609375
 42
24.609375
 43
24.609375
  0
INSERT
  5
3375
330
17
100
AcDbEntity
  8
AME_FRZ
100
AcDbBlockReference
  2
AME_SOL
 10
0.0
 20
0.0
 30
0.0
 41
24.609375
 42
24.609375
 43
24.609375
1001
AME_SOL
1000
R2.1
1000
AME2
1000
sq cm
1070
     3
1070
     0
1070
     3
1000
wire
1040
45.0
1000
U
1040
1.0
1000
cm
1000
gm
1000
MILD_STEEL
1070
    25
1000
CSG
1070
     1
1070
     3
1070
     3
1070
     3
1070
     0
1000
cu cm
1070
     1
1070
     0
1005
2D0D
  0
INSERT
  5
3376
330
17
100
AcDbEntity
  8
ASHADE
 62
     1
100
AcDbBlockReference
  2
AVE_RENDER
 10
0.0
 20
0.0
 30
0.0
 41
24.609375
 42
24.609375
 43
24.609375
1001
AVE_RENDER
1002
{
1070
     2
1000
Pref
1070
    30
1070
    20
1070
     0
1070
     0
1000

1070
    10
1070
     0
1070
    30
1040
1.0
1070
     1
1040
0.3
1040
0.7
1040
0.0
1040
10.0
1010
-1.0
1020
-1.0
1030
-1.0
1040
0.3
1070
    49
1002
}
  0
INSERT
  5
3377
330
17
100
AcDbEntity
  8
ASHADE
 62
     3
100
AcDbBlockReference
  2
AVE_RENDER
 10
0.0
 20
0.0
 30
0.0
 41
24.609375
 42
24.609375
 43
24.609375
1001
AVE_RENDER
1002
{
1070
     0
1000
Full Opt
1070
     0
1070
     1
1070
     1
1070
     1
1070
     0
1070
     0
1070
     0
1070
     1
1070
     1
1040
0.0001
1040
0.0001
1002
}
  0
INSERT
  5
3378
330
17
100
AcDbEntity
  8
ASHADE
 62
     4
100
AcDbBlockReference
  2
AVE_RENDER
 10
0.0
 20
0.0
 30
0.0
 41
24.609375
 42
24.609375
 43
24.609375
1001
AVE_RENDER
1002
{
1070
     0
1000
Quick Opt
1070
     0
1070
     1
1070
     1
1070
     1
1070
     0
1070
     0
1070
     1
1002
}
  0
INSERT
  5
3E3C
330
17
100
AcDbEntity
  8
AME_FRZ
100
AcDbBlockReference
  2
AME_NIL
 10
0.0
 20
0.0
 30
0.0
 41
34.993056
 42
34.993056
 43
34.993056
  0
INSERT
  5
3E3D
330
17
100
AcDbEntity
  8
AME_FRZ
100
AcDbBlockReference
  2
AME_SOL
 10
0.0
 20
0.0
 30
0.0
 41
34.993056
 42
34.993056
 43
34.993056
1001
AME_SOL
1000
R2.1
1000
AME2
1000
sq cm
1070
     3
1070
     0
1070
     3
1000
wire
1040
45.0
1000
U
1040
1.0
1000
cm
1000
gm
1000
MILD_STEEL
1070
    25
1000
CSG
1070
     1
1070
     3
1070
     3
1070
     3
1070
     0
1000
cu cm
1070
     1
1070
     0
1005
2D0D
  0
INSERT
  5
3E3E
330
17
100
AcDbEntity
  8
ASHADE
 62
     1
100
AcDbBlockReference
  2
AVE_RENDER
 10
0.0
 20
0.0
 30
0.0
 41
34.993056
 42
34.993056
 43
34.993056
1001
AVE_RENDER
1002
{
1070
     2
1000
Pref
1070
    30
1070
    20
1070
     0
1070
     0
1000

1070
    10
1070
     0
1070
    30
1040
1.0
1070
     1
1040
0.3
1040
0.7
1040
0.0
1040
10.0
1010
-1.0
1020
-1.0
1030
-1.0
1040
0.3
1070
    49
1002
}
  0
INSERT
  5
3E3F
330
17
100
AcDbEntity
  8
ASHADE
 62
     3
100
AcDbBlockReference
  2
AVE_RENDER
 10
0.0
 20
0.0
 30
0.0
 41
34.993056
 42
34.993056
 43
34.993056
1001
AVE_RENDER
1002
{
1070
     0
1000
Full Opt
1070
     0
1070
     1
1070
     1
1070
     1
1070
     0
1070
     0
1070
     0
1070
     1
1070
     1
1040
0.0001
1040
0.0001
1002
}
  0
INSERT
  5
3E40
330
17
100
AcDbEntity
  8
ASHADE
 62
     4
100
AcDbBlockReference
  2
AVE_RENDER
 10
0.0
 20
0.0
 30
0.0
 41
34.993056
 42
34.993056
 43
34.993056
1001
AVE_RENDER
1002
{
1070
     0
1000
Quick Opt
1070
     0
1070
     1
1070
     1
1070
     1
1070
     0
1070
     0
1070
     1
1002
}
  0
MTEXT
  5
405A
330
17
100
AcDbEntity
  8
BDR
100
AcDbMText
 10
353.0635595970848
 20
56.58463448330076
 30
0.0
 40
0.1
 41
37.627
 46
0.0
 71
     1
 72
     5
  1

  7
SIMPLEX
 73
     1
 44
1.0
  0
MTEXT
  5
8913
330
17
100
AcDbEntity
  8
BDR
100
AcDbMText
 10
877.3233813939555
 20
282.200335478095
 30
0.0
 40
3.0
 41
0.0
 46
0.0
 71
     4
 72
     1
  1
\A1;
 73
     1
 44
1.0
  0
MTEXT
  5
BB0D
330
17
100
AcDbEntity
  8
HATCH
 48
0.5
100
AcDbMText
 10
862.711853351133
 20
170.0626199810501
 30
0.0
 40
1.1
 41
0.0
 46
0.0
 71
     4
 72
     1
  1

 73
     1
 44
1.0
  0
MTEXT
  5
BD7C
330
17
100
AcDbEntity
  8
BDR
100
AcDbMText
 10
648.3700742151118
 20
223.690432353357
 30
0.0
 40
2.5
 41
0.0
 46
0.0
 71
     1
 72
     1
  1

 73
     1
 44
1.0
  0
MTEXT
  5
CE5A
330
17
100
AcDbEntity
  8
BDR
100
AcDbMText
 10
645.7641368582438
 20
217.5930814931963
 30
0.0
 40
2.5
 41
0.0
 46
0.0
 71
     1
 72
     1
  1

 73
     1
 44
1.0
  0
MTEXT
  5
D3E4
330
17
100
AcDbEntity
  8
0
100
AcDbMText
 10
393.5054431651311
 20
218.3654697964034
 30
0.0
 40
2.5
 41
0.0
 46
0.0
 71
     1
 72
     1
  1

 73
     1
 44
1.0
  0
MTEXT
  5
D891
330
17
100
AcDbEntity
  8
BDR
100
AcDbMText
 10
278.8170020773584
 20
330.6127380359346
 30
0.0
 40
2.5
 41
0.0
 46
0.0
 71
     1
 72
     1
  1

 73
     1
 44
1.0
  0
MTEXT
  5
D894
330
17
100
AcDbEntity
  8
BDR
100
AcDbMText
 10
282.4572809863948
 20
283.699790306357
 30
0.0
 40
2.5
 41
0.0
 46
0.0
 71
     1
 72
     1
  1

 73
     1
 44
1.0
  0
MTEXT
  5
D8BC
330
17
100
AcDbEntity
  8
BDR
100
AcDbMText
 10
280.6377852630108
 20
262.5297979250931
 30
0.0
 40
2.5
 41
0.0
 46
0.0
 71
     1
 72
     1
  1

 73
     1
 44
1.0
  0
MTEXT
  5
D8BE
330
17
100
AcDbEntity
  8
BDR
100
AcDbMText
 10
280.052229178619
 20
230.2002619872308
 30
0.0
 40
2.5
 41
0.0
 46
0.0
 71
     1
 72
     1
  1

 73
     1
 44
1.0
  0
MTEXT
  5
D8C2
330
17
100
AcDbEntity
  8
BDR
100
AcDbMText
 10
210.2931674542633
 20
331.4813092531851
 30
0.0
 40
2.5
 41
0.0
 46
0.0
 71
     9
 72
     1
  1

 73
     1
 44
1.0
  0
MTEXT
  5
DE82
330
17
100
AcDbEntity
  8
0
100
AcDbMText
 10
230.9601867147205
 20
186.4290317625283
 30
0.0
 40
3.5
 41
0.0
 46
0.0
 71
     1
 72
     1
  1

 73
     1
 44
1.0
  0
DIMENSION
  5
11CDE
330
17
100
AcDbEntity
  8
TEXT
100
AcDbDimension
  2
*D64
 10
74.25126903056393
 20
252.2998021801172
 30
0.0
 11
74.25126903056389
 21
202.7898988514811
 31
0.0
 70
   160
  1
FLOOR TO\PSHAFT CENTER
 71
     5
 42
129.2635080007767
 73
     0
 74
     0
 75
     0
  3
STANDARD
100
AcDbAlignedDimension
 13
134.2169295018095
 23
123.0362941793405
 33
0.0
 14
141.5919295018095
 24
252.2998021801172
 34
0.0
 50
90.0
100
AcDbRotatedDimension
1001
ACAD
1000
DSTYLE
1002
{
1070
    40
1040
1.0
1002
}
  0
DIMENSION
  5
11CDF
330
17
100
AcDbEntity
  8
TEXT
100
AcDbDimension
  2
*D65
 10
53.02921622124931
 20
255.6748021801172
 30
0.0
 11
53.02921622124927
 21
181.424623123489
 31
0.0
 70
   160
  1
MINIMUM\PCEILING HEIGHT
 71
     5
 42
132.6385080007766
 73
     0
 74
     0
 75
     0
  3
STANDARD
100
AcDbAlignedDimension
 13
134.2169295018095
 23
123.0362941793405
 33
0.0
 14
138.2169295018095
 24
255.6748021801172
 34
0.0
 50
90.0
100
AcDbRotatedDimension
1001
ACAD
1000
DSTYLE
1002
{
1070
    40
1040
1.0
1002
}
  0
DIMENSION
  5
11CE0
330
17
100
AcDbEntity
  8
TEXT
100
AcDbDimension
  2
*D66
 10
167.4463991642274
 20
224.0246795016458
 30
0.0
 11
167.4463991642274
 21
174.879062324093
 31
0.0
 70
   160
  1
VERTICAL TRACK\PDOOR HEIGHT-19"
 71
     5
 42
100.9883853223053
 73
     0
 74
     0
 75
     0
  3
STANDARD
100
AcDbAlignedDimension
 13
209.4861505668555
 23
123.0362941793405
 33
0.0
 14
143.871428182421
 24
224.0246795016458
 34
0.0
 50
90.0
100
AcDbRotatedDimension
1001
ACAD
1000
DSTYLE
1002
{
1070
    40
1040
1.0
1002
}
  0
DIMENSION
  5
11CE1
330
17
100
AcDbEntity
  8
TEXT
100
AcDbDimension
  2
*D67
 10
118.0575413775432
 20
123.0362941793405
 30
0.0
 11
118.0575413775432
 21
183.0362941793405
 31
0.0
 70
    32
  1
OPENING\PHEIGHT
 71
     5
 42
120.0
 73
     0
 74
     0
 75
     0
  3
STANDARD
100
AcDbAlignedDimension
 13
134.2169295018095
 23
243.0362941793405
 33
0.0
 14
134.2169295018095
 24
123.0362941793405
 34
0.0
 50
90.0
100
AcDbRotatedDimension
1001
ACAD
1000
DSTYLE
1002
{
1070
    40
1040
1.0
1002
}
  0
LINE
  5
11CE2
102
{ACAD_REACTORS
330
128D4
102
}
330
17
100
AcDbEntity
  8
BDR
100
AcDbLine
 10
134.2169295018095
 20
123.0362941793405
 30
0.0
 11
134.2169295018095
 21
259.6748021801172
 31
0.0
  0
LINE
  5
11CE3
102
{ACAD_REACTORS
330
128D4
102
}
330
17
100
AcDbEntity
  8
BDR
100
AcDbLine
 10
138.2169295018095
 20
123.0362941793405
 30
0.0
 11
138.2169295018095
 21
255.6748021801172
 31
0.0
  0
LINE
  5
11CE5
330
17
100
AcDbEntity
  8
BDR
100
AcDbLine
 10
221.5803211345133
 20
123.0362941793405
 30
0.0
 11
134.2169295018095
 21
123.0362941793405
 31
0.0
  0
MTEXT
  5
11CF6
330
17
100
AcDbEntity
  8
TEXT
100
AcDbMText
 10
159.3213248607085
 20
238.3380744638925
 30
0.0
 40
1.75
 41
0.0
 46
0.0
 71
     1
 72
     1
  1
TAPERED REVERSE\PANGLE
  7
WEB PAGE
 73
     1
 44
1.0
  0
MTEXT
  5
11CF7
330
17
100
AcDbEntity
  8
TEXT
100
AcDbMText
 10
186.5198471084741
 20
271.4175248925766
 30
0.0
 40
1.75
 41
0.0
 46
0.0
 71
     6
 72
     1
  1
HORIZONTAL ANGLE
  7
WEB PAGE
 73
     1
 44
1.0
  0
LINE
  5
11CF8
102
{ACAD_REACTORS
330
128D4
102
}
330
17
100
AcDbEntity
  8
BDR
100
AcDbLine
 10
138.2169295018095
 20
255.6748021801172
 30
0.0
 11
286.026584289913
 21
255.6748021801172
 31
0.0
  0
LEADER
  5
11CFD
330
17
100
AcDbEntity
  8
TEXT
100
AcDbLeader
  3
STANDARD
 73
     0
 74
     0
 75
     1
 40
3.5
 76
     3
 10
146.9538936123103
 20
251.4671943696826
 30
0.0
 10
156.7568279188576
 20
271.3504931055552
 30
0.0
 10
159.7568279188576
 20
271.3504931055552
 30
0.0
213
-30.35839136054324
223
2.172941992376536
233
0.0
1001
ACAD
1000
DSTYLE
1002
{
1070
    40
1040
1.0
1070
   147
1040
3.0
1002
}
  0
DIMENSION
  5
11CFE
330
17
100
AcDbEntity
  8
TEXT
100
AcDbDimension
  2
*D68
 10
118.0575413775432
 20
255.6748021801172
 30
0.0
 11
128.9325413775432
 21
272.3008621425022
 31
0.0
 70
   160
  1
MINIMUM\PHEADROOM
 71
     5
 42
12.63850800077665
 73
     0
 74
     0
 75
     0
  3
STANDARD
100
AcDbAlignedDimension
 13
134.2169295018095
 23
243.0362941793405
 33
0.0
 14
138.2169295018095
 24
255.6748021801172
 34
0.0
 50
90.0
100
AcDbRotatedDimension
1001
ACAD
1000
DSTYLE
1002
{
1070
    40
1040
1.0
1002
}
  0
LEADER
  5
11D00
330
17
100
AcDbEntity
  8
TEXT
100
AcDbLeader
  3
STANDARD
 73
     0
 40
3.5
 76
     2
 10
141.5534877896161
 20
237.0491040248769
 30
0.0
 10
158.3834190818052
 20
237.0471866481528
 30
0.0
213
-28.01915490533588
223
-1.822965986319815
233
0.0
1001
ACAD
1000
DSTYLE
1002
{
1070
    40
1040
1.0
1070
   147
1040
3.0
1002
}
  0
LINE
  5
11D06
102
{ACAD_REACTORS
330
128D4
102
}
330
17
100
AcDbEntity
  8
BDR
100
AcDbLine
 10
138.2169295018095
 20
243.0362941793405
 30
0.0
 11
134.2169295018095
 21
243.0362941793405
 31
0.0
  0
LINE
  5
11D0E
330
17
100
AcDbEntity
  8
0
100
AcDbLine
 10
219.2592753791939
 20
244.1868586387286
 30
0.0
 11
217.7677376782646
 21
244.1868586387286
 31
0.0
  0
LINE
  5
11D0F
330
17
100
AcDbEntity
  8
0
100
AcDbLine
 10
217.7677376782646
 20
244.1868586387286
 30
0.0
 11
217.7677376782646
 21
255.6748021801172
 31
0.0
  0
LINE
  5
11D10
330
17
100
AcDbEntity
  8
0
100
AcDbLine
 10
217.8920722610198
 20
244.1868586387286
 30
0.0
 11
217.8920722610195
 21
255.6748021801172
 31
0.0
  0
LINE
  5
11D12
330
17
100
AcDbEntity
  8
0
100
AcDbLine
 10
219.2592753791937
 20
244.1868586387286
 30
0.0
 11
219.259275379194
 21
255.6748021801172
 31
0.0
  0
CIRCLE
  5
11D13
330
17
100
AcDbEntity
  8
0
100
AcDbCircle
 10
218.5135065287293
 20
250.8342012988146
 30
0.0
 40
0.2171678892550922
  0
CIRCLE
  5
11D14
330
17
100
AcDbEntity
  8
0
100
AcDbCircle
 10
218.5135065287293
 20
244.8561181934961
 30
0.0
 40
0.2171678892550922
  0
CIRCLE
  5
11D15
330
17
100
AcDbEntity
  8
0
100
AcDbCircle
 10
218.5135065287293
 20
246.8488125619356
 30
0.0
 40
0.2171678892550922
  0
CIRCLE
  5
11D16
330
17
100
AcDbEntity
  8
0
100
AcDbCircle
 10
218.5135065287293
 20
247.842773285834
 30
0.0
 40
0.2171678892550922
  0
CIRCLE
  5
11D17
330
17
100
AcDbEntity
  8
0
100
AcDbCircle
 10
218.5135065287293
 20
245.8500789173945
 30
0.0
 40
0.2171678892550922
  0
CIRCLE
  5
11D18
330
17
100
AcDbEntity
  8
0
100
AcDbCircle
 10
218.5135065287293
 20
249.8354676542736
 30
0.0
 40
0.2171678892550922
  0
CIRCLE
  5
11D19
330
17
100
AcDbEntity
  8
0
100
AcDbCircle
 10
218.5135065287293
 20
248.8415069303751
 30
0.0
 40
0.2171678892550922
  0
MTEXT
  5
11D1B
330
17
100
AcDbEntity
  8
TEXT
100
AcDbMText
 10
246.8734860953873
 20
215.3494515444235
 30
0.0
 40
1.75
 41
0.0
 46
0.0
 71
     4
 72
     1
  1
BACK AND INTERMEDIATE HANGERS\PSUPPLIED BY OTHERS
  7
WEB PAGE
 73
     1
 44
1.0
  0
LINE
  5
11D1C
330
17
100
AcDbEntity
  8
0
100
AcDbLine
 10
276.1739876782647
 20
244.6221346916471
 30
0.0
 11
276.1739876782647
 21
255.6748021801172
 31
0.0
  0
LINE
  5
11D1D
330
17
100
AcDbEntity
  8
0
100
AcDbLine
 10
276.2983222610198
 20
244.6221346916471
 30
0.0
 11
276.2983222610193
 21
255.6748021801172
 31
0.0
  0
LINE
  5
11D1E
330
17
100
AcDbEntity
  8
0
100
AcDbLine
 10
277.6655253791937
 20
244.6221346916471
 30
0.0
 11
277.6655253791941
 21
255.6748021801172
 31
0.0
  0
LEADER
  5
11D1F
330
17
100
AcDbEntity
  8
TEXT
100
AcDbLeader
  3
STANDARD
 73
     0
 74
     0
 75
     1
 40
3.5
 76
     3
 10
239.2584214912772
 20
208.6441848060986
 30
0.0
 10
243.1570780782128
 20
216.6485128597401
 30
0.0
 10
246.1570780782129
 20
216.6485128597401
 30
0.0
213
-30.73869949890218
223
37.29359984281018
233
0.0
1001
ACAD
1000
DSTYLE
1002
{
1070
    40
1040
1.0
1002
}
  0
LINE
  5
11D20
330
17
100
AcDbEntity
  8
0
100
AcDbLine
 10
277.6655253791939
 20
244.6221346916471
 30
0.0
 11
276.1739876782647
 21
244.6221346916471
 31
0.0
  0
CIRCLE
  5
11D21
330
17
100
AcDbEntity
  8
0
100
AcDbCircle
 10
276.9197565287293
 20
245.2913942464146
 30
0.0
 40
0.2075
  0
CIRCLE
  5
11D22
330
17
100
AcDbEntity
  8
0
100
AcDbCircle
 10
276.9197565287293
 20
248.2780493387525
 30
0.0
 40
0.2171678892550922
  0
CIRCLE
  5
11D23
330
17
100
AcDbEntity
  8
0
100
AcDbCircle
 10
276.9197565287293
 20
249.2767829832936
 30
0.0
 40
0.2171678892550922
  0
CIRCLE
  5
11D24
330
17
100
AcDbEntity
  8
0
100
AcDbCircle
 10
276.9197565287293
 20
250.270743707192
 30
0.0
 40
0.2171678892550922
  0
CIRCLE
  5
11D25
330
17
100
AcDbEntity
  8
0
100
AcDbCircle
 10
276.9197565287293
 20
246.285354970313
 30
0.0
 40
0.2171678892550922
  0
CIRCLE
  5
11D26
330
17
100
AcDbEntity
  8
0
100
AcDbCircle
 10
276.9197565287293
 20
247.2840886148541
 30
0.0
 40
0.2171678892550922
  0
CIRCLE
  5
11D27
330
17
100
AcDbEntity
  8
0
100
AcDbCircle
 10
276.9197565287293
 20
251.2694773517331
 30
0.0
 40
0.2171678892550922
  0
CIRCLE
  5
11D28
330
17
100
AcDbEntity
  8
0
100
AcDbCircle
 10
276.9197565287293
 20
252.1416600236421
 30
0.0
 40
0.2171678892550922
  0
LINE
  5
11D29
102
{ACAD_REACTORS
330
128D4
102
}
330
17
100
AcDbEntity
  8
BDR
100
AcDbLine
 10
286.0265842899129
 20
259.6748021801171
 30
0.0
 11
286.026584289913
 21
255.6748021801172
 31
0.0
  0
INSERT
  5
11E5B
330
17
100
AcDbEntity
  8
FRAMING
100
AcDbBlockReference
  2
WD-9-3-38
 10
138.2169295018095
 20
249.6998021801172
 30
0.0
  0
CIRCLE
  5
11E86
330
17
100
AcDbEntity
  8
FRAMING
100
AcDbCircle
 10
141.5919295018095
 20
252.2998021801172
 30
0.0
 40
2.375
  0
DIMENSION
  5
11EA8
330
17
100
AcDbEntity
  8
TEXT
100
AcDbDimension
  2
*D71
 10
281.6072957298075
 20
231.1459021664699
 30
0.0
 11
211.1494482093837
 21
231.1459021664699
 31
0.0
 70
    32
  1
HORIZONTAL TRACK LENGTH\P(BACKROOM: DOOR HEIGHT + 21")
 71
     5
 42
140.9156950408476
 73
     0
 74
     0
 75
     0
  3
STANDARD
100
AcDbAlignedDimension
 13
140.6916006889599
 23
226.0578021801172
 33
0.0
 14
281.6072957298075
 24
243.0578021801172
 34
0.0
100
AcDbRotatedDimension
  0
LWPOLYLINE
  5
12008
330
17
100
AcDbEntity
  8
FRAMING
100
AcDbPolyline
 90
        6
 70
     0
 43
0.0
 10
219.7254093810238
 20
206.0931119005167
 10
216.0451271338457
 20
206.0931119005167
 10
216.0451271338457
 20
208.5931119005167
 10
244.0451271338456
 20
208.5931119005167
 10
244.0451271338456
 20
206.0931119005167
 10
222.2254093810239
 20
206.0931119005167
  0
LWPOLYLINE
  5
1200A
330
17
100
AcDbEntity
  8
FRAMING
100
AcDbPolyline
 90
        2
 70
     0
 43
0.0
 10
222.2254093810239
 20
194.3608788534828
 10
233.9576424280576
 20
206.0931119005167
  0
CIRCLE
  5
1200B
330
17
100
AcDbEntity
  8
FRAMING
100
AcDbCircle
 10
220.9754093810238
 20
185.3431119005166
 30
0.0
 40
0.5
  0
CIRCLE
  5
1200C
330
17
100
AcDbEntity
  8
FRAMING
100
AcDbCircle
 10
220.9754093810238
 20
187.3431119005166
 30
0.0
 40
0.5
  0
CIRCLE
  5
1200D
330
17
100
AcDbEntity
  8
FRAMING
100
AcDbCircle
 10
220.9754093810238
 20
189.3431119005166
 30
0.0
 40
0.5
  0
CIRCLE
  5
1200E
330
17
100
AcDbEntity
  8
FRAMING
100
AcDbCircle
 10
220.9754093810238
 20
191.3431119005166
 30
0.0
 40
0.5
  0
CIRCLE
  5
1200F
330
17
100
AcDbEntity
  8
FRAMING
100
AcDbCircle
 10
220.9754093810238
 20
193.3431119005166
 30
0.0
 40
0.5
  0
CIRCLE
  5
12010
330
17
100
AcDbEntity
  8
FRAMING
100
AcDbCircle
 10
220.9754093810238
 20
195.3431119005166
 30
0.0
 40
0.5
  0
CIRCLE
  5
12011
330
17
100
AcDbEntity
  8
FRAMING
100
AcDbCircle
 10
220.9754093810238
 20
197.3431119005166
 30
0.0
 40
0.5
  0
CIRCLE
  5
12012
330
17
100
AcDbEntity
  8
FRAMING
100
AcDbCircle
 10
220.9754093810238
 20
199.3431119005166
 30
0.0
 40
0.5
  0
CIRCLE
  5
12013
330
17
100
AcDbEntity
  8
FRAMING
100
AcDbCircle
 10
220.9754093810238
 20
201.3431119005166
 30
0.0
 40
0.5
  0
CIRCLE
  5
12014
330
17
100
AcDbEntity
  8
FRAMING
100
AcDbCircle
 10
220.9754093810238
 20
203.3431119005166
 30
0.0
 40
0.5
  0
CIRCLE
  5
12015
330
17
100
AcDbEntity
  8
FRAMING
100
AcDbCircle
 10
220.9754093810238
 20
205.3431119005166
 30
0.0
 40
0.5
  0
CIRCLE
  5
12016
330
17
100
AcDbEntity
  8
FRAMING
100
AcDbCircle
 10
220.9754093810238
 20
207.3431119005166
 30
0.0
 40
0.5
  0
CIRCLE
  5
12017
330
17
100
AcDbEntity
  8
FRAMING
100
AcDbCircle
 10
220.9754093810238
 20
207.3431119005166
 30
0.0
 40
0.5
  0
CIRCLE
  5
12018
330
17
100
AcDbEntity
  8
FRAMING
100
AcDbCircle
 10
222.9754093810238
 20
207.3431119005166
 30
0.0
 40
0.5
  0
CIRCLE
  5
12019
330
17
100
AcDbEntity
  8
FRAMING
100
AcDbCircle
 10
224.9754093810238
 20
207.3431119005166
 30
0.0
 40
0.5
  0
CIRCLE
  5
1201A
330
17
100
AcDbEntity
  8
FRAMING
100
AcDbCircle
 10
226.9754093810238
 20
207.3431119005166
 30
0.0
 40
0.5
  0
CIRCLE
  5
1201B
330
17
100
AcDbEntity
  8
FRAMING
100
AcDbCircle
 10
228.9754093810238
 20
207.3431119005166
 30
0.0
 40
0.5
  0
CIRCLE
  5
1201C
330
17
100
AcDbEntity
  8
FRAMING
100
AcDbCircle
 10
230.9754093810238
 20
207.3431119005166
 30
0.0
 40
0.5
  0
CIRCLE
  5
1201D
330
17
100
AcDbEntity
  8
FRAMING
100
AcDbCircle
 10
232.9754093810239
 20
207.3431119005166
 30
0.0
 40
0.5
  0
CIRCLE
  5
1201E
330
17
100
AcDbEntity
  8
FRAMING
100
AcDbCircle
 10
234.9754093810239
 20
207.3431119005166
 30
0.0
 40
0.5
  0
CIRCLE
  5
1201F
330
17
100
AcDbEntity
  8
FRAMING
100
AcDbCircle
 10
236.9754093810239
 20
207.3431119005166
 30
0.0
 40
0.5
  0
CIRCLE
  5
12020
330
17
100
AcDbEntity
  8
FRAMING
100
AcDbCircle
 10
238.9754093810239
 20
207.3431119005166
 30
0.0
 40
0.5
  0
CIRCLE
  5
12021
330
17
100
AcDbEntity
  8
FRAMING
100
AcDbCircle
 10
240.9754093810239
 20
207.3431119005166
 30
0.0
 40
0.5
  0
CIRCLE
  5
12022
330
17
100
AcDbEntity
  8
FRAMING
100
AcDbCircle
 10
242.9754093810238
 20
207.3431119005166
 30
0.0
 40
0.5
  0
CIRCLE
  5
12023
330
17
100
AcDbEntity
  8
FRAMING
100
AcDbCircle
 10
227.0759144444122
 20
197.4436169639049
 30
0.0
 40
0.5
  0
CIRCLE
  5
12024
330
17
100
AcDbEntity
  8
FRAMING
100
AcDbCircle
 10
225.6617008820391
 20
196.0294034015318
 30
0.0
 40
0.5
  0
CIRCLE
  5
12025
330
17
100
AcDbEntity
  8
FRAMING
100
AcDbCircle
 10
224.247487319666
 20
194.6151898391588
 30
0.0
 40
0.5
  0
CIRCLE
  5
12026
330
17
100
AcDbEntity
  8
FRAMING
100
AcDbCircle
 10
222.8332737572929
 20
193.2009762767857
 30
0.0
 40
0.5
  0
CIRCLE
  5
12028
330
17
100
AcDbEntity
  8
FRAMING
100
AcDbCircle
 10
234.1469822562777
 20
204.5146847757704
 30
0.0
 40
0.5
  0
CIRCLE
  5
12029
330
17
100
AcDbEntity
  8
FRAMING
100
AcDbCircle
 10
232.7327686939046
 20
203.1004712133973
 30
0.0
 40
0.5
  0
CIRCLE
  5
1202A
330
17
100
AcDbEntity
  8
FRAMING
100
AcDbCircle
 10
231.3185551315315
 20
201.6862576510243
 30
0.0
 40
0.5
  0
CIRCLE
  5
1202B
330
17
100
AcDbEntity
  8
FRAMING
100
AcDbCircle
 10
229.9043415691584
 20
200.2720440886512
 30
0.0
 40
0.5
  0
CIRCLE
  5
1202C
330
17
100
AcDbEntity
  8
FRAMING
100
AcDbCircle
 10
228.4901280067853
 20
198.857830526278
 30
0.0
 40
0.5
  0
CIRCLE
  5
1202D
330
17
100
AcDbEntity
  8
FRAMING
100
AcDbCircle
 10
236.9754093810239
 20
207.3431119005166
 30
0.0
 40
0.5
  0
ARC
  5
1202E
330
17
100
AcDbEntity
  8
FRAMING
100
AcDbCircle
 10
235.5611958186507
 20
205.9288983381435
 30
0.0
 40
0.5
100
AcDbArc
 50
160.8266638561468
 51
19.17333614385317
  0
CIRCLE
  5
12030
330
17
100
AcDbEntity
  8
FRAMING
100
AcDbCircle
 10
218.9754093810238
 20
207.3431119005166
 30
0.0
 40
0.5
  0
CIRCLE
  5
12032
330
17
100
AcDbEntity
  8
FRAMING
100
AcDbCircle
 10
216.9754093810238
 20
207.3431119005166
 30
0.0
 40
0.5
  0
LINE
  5
12047
330
17
100
AcDbEntity
  8
FRAMING
100
AcDbLine
 10
219.7254093810238
 20
208.2814076543981
 30
0.0
 11
222.2254093810239
 21
208.2814076543981
 31
0.0
  0
LINE
  5
12048
330
17
100
AcDbEntity
  8
FRAMING
100
AcDbLine
 10
222.2254093810239
 20
208.2814076543981
 30
0.0
 11
222.2254093810239
 21
184.2814076543981
 31
0.0
  0
LINE
  5
12049
330
17
100
AcDbEntity
  8
FRAMING
100
AcDbLine
 10
222.2254093810239
 20
184.2814076543981
 30
0.0
 11
219.7254093810238
 21
184.2814076543981
 31
0.0
  0
LINE
  5
1204A
330
17
100
AcDbEntity
  8
FRAMING
100
AcDbLine
 10
219.7254093810238
 20
184.2814076543981
 30
0.0
 11
219.7254093810238
 21
208.2814076543981
 31
0.0
  0
LINE
  5
1204B
330
17
100
AcDbEntity
  8
FRAMING
100
AcDbLine
 10
220.0183890113544
 20
184.2814076543981
 30
0.0
 11
220.0183890113544
 21
208.2814076543981
 31
0.0
  0
LWPOLYLINE
  5
1204C
330
17
100
AcDbEntity
  8
FRAMING
100
AcDbPolyline
 90
        2
 70
     0
 43
0.0
 10
237.4931763339903
 20
206.0931119005167
 10
222.2254093810239
 20
190.8253449475502
  0
DIMENSION
  5
1205D
330
17
100
AcDbEntity
  8
TEXT
100
AcDbDimension
  2
*D73
 10
233.9576424280576
 20
206.0931119005167
 30
0.0
 11
228.6325828664698
 21
204.1650575049331
 31
0.0
 70
   162
 71
     5
 42
0.7853981633974483
 73
     0
 74
     0
 75
     0
  3
STANDARD
100
AcDb2LineAngularDimension
 13
244.0451271338456
 23
206.0931119005167
 33
0.0
 14
222.2254093810239
 24
206.0931119005167
 34
0.0
 15
222.2254093810239
 25
194.3608788534828
 35
0.0
 16
229.0530282928692
 26
203.2614316092943
 36
0.0
  0
TEXT
  5
12085
330
17
100
AcDbEntity
  8
SECTION JOINTS
100
AcDbText
 10
280.2551596243139
 20
222.2837133039166
 30
0.0
 40
2.0
  1
A
  7
WEB PAGE
100
AcDbText
  0
TEXT
  5
12088
330
17
100
AcDbEntity
  8
SECTION JOINTS
100
AcDbText
 10
280.2551596243139
 20
265.0592455799655
 30
0.0
 40
2.0
  1
A
  7
WEB PAGE
100
AcDbText
  0
SOLID
  5
12091
330
17
100
AcDbEntity
  8
SECTION JOINTS
100
AcDbTrace
 10
286.6294629092014
 20
223.7315336952292
 30
0.0
 11
283.6294629092014
 21
223.2315336952291
 31
0.0
 12
286.6294629092014
 22
222.7315336952291
 32
0.0
 13
286.6294629092014
 23
222.7315336952291
 33
0.0
1001
ACAD
1000
DSTYLE
1002
{
1070
   147
1040
1.0
1070
    77
1070
     0
1002
}
  0
LINE
  5
12092
330
17
100
AcDbEntity
  8
SECTION JOINTS
100
AcDbLine
 10
293.6798219243809
 20
266.0070659712781
 30
0.0
 11
293.6798219243809
 21
223.2315336952291
 31
0.0
1001
ACAD
1000
DSTYLE
1002
{
1070
   147
1040
1.0
1070
    77
1070
     0
1002
}
  0
LINE
  5
12093
330
17
100
AcDbEntity
  8
SECTION JOINTS
100
AcDbLine
 10
286.6294629092014
 20
223.2315336952291
 30
0.0
 11
293.6798219243809
 21
223.2315336952291
 31
0.0
1001
ACAD
1000
DSTYLE
1002
{
1070
   147
1040
1.0
1070
    77
1070
     0
1002
}
  0
LINE
  5
12094
330
17
100
AcDbEntity
  8
SECTION JOINTS
100
AcDbLine
 10
286.6294629092014
 20
266.0070659712781
 30
0.0
 11
293.6798219243809
 21
266.0070659712781
 31
0.0
1001
ACAD
1000
DSTYLE
1002
{
1070
   147
1040
1.0
1070
    77
1070
     0
1002
}
  0
SOLID
  5
12095
330
17
100
AcDbEntity
  8
SECTION JOINTS
100
AcDbTrace
 10
286.6294629092014
 20
266.507065971278
 30
0.0
 11
283.6294629092014
 21
266.0070659712781
 31
0.0
 12
286.6294629092014
 22
265.5070659712781
 32
0.0
 13
286.6294629092014
 23
265.5070659712781
 33
0.0
1001
ACAD
1000
DSTYLE
1002
{
1070
   147
1040
1.0
1070
    77
1070
     0
1002
}
  0
TEXT
  5
12096
330
17
100
AcDbEntity
  8
TEXT
100
AcDbText
 10
230.3204232725812
 20
176.7175822874388
 30
0.0
 40
3.0
  1
%%USECTION A-A
  7
WEB PAGE
100
AcDbText
  0
TEXT
  5
12097
330
17
100
AcDbEntity
  8
TEXT
100
AcDbText
 10
217.1876729718929
 20
170.8110820999183
 30
0.0
 40
3.0
  1
%%USUPPORT HANGER DETAIL
  7
WEB PAGE
100
AcDbText
  0
LINE
  5
12437
102
{ACAD_REACTORS
330
128D4
102
}
330
17
100
AcDbEntity
  8
BDR
100
AcDbLine
 10
134.2169295018095
 20
259.6748021801172
 30
0.0
 11
286.0265842899129
 21
259.6748021801171
 31
0.0
  0
INSERT
  5
1268C
102
{ACAD_REACTORS
330
128D4
102
}
330
17
100
AcDbEntity
  8
FRAMING
100
AcDbBlockReference
  2
A$C0F741633
 10
138.2169297194298
 20
123.0362942690099
 30
0.0
  0
INSERT
  5
126A0
330
17
100
AcDbEntity
  8
FRAMING
100
AcDbBlockReference
  2
A$C2C455F4F
 10
139.639591090885
 20
123.0301585180296
 30
0.0
  0
INSERT
  5
127E9
330
17
100
AcDbEntity
  8
FRAMING
100
AcDbBlockReference
  2
A$C38546004
 10
138.3020659183747
 20
224.0578020977309
 30
0.0
  0
CIRCLE
  5
1283D
330
17
100
AcDbEntity
  8
0
100
AcDbCircle
 10
218.5135065287293
 20
252.8268956672541
 30
0.0
 40
0.2171678892550922
  0
CIRCLE
  5
1283E
330
17
100
AcDbEntity
  8
0
100
AcDbCircle
 10
218.5135065287293
 20
251.8329349433557
 30
0.0
 40
0.2171678892550922
  0
CIRCLE
  5
1283F
330
17
100
AcDbEntity
  8
0
100
AcDbCircle
 10
218.5135065287293
 20
253.8256293117952
 30
0.0
 40
0.2171678892550922
  0
CIRCLE
  5
12840
330
17
100
AcDbEntity
  8
0
100
AcDbCircle
 10
218.5135065287293
 20
254.8243629563363
 30
0.0
 40
0.2171678892550922
  0
CIRCLE
  5
12841
330
17
100
AcDbEntity
  8
0
100
AcDbCircle
 10
276.9197565287293
 20
253.1356207475404
 30
0.0
 40
0.2171678892550922
  0
CIRCLE
  5
12842
330
17
100
AcDbEntity
  8
0
100
AcDbCircle
 10
276.9197565287293
 20
254.1343543920816
 30
0.0
 40
0.2171678892550922
  0
CIRCLE
  5
12843
330
17
100
AcDbEntity
  8
0
100
AcDbCircle
 10
276.9197565287293
 20
255.0065370639905
 30
0.0
 40
0.2171678892550922
  0
HATCH
  5
128D4
330
17
100
AcDbEntity
  8
FRAMING
100
AcDbHatch
 10
0.0
 20
0.0
 30
0.0
210
0.0
220
0.0
230
1.0
  2
ANSI31
 70
     0
 71
     1
 91
        1
 92
        7
 72
     0
 73
     1
 93
        7
 10
286.0265842899129
 20
259.6748021801171
 10
134.2169295018095
 20
259.6748021801172
 10
134.2169295018095
 20
243.0362941793405
 10
138.2169295018095
 20
243.0362941793405
 10
138.2169295018095
 20
246.0362941793405
 10
138.2169295018095
 20
255.6748021801172
 10
286.026584289913
 20
255.6748021801172
 97
        7
330
12437
330
11CE2
330
11D06
330
1268C
330
11CE3
330
11CF8
330
11D29
 75
     0
 76
     1
 52
0.0
 41
15.0
 77
     0
 78
     1
 53
45.0
 43
0.0
 44
0.0
 45
-1.325825214724776
 46
1.325825214724776
 79
     0
 47
0.2415089106888068
 98
        1
 10
175.1309664512514
 20
257.0383154841926
  0
LINE
  5
128D5
330
17
100
AcDbEntity
  8
0
100
AcDbLine
 10
219.7254093810238
 20
190.0838572048112
 30
0.0
 11
217.7254093810238
 21
190.0838572048112
 31
0.0
  0
LINE
  5
128D6
330
17
100
AcDbEntity
  8
0
100
AcDbLine
 10
219.6154093810238
 20
189.9738572048111
 30
0.0
 11
217.7254093810238
 21
189.9738572048111
 31
0.0
  0
LINE
  5
128D7
330
17
100
AcDbEntity
  8
0
100
AcDbLine
 10
218.0296742697669
 20
185.3403841783918
 30
0.0
 11
218.3999464625082
 21
184.8991109624547
 31
0.0
  0
LINE
  5
128D8
330
17
100
AcDbEntity
  8
0
100
AcDbLine
 10
217.9454093810238
 20
185.2696775413263
 30
0.0
 11
218.0296742697669
 21
185.3403841783918
 31
0.0
  0
LINE
  5
128D9
330
17
100
AcDbEntity
  8
0
100
AcDbLine
 10
219.2728521733777
 20
185.0609177796394
 30
0.0
 11
219.6154093810238
 21
185.8303138651785
 31
0.0
  0
LINE
  5
128DA
330
17
100
AcDbEntity
  8
0
100
AcDbLine
 10
219.3752012398773
 20
185.0203522798591
 30
0.0
 11
219.7254093810238
 21
185.8069326433948
 31
0.0
  0
ARC
  5
128DB
330
17
100
AcDbEntity
  8
0
100
AcDbCircle
 10
218.7906291284988
 20
185.2269326433949
 30
0.0
 40
0.51
100
AcDbArc
 50
220.0000000000001
 51
341.002957950965
  0
LINE
  5
128DC
330
17
100
AcDbEntity
  8
0
100
AcDbLine
 10
217.9454093810238
 20
185.2696775413263
 30
0.0
 11
218.3156815737651
 21
184.8284043253892
 31
0.0
  0
ARC
  5
128DD
330
17
100
AcDbEntity
  8
0
100
AcDbCircle
 10
218.7906291284988
 20
185.2269326433949
 30
0.0
 40
0.6200000000000001
100
AcDbArc
 50
220.0000000000001
 51
340.5372384316827
  0
LINE
  5
128DE
330
17
100
AcDbEntity
  8
0
100
AcDbLine
 10
219.7254093810238
 20
186.9849326433948
 30
0.0
 11
219.6154093810238
 21
186.9849326433948
 31
0.0
  0
LINE
  5
128DF
330
17
100
AcDbEntity
  8
0
100
AcDbLine
 10
219.7254093810238
 20
187.5289326433948
 30
0.0
 11
219.6154093810238
 21
187.5289326433948
 31
0.0
  0
LINE
  5
128E0
330
17
100
AcDbEntity
  8
0
100
AcDbLine
 10
219.6154093810238
 20
185.8303138651785
 30
0.0
 11
219.6154093810238
 21
189.9738572048111
 31
0.0
  0
LINE
  5
128E1
330
17
100
AcDbEntity
  8
0
100
AcDbLine
 10
219.7254093810238
 20
185.8069326433948
 30
0.0
 11
219.7254093810238
 21
190.0838572048112
 31
0.0
  0
LINE
  5
128E2
330
17
100
AcDbEntity
  8
0
100
AcDbLine
 10
217.7254093810238
 20
190.0838572048112
 30
0.0
 11
217.7254093810238
 21
189.9738572048111
 31
0.0
  0
LINE
  5
128E3
330
17
100
AcDbEntity
  8
0
100
AcDbLine
 10
219.3752012398773
 20
190.6899036398628
 30
0.0
 11
219.7254093810238
 21
191.4764840033986
 31
0.0
  0
LINE
  5
128E4
330
17
100
AcDbEntity
  8
0
100
AcDbLine
 10
219.2728521733777
 20
190.7304691396431
 30
0.0
 11
219.6154093810238
 21
191.4998652251822
 31
0.0
  0
ARC
  5
128E5
330
17
100
AcDbEntity
  8
0
100
AcDbCircle
 10
218.7906291284988
 20
190.8964840033986
 30
0.0
 40
0.6200000000000001
100
AcDbArc
 50
220.0000000000001
 51
340.5372384316827
  0
ARC
  5
128E6
330
17
100
AcDbEntity
  8
0
100
AcDbCircle
 10
218.7906291284988
 20
190.8964840033986
 30
0.0
 40
0.51
100
AcDbArc
 50
220.0000000000001
 51
341.002957950965
  0
LINE
  5
128E7
330
17
100
AcDbEntity
  8
0
100
AcDbLine
 10
217.9454093810238
 20
190.9392289013301
 30
0.0
 11
218.3156815737651
 21
190.4979556853929
 31
0.0
  0
LINE
  5
128E8
330
17
100
AcDbEntity
  8
0
100
AcDbLine
 10
217.9454093810238
 20
190.9392289013301
 30
0.0
 11
218.0296742697669
 21
191.0099355383955
 31
0.0
  0
LINE
  5
128E9
330
17
100
AcDbEntity
  8
0
100
AcDbLine
 10
218.0296742697669
 20
191.0099355383955
 30
0.0
 11
218.3999464625082
 21
190.5686623224584
 31
0.0
  0
LINE
  5
128EA
330
17
100
AcDbEntity
  8
0
100
AcDbLine
 10
219.7254093810238
 20
195.7534085648149
 30
0.0
 11
217.7254093810238
 21
195.7534085648149
 31
0.0
  0
LINE
  5
128EB
330
17
100
AcDbEntity
  8
0
100
AcDbLine
 10
219.6154093810238
 20
195.6434085648148
 30
0.0
 11
217.7254093810238
 21
195.6434085648148
 31
0.0
  0
LINE
  5
128EC
330
17
100
AcDbEntity
  8
0
100
AcDbLine
 10
217.7254093810238
 20
195.7534085648149
 30
0.0
 11
217.7254093810238
 21
195.6434085648148
 31
0.0
  0
LINE
  5
128ED
330
17
100
AcDbEntity
  8
0
100
AcDbLine
 10
219.6154093810238
 20
191.4998652251822
 30
0.0
 11
219.6154093810238
 21
195.6434085648148
 31
0.0
  0
LINE
  5
128EE
330
17
100
AcDbEntity
  8
0
100
AcDbLine
 10
219.7254093810238
 20
191.4764840033986
 30
0.0
 11
219.7254093810238
 21
195.7534085648149
 31
0.0
  0
LINE
  5
128EF
330
17
100
AcDbEntity
  8
0
100
AcDbLine
 10
219.7254093810238
 20
193.1984840033986
 30
0.0
 11
219.6154093810238
 21
193.1984840033986
 31
0.0
  0
LINE
  5
128F0
330
17
100
AcDbEntity
  8
0
100
AcDbLine
 10
219.7254093810238
 20
192.6544840033986
 30
0.0
 11
219.6154093810238
 21
192.6544840033986
 31
0.0
  0
TEXT
  5
128F8
330
17
100
AcDbEntity
  8
TEXT
100
AcDbText
 10
134.6729162348921
 20
108.4730632051299
 30
0.0
 40
3.0
  1
%%USTANDARD LIFT LOW HEADROOM TO THE FRONT
  7
WEB PAGE
 72
     1
 11
187.0885615124696
 21
108.4730632051299
 31
0.0
100
AcDbText
  0
TEXT
  5
128F9
330
17
100
AcDbEntity
  8
TEXT
100
AcDbText
 10
128.8902918657501
 20
101.8932832923801
 30
0.0
 40
3.0
  1
%%UTAPERED REVERSE ANGLE MOUNT TRACK SET DETAIL
  7
WEB PAGE
 72
     1
 11
187.0885615124696
 21
101.8932832923801
 31
0.0
100
AcDbText
  0
DIMENSION
  5
1292C
330
17
100
AcDbEntity
  8
FRAMING
100
AcDbDimension
  2
*D99
 10
95.21078772093144
 20
246.0362941793405
 30
0.0
 11
95.21078772093138
 21
184.5362941793405
 31
0.0
 70
    32
  1
3"TAPERED REVERSE\PANGLE\PDOOR HEIGHT+3"
 71
     5
 42
123.0
 73
     0
 74
     0
 75
     0
  3
STANDARD
100
AcDbAlignedDimension
 13
134.2169295018095
 23
123.0362941793405
 33
0.0
 14
138.2169295018095
 24
246.0362941793405
 34
0.0
 50
90.0
100
AcDbRotatedDimension
  0
LINE
  5
129A0
330
17
100
AcDbEntity
  8
TEXT
100
AcDbLine
 10
238.9011616976462
 20
131.919610033948
 30
0.0
 11
238.9011616976462
 21
149.7040492378205
 31
0.0
  0
LINE
  5
129A1
330
17
100
AcDbEntity
  8
TEXT
100
AcDbLine
 10
286.2549136939947
 20
149.7040492378205
 30
0.0
 11
286.2549136939947
 21
131.919610033948
 31
0.0
  0
LINE
  5
129A2
330
17
100
AcDbEntity
  8
TEXT
100
AcDbLine
 10
255.6150766936901
 20
149.7040492378205
 30
0.0
 11
255.6150766936901
 21
131.919610033948
 31
0.0
  0
LINE
  5
129A3
330
17
100
AcDbEntity
  8
TEXT
100
AcDbLine
 10
227.3912510669271
 20
149.7040492378205
 30
0.0
 11
227.3912510669271
 21
131.9196100339479
 31
0.0
  0
LINE
  5
129A4
330
17
100
AcDbEntity
  8
TEXT
100
AcDbLine
 10
208.1323792514585
 20
149.7040492378205
 30
0.0
 11
208.1323792514585
 21
131.9196100339479
 31
0.0
  0
LINE
  5
129A5
330
17
100
AcDbEntity
  8
TEXT
100
AcDbLine
 10
188.6855952729854
 20
149.7040492378205
 30
0.0
 11
188.6855952729854
 21
131.9196100339479
 31
0.0
  0
LINE
  5
129A6
330
17
100
AcDbEntity
  8
TEXT
100
AcDbLine
 10
227.3912510669271
 20
131.9196100339479
 30
0.0
 11
188.6855952729854
 21
131.9196100339479
 31
0.0
  0
LINE
  5
129A7
330
17
100
AcDbEntity
  8
TEXT
100
AcDbLine
 10
227.3912510669271
 20
135.5532198349161
 30
0.0
 11
188.6855952729854
 21
135.553219834916
 31
0.0
  0
TEXT
  5
129A8
330
17
100
AcDbEntity
  8
TEXT
100
AcDbText
 10
192.4525291004218
 20
128.3288147621144
 30
0.0
 40
1.75
  1
* ADD 4" FOR OPERATOR.
  7
WEB PAGE
 72
     1
 11
208.0189494320729
 21
128.3288147621144
 31
0.0
100
AcDbText
  0
TEXT
  5
129A9
330
17
100
AcDbEntity
  8
TEXT
100
AcDbText
 10
194.2099380609279
 20
132.8412237485078
 30
0.0
 40
1.75
  1
19' - 20'
  7
WEB PAGE
 72
     1
 11
198.3357491640281
 21
132.8412237485078
 31
0.0
100
AcDbText
  0
TEXT
  5
129AA
330
17
100
AcDbEntity
  8
TEXT
100
AcDbText
 10
216.8599357530872
 20
132.9348992528758
 30
0.0
 40
1.75
  1
16"
  7
WEB PAGE
 72
     1
 11
218.6793301294391
 21
132.9348992528758
 31
0.0
100
AcDbText
  0
TEXT
  5
129AB
330
17
100
AcDbEntity
  8
TEXT
100
AcDbText
 10
264.104695986921
 20
132.7078219365318
 30
0.0
 40
1.75
  1
F= DH + 11"
  7
WEB PAGE
 72
     1
 11
270.9349951938424
 21
132.7078219365318
 31
0.0
100
AcDbText
  0
LINE
  5
129AC
330
17
100
AcDbEntity
  8
TEXT
100
AcDbLine
 10
286.2549136939947
 20
131.919610033948
 30
0.0
 11
238.9011616976462
 21
131.919610033948
 31
0.0
  0
LINE
  5
129AD
330
17
100
AcDbEntity
  8
TEXT
100
AcDbLine
 10
286.2549136939947
 20
135.5532198349162
 30
0.0
 11
238.9011616976462
 21
135.5532198349161
 31
0.0
  0
TEXT
  5
129AE
330
17
100
AcDbEntity
  8
TEXT
100
AcDbText
 10
242.9518827140532
 20
132.7078219365318
 30
0.0
 40
1.75
  1
800-312
  7
WEB PAGE
 72
     1
 11
247.2581191956682
 21
132.7078219365318
 31
0.0
100
AcDbText
  0
LINE
  5
129AF
330
17
100
AcDbEntity
  8
TEXT
100
AcDbLine
 10
188.6855952729854
 20
159.942573701505
 30
0.0
 11
227.3912510669271
 21
159.942573701505
 31
0.0
  0
LINE
  5
129B0
330
17
100
AcDbEntity
  8
TEXT
100
AcDbLine
 10
227.3912510669271
 20
139.1868296358842
 30
0.0
 11
188.6855952729854
 21
139.1868296358842
 31
0.0
  0
LINE
  5
129B1
330
17
100
AcDbEntity
  8
TEXT
100
AcDbLine
 10
188.6855952729854
 20
149.7040492378205
 30
0.0
 11
227.3912510669271
 21
149.7040492378205
 31
0.0
  0
LINE
  5
129B2
330
17
100
AcDbEntity
  8
TEXT
100
AcDbLine
 10
188.6855952729854
 20
142.8204394368523
 30
0.0
 11
227.3912510669271
 21
142.8204394368523
 31
0.0
  0
LINE
  5
129B3
330
17
100
AcDbEntity
  8
TEXT
100
AcDbLine
 10
188.6855952729854
 20
149.7040492378205
 30
0.0
 11
188.6855952729854
 21
159.942573701505
 31
0.0
  0
TEXT
  5
129B4
330
17
100
AcDbEntity
  8
TEXT
100
AcDbText
 10
210.2200858519692
 20
143.9733542533619
 30
0.0
 40
1.75
  1
HEADROOM
  7
WEB PAGE
 72
     1
 11
217.6850281735265
 21
143.9733542533619
 31
0.0
100
AcDbText
  0
MTEXT
  5
129B5
330
17
100
AcDbEntity
  8
TEXT
100
AcDbMText
 10
208.242314796601
 20
158.7130746942271
 30
0.0
 40
2.6
 41
37.3125
 46
0.0
 71
     2
 72
     5
  1
HEADROOM\PREQUIREMENTS
 73
     1
 44
1.0
  0
TEXT
  5
129B6
330
17
100
AcDbEntity
  8
TEXT
100
AcDbText
 10
195.1623570290053
 20
140.1307992841697
 30
0.0
 40
1.75
  1
7' - 12'
  7
WEB PAGE
 72
     1
 11
198.6421695740666
 21
140.1307992841697
 31
0.0
100
AcDbText
  0
TEXT
  5
129B7
330
17
100
AcDbEntity
  8
TEXT
100
AcDbText
 10
193.7202902532816
 20
143.9733542533619
 30
0.0
 40
1.75
  1
HEIGHT
  7
WEB PAGE
 72
     1
 11
198.5280588185303
 21
143.9733542533619
 31
0.0
100
AcDbText
  0
TEXT
  5
129B8
330
17
100
AcDbEntity
  8
TEXT
100
AcDbText
 10
194.8558345935844
 20
147.0191932157338
 30
0.0
 40
1.75
  1
DOOR
  7
WEB PAGE
 72
     1
 11
198.5280588185303
 21
147.0191932157338
 31
0.0
100
AcDbText
  0
TEXT
  5
129B9
330
17
100
AcDbEntity
  8
TEXT
100
AcDbText
 10
194.0230796394651
 20
136.3470569267391
 30
0.0
 40
1.75
  1
13' - 18'
  7
WEB PAGE
 72
     1
 11
198.1488907425653
 21
136.3470569267391
 31
0.0
100
AcDbText
  0
LINE
  5
129BA
330
17
100
AcDbEntity
  8
TEXT
100
AcDbLine
 10
227.3912510669271
 20
149.7040492378205
 30
0.0
 11
227.3912510669271
 21
159.942573701505
 31
0.0
  0
TEXT
  5
129BB
330
17
100
AcDbEntity
  8
TEXT
100
AcDbText
 10
214.7787353204989
 20
140.1307992841697
 30
0.0
 40
1.75
  1
12-1/8"
  7
WEB PAGE
 72
     1
 11
218.6793301294391
 21
140.1307992841697
 31
0.0
100
AcDbText
  0
TEXT
  5
129BC
330
17
100
AcDbEntity
  8
TEXT
100
AcDbText
 10
214.7787353204989
 20
136.6045609213694
 30
0.0
 40
1.75
  1
13-1/8"
  7
WEB PAGE
 72
     1
 11
218.6793301294391
 21
136.6045609213694
 31
0.0
100
AcDbText
  0
TEXT
  5
129BD
330
17
100
AcDbEntity
  8
TEXT
100
AcDbText
 10
211.512082968047
 20
147.0191932157338
 30
0.0
 40
1.75
  1
MINIMUM
  7
WEB PAGE
 72
     1
 11
217.6850281735265
 21
147.0191932157338
 31
0.0
100
AcDbText
  0
TEXT
  5
129BE
330
17
100
AcDbEntity
  8
TEXT
100
AcDbText
 10
262.6694941123716
 20
143.6417048017038
 30
0.0
 40
1.75
  1
F= DH + 9-1/4"
  7
WEB PAGE
 72
     1
 11
270.9349951938424
 21
143.6417048017038
 31
0.0
100
AcDbText
  0
TEXT
  5
129BF
330
17
100
AcDbEntity
  8
TEXT
100
AcDbText
 10
262.6694941123716
 20
140.1549283528065
 30
0.0
 40
1.75
  1
F= DH + 9-1/4"
  7
WEB PAGE
 72
     1
 11
270.9349951938424
 21
140.1549283528065
 31
0.0
100
AcDbText
  0
TEXT
  5
129C0
330
17
100
AcDbEntity
  8
TEXT
100
AcDbText
 10
262.6694941123716
 20
136.5103005241874
 30
0.0
 40
1.75
  1
F= DH + 9-5/8"
  7
WEB PAGE
 72
     1
 11
270.9349951938424
 21
136.5103005241874
 31
0.0
100
AcDbText
  0
LINE
  5
129C1
330
17
100
AcDbEntity
  8
TEXT
100
AcDbLine
 10
238.9011616976462
 20
149.7040492378205
 30
0.0
 11
286.2549136939947
 21
149.7040492378205
 31
0.0
  0
LINE
  5
129C2
330
17
100
AcDbEntity
  8
TEXT
100
AcDbLine
 10
286.2549136939947
 20
139.1868296358843
 30
0.0
 11
238.9011616976462
 21
139.1868296358842
 31
0.0
  0
LINE
  5
129C3
330
17
100
AcDbEntity
  8
TEXT
100
AcDbLine
 10
286.2549136939947
 20
142.8204394368524
 30
0.0
 11
238.9011616976462
 21
142.8204394368524
 31
0.0
  0
LINE
  5
129C4
330
17
100
AcDbEntity
  8
TEXT
100
AcDbLine
 10
238.9011616976462
 20
159.942573701505
 30
0.0
 11
286.2549136939946
 21
159.942573701505
 31
0.0
  0
LINE
  5
129C5
330
17
100
AcDbEntity
  8
TEXT
100
AcDbLine
 10
238.9011616976462
 20
146.4540492378205
 30
0.0
 11
286.2549136939947
 21
146.4540492378205
 31
0.0
  0
MTEXT
  5
129C6
330
17
100
AcDbEntity
  8
TEXT
100
AcDbMText
 10
262.5780376958204
 20
158.7290963293354
 30
0.0
 40
2.6
 41
37.3125
 46
0.0
 71
     2
 72
     5
  1
FLOOR TO SHAFT\PCENTER DISTANCE
 73
     1
 44
1.0
  0
LINE
  5
129C7
330
17
100
AcDbEntity
  8
TEXT
100
AcDbLine
 10
238.9011616976462
 20
149.7040492378205
 30
0.0
 11
238.9011616976462
 21
159.942573701505
 31
0.0
  0
TEXT
  5
129C8
330
17
100
AcDbEntity
  8
TEXT
100
AcDbText
 10
243.5978812720922
 20
143.6417048017038
 30
0.0
 40
1.75
  1
400-96
  7
WEB PAGE
 72
     1
 11
247.2581191956682
 21
143.6417048017038
 31
0.0
100
AcDbText
  0
TEXT
  5
129C9
330
17
100
AcDbEntity
  8
TEXT
100
AcDbText
 10
242.9518827140532
 20
140.1549283528065
 30
0.0
 40
1.75
  1
400-144
  7
WEB PAGE
 72
     1
 11
247.2581191956682
 21
140.1549283528065
 31
0.0
100
AcDbText
  0
TEXT
  5
129CA
330
17
100
AcDbEntity
  8
TEXT
100
AcDbText
 10
243.1441862848038
 20
147.1284812506013
 30
0.0
 40
1.75
  1
DRUM
  7
WEB PAGE
 72
     1
 11
247.0208084910042
 21
147.1284812506013
 31
0.0
100
AcDbText
  0
TEXT
  5
129CB
330
17
100
AcDbEntity
  8
TEXT
100
AcDbText
 10
242.3058841560143
 20
136.5103005241874
 30
0.0
 40
1.75
  1
5250-216
  7
WEB PAGE
 72
     1
 11
247.2581191956682
 21
136.5103005241874
 31
0.0
100
AcDbText
  0
TEXT
  5
129CC
330
17
100
AcDbEntity
  8
TEXT
100
AcDbText
 10
264.6175835139577
 20
147.1284812506013
 30
0.0
 40
1.75
  1
FORMULA
  7
WEB PAGE
 72
     1
 11
270.9349951938424
 21
147.1284812506013
 31
0.0
100
AcDbText
  0
LINE
  5
129CD
330
17
100
AcDbEntity
  8
TEXT
100
AcDbLine
 10
286.2549136939947
 20
149.7040492378205
 30
0.0
 11
286.2549136939946
 21
159.942573701505
 31
0.0
  0
TEXT
  5
1335A
330
17
100
AcDbEntity
  8
TEXT
100
AcDbText
 10
240.909103798985
 20
128.5749906354745
 30
0.0
 40
1.75
  1
DH = DOOR HEIGHT
  7
WEB PAGE
 72
     1
 11
252.941457800427
 21
128.5749906354745
 31
0.0
100
AcDbText
  0
TEXT
  5
1335C
330
17
100
AcDbEntity
  8
TEXT
100
AcDbText
 10
242.145824322059
 20
125.3547142553627
 30
0.0
 40
1.75
  1
F = FLOOR TO SHAFT CENTER
  7
WEB PAGE
 72
     1
 11
260.2937154539984
 21
125.3547142553627
 31
0.0
100
AcDbText
  0
VIEWPORT
  5
C943
330
14
100
AcDbEntity
 67
     1
  8
0
100
AcDbViewport
 10
4.071326734460375
 20
5.291909338475853
 30
0.0
 40
16.00184752838433
 41
10.36042759774256
 68
     1
 69
     1
 12
4.071326734460375
 22
5.291909338475853
 13
0.0
 23
0.0
 14
0.5
 24
0.5
 15
0.5
 25
0.5
 16
0.0
 26
0.0
 36
1.0
 17
0.0
 27
0.0
 37
0.0
 42
50.0
 43
0.0
 44
0.0
 45
10.36042759774256
 50
0.0
 51
0.0
 72
   100
 90
    32800
  1

281
     0
 71
     1
 74
     0
110
0.0
120
0.0
130
0.0
111
1.0
121
0.0
131
0.0
112
0.0
122
1.0
132
0.0
 79
     0
146
0.0
170
     0
 61
     5
348
1336A
292
     1
282
     1
141
0.0
142
0.0
 63
   250
421
  3355443
  0
VIEWPORT
  5
1333D
330
14
100
AcDbEntity
 67
     1
  8
Defpoints
100
AcDbViewport
 10
4.079803218996409
 20
4.904545366917987
 30
0.0
 40
7.601542201700349
 41
9.182425811538363
 68
     2
 69
     2
 12
168.5591115919549
 22
187.9603212806285
 13
0.0
 23
0.0
 14
1.0
 24
1.0
 15
0.25
 25
0.25
 16
0.0
 26
0.0
 36
1.0
 17
0.0
 27
0.0
 37
0.0
 42
50.0
 43
0.0
 44
0.0
 45
307.8739499920016
 50
0.0
 51
0.0
 72
   100
 90
    32768
  1

281
     0
 71
     1
 74
     0
110
0.0
120
0.0
130
0.0
111
1.0
121
0.0
131
0.0
112
0.0
122
1.0
132
0.0
 79
     0
146
0.0
170
     0
 61
     5
348
1336A
292
     1
282
     1
141
0.0
142
0.0
 63
   250
421
  3355443
  0
ENDSEC
  0
SECTION
  2
OBJECTS
  0
DICTIONARY
  5
C
330
0
100
AcDbDictionary
281
     1
  3
ACAD_COLOR
350
13375
  3
ACAD_GROUP
350
D
  3
ACAD_LAYOUT
350
B57A
  3
ACAD_MATERIAL
350
13360
  3
ACAD_MLINESTYLE
350
1A
  3
ACAD_PLOTSETTINGS
350
B57B
  3
ACAD_PLOTSTYLENAME
350
B578
  3
ACAD_TABLESTYLE
350
13376
  3
ACAD_VISUALSTYLE
350
13364
  3
AcadDim
350
119E2
  3
ACDBVARIABLEDICTIONARY
350
59
  3
ASE_INDEX_DICTIONARY
350
123F7
  0
DICTIONARY
  5
1343F
330
8
100
AcDbDictionary
280
     1
281
     1
  0
DICTIONARY
  5
13414
330
2
100
AcDbDictionary
280
     1
281
     1
  3
ACAD_LAYERSTATES
360
13415
  0
DICTIONARY
  5
13375
102
{ACAD_REACTORS
330
C
102
}
330
C
100
AcDbDictionary
281
     1
  0
DICTIONARY
  5
D
102
{ACAD_REACTORS
330
C
102
}
330
C
100
AcDbDictionary
281
     1
  0
DICTIONARY
  5
B57A
102
{ACAD_REACTORS
330
C
102
}
330
C
100
AcDbDictionary
281
     1
  3
Layout1
350
B57D
  3
Model
350
B57C
  0
DICTIONARY
  5
13360
102
{ACAD_REACTORS
330
C
102
}
330
C
100
AcDbDictionary
281
     1
  3
ByBlock
350
13362
  3
ByLayer
350
13361
  3
Global
350
13363
  0
DICTIONARY
  5
1A
102
{ACAD_REACTORS
330
C
102
}
330
C
100
AcDbDictionary
281
     1
  3
STANDARD
350
1B
  0
DICTIONARY
  5
B57B
102
{ACAD_REACTORS
330
C
102
}
330
C
100
AcDbDictionary
281
     1
  0
ACDBDICTIONARYWDFLT
  5
B578
102
{ACAD_REACTORS
330
C
102
}
330
C
100
AcDbDictionary
281
     1
  3
Normal
350
B579
100
AcDbDictionaryWithDefault
340
B579
  0
DICTIONARY
  5
13376
102
{ACAD_REACTORS
330
C
102
}
330
C
100
AcDbDictionary
281
     1
  3
Standard
350
13377
  0
DICTIONARY
  5
13364
102
{ACAD_REACTORS
330
C
102
}
330
C
100
AcDbDictionary
281
     1
  3
2dWireframe
350
1336A
  3
3D Hidden
350
1336C
  3
3dWireframe
350
1336B
  3
Basic
350
13369
  3
Brighten
350
13370
  3
ColorChange
350
13374
  3
Conceptual
350
1336D
  3
Dim
350
1336F
  3
Facepattern
350
13373
  3
Flat
350
13365
  3
FlatWithEdges
350
13366
  3
Gouraud
350
13367
  3
GouraudWithEdges
350
13368
  3
Linepattern
350
13372
  3
Realistic
350
1336E
  3
Thicken
350
13371
  0
XRECORD
  5
119E2
102
{ACAD_REACTORS
330
C
102
}
330
C
100
AcDbXrecord
280
     1
 90
   990106
  3

 60
     0
 61
     0
 62
     1
 63
     3
 64
     0
 65
     0
 66
     0
 67
     3
 68
     1
 69
     0
 70
     0
 71
     0
 72
     0
 40
0.0
170
     0
340
0
  0
DICTIONARY
  5
59
102
{ACAD_REACTORS
330
C
102
}
330
C
100
AcDbDictionary
281
     1
  3
CTABLESTYLE
350
13426
  3
DIMADEC
350
5A
  3
SORTENTS
350
769A
  0
DICTIONARY
  5
123F7
102
{ACAD_REACTORS
330
C
102
}
330
C
100
AcDbDictionary
281
     1
  3
ASEBlockHierarchyIndexRecord
350
123F9
1001
DCO15
1040
1434891614.2
  0
DICTIONARY
  5
13415
102
{ACAD_REACTORS
330
13414
102
}
330
13414
100
AcDbDictionary
281
     1
  0
LAYOUT
  5
B57D
102
{ACAD_XDICTIONARY
360
1343C
102
}
102
{ACAD_REACTORS
330
B57A
102
}
330
B57A
100
AcDbPlotSettings
  1

  2
Acrobat PDFWriter
  4
Letter
  6

 40
7.143749713897705
 41
7.143756389617919
 42
7.14373779296875
 43
7.14373779296875
 44
215.8999938964844
 45
279.3999938964844
 46
0.254
 47
0.508
 48
0.0
 49
0.0
140
0.0
141
0.0
142
1.0
143
1.0
 70
   692
 72
     0
 73
     0
 74
     1
  7

 75
    16
147
1.0
 76
     0
 77
     2
 78
   300
148
-3.419494638048143
149
-4.284743497285657
100
AcDbLayout
  1
Layout1
 70
     1
 71
     1
 10
-0.1566242155846284
 20
-0.1325595626902465
 11
8.34337554411948
 21
10.86744019701386
 12
0.0
 22
0.0
 32
0.0
 14
0.1725343329193563
 24
0.1527350014287716
 34
0.0
 15
7.970382266733001
 25
10.43127321094523
 35
0.0
146
0.0
 13
0.0
 23
0.0
 33
0.0
 16
1.0
 26
0.0
 36
0.0
 17
0.0
 27
1.0
 37
0.0
 76
     0
330
14
331
C943
  0
LAYOUT
  5
B57C
102
{ACAD_REACTORS
330
B57A
102
}
330
B57A
100
AcDbPlotSettings
  1

  2
PMKT1 Marketing HP-8100DN Laser
  4
Letter
  6

 40
4.233333110809326
 41
4.233341693878173
 42
4.233322143554687
 43
4.23333740234375
 44
215.8999938964844
 45
279.3999938964844
 46
10.16
 47
0.0
 48
139.3684830884462
 49
213.5442578355003
140
281.5818113799604
141
346.2220205485337
142
1.0
143
23.54503777727821
 70
 11956
 72
     0
 73
     1
 74
     1
  7

 75
     0
147
0.0424717942463883
 76
     0
 77
     2
 78
   300
148
-1091.839838311098
149
-2572.580636366069
100
AcDbLayout
  1
Model
 70
     1
 71
     0
 10
0.0
 20
0.0
 11
12.0
 21
9.0
 12
0.0
 22
0.0
 32
0.0
 14
0.0
 24
0.0
 34
0.0
 15
0.0
 25
0.0
 35
0.0
146
0.0
 13
0.0
 23
0.0
 33
0.0
 16
1.0
 26
0.0
 36
0.0
 17
0.0
 27
1.0
 37
0.0
 76
     0
330
17
331
1335E
  0
MATERIAL
  5
13362
102
{ACAD_REACTORS
330
13360
102
}
330
13360
100
AcDbMaterial
  1
ByBlock
  0
MATERIAL
  5
13361
102
{ACAD_REACTORS
330
13360
102
}
330
13360
100
AcDbMaterial
  1
ByLayer
  0
MATERIAL
  5
13363
102
{ACAD_REACTORS
330
13360
102
}
330
13360
100
AcDbMaterial
  1
Global
  0
MLINESTYLE
  5
1B
102
{ACAD_REACTORS
330
1A
102
}
330
1A
100
AcDbMlineStyle
  2
STANDARD
 70
     0
  3

 62
   256
 51
90.0
 52
90.0
 71
     2
 49
0.5
 62
   256
  6
BYLAYER
 49
-0.5
 62
   256
  6
BYLAYER
  0
ACDBPLACEHOLDER
  5
B579
102
{ACAD_REACTORS
330
B578
102
}
330
B578
  0
TABLESTYLE
  5
13377
102
{ACAD_REACTORS
330
13376
102
}
330
13376
100
AcDbTableStyle
  3
Standard
 70
     0
 71
     0
 40
0.06
 41
0.06
280
     0
281
     0
  7
STANDARD
140
0.18
170
     2
 62
     0
 63
     7
283
     0
 90
      512
 91
        0
  1

274
    -2
284
     1
 64
     0
275
    -2
285
     1
 65
     0
276
    -2
286
     1
 66
     0
277
    -2
287
     1
 67
     0
278
    -2
288
     1
 68
     0
279
    -2
289
     1
 69
     0
  7
STANDARD
140
0.25
170
     5
 62
     0
 63
     7
283
     0
 90
      512
 91
        0
  1

274
    -2
284
     1
 64
     0
275
    -2
285
     1
 65
     0
276
    -2
286
     1
 66
     0
277
    -2
287
     1
 67
     0
278
    -2
288
     1
 68
     0
279
    -2
289
     1
 69
     0
  7
STANDARD
140
0.18
170
     5
 62
     0
 63
     7
283
     0
 90
      512
 91
        0
  1

274
    -2
284
     1
 64
     0
275
    -2
285
     1
 65
     0
276
    -2
286
     1
 66
     0
277
    -2
287
     1
 67
     0
278
    -2
288
     1
 68
     0
279
    -2
289
     1
 69
     0
  0
VISUALSTYLE
  5
1336A
102
{ACAD_REACTORS
330
13364
102
}
330
13364
100
AcDbVisualStyle
  2
2dWireframe
 70
     4
 71
     0
 72
     2
 73
     0
 90
        0
 40
-0.6
 41
-30.0
 62
     5
 63
     7
421
 16777215
 74
     1
 91
        4
 64
     7
 65
   257
 75
     1
175
     1
 42
1.0
 92
        0
 66
   257
 43
1.0
 76
     1
 77
     6
 78
     2
 67
     7
 79
     5
170
     0
171
     0
290
     0
174
     0
 93
        1
 44
0.0
173
     0
291
     0
 45
0.0
  0
VISUALSTYLE
  5
1336C
102
{ACAD_REACTORS
330
13364
102
}
330
13364
100
AcDbVisualStyle
  2
3D Hidden
 70
     6
 71
     1
 72
     2
 73
     2
 90
        0
 40
-0.6
 41
-30.0
 62
     5
 63
     7
421
 16777215
 74
     2
 91
        2
 64
     7
 65
   257
 75
     2
175
     1
 42
40.0
 92
        0
 66
   257
 43
1.0
 76
     1
 77
     6
 78
     2
 67
     7
 79
     3
170
     0
171
     0
290
     0
174
     0
 93
        1
 44
0.0
173
     0
291
     0
 45
0.0
  0
VISUALSTYLE
  5
1336B
102
{ACAD_REACTORS
330
13364
102
}
330
13364
100
AcDbVisualStyle
  2
3dWireframe
 70
     5
 71
     0
 72
     2
 73
     0
 90
        0
 40
-0.6
 41
-30.0
 62
     5
 63
     7
421
 16777215
 74
     1
 91
        4
 64
     7
 65
   257
 75
     1
175
     1
 42
1.0
 92
        0
 66
   257
 43
1.0
 76
     1
 77
     6
 78
     2
 67
     7
 79
     5
170
     0
171
     0
290
     0
174
     0
 93
        1
 44
0.0
173
     0
291
     0
 45
0.0
  0
VISUALSTYLE
  5
13369
102
{ACAD_REACTORS
330
13364
102
}
330
13364
100
AcDbVisualStyle
  2
Basic
 70
     7
 71
     1
 72
     0
 73
     1
 90
        0
 40
-0.6
 41
-30.0
 62
     5
 63
     7
421
 16777215
 74
     0
 91
        4
 64
     7
 65
   257
 75
     1
175
     1
 42
1.0
 92
        8
 66
     7
 43
1.0
 76
     1
 77
     6
 78
     2
 67
     7
 79
     5
170
     0
171
     0
290
     0
174
     0
 93
        1
 44
0.0
173
     0
291
     1
 45
0.0
  0
VISUALSTYLE
  5
13370
102
{ACAD_REACTORS
330
13364
102
}
330
13364
100
AcDbVisualStyle
  2
Brighten
 70
    12
 71
     2
 72
     2
 73
     0
 90
        0
 40
-0.6
 41
-30.0
 62
     5
 63
     7
421
 16777215
 74
     1
 91
        4
 64
     7
 65
   257
 75
     1
175
     1
 42
1.0
 92
        8
 66
     7
 43
1.0
 76
     1
 77
     6
 78
     2
 67
     7
 79
     5
170
     0
171
     0
290
     0
174
     0
 93
        1
 44
50.0
173
     0
291
     1
 45
0.0
  0
VISUALSTYLE
  5
13374
102
{ACAD_REACTORS
330
13364
102
}
330
13364
100
AcDbVisualStyle
  2
ColorChange
 70
    16
 71
     2
 72
     2
 73
     3
 90
        0
 40
-0.6
 41
-30.0
 62
     5
 63
     8
421
  8421504
 74
     1
 91
        4
 64
     7
 65
   257
 75
     1
175
     1
 42
1.0
 92
        8
 66
     8
424
  8421504
 43
1.0
 76
     1
 77
     6
 78
     2
 67
     7
 79
     5
170
     0
171
     0
290
     0
174
     0
 93
        1
 44
0.0
173
     0
291
     1
 45
0.0
  0
VISUALSTYLE
  5
1336D
102
{ACAD_REACTORS
330
13364
102
}
330
13364
100
AcDbVisualStyle
  2
Conceptual
 70
     9
 71
     3
 72
     2
 73
     0
 90
        0
 40
-0.6
 41
-30.0
 62
     5
 63
     7
421
 16777215
 74
     2
 91
        2
 64
     7
 65
   257
 75
     1
175
     1
 42
40.0
 92
        8
 66
     7
 43
1.0
 76
     1
 77
     6
 78
     2
 67
     7
 79
     3
170
     0
171
     0
290
     0
174
     0
 93
        1
 44
0.0
173
     0
291
     0
 45
0.0
  0
VISUALSTYLE
  5
1336F
102
{ACAD_REACTORS
330
13364
102
}
330
13364
100
AcDbVisualStyle
  2
Dim
 70
    11
 71
     2
 72
     2
 73
     0
 90
        0
 40
-0.6
 41
-30.0
 62
     5
 63
     7
421
 16777215
 74
     1
 91
        4
 64
     7
 65
   257
 75
     1
175
     1
 42
1.0
 92
        8
 66
     7
 43
1.0
 76
     1
 77
     6
 78
     2
 67
     7
 79
     5
170
     0
171
     0
290
     0
174
     0
 93
        1
 44
-50.0
173
     0
291
     1
 45
0.0
  0
VISUALSTYLE
  5
13373
102
{ACAD_REACTORS
330
13364
102
}
330
13364
100
AcDbVisualStyle
  2
Facepattern
 70
    15
 71
     2
 72
     2
 73
     0
 90
        0
 40
-0.6
 41
-30.0
 62
     5
 63
     7
421
 16777215
 74
     1
 91
        4
 64
     7
 65
   257
 75
     1
175
     1
 42
1.0
 92
        8
 66
     7
 43
1.0
 76
     1
 77
     6
 78
     2
 67
     7
 79
     5
170
     0
171
     0
290
     0
174
     0
 93
        1
 44
0.0
173
     0
291
     1
 45
0.0
  0
VISUALSTYLE
  5
13365
102
{ACAD_REACTORS
330
13364
102
}
330
13364
100
AcDbVisualStyle
  2
Flat
 70
     0
 71
     2
 72
     1
 73
     1
 90
        2
 40
-0.6
 41
30.0
 62
     5
 63
     7
421
 16777215
 74
     0
 91
        4
 64
     7
 65
   257
 75
     1
175
     1
 42
1.0
 92
        8
 66
     7
 43
1.0
 76
     1
 77
     6
 78
     2
 67
     7
 79
     5
170
     0
171
     0
290
     0
174
     0
 93
       13
 44
0.0
173
     0
291
     1
 45
0.0
  0
VISUALSTYLE
  5
13366
102
{ACAD_REACTORS
330
13364
102
}
330
13364
100
AcDbVisualStyle
  2
FlatWithEdges
 70
     1
 71
     2
 72
     1
 73
     1
 90
        2
 40
-0.6
 41
30.0
 62
     5
 63
     7
421
 16777215
 74
     1
 91
        4
 64
     7
 65
   257
 75
     1
175
     1
 42
1.0
 92
        0
 66
   257
 43
1.0
 76
     1
 77
     6
 78
     2
 67
     7
 79
     5
170
     0
171
     0
290
     0
174
     0
 93
       13
 44
0.0
173
     0
291
     1
 45
0.0
  0
VISUALSTYLE
  5
13367
102
{ACAD_REACTORS
330
13364
102
}
330
13364
100
AcDbVisualStyle
  2
Gouraud
 70
     2
 71
     2
 72
     2
 73
     1
 90
        2
 40
-0.6
 41
30.0
 62
     5
 63
     7
421
 16777215
 74
     0
 91
        4
 64
     7
 65
   257
 75
     1
175
     1
 42
1.0
 92
        0
 66
     7
 43
1.0
 76
     1
 77
     6
 78
     2
 67
     7
 79
     5
170
     0
171
     0
290
     0
174
     0
 93
       13
 44
0.0
173
     0
291
     1
 45
0.0
  0
VISUALSTYLE
  5
13368
102
{ACAD_REACTORS
330
13364
102
}
330
13364
100
AcDbVisualStyle
  2
GouraudWithEdges
 70
     3
 71
     2
 72
     2
 73
     1
 90
        2
 40
-0.6
 41
30.0
 62
     5
 63
     7
421
 16777215
 74
     1
 91
        4
 64
     7
 65
   257
 75
     1
175
     1
 42
1.0
 92
        0
 66
   257
 43
1.0
 76
     1
 77
     6
 78
     2
 67
     7
 79
     5
170
     0
171
     0
290
     0
174
     0
 93
       13
 44
0.0
173
     0
291
     1
 45
0.0
  0
VISUALSTYLE
  5
13372
102
{ACAD_REACTORS
330
13364
102
}
330
13364
100
AcDbVisualStyle
  2
Linepattern
 70
    14
 71
     2
 72
     2
 73
     0
 90
        0
 40
-0.6
 41
-30.0
 62
     5
 63
     7
421
 16777215
 74
     1
 91
        4
 64
     7
 65
   257
 75
     7
175
     7
 42
1.0
 92
        8
 66
     7
 43
1.0
 76
     1
 77
     6
 78
     2
 67
     7
 79
     5
170
     0
171
     0
290
     0
174
     0
 93
        1
 44
0.0
173
     0
291
     1
 45
0.0
  0
VISUALSTYLE
  5
1336E
102
{ACAD_REACTORS
330
13364
102
}
330
13364
100
AcDbVisualStyle
  2
Realistic
 70
     8
 71
     2
 72
     2
 73
     0
 90
        0
 40
-0.6
 41
-30.0
 62
     5
 63
     7
421
 16777215
 74
     1
 91
        0
 64
     7
 65
   257
 75
     1
175
     1
 42
1.0
 92
        8
 66
     8
424
  7895160
 43
1.0
 76
     1
 77
     6
 78
     2
 67
     7
 79
     5
170
     0
171
     0
290
     0
174
     0
 93
       13
 44
0.0
173
     0
291
     0
 45
0.0
  0
VISUALSTYLE
  5
13371
102
{ACAD_REACTORS
330
13364
102
}
330
13364
100
AcDbVisualStyle
  2
Thicken
 70
    13
 71
     2
 72
     2
 73
     0
 90
        0
 40
-0.6
 41
-30.0
 62
     5
 63
     7
421
 16777215
 74
     1
 91
        4
 64
     7
 65
   257
 75
     1
175
     1
 42
1.0
 92
       12
 66
     7
 43
1.0
 76
     1
 77
     6
 78
     2
 67
     7
 79
     5
170
     0
171
     0
290
     0
174
     0
 93
        1
 44
0.0
173
     0
291
     1
 45
0.0
  0
DICTIONARYVAR
  5
13426
102
{ACAD_REACTORS
330
59
102
}
330
59
100
DictionaryVariables
280
     0
  1
STANDARD
  0
DICTIONARYVAR
  5
5A
102
{ACAD_REACTORS
330
59
102
}
330
59
100
DictionaryVariables
280
     0
  1
0
  0
DICTIONARYVAR
  5
769A
102
{ACAD_REACTORS
330
59
102
}
330
59
100
DictionaryVariables
280
     0
  1
96
  0
XRECORD
  5
123F9
102
{ACAD_REACTORS
330
123F7
102
}
330
123F7
100
AcDbXrecord
280
     1
330
3374
330
3375
330
3376
330
3377
330
3378
330
3E3C
330
3E3D
330
3E3E
330
3E3F
330
3E40
330
11E5B
330
0
330
0
330
0
330
0
330
0
330
0
330
0
330
0
330
0
330
0
330
0
330
D5DD
330
D5E3
330
D5E4
330
D5F9
330
E0B1
330
E140
330
E21C
330
E21D
330
E21E
330
E25E
330
E25F
330
E260
330
FB07
330
10013
330
10014
330
1001D
330
1138F
330
11390
330
11391
330
11392
330
11394
330
11395
330
11397
330
11398
330
11399
330
1139A
330
1139B
330
1139D
330
1139E
330
1139F
330
113F9
330
1140F
330
11412
330
11413
330
11414
330
11416
330
11417
330
11419
330
1141A
330
1141B
330
1141C
330
1141E
330
1141F
330
11420
330
11BC8
330
11BC9
330
11BCA
330
11BF7
330
11C05
330
120FE
330
120FF
330
12100
330
12101
330
12102
330
12103
330
12104
330
12105
330
12106
330
1219D
  0
DICTIONARY
  5
1343C
330
B57D
100
AcDbDictionary
280
     1
281
     1
  3
ADSK_XREC_LAYOUTTHUMBNAIL
360
1343D
  0
XRECORD
  5
1343D
102
{ACAD_REACTORS
330
1343C
102
}
330
1343C
100
AcDbXrecord
280
     1
310
280000006B0000008C0000000100080000000000103B0000000000000000000000010000000000000000000000000000FFFFFF000000000000000000000000000000000000000000000000000000000000000000330000006600000099000000CC000000FF00000000330000333300006633000099330000CC330000FF3300
310
0000660000336600006666000099660000CC660000FF66000000990000339900006699000099990000CC990000FF99000000CC000033CC000066CC000099CC0000CCCC0000FFCC000000FF000033FF000066FF000099FF0000CCFF0000FFFF000000003300330033006600330099003300CC003300FF003300003333003333
310
33006633330099333300CC333300FF33330000663300336633006666330099663300CC663300FF66330000993300339933006699330099993300CC993300FF99330000CC330033CC330066CC330099CC3300CCCC3300FFCC330000FF330033FF330066FF330099FF3300CCFF3300FFFF330000006600330066006600660099
310
006600CC006600FF00660000336600333366006633660099336600CC336600FF33660000666600336666006666660099666600CC666600FF66660000996600339966006699660099996600CC996600FF99660000CC660033CC660066CC660099CC6600CCCC6600FFCC660000FF660033FF660066FF660099FF6600CCFF6600
310
FFFF660000009900330099006600990099009900CC009900FF00990000339900333399006633990099339900CC339900FF33990000669900336699006666990099669900CC669900FF66990000999900339999006699990099999900CC999900FF99990000CC990033CC990066CC990099CC9900CCCC9900FFCC990000FF99
310
0033FF990066FF990099FF9900CCFF9900FFFF99000000CC003300CC006600CC009900CC00CC00CC00FF00CC000033CC003333CC006633CC009933CC00CC33CC00FF33CC000066CC003366CC006666CC009966CC00CC66CC00FF66CC000099CC003399CC006699CC009999CC00CC99CC00FF99CC0000CCCC0033CCCC0066CC
310
CC0099CCCC00CCCCCC00FFCCCC0000FFCC0033FFCC0066FFCC0099FFCC00CCFFCC00FFFFCC000000FF003300FF006600FF009900FF00CC00FF00FF00FF000033FF003333FF006633FF009933FF00CC33FF00FF33FF000066FF003366FF006666FF009966FF00CC66FF00FF66FF000099FF003399FF006699FF009999FF00CC
310
99FF00FF99FF0000CCFF0033CCFF0066CCFF0099CCFF00CCCCFF00FFCCFF0000FFFF0033FFFF0066FFFF0099FFFF00CCFFFF00FFFFFF00000000000D0D0D001A1A1A00282828003535350043434300505050005D5D5D006B6B6B00787878008686860093939300A1A1A100AEAEAE00BBBBBB00C9C9C900D6D6D600E4E4E400
310
F1F1F100FFFFFF0000000000000000000000000000000000000000000000000000000000000000000000000000000000F5F5F5F5F5F5F5F5F5F5F5F5F5F5F5F5F5F5F5F5F5F5F5F5F5F5F5F5F5F5F5F5F5F5F5F5F5F5F5F5F5F5F5F5F5F5F5F5F5F5F5F5F5F5F5F5F5F5F5F5F5F5F5F5F5F5F5F5F5F5F5F5F5F5F5F5F5F5F5
310
F5F5F5F5F5F5F5F5F5F5F5F5F5F5F5F5F5F5F5F5F5F5F5F5F5F5F5F5CDF5E2E2E2E2E2E2E2E2E2E2E2E2E2E2E2E2E2E2E2E2E2E2E2E2E2E2E2E2E2E2E2E2E2E2E2E2E2E2E2E2E2E2E2E2E2E2E2E2E2E2E2E2E2E2E2E2E2E2E2E2E2E2E2E2E2E2E2E2E2E2E2E2E2E2E2E2E2E2E2E2E2E2E2E2E2E2E2E2E2E2E2E2E2E2E2E2E2
310
E2E2E2E2E2E2E2E2E200F5E2E2E2E2E2E2E2E2E2E2E2E2E2E2E2E2E2E2E2E2E2E2E2E2E2E2E2E2E2E2E2E2E2E2E2E2E2E2E2E2E2E2E2E2E2E2E2E2E2E2E2E2E2E2E2E2E2E2E2E2E2E2E2E2E2E2E2E2E2E2E2E2E2E2E2E2E2E2E2E2E2E2E2E2E2E2E2E2E2E2E2E2E2E2E2E2E2E2E2E2E2E2E2E2E2E2CDF5E2E2E2E2E2E2E2E2
310
E2E2E2E2E2E2E2E2E2E2E2E2E2E2E2E2E2E2E2E2E2E2E2E2E2E2E2E2E2E2E2E2E2E2E2E2E2E2E2E2E2E2E2E2E2E2E2E2E2E2E2E2E2E2E2E2E2E2E2E2E2E2E2E2E2E2E2E2E2E2E2E2E2E2E2E2E2E2E2E2E2E2E2E2E2E2E2E2E2E2E2E2E2E2E2E2E2E200F5E2E2E2F5F5F5F5F5F5F5F5E2E2E2E2E2E2E2E2E2F5F5F5F5F5F5F5
310
F5F5F5F5F5F5F5F5F5E2E2E2E2E2E2E2E2E2F5F5F5F5F5F5F5F5F5F5F5F5F5F5F5F5E2E2E2E2E2E2E2E2E2F5F5F5F5F5F5F5F5F5F5F5F5F5F5F5F5E2E2E2E2E2E2E2E2E2F5F5F5F5F5F5F5F5E2E2E2CDF5E2E2E2F5E2E2E2E2E2E2E2E2E2E2E2E2E2E2E2E2E2E2E2E2E2E2E2E2E2E2E2E2E2E2E2E2E2E2E2E2E2E2E2E2E2E2
310
E2E2E2E2E2E2E2E2E2E2E2E2E2E2E2E2E2E2E2E2E2E2E2E2E2E2E2E2E2E2E2E2E2E2E2E2E2E2E2E2E2E2E2E2E2E2E2E2E2E2E2E2E2E2E2E2F5E2E2E200F5E2E2E2F5E2F5F5F5F5F5F5F5F5F5F5F5F5F5F5F5F5F5F5F5F5F5F5F5F5F5F5F5F5F5F5F5F5F5F5F5F5F5F5F5F5F5F5F5F5F5F5F5F5F5F5F5F5F5F5F5F5F5F5F5F5
310
F5F5F5F5F5F5F5F5F5F5F5F5F5F5F5F5F5F5F5F5F5F5F5F5F5F5F5F5F5F5F5F5F5F5F5F5E2F5E2E2E2CDF5E2E2E2F5E2F5E2E2E2E2E2E2E2E2E2E2E2E2E2E2E2E2E2E2E2E2E2E2E2E2E2E2E2E2E2E2E2E2E2E2E2E2E2E2E2E2E2E2E2E2E2E2E2E2E2E2E2E2E2E2E2E2E2E2E2E2E2E2E2E2E2E2E2E2E2E2E2E2E2E2E2E2E2E2
310
E2E2E2E2E2E2E2E2E2E2E2E2E2E2E2E2F5E2F5E2E2E200F5E2E2E2F5E2F5E2E2E2E2E2E2E2E2E2E2E2E2E2E2E2E2E2E2E2E2E2E2E2E2E2E2E2E2E2E2E2E2E2E2E2E2E2E2E2E2E2E2E2E2E2E2E2E2E2E2E2E2E2E2E2E2E2E2E2E2E2E2E2E2E2E2E2E2E2E2E2E2E2E2E2E2E2E2E2E2E2E2E2E2E2E2E2E2E2E2E2E2E2E2F5E2F5
310
E2E2E2CDF5E2E2E2F5E2F5E2E2E2E2E2E2E2E2E2E2E2E2E2E2E2E2E2E2E2E2E2E2E2E2E2E2E2E2E2E2E2E2E2E2E2E2E2E2E2E2E2E2E2E2E2E2E2E2E2E2E2E2E2E2E2E2E2E2E2E2E2E2E2E2E2E2E2E2E2E2E2E2E2E2E2E2E2E2E2E2E2E2E2E2E2E2E2E2E2E2E2E2E2E2F5E2F5E2E2E200F5E2E2E2F5E2F5E2E2E2E2E2E2E2E2
310
E2E2E2E2E2E2E2E2E2E2E2E2E2E2E2E2E2E2E2E2E2E2E2E2E2E2E2E2E2E2E2E2E2E2E2E2E2E2E2E2E2E2E2E2E2E2E2E2E2E2E2E2E2E2E2E2E2E2E2E2E2E2E2E2E2E2E2E2E2E2E2E2E2E2E2E2E2E2E2E2E2E2E2E2E2E2F5E2F5E2E2E2CDF5E2E2E2F5E2F5E2E2E2E2E2E2E2E2E2E2E2E2E2E2E2E2E2E2E2E2E2E2E2E2E2E2E2
310
E2E2E2E2E2E2E2E2E2E2E2E2E2E2E2E2E2E2E2E2E2E2E2E2E2E2E2E2E2E2E2E2E2E2E2E2E2E2E2E2E2E2E2E2E2E2E2E2E2E2E2E2E2E2E2E2E2E2E2E2E2E2E2E2E2E2E2F5E2F5E2E2E200F5E2E2E2F5E2F5E2E2E2E2E2E2E2E2E2E2E2E2E2E2E2E2E2E2E2E2E2E2E2E2E2E2E2E2E2E2E2E2E2E2E2E2E2E2E2E2E2E2E2E2E2E2
310
E2E2E2E2E2E2E2E2E2E2E2E2E2E2E2E2E2E2E2E2E2E2E2E2E2E2E2E2E2E2E2E2E2E2E2E2E2E2E2E2E2E2E2E2E2E2E2E2F5E2F5E2E2E2CDF5E2E2E2E2E2F5E2E2E2E2E2E2E2E2E2E2E2E2E2E2E2E2E2E2E2E2E2E2E2E2E2E2E2E2E2E2E2E2E2E2E2E2E2E2E2E2E2E2E2E2E2E2E2E2E2E2E2E2E2E2E2E2E2E2E2E2E2E2E2E2E2
310
E2E2E2E2E2E2E2E2E2E2E2E2E2E2E2E2E2E2E2E2E2E2E2E2E2E2E2E2E2F5E2E2E2E2E200F5E2E2E2E2E2F5E2E2E2E2E2E2E2E2E2E2E2E2E2E2E2E2E2E2E2E2E2E2E2E2E2E2E2E2E2E2E2E2E2E2E2E2E2E2E2E2E2E2E2E2E2E2E2E2E2E2E2E2E2E2E2E2E2E2E2E2E2E2E2E2E2E2E2E2E2E2E2E2E2E2E2E2E2E2E2E2E2E2E2E2
310
E2E2E2E2E2E2E2E2E2E2F5E2E2E2E2E2CDF5E2E2E2E2E2F5E2E2E2E2E2E2E2E2E2E2E2E2E2E2E2E2E2E2E2E2E2E2E2E2E2E2E2E2E2E2E2E2E2E2E2E2E2E2E2E2E2E2E2E2E2E2E2E2E2E2E2E2E2E2E2E2E2E2E2E2E2E2E2E2E2E2E2E2E2E2E2E2E2E2E2E2E2E2E2E2E2E2E2E2E2E2E2E2E2E2E2E2E2E2F5E2E2E2E2E200F5E2
310
E2E2E2E2F5E2E2E2E2E2E2E2E2E2E2E2E2E2E2E2E2E2E2E2E2E2E2E2E2E2E2E2E2E2E2E2E2E2E2E2E2E2E2E2E2E2E2E2E2E2E2E2E2E2E2E2E2E2E2E2E2E2E2E2E2E2E2E2E2E2E2E2E2E2E2E2E2E2E2E2E2E2E2E2E2E2E2E2E2E2E2E2E2E2E2E2E2E2E2F5E2E2E2E2E2CDF5E2E2E2E2E2F5E2E2E2E2E2E2E2E2E2E2E2E2E2E2
310
E2E2E2E2E2E2E2E2E2E2E2E2E2E2E2E2E2E2E2E2E2E2E2E2E2E2E2E2E2E2E2E2E2E2E2E2E2E2E2E2E2E2E2E2E2E2E2E2E2E2E2E2E2E2E2E2E2E2E2E2E2E2E2E2E2E2E2E2E2E2E2E2E2E2E2E2E2E2E2E2F5E2E2E2E2E200F5E2E2E2E2E2F5E2E2E2E2E2E2E2E2E2E2E2E2E2E2E2E2E2E2E2E2E2E2E2E2E2E2E2E2E2E2E2E2E2
310
E2E2E2E2E2E2E2E2E2E2E2E2E2E2E2E2E2E2E2E2E2E2E2E2E2E2E2E2E2E2E2E2E2E2E2E2E2E2E2E2E2E2E2E2E2E2E2E2E2E2E2E2E2E2E2E2E2E2E2E2E2F5E2E2E2E2E2CDF5E2E2E2E2E2F5E2E2E2E2E2E2E2E2E2E2E2E2E2E2E2E2E2E2E2E2E2E2E2E2E2E2E2E2E2E2E2E2E2E2E2E2E2E2E2E2E2E2E2E2E2E2E2E2E2E2E2E2
310
E2E2E2E2E2E2E2E2E2E2E2E2E2E2E2E2E2E2E2E2E2E2E2E2E2E2E2E2E2E2E2E2E2E2E2E2E2E2E2E2E2E2F5E2E2E2E2E200F5E2E2E2E2E2F5E2E2E2E2E2E2E2E2E2E2E2E2E2E2E2E2E2E2E2E2E2E2E2E2E2E2E2E2E2E2E2E2E2E2E2E2E2E2E2E2E2E2E2E2E2E2E2E2E2E2E2E2E2E2E2E2E2E2E2E2E2E2E2E2E2E2E2E2E2E2E2
310
E2E2E2E2E2E2E2E2E2E2E2E2E2E2E2E2E2E2E2E2E2E2E2F5E2E2E2E2E2CDF5E2E2E2E2E2F5E2E2E2E2E2E2E2E2E2E2E2E2E2E2E2E2E2E2E2E2E2E2E2E2E2E2E2E2E2E2E2E2E2E2E2E2E2E2E2E2E2E2E2E2E2E2E2E2E2E2E2E2E2E2E2E2E2E2E2E2E2E2E2E2E2E2E2E2E2E2E2E2E2E2E2E2E2E2E2E2E2E2E2E2E2E2E2E2E2E2
310
E2E2E2E2F5E2E2E2E2E200F5E2E2E2F5E2F5E2E2E2E2E2E2E2E2E2E2E2E2E2E2E2E2E2E2E2E2E2E2E2E2E2E2E2E2E2E2E2E2E2E2E2E2E2E2E2E2E2E2E2E2E2E2E2E2E2E2E2E2E2E2E2E2E2E2E2E2E2E2E2E2E2E2E2E2E2E2E2E2E2E2E2E2E2E2E2E2E2E2E2E2E2E2E2E2E2E2E2E2E2E2F5E2F5E2E2E2CDF5E2E2E2F5E2F5E2
310
E2E2E2E2E2E2E2E2E2E2E2E2E2E2E2E2E2E2E2E2E2E2E2E2E2E2E2E2E2E2E2E2E2E2E2E2E2E2E2E2E2E2E2E2E2E2E2E2E2E2E2E2E2E2E2E2E2E2E2E2E2E2E2E2E2E2E2E2E2E2E2E2E2E2E2E2E2E2E2E2E2E2E2E2E2E2E2E2E2E2E2E2E2F5E2F5E2E2E200F5E2E2E2F5E2F5E2E2E2E2E2E2E2E2E2E2E2E2E2E2E2E2E2E2E2E2
310
E2E2E2E2E2E2E2E2E2E2E2E2E2E2E2E2E2E2E2E2E2E2E2E2E2E2E2E2E2E2E2E2E2E2E2E2E2E2E2E2E2E2E2E2E2E2E2E2E2E2E2E2E2E2E2E2E2E2E2E2E2E2E2E2E2E2E2E2E2E2E2E2E2E2F5E2F5E2E2E2CDF5E2E2E2F5E2F5E2E2E2E2E2E2E2E2E2E2E2E2E2E2E2E2E2E2E2E2E2E2E2E2E2E2E2E2E2E2E2E2E2E2E2E2E2E2E2
310
E2E2E2E2E2E2E2E2E2E2E2E2E2E2E2E2E2E2E2E2E2E2E2E2E2E2E2E2E2E2E2E2E2E2E2E2E2E2E2E2E2E2E2E2E2E2E2E2E2E2E2E2E2E2E2F5E2F5E2E2E200F5E2E2E2F5E2F5E2E2E2E2E2E2E2E2E2E2E2E2E2E2E2E2E2E2E2E2E2E2E2E2E2E2E2E2E2E2E2E2E2E2E2E2E2E2E2E2E2E2E2E2E2E2E2E2E2E2E2E2E2E2E2E2E2E2
310
E2E2E2E2E2E2E2E2E2E2E2E2E2E2E2E2E2E2E2E2E2E2E2E2E2E2E2E2E2E2E2E2E2E2E2E2F5E2F5E2E2E2CDF5E2E2E2F5E2F5E2E2E2E2E2E2E2E2E2E2E2E2E2E2E2E2E2E2E2E2E2E2E2E2E2E2E2E2E2E2E2E2E2E2E2E2E2E2E2E2E2E2E2E2E2E2E2E2E2E2E2E2E2E2E2E2E2E2E2E2E2E2E2E2E2E2E2E2E2E2E2E2E2E2E2E2E2
310
E2E2E2E2E2E2E2E2E2E2E2E2E2E2E2E2E2F5E2F5E2E2E200F5E2E2E2F5E2F5E2E2E2E2E2E2E2E2E2E2E2E2E2E2E2E2E2E2E2E2E2E2E2E2E2E2E2E2E2E2E2E2E2E2E2E2E2E2E2E2E2E2E2E2E2E2E2E2E2E2E2E2E2E2E2E2E2E2E2E2E2E2E2E2E2E2E2E2E2E2E2E2E2E2E2E2E2E2E2E2E2E2E2E2E2E2E2E2E2E2E2E2E2E2F5E2
310
F5E2E2E200F5E2E2E2F5E2F5E2E2E2E2E2E2E2E2E2E2E2E2E2E2E2E2E2E2E2E2E2E2E2E2E2E2E2E2E2E2E2E2E2E2E2E2E2E2E2E2E2E2E2E2E2E2E2E2E2E2E2E2E2E2E2E2E2E2E2E2E2E2E2E2E2E2E2E2E2E2E2E2E2E2E2E2E2E2E2E2E2E2E2E2E2E2E2E2E2E2E2E2E2E2F5E2F5E2E2E200F5E2E2E2F5E2F5E2E2E2E2E2E2E2
310
E2E2E2E2E2E2E2E2E2E2E2E2E2E2E2E2E2E2E2E2E2E2E2E2E2E2E2E2E2E2E2E2E2E2E2E2E2E2E2E2E2E2E2E2E2E2E2E2E2E2E2E2E2E2E2E2E2E2E2E2E2E2E2E2E2E2E2E2E2E2E2E2E2E2E2E2E2E2E2E2E2E2E2E2E2E2E2F5E2F5E2E2E200F5E2E2E2F5E2F5E2E2E2E2E2E2E2E2E2E2E2E2E2E2E2E2E2E2E2E2E2E2E2E2E2E2
310
E2E2E2E2E2E2F5F5F5F5F5F5F5F5F5F5F5F5F5F5F5F5F5F5F5F5F5F5F5F5F5F5F5F5F5F5F5F5F5F5F5F5F5F5F5F5F5F5F5F5E2E2E2E2E2E2E2E2E2E2E2E2E2E2E2E2E2E2F5E2F5E2E2E200F5E2E2E2F5E2F5E2E2E2E2E2E2E2E2E2E2E2E2E2E2E2E2E2E2E2E2E2E2E2E2E2E2E2E2E2E2E2E2E2E2E2E2E2E2E2E2E2E2E2E2E2
310
E2E2E2E2E2E2E2E2E2E2E2E2E2E2E2E2E2E2E2E2E2E2E2E2E2E2E2E2E2E2E2E2E2E2E2E2E2E2E2E2E2E2E2E2E2E2E2E2E2F5E2F5E2E2E200F5E2E2E2F5E2F5E2E2E2E2E2E2E2E2E2E2E2E2E2E2E2E2E2E2E2E2E2E2E2E2E2E2E2E2E2E2E2E2E2E2F5F5F5F5F5F5F5F5F5F5F5F5F5F5F5F5F5F5F5F5F5F5F5F5F5F5F5F5F5F5
310
F5F5F5F5F5F5F5F5F5F5E2E2E2E2E2E2E2E2E2E2E2E2E2E2E2E2E2E2E2E2F5E2F5E2E2E200F5E2E2E2F5E2F5E2E2E2E2E2E2E2E2E2E2E2E2E2E2E2E2E2E2E2E2E2E2E2E2E2E2E2E2E2E2E2E2E2E2F5F5F5F5F5F5F5F5F5F5F5F5F5F5F5F5F5F5F5F5F5F5F5F5F5F5F5F5F5F5F5F5F5F5F5F5F5F5F5E2E2E2E2E2E2E2E2E2E2
310
E2E2E2E2E2E2E2E2E2E2E2F5E2F5E2E2E200F5E2E2E2F5E2F5E2E2E2E2E2E2E2E2E2E2E2E2E2E2E2E2E2E2E2E2E2E2E2E2E2E2E2E2E2E2E2E2E2E2E2E2E2E2E2E2E2E2E2E2E2E2E2E2E2E2E2E2E2E2E2E2E2E2E2E2E2E2E2E2E2E2E2E2E2E2E2E2E2E2E2E2E2E2E2E2E2E2E2E2E2E2E2E2E2E2E2E2E2E2F5E2F5E2E2E200F5
310
E2E2E2F5E2F5E2E2E2E2E2E2E2E2E2E2E2E2E2E2E2E2E2E2E2E2E2E2E2E2E2E2E2E2E2E2E2E2E2E2E2E2E2E2E2E2E2E2E2E2E2E2E2E2E2E2E2E2E2E2E2E2E2E2E2E2E2E2E2E2E2E2E2E2E2E2E2E2E2E2E2E2E2E2E2E2E2E2E2E2E2E2E2E2E2E2E2E2E2E2F5E2F5E2E2E200F5E2E2E2F5E2F5E2E2E2E2E2E2E2E2E2E2E2E2E2
310
E2E2E2E2E2E2E2E2E2E2E2E2E2E2E2E2E2E2E2E2E2E2E2E2E2E2E2E2E2E2E2E2E2E2E2E2E2E2E2E2E2E2E2E2E2E2E2E2E2E2E2E2E2E2E2E2E2E2E2E2E2E2E2E2E2E2E2E2E2E2E2E2E2E2E2E2E2E2E2E2E2F5E2F5E2E2E200F5E2E2E2F5E2F5E2E2E2E2E2E2E2E2E2E2E2E2E2E2E2E2E2E2E2E2E2E2E2E2E2E2E2E2E2E2E2E2
310
E2E2E2E2E2E2E2E2E2E2E2E2E2E2E2E2E2E2E2E2E2E2E2E2E2E2E2E2E2E2E2E2E2E2E2E2E2E2E2E2E2E2E2E2E2E2E2E2E2E2E2E2E2E2E2E2E2E2E2E2E2E2F5E2F5E2E2E200F5E2E2E2E2E2F5E2E2E2F5F5F5F5F5F5F5F5F5F5F5F5F5F5F5F5F5F5F5F5F5F5F5F5F5F5F5F5F5F5F5F5F5F5F5F5F5F5F5F5F5F5F5F5F5F5F5F5
310
F5F5F5F5F5F5F5F5F5F5F5F5F5F5F5F5E2E2E2E2E2E2E2E2E2E2E2E2E2E2E2E2E2E2E2E2E2E2E2E2E2E2E2F5E2E2E2E2E200F5E2E2E2E2E2F5E2E2E2F5E2E2E2E2E2E2E2F5E2E2E2E2E2E2E2F5E2E2E2E2E2E2E2F5F5E2E2E2E2E2F5F5F5F5E2E2E2E2E2E2E2E2F5E2E2E2E2E2E2E2E2E2E2E2E2E2E2E2E2E2E2E2E2E2E2E2
310
E2E2E2E2F5F5F5F5F5F5F5F5F5F5F5F5F5F5E2E2E2E2E2E2F5E2E2E2E2E200F5E2E2E2E2E2F5E2E2E2F5E2E2E2E2E2E2E2F5E2E2E2E2E2E2E2F5E2E2E2E2E2E2E2E2F5E2E2E2E2E2F5F5F5F5E2E2E2E2E2E2E2E2F5E2E2E2E2E2E2E2E2F5F5F5F5F5F5F5F5F5F5F5F5E2E2E2E2E2E2E2F5F5F5F5F5F5F5F5F5E2E2E2E2E2E2
310
E2E2E2E2E2F5E2E2E2E2E200F5E2E2E2E2E2F5E2E2E2F5E2E2E2E2E2E2E2F5E2E2E2E2E2E2E2F5E2E2E2E2E2E2E2E2F5E2E2E2E2E2F5F5F5F5E2E2E2E2E2E2E2E2F5E2E2E2E2E2E2E2F5F5F5F5F5F5F5F5F5F5F5F5F5F5F5F5E2E2E2F5F5F5F5F5F5F5F5F5F5F5F5F5F5F5F5F5F5F5E2E2F5E2E2E2E2E200F5E2E2E2E2E2F5
310
E2E2E2F5E2E2E2E2E2E2E2F5E2E2E2E2E2E2E2F5E2E2E2E2E2E2E2E2F5E2E2E2E2E2F5F5F5F5E2E2E2E2E2E2E2E2F5E2E2E2E2E2E2E2F5E2E2E2E2E2E2F5E2E2E2E2E2E2E2F5E2E2E2F5E2E2E2E2E2F5E2E2E2E2E2E2E2E2E2E2E2F5E2E2F5E2E2E2E2E200F5E2E2E2E2E2F5E2E2E2F5E2E2E2E2E2E2E2F5E2E2E2E2E2E2E2
310
F5E2E2E2E2E2E2E2E2F5E2E2E2E2E2F5F5F5F5E2E2E2E2E2E2E2E2F5E2E2E2E2E2E2E2F5F5F5F5F5F5F5F5F5F5F5F5F5F5F5F5E2E2E2F5F5F5F5F5F5F5F5F5F5F5F5F5F5F5F5F5F5F5E2E2F5E2E2E2E2E200F5E2E2E2E2E2F5E2E2E2F5E2E2E2E2E2E2E2F5E2E2E2E2E2E2E2F5E2E2E2E2E2E2E2E2F5E2E2E2E2E2F5F5F5F5
310
E2E2E2E2E2E2E2E2F5E2E2E2E2E2E2E2F5F5F5F5F5F5F5F5F5F5F5F5F5F5F5F5E2E2E2F5F5F5F5F5F5F5F5F5F5F5F5F5F5F5F5F5F5F5E2E2F5E2E2E2E2E200F5E2E2E2E2E2F5E2E2E2F5E2E2E2E2E2E2E2F5E2E2E2E2E2E2E2F5E2E2E2E2E2E2E2E2F5E2E2E2E2E2F5F5F5F5E2E2E2E2E2E2E2E2F5E2E2E2E2E2E2E2F5F5F5
310
F5F5F5F5F5F5F5F5F5F5F5F5F5E2E2E2F5F5F5F5F5F5F5F5F5F5F5F5F5F5F5F5F5F5F5E2E2F5E2E2E2E2E200F5E2E2E2E2E2F5E2E2E2F5E2E2E2E2E2E2E2F5E2E2E2E2E2E2E2F5E2E2E2E2E2E2E2E2F5E2E2E2E2E2F5F5F5F5E2E2E2E2E2E2E2E2F5E2E2E2E2E2E2E2F5E2F5F5F5F5E2F5F5F5F5F5F5F5E2F5E2E2E2F5E2E2
310
E2E2E2F5E2E2E2E2E2E2E2E2E2E2E2F5E2E2F5E2E2E2E2E200F5E2E2E2F5E2F5E2E2E2F5E2E2E2E2E2E2E2F5E2E2E2E2E2E2E2F5E2E2E2E2E2E2E2E2F5E2E2E2E2E2F5F5F5F5E2E2E2E2E2E2E2E2F5E2E2E2E2E2E2E2F5E2F5F5F5E2E2F5E2F5F5F5F5E2E2F5E2E2E2F5F5F5F5F5F5F5F5F5F5F5F5F5F5F5F5F5F5F5E2E2F5
310
E2F5E2E2E200F5E2E2E2F5E2F5E2E2E2F5E2E2E2E2E2E2E2F5E2E2E2E2E2E2E2F5E2E2E2E2E2E2E2E2F5E2E2E2E2E2F5F5F5F5E2E2E2E2E2E2E2E2F5E2E2E2E2E2E2E2F5F5F5F5F5F5F5F5F5F5F5F5F5F5F5F5E2E2E2F5F5F5F5F5F5F5F5F5F5F5F5F5F5F5F5F5F5F5E2E2F5E2F5E2E2E200F5E2E2E2F5E2F5E2E2E2F5E2E2
310
E2E2E2E2E2F5E2E2E2E2E2E2E2F5E2E2E2E2E2E2E2E2F5E2E2E2E2E2F5F5F5F5E2E2E2E2E2E2E2E2F5E2E2E2E2E2E2E2F5E2F5F5F5F5F5F5F5F5F5F5F5E2E2F5E2E2E2F5E2F5F5F5F5F5F5F5F5F5F5F5F5F5E2E2E2F5E2E2F5E2F5E2E2E200F5E2E2E2F5E2F5E2E2E2F5E2E2E2E2E2E2E2F5E2E2E2E2E2E2E2F5E2E2E2E2E2
310
E2E2E2F5E2E2E2E2E2F5F5F5F5E2E2E2E2E2E2E2E2F5E2E2E2E2E2E2E2F5E2E2F5F5F5F5F5F5F5F5F5E2E2E2F5E2E2E2F5E2E2F5F5F5F5F5F5F5F5F5F5F5F5E2E2E2F5E2E2F5E2F5E2E2E200F5E2E2E2F5E2F5E2E2E2F5E2E2E2E2E2E2E2F5E2E2E2E2E2E2E2F5E2E2E2E2E2E2E2E2F5E2E2E2E2E2F5F5F5F5E2E2E2E2E2E2
310
E2E2F5E2E2E2E2E2E2E2F5E2E2E2E2E2E2E2E2E2E2E2E2E2E2F5E2E2E2F5E2E2E2E2E2E2E2E2E2E2E2E2E2E2E2E2E2F5E2E2F5E2F5E2E2E200F5E2E2E2F5E2F5E2E2E2F5E2E2E2E2E2E2E2F5E2E2E2E2E2E2E2F5E2E2E2E2E2E2E2E2F5E2E2E2E2E2F5F5F5F5E2E2E2E2E2E2E2E2F5E2E2E2E2E2E2E2F5F5F5F5F5F5F5F5F5
310
F5F5F5F5F5F5F5E2E2E2F5F5F5F5F5F5F5F5F5F5F5F5F5F5F5F5F5F5F5E2E2F5E2F5E2E2E200F5E2E2E2F5E2F5E2E2E2F5E2E2E2E2E2E2E2F5E2E2E2E2E2E2E2F5E2E2E2E2E2E2E2E2F5E2E2E2E2E2F5F5F5F5E2E2E2E2E2E2E2E2F5E2E2E2E2E2E2E2E2E2E2E2E2E2E2E2E2E2E2E2E2E2E2E2E2E2E2E2E2E2E2E2E2E2E2E2
310
E2E2E2E2E2E2E2E2E2E2E2E2F5E2F5E2E2E200F5E2E2E2F5E2F5E2E2E2F5E2E2E2E2E2E2E2F5E2E2E2E2E2E2E2F5E2E2E2E2E2E2E2E2F5E2E2E2E2E2F5F5F5F5E2E2E2E2E2E2E2E2F5E2E2E2E2E2E2E2E2E2E2E2E2E2E2E2E2E2E2E2E2E2E2E2E2E2E2E2E2E2E2E2E2E2E2E2E2E2E2E2E2E2E2E2E2E2E2E2F5E2F5E2E2E200
310
F5E2E2E2F5E2F5E2E2E2F5E2E2E2E2E2E2E2F5E2E2E2E2E2E2E2F5E2E2E2E2E2E2E2E2F5E2E2E2E2E2F5F5F5F5E2E2E2E2E2E2E2E2F5E2E2E2E2E2E2E2E2E2E2E2E2E2E2E2E2E2E2F5F5F5F5F5F5F5F5F5F5F5F5F5F5F5F5F5F5F5F5F5F5E2E2E2E2E2E2E2F5E2F5E2E2E200F5E2E2E2F5E2F5E2E2E2F5E2E2E2E2E2E2E2F5
310
E2E2E2E2E2E2E2F5E2E2E2E2E2E2E2E2F5E2E2E2E2E2F5F5F5F5E2E2E2E2F5F5F5F5F5F5F5F5E2E2E2E2E2E2E2E2E2E2E2E2E2E2E2F5F5F5F5F5F5F5F5F5F5F5F5F5F5F5F5F5F5F5F5F5E2E2E2E2E2E2E2E2F5E2F5E2E2E200F5E2E2E2F5E2F5E2E2E2F5E2E2E2E2E2E2E2F5E2E2E2E2E2E2E2F5E2E2E2E2E2E2E2E2F5E2E2
310
E2E2E2F5F5F5F5E2E2E2E2F5F5F5F5F5F5F5F5E2E2E2E2E2E2E2E2E2E2E2E2E2E2E2E2E2E2E2E2F5F5F5F5F5F5F5F5F5F5F5E2E2E2E2E2E2E2E2E2E2E2E2E2F5E2F5E2E2E200F5E2E2E2F5E2F5E2E2E2F5E2E2E2E2E2E2E2F5E2E2E2E2E2E2E2F5E2E2E2E2E2E2E2E2F5E2E2E2E2E2F5F5F5F5E2E2E2E2E2E2E2E2F5E2E2E2
310
E2E2E2E2E2E2E2E2E2E2E2E2E2E2E2E2E2E2E2E2F5F5F5F5F5F5F5F5F5F5E2E2E2E2E2E2E2E2E2E2E2E2E2E2F5E2F5E2E2E200F5E2E2E2F5E2F5F5F5F5F5F5F5F5E2E2E2E2F5E2E2E2F5F5F5F5F5F5F5F5E2E2E2F5F5F5E2E2E2E2E2F5F5F5F5E2E2E2E2E2E2E2E2F5E2E2E2E2E2E2E2E2E2E2E2E2E2E2E2E2E2E2E2E2E2E2
310
E2E2E2E2E2E2E2E2E2E2E2E2E2E2E2E2E2E2E2E2E2E2E2E2E2F5E2F5E2E2E200F5E2E2E2F5E2F5E2F5F5F5F5F5E2E2E2E2E2F5E2E2E2E2E2F5F5F5F5E2E2E2E2F5F5F5F5F5E2E2E2E2F5F5F5F5E2E2E2E2E2E2E2E2F5E2E2E2E2E2E2E2E2E2E2E2E2E2E2E2E2E2E2E2E2E2E2E2E2E2E2E2E2E2E2E2E2E2E2E2E2E2E2E2E2E2
310
E2E2E2E2E2E2F5E2F5E2E2E200F5E2E2E2F5E2F5E2E2E2F5E2E2E2E2E2E2E2F5E2E2F5F5F5F5F5F5F5F5F5F5E2E2E2E2F5E2E2E2E2E2F5F5F5F5E2E2E2E2E2E2E2E2F5E2E2E2E2E2E2E2E2E2E2E2E2E2E2E2E2E2E2F5F5F5E2E2E2E2E2E2E2E2E2E2E2E2E2E2E2E2E2E2E2E2E2E2E2E2E2E2F5E2F5E2E2E200F5E2E2E2F5E2
310
F5E2E2E2F5E2E2E2E2E2E2E2F5E2E2E2E2E2E2E2E2E2E2E2E2E2E2E2E2F5E2E2E2E2E2F5F5F5F5E2E2E2E2E2E2E2E2F5E2E2E2E2E2E2E2E2E2E2E2E2E2E2E2E2E2E2E2F5F5E2E2E2E2E2E2E2E2E2E2E2E2E2E2E2E2E2E2E2E2E2E2E2E2E2E2F5E2F5E2E2E200F5E2E2E2F5E2F5E2E2E2F5E2E2E2E2E2E2E2F5E2E2E2E2E2E2
310
E2F5E2E2E2E2E2E2E2E2F5E2E2E2E2E2F5F5F5F5E2E2E2E2E2E2E2E2F5E2E2E2E2E2E2E2E2E2E2E2E2E2E2E2E2E2E2F5F5F5E2E2E2E2E2E2E2E2E2E2E2E2E2E2E2E2E2E2E2E2E2E2E2E2E2E2F5E2F5E2E2E200F5E2E2E2E2E2F5E2E2E2F5E2E2E2E2E2E2E2F5E2E2E2E2E2E2E2F5E2E2E2E2E2E2E2E2F5E2E2E2E2E2F5F5F5
310
F5E2E2E2E2E2E2E2E2F5E2E2E2E2E2E2E2E2E2E2E2E2E2E2E2E2E2E2E2F5F5F5E2E2E2E2E2E2E2E2E2E2E2E2E2E2E2E2E2E2E2E2E2E2E2E2E2F5E2E2E2E2E200F5E2E2E2E2E2F5E2E2E2F5E2E2E2E2E2E2E2F5E2E2E2E2E2E2E2F5E2E2E2E2E2E2E2E2F5E2E2E2E2E2F5F5F5F5E2E2E2E2E2E2E2E2F5E2E2E2E2E2E2E2E2E2
310
E2E2E2E2E2E2E2E2E2F5F5F5F5F5E2E2E2E2E2E2E2E2E2E2E2E2E2E2E2E2E2E2E2E2E2E2E2E2F5E2E2E2E2E200F5E2E2E2E2E2F5E2E2E2F5E2E2E2E2F5F5F5F5F5F5F5E2E2E2E2F5E2E2E2E2E2E2E2E2F5E2E2E2E2E2F5F5F5F5E2E2E2E2E2E2E2E2F5E2E2E2E2E2E2E2E2E2E2E2E2E2E2E2E2E2E2E2F5F5F5F5F5E2E2E2E2
310
E2E2E2E2E2E2E2E2E2E2E2E2E2E2E2E2E2E2E2F5E2E2E2E2E200F5E2E2E2E2E2F5E2E2E2F5E2E2E2E2F5F5F5F5F5F5F5E2E2E2E2F5E2E2E2E2E2E2E2E2F5E2E2E2E2E2F5F5F5F5E2E2E2E2E2E2E2E2F5E2E2E2E2E2E2E2E2E2E2E2E2E2E2E2E2E2E2E2F5F5F5F5F5F5F5E2E2E2E2E2E2E2E2E2E2E2E2E2E2E2E2E2E2E2E2E2
310
F5E2E2E2E2E200F5E2E2E2E2E2F5E2E2E2F5E2E2E2E2E2F5F5F5F5F5E2E2E2E2E2F5E2E2E2E2E2E2E2E2F5E2E2E2E2E2F5F5F5F5E2E2E2E2E2E2E2E2F5E2E2E2E2E2E2E2E2E2E2E2E2E2E2E2E2E2E2E2F5F5F5F5F5F5E2E2E2E2E2E2E2E2E2E2E2E2E2E2E2E2E2E2E2E2E2E2F5E2E2E2E2E200F5E2E2E2E2E2F5E2E2E2F5E2
310
E2E2E2E2E2E2F5E2E2E2E2E2E2E2F5E2E2E2E2E2E2E2E2F5E2E2E2E2E2F5F5F5F5E2E2E2E2E2E2E2E2F5E2E2E2E2E2E2E2E2E2E2E2E2E2E2E2E2E2F5F5F5F5F5F5F5F5F5F5F5F5E2E2E2E2E2E2E2E2E2E2E2E2E2E2E2E2E2E2F5E2E2E2E2E200F5E2E2E2E2E2F5E2E2E2F5E2E2E2E2E2E2E2F5E2E2E2E2E2E2E2F5E2E2E2E2
310
E2E2E2E2F5E2E2E2E2E2F5F5F5F5E2E2E2E2E2E2E2E2F5E2E2E2E2E2E2E2E2E2E2E2E2E2E2E2E2E2F5F5F5F5F5F5F5F5F5F5F5F5E2E2E2E2E2E2E2E2E2E2E2E2E2E2E2E2E2E2F5E2E2E2E2E200F5E2E2E2E2E2F5E2E2E2F5E2E2E2E2E2E2E2F5E2E2E2E2E2E2E2F5E2E2E2E2E2E2E2E2F5E2E2E2E2E2F5F5F5F5E2E2E2E2E2
310
E2E2E2F5E2E2E2E2E2E2E2E2E2E2E2E2E2E2E2E2E2E2E2E2E2E2E2F5E2E2F5F5E2F5F5F5F5F5F5F5F5F5F5E2E2E2E2E2E2E2E2F5E2E2E2E2E200F5E2E2E2E2E2F5E2E2E2F5E2E2E2E2E2E2E2F5E2E2E2E2E2E2E2F5E2E2E2E2E2E2E2E2F5E2E2E2E2E2F5F5F5F5E2E2E2E2E2E2E2E2F5E2E2E2E2E2E2E2E2E2E2E2E2E2E2E2
310
E2E2E2E2E2E2E2E2E2E2E2E2F5E2F5F5F5F5F5F5F5F5F5F5F5F5F5F5F5F5F5E2F5E2E2E2E2E200F5E2E2E2F5E2F5E2E2E2F5E2E2E2E2E2E2E2F5E2E2E2E2E2E2E2F5E2E2E2E2E2E2E2E2F5E2E2E2E2E2F5F5F5F5E2E2E2E2E2E2E2E2F5E2E2E2E2E2E2E2E2E2E2E2E2E2E2E2E2E2E2E2E2E2E2E2E2E2E2E2F5F5F5E2E2E2E2
310
E2E2E2E2E2E2E2E2E2E2E2E2E2F5E2F5E2E2E200F5E2E2E2F5E2F5E2E2E2F5E2E2E2E2E2E2E2F5E2E2E2E2E2E2E2F5E2E2E2E2E2E2E2E2F5E2E2E2E2E2F5F5F5F5E2E2E2E2E2E2E2E2F5E2E2E2E2E2E2E2E2E2E2E2E2E2E2E2E2E2E2E2E2E2E2E2E2E2E2E2E2E2E2E2E2E2E2E2E2E2E2E2E2E2F5F5E2E2E2E2F5E2F5E2E2E2
310
00F5E2E2E2F5E2F5E2E2E2F5E2E2E2E2E2E2E2F5E2E2E2E2E2E2E2F5E2E2E2E2E2E2E2E2F5E2E2E2E2E2F5F5F5F5F5F5F5F5F5F5F5F5F5E2E2E2E2E2E2E2E2E2E2E2E2E2E2E2E2E2E2E2E2E2E2E2E2E2E2E2E2E2E2E2E2E2E2E2E2E2E2E2E2E2F5F5F5F5F5F5F5E2F5E2E2E200F5E2E2E2F5E2F5E2E2E2F5E2E2E2E2E2E2E2
310
F5E2E2E2E2E2E2E2F5E2E2E2E2E2E2E2E2F5E2E2E2E2E2F5F5F5F5E2E2E2E2E2E2E2E2E2E2E2E2E2E2E2E2E2E2E2E2E2E2E2E2E2E2E2E2E2E2E2E2E2E2E2E2E2E2E2E2E2E2E2E2E2E2E2E2E2E2E2E2E2E2E2F5F5E2F5E2E2E200F5E2E2E2F5E2F5E2E2E2F5E2E2E2E2E2E2E2F5E2E2E2E2E2E2E2F5E2E2E2E2E2E2E2E2F5E2
310
E2E2E2E2F5F5F5F5E2E2E2E2E2E2E2E2E2E2E2E2E2E2E2E2E2F5F5F5F5F5F5F5F5F5F5F5F5F5F5F5E2E2E2E2E2E2E2E2E2E2E2E2E2E2E2E2E2E2E2E2E2E2E2F5F5E2F5E2E2E200F5E2E2E2F5E2F5E2E2E2F5E2E2E2E2E2E2E2F5E2E2E2E2E2E2E2F5E2E2E2E2E2E2E2E2F5E2E2E2E2E2F5F5F5F5F5F5F5F5F5F5F5F5F5F5F5
310
F5F5F5F5F5E2E2F5F5F5F5F5F5F5F5F5F5F5F5F5E2E2E2F5F5F5F5F5F5F5F5F5F5F5F5F5F5F5F5F5F5E2E2E2F5F5E2F5E2E2E200F5E2E2E2F5E2F5E2E2E2F5E2E2E2E2E2E2E2F5E2E2E2E2E2E2E2F5E2E2E2E2E2E2E2E2F5E2E2E2E2E2F5F5F5F5F5E2E2E2E2F5F5F5E2E2E2E2E2E2E2E2E2E2E2E2E2E2E2E2E2E2E2E2E2E2
310
E2E2E2E2E2E2E2E2E2E2E2E2E2E2E2E2E2E2E2E2E2F5E2E2E2F5F5E2F5E2E2E200F5E2E2E2F5E2F5E2E2E2F5E2E2E2E2E2E2E2F5E2E2E2E2E2E2E2F5E2E2E2E2E2E2E2E2F5E2E2E2E2E2F5F5F5F5F5F5F5F5F5F5F5F5F5F5F5F5F5F5E2E2E2E2E2E2E2E2E2E2E2E2E2E2E2E2E2E2E2E2E2E2E2E2E2E2E2E2E2E2E2E2E2E2E2
310
E2E2F5E2E2E2F5F5E2F5E2E2E200F5E2E2E2F5E2F5E2E2E2F5E2E2E2E2E2E2E2F5E2E2E2E2E2E2E2F5E2E2E2E2E2E2E2F5F5E2E2E2E2E2F5F5F5F5F5F5F5E2E2E2E2E2E2E2E2E2E2E2E2E2E2E2E2E2E2E2E2E2E2E2E2E2E2E2E2E2E2E2E2E2E2E2E2E2E2E2E2E2E2E2E2E2E2E2E2F5E2E2E2F5F5E2F5E2E2E200F5E2E2E2F5
310
E2F5E2E2E2F5E2E2E2E2E2E2E2F5E2E2E2E2E2E2E2F5E2E2E2E2E2E2E2F5F5F5F5F5F5F5F5F5F5F5E2F5E2F5F5F5F5F5F5F5F5F5F5F5F5F5F5F5F5F5F5F5F5F5F5F5F5F5F5F5F5F5F5F5F5F5F5F5F5F5F5F5F5F5F5F5F5F5F5F5F5F5E2E2E2F5F5E2F5E2E2E200F5E2E2E2F5E2F5E2E2E2F5E2E2E2E2E2E2E2F5E2E2E2E2E2
310
E2E2F5E2E2E2E2E2E2E2E2F5E2E2E2E2E2F5F5F5F5F5F5F5F5F5F5F5F5F5F5F5F5F5F5F5F5F5F5F5F5F5F5F5F5F5F5F5F5F5F5F5F5F5F5E2E2E2E2E2E2E2E2F5F5E2E2E2E2E2F5E2F5E2E2E2F5F5E2F5E2E2E200F5E2E2E2F5E2F5E2E2E2F5E2E2E2E2E2E2E2F5E2E2E2E2E2E2E2F5F5F5F5F5F5F5F5F5F5F5F5F5F5F5F5F5
310
F5F5F5E2F5F5F5F5F5F5F5F5F5F5F5F5F5F5F5F5F5F5F5F5F5F5F5F5F5F5F5F5F5F5F5F5F5F5F5F5F5F5F5F5F5F5F5F5F5F5F5F5F5F5E2E2E2F5F5E2F5E2E2E200F5E2E2E2F5E2F5E2E2E2F5E2E2E2E2E2E2E2F5E2E2E2E2E2E2E2E2E2E2E2E2E2E2E2E2F5E2E2E2E2E2F5F5F5F5F5F5F5F5F5F5F5F5F5F5F5F5F5F5F5F5F5
310
F5F5F5F5F5F5F5F5F5F5F5F5F5F5F5F5F5F5F5F5F5F5F5F5F5F5F5F5F5F5F5F5F5F5F5E2E2E2F5F5E2F5E2E2E200F5E2E2E2F5E2F5E2E2E2F5E2E2E2E2E2E2E2F5F5F5F5F5F5F5F5F5F5F5F5F5F5F5F5F5F5F5F5F5F5F5F5F5F5F5F5E2E2E2E2E2E2E2E2E2E2E2E2E2E2E2E2E2E2E2E2E2E2E2E2E2E2F5E2E2E2E2E2E2E2E2
310
E2E2E2E2E2E2E2E2E2E2E2E2E2F5E2E2E2E2E2F5F5E2F5E2E2E200F5E2E2E2F5E2F5E2E2E2F5F5F5F5F5F5F5F5F5F5F5F5F5F5F5F5F5F5F5F5F5F5F5F5F5F5F5F5F5F5F5F5F5F5F5F5F5F5F5F5F5F5F5F5F5F5F5F5F5F5F5F5F5F5F5F5F5F5F5F5F5F5F5F5F5F5F5F5F5F5F5F5F5F5F5F5F5F5F5F5F5F5F5F5F5F5F5F5E2E2
310
F5F5E2F5E2E2E200F5E2E2E2F5E2F5E2E2E2E2E2E2E2E2E2E2E2E2E2E2E2E2E2E2E2E2E2E2E2E2E2E2E2E2F5E2E2E2E2E2F5F5F5F5F5F5F5F5F5F5F5F5F5F5F5F5F5F5F5F5F5F5F5F5F5F5F5F5F5F5F5F5F5F5F5F5F5F5F5F5F5F5F5F5F5F5F5F5F5F5F5F5F5F5F5F5F5E2E2F5F5E2F5E2E2E200F5E2E2E2F5E2F5E2E2E2E2
310
E2E2E2E2E2E2E2E2E2E2E2E2E2E2E2E2E2E2E2E2E2E2E2E2F5E2E2E2E2E2F5F5F5F5F5F5F5F5F5F5F5F5F5F5F5F5F5F5F5F5F5F5F5F5F5F5F5F5F5F5F5F5F5F5F5F5F5F5F5F5F5F5F5F5F5F5F5F5F5F5F5F5F5F5F5F5F5E2E2F5F5E2F5E2E2E200F5E2E2E2E2E2F5E2E2E2E2E2E2E2E2E2E2E2E2E2E2E2E2E2E2E2E2E2E2E2
310
E2E2E2E2E2F5E2E2E2E2E2E2E2E2E2E2E2E2F5E2E2E2E2E2E2E2E2E2E2E2E2E2E2E2E2E2E2E2E2E2E2E2E2E2E2E2E2E2E2E2E2E2E2E2E2E2E2E2E2E2E2E2E2E2E2F5F5E2E2E2F5F5E2E2E2E2E200F5E2E2E2E2E2F5E2E2E2E2E2E2E2E2E2E2E2E2E2E2E2E2E2E2E2E2E2E2E2E2E2E2E2E2F5E2E2E2E2E2E2E2E2E2E2E2E2F5
310
E2E2E2E2E2E2E2E2E2E2E2E2E2E2E2E2E2E2E2E2E2E2E2E2E2E2E2E2E2E2E2E2E2E2E2E2E2E2E2E2E2E2E2E2E2E2F5F5F5F5F5F5F5E2E2E2E2E200F5E2E2E2E2E2F5E2E2E2E2E2E2E2E2E2E2E2E2E2E2E2E2E2E2E2E2E2E2E2E2E2E2E2E2F5F5F5F5F5F5E2E2E2E2E2E2E2E2F5F5F5F5F5F5F5F5F5F5F5E2E2E2E2E2E2E2E2
310
E2E2E2E2E2E2E2E2E2E2E2E2E2E2E2E2E2E2E2E2E2E2E2E2E2E2E2E2E2E2E2E2E2F5E2E2E2E2E200F5E2E2E2E2E2F5E2E2E2E2E2E2E2E2E2E2E2E2E2E2E2E2E2E2E2E2E2E2E2E2E2E2E2E2F5F5F5F5F5F5E2E2E2E2E2E2E2E2F5F5F5F5F5F5F5F5F5F5F5E2E2E2E2E2E2E2E2E2E2E2E2E2E2E2E2E2E2E2E2E2E2E2E2E2E2E2
310
E2E2E2E2E2E2E2E2E2E2E2E2E2E2F5E2E2E2E2E200F5E2E2E2E2E2F5E2E2E2E2E2E2E2E2E2E2E2E2E2E2E2E2E2E2E2E2E2E2E2E2E2E2E2E2E2E2E2E2E2E2E2E2E2E2E2E2E2E2E2E2E2E2E2E2E2E2E2E2E2E2E2E2E2E2E2E2E2E2E2E2E2E2E2E2E2E2E2E2E2E2E2E2E2E2E2E2E2E2E2E2E2E2E2E2E2E2E2E2E2E2F5E2E2E2E2
310
E200F5E2E2E2E2E2F5E2E2E2E2E2E2E2E2E2E2E2E2E2E2E2E2E2E2E2E2E2E2E2E2E2E2E2E2E2E2E2E2E2E2E2E2E2E2E2E2E2E2E2E2E2E2E2E2E2E2E2E2E2E2E2E2E2E2E2E2E2E2E2E2E2E2E2E2E2E2E2E2E2E2E2E2E2E2E2E2E2E2E2E2E2E2E2E2E2E2E2E2E2E2F5E2E2E2E2E200F5E2E2E2E2E2F5E2E2E2E2E2E2E2E2E2E2
310
E2E2E2E2E2E2E2E2E2E2E2E2E2E2E2E2E2E2E2E2E2E2E2E2E2E2E2E2E2E2E2E2E2E2E2E2E2E2E2E2E2E2E2E2E2E2E2E2E2E2E2E2E2E2E2E2E2E2E2E2E2E2E2E2E2E2E2E2E2E2E2E2E2E2E2E2E2E2E2E2E2E2E2E2F5E2E2E2E2E200F5E2E2E2E2E2F5E2E2E2E2E2E2E2E2E2E2E2E2E2E2E2E2E2E2E2E2E2E2E2E2E2E2E2E2E2
310
E2E2E2E2E2E2E2E2E2E2E2E2E2E2E2E2E2E2E2E2E2E2E2E2E2E2E2E2E2E2E2E2E2E2E2E2E2E2E2E2E2E2E2E2E2E2E2E2E2E2E2E2E2E2E2E2E2E2E2E2E2E2E2E2E2F5E2E2E2E2E200F5E2E2E2E2E2F5E2E2E2E2E2E2E2E2E2E2E2E2E2E2E2E2E2E2E2E2E2E2E2E2E2E2E2E2E2E2E2E2E2E2E2E2E2E2E2E2E2E2E2E2E2E2E2E2
310
E2E2E2E2E2E2E2E2E2E2E2E2E2E2E2E2E2E2E2E2E2E2E2E2E2E2E2E2E2E2E2E2E2E2E2E2E2E2E2E2E2E2E2E2E2E2F5E2E2E2E2E200F5E2E2E2F5E2F5E2E2E2E2E2E2E2E2E2E2E2E2E2E2E2E2E2E2E2E2E2E2E2E2E2E2E2E2E2E2E2E2E2E2E2E2E2E2E2E2E2E2E2E2E2E2E2E2E2E2E2E2E2E2E2E2E2E2E2E2E2E2E2E2E2E2E2
310
E2E2E2E2E2E2E2E2E2E2E2E2E2E2E2E2E2E2E2E2E2E2E2E2E2E2E2F5E2F5E2E2E200F5E2E2E2F5E2F5E2E2E2E2E2E2E2E2E2E2E2E2E2E2E2E2E2E2E2E2E2E2E2E2E2E2E2E2E2E2E2E2E2E2E2E2E2E2E2E2E2E2E2E2E2E2E2E2E2E2E2E2E2E2E2E2E2E2E2E2E2E2E2E2E2E2E2E2E2E2E2E2E2E2E2E2E2E2E2E2E2E2E2E2E2E2
310
E2E2E2E2E2E2E2E2F5E2F5E2E2E200F5E2E2E2F5E2F5E2E2E2E2E2E2E2E2E2E2E2E2E2E2E2E2E2E2E2E2E2E2E2E2E2E2E2E2E2E2E2E2E2E2E2E2E2E2E2E2E2E2E2E2E2E2E2E2E2E2E2E2E2E2E2E2E2E2E2E2E2E2E2E2E2E2E2E2E2E2E2E2E2E2E2E2E2E2E2E2E2E2E2E2E2E2E2E2E2E2E2E2E2E2F5E2F5E2E2E200F5E2E2E2
310
F5E2F5E2E2E2E2E2E2E2E2E2E2E2E2E2E2E2E2E2E2E2E2E2E2E2E2E2E2E2E2E2E2E2E2E2E2E2E2E2E2E2E2E2E2E2E2E2E2E2E2E2E2E2E2E2E2E2E2E2E2E2E2E2E2E2E2E2E2E2E2E2E2E2E2E2E2E2E2E2E2E2E2E2E2E2E2E2E2E2E2E2E2E2E2E2E2F5E2F5E2E2E200F5E2E2E2F5E2F5E2E2E2E2E2E2E2E2E2E2E2E2E2E2E2E2
310
E2E2E2E2E2E2E2E2E2E2E2E2E2E2E2E2E2E2E2E2E2E2E2E2E2E2E2E2E2E2E2E2E2E2E2E2E2E2E2E2E2E2E2E2E2E2E2E2E2E2E2E2E2E2E2E2E2E2E2E2E2E2E2E2E2E2E2E2E2E2E2E2E2E2E2E2E2E2F5E2F5E2E2E200F5E2E2E2F5E2F5E2E2E2E2E2E2E2E2E2E2E2E2E2E2E2E2E2E2E2E2E2E2E2E2E2E2E2E2E2E2E2E2E2E2E2
310
E2E2E2E2E2E2E2E2E2E2E2E2E2E2E2E2E2E2E2E2E2E2E2E2E2E2E2E2E2E2E2E2E2E2E2E2E2E2E2E2E2E2E2E2E2E2E2E2E2E2E2E2E2E2E2E2E2E2E2F5E2F5E2E2E200F5E2E2E2F5E2F5E2E2E2E2E2E2E2E2E2E2E2E2E2E2E2E2E2E2E2E2E2E2E2E2E2E2E2E2E2E2E2E2E2E2E2E2E2E2E2E2E2E2E2E2E2E2E2E2E2E2E2E2E2E2
310
E2E2E2E2E2E2E2E2E2E2E2E2E2E2E2E2E2E2E2E2E2E2E2E2E2E2E2E2E2E2E2E2E2E2E2E2E2E2E2E2F5E2F5E2E2E200F5E2E2E2F5E2F5E2E2E2E2E2E2E2E2E2E2E2E2E2E2E2E2E2E2E2E2E2E2E2E2E2E2E2E2E2E2E2E2E2E2E2E2E2E2E2E2E2E2E2E2E2E2E2E2E2E2E2E2E2E2E2E2E2E2E2E2E2E2E2E2E2E2E2E2E2E2E2E2E2
310
E2E2E2E2E2E2E2E2E2E2E2E2E2E2E2E2E2E2E2E2E2F5E2F5E2E2E200F5E2E2E2F5E2F5E2E2E2E2E2E2E2E2E2E2E2E2E2E2E2E2E2E2E2E2E2E2E2E2E2E2E2E2E2E2E2E2E2E2E2E2E2E2E2E2E2E2E2E2E2E2E2E2E2E2E2E2E2E2E2E2E2E2E2E2E2E2E2E2E2E2E2E2E2E2E2E2E2E2E2E2E2E2E2E2E2E2E2E2E2E2E2E2E2E2E2E2
310
E2E2F5E2F5E2E2E200F5E2E2E2F5E2F5E2E2E2E2E2E2E2E2E2E2E2E2E2E2E2E2E2E2E2E2E2E2E2E2E2E2E2E2E2E2E2E2E2E2E2E2E2E2E2E2E2E2E2E2E2E2E2E2E2E2E2E2E2E2E2E2E2E2E2E2E2E2E2E2E2E2E2E2E2E2E2E2E2E2E2E2E2E2E2E2E2E2E2E2E2E2E2E2E2E2E2E2E2E2F5E2F5E2E2E200F5E2E2E2F5E2F5E2E2E2
310
E2E2E2E2E2E2E2E2E2E2E2E2E2E2E2E2E2E2E2E2E2E2E2E2E2E2E2E2E2E2E2E2E2E2E2E2E2E2E2E2E2E2E2E2E2E2E2E2E2E2E2E2E2E2E2E2E2E2E2E2E2E2E2E2E2E2E2E2E2E2E2E2E2E2E2E2E2E2E2E2E2E2E2E2E2E2E2E2E2E2E2F5E2F5E2E2E200F5E2E2E2F5E2F5E2E2E2E2E2E2E2E2E2E2E2E2E2E2E2E2E2E2E2E2E2E2
310
E2E2E2E2E2E2E2E2E2E2E2E2E2E2E2E2E2E2E2E2E2E2E2E2E2E2E2E2E2E2E2E2E2E2E2E2E2E2E2E2E2E2E2E2E2E2E2E2E2E2E2E2E2E2E2E2E2E2E2E2E2E2E2E2E2E2E2E2E2E2E2E2F5E2F5E2E2E200F5E2E2E2F5E2F5E2E2E2E2E2E2E2E2E2E2E2E2E2E2E2E2E2E2E2E2E2E2E2E2E2E2E2E2E2E2E2E2E2E2E2E2E2E2E2E2E2
310
E2E2E2E2E2E2E2E2E2E2E2E2E2E2E2E2E2E2E2E2E2E2E2E2E2E2E2E2E2E2E2E2E2E2E2E2E2E2E2E2E2E2E2E2E2E2E2E2E2E2E2E2E2F5E2F5E2E2E200F5E2E2E2F5E2F5E2E2E2E2E2E2E2E2E2E2E2E2E2E2E2E2E2E2E2E2E2E2E2E2E2E2E2E2E2E2E2E2E2E2E2E2E2E2E2E2E2E2E2E2E2E2E2E2E2E2E2E2E2E2E2E2E2E2E2E2
310
E2E2E2E2E2E2E2E2E2E2E2E2E2E2E2E2E2E2E2E2E2E2E2E2E2E2E2E2E2E2E2E2E2E2F5E2F5E2E2E200F5E2E2E2F5E2F5E2E2E2E2E2E2E2E2E2E2E2E2E2E2E2E2E2E2E2E2E2E2E2E2E2E2E2E2E2E2E2E2E2E2E2E2E2E2E2E2E2E2E2E2E2E2E2E2E2E2E2E2E2E2E2E2E2E2E2E2E2E2E2E2E2E2E2E2E2E2E2E2E2E2E2E2E2E2E2
310
E2E2E2E2E2E2E2E2E2E2E2E2E2E2E2F5E2F5E2E2E200F5E2E2E2F5E2F5E2E2E2E2E2E2E2E2E2E2E2E2E2E2E2E2E2E2E2E2E2E2E2E2E2E2E2E2E2E2E2E2E2E2E2E2E2E2E2E2E2E2E2E2E2E2E2E2E2E2E2E2E2E2E2E2E2E2E2E2E2E2E2E2E2E2E2E2E2E2E2E2E2E2E2E2E2E2E2E2E2E2E2E2E2E2E2E2E2E2E2E2E2E2F5E2F5E2
310
E2E200F5E2E2E2F5E2F5E2E2E2E2E2E2E2E2E2E2E2E2E2E2E2E2E2E2E2E2E2E2E2E2E2E2E2E2E2E2E2E2E2E2E2E2E2E2E2E2E2E2E2E2E2E2E2E2E2E2E2E2E2E2E2E2E2E2E2E2E2E2E2E2E2E2E2E2E2E2E2E2E2E2E2E2E2E2E2E2E2E2E2E2E2E2E2E2E2E2E2E2E2E2F5E2F5E2E2E200F5E2E2E2E2E2F5E2E2E2E2E2E2E2E2E2
310
E2E2E2E2E2E2E2E2E2E2E2E2E2E2E2E2E2E2E2E2E2E2E2E2E2E2E2E2E2E2E2E2E2E2E2E2E2E2E2E2E2E2E2E2E2E2E2E2E2E2E2E2E2E2E2E2E2E2E2E2E2E2E2E2E2E2E2E2E2E2E2E2E2E2E2E2E2E2E2E2E2E2E2E2E2F5E2E2E2E2E200F5E2E2E2E2E2F5E2E2E2E2E2E2E2E2E2E2E2E2E2E2E2E2E2E2E2E2E2E2E2E2E2E2E2E2
310
E2E2E2E2E2E2E2E2E2E2E2E2E2E2E2E2E2E2E2E2E2E2E2E2E2E2E2E2E2E2E2E2E2E2E2E2E2E2E2E2E2E2E2E2E2E2E2E2E2E2E2E2E2E2E2E2E2E2E2E2E2E2E2E2E2E2F5E2E2E2E2E200F5E2E2E2E2E2F5E2E2E2E2E2E2E2E2E2E2E2E2E2E2E2E2E2E2E2E2E2E2E2E2E2E2E2E2E2E2E2E2E2E2E2E2E2E2E2E2E2E2E2E2E2E2E2
310
E2E2E2E2E2E2E2E2E2E2E2E2E2E2E2E2E2E2E2E2E2E2E2E2E2E2E2E2E2E2E2E2E2E2E2E2E2E2E2E2E2E2E2E2E2E2E2F5E2E2E2E2E200F5E2E2E2E2E2F5F5F5F5F5F5F5F5F5F5F5F5F5F5F5F5F5F5F5F5F5F5F5F5F5F5F5F5F5F5F5F5F5F5F5F5F5F5F5F5F5F5F5F5F5F5F5F5F5F5F5F5F5F5F5F5F5F5F5F5F5F5F5F5F5F5F5
310
F5F5F5F5F5F5F5F5F5F5F5F5F5F5F5F5F5F5F5F5F5F5F5F5F5F5F5F5F5E2E2E2E2E200F5E2E2E2E2E2E2E2E2E2E2E2E2E2E2E2E2E2E2E2E2E2E2E2E2E2E2E2E2E2E2E2E2E2E2E2E2E2E2E2E2E2E2E2E2E2E2E2E2E2E2E2E2E2E2E2E2E2E2E2E2E2E2E2E2E2E2E2E2E2E2E2E2E2E2E2E2E2E2E2E2E2E2E2E2E2E2E2E2E2E2E2
310
E2E2E2E2E2E2E2E2E2E2E2E2E2E2E200F5E2E2E2E2E2E2E2E2E2E2E2E2E2E2E2E2E2E2E2E2E2E2E2E2E2E2E2E2E2E2E2E2E2E2E2E2E2E2E2E2E2E2E2E2E2E2E2E2E2E2E2E2E2E2E2E2E2E2E2E2E2E2E2E2E2E2E2E2E2E2E2E2E2E2E2E2E2E2E2E2E2E2E2E2E2E2E2E2E2E2E2E2E2E2E2E2E2E2E2E2E2E2E2E2E2E200F5E2E2
310
E2E2E2E2E2E2E2E2E2E2E2E2E2E2E2E2E2E2E2E2E2E2E2E2E2E2E2E2E2E2E2E2E2E2E2E2E2E2E2E2E2E2E2E2E2E2E2E2E2E2E2E2E2E2E2E2E2E2E2E2E2E2E2E2E2E2E2E2E2E2E2E2E2E2E2E2E2E2E2E2E2E2E2E2E2E2E2E2E2E2E2E2E2E2E2E2E2E2E2E2E2E2E2E200F5E2E2E2E2E2E2E2E2E2E2E2E2E2E2E2E2E2E2E2E2E2
310
E2E2E2E2E2E2E2E2E2E2E2E2E2E2E2E2E2E2E2E2E2E2E2E2E2E2E2E2E2E2E2E2E2E2E2E2E2E2E2E2E2E2E2E2E2E2E2E2E2E2E2E2E2E2E2E2E2E2E2E2E2E2E2E2E2E2E2E2E2E2E2E2E2E2E2E2E2E2E2E2E2E2E2E2E200F5E2E2E2E2E2E2E2E2E2E2E2E2E2E2E2E2E2E2E2E2E2E2E2E2E2E2E2E2E2E2E2E2E2E2E2E2E2E2E2E2
310
E2E2E2E2E2E2E2E2E2E2E2E2E2E2E2E2E2E2E2E2E2E2E2E2E2E2E2E2E2E2E2E2E2E2E2E2E2E2E2E2E2E2E2E2E2E2E2E2E2E2E2E2E2E2E2E2E2E2E2E2E2E2E2E2E2E200F5E2E2E2F5E2E2E2E2E2E2E2E2E2E2E2E2E2E2E2E2E2E2E2E2E2E2E2E2E2E2E2E2E2E2E2E2E2E2E2E2E2E2E2E2E2E2E2E2E2E2E2E2E2E2E2E2E2E2E2
310
E2E2E2E2E2E2E2E2E2E2E2E2E2E2E2E2E2E2E2E2E2E2E2E2E2E2E2E2E2E2E2E2E2E2E2E2E2E2E2E2E2E2E2F5E2E2E200F5E2E2E2F5E2E2E2E2E2E2E2E2E2E2E2E2E2E2E2E2E2E2E2E2E2E2E2E2E2E2E2E2E2E2E2E2E2E2E2E2E2E2E2E2E2E2E2E2E2E2E2E2E2E2E2E2E2E2E2E2E2E2E2E2E2E2E2E2E2E2E2E2E2E2E2E2E2E2
310
E2E2E2E2E2E2E2E2E2E2E2E2E2E2E2E2E2E2E2E2E2E2E2E2F5E2E2E200F5E2E2E2F5E2E2E2E2E2E2E2E2E2E2E2E2E2E2E2E2E2E2E2E2E2E2E2E2E2E2E2E2E2E2E2E2E2E2E2E2E2E2E2E2E2E2E2E2E2E2E2E2E2E2E2E2E2E2E2E2E2E2E2E2E2E2E2E2E2E2E2E2E2E2E2E2E2E2E2E2E2E2E2E2E2E2E2E2E2E2E2E2E2E2E2E2E2
310
E2E2E2E2E2F5E2E2E200F5E2E2E2F5E2E2E2E2E2E2E2E2E2E2E2E2E2E2E2E2E2E2E2E2E2E2E2E2E2E2E2E2E2E2E2E2E2E2E2E2E2E2E2E2E2E2E2E2E2E2E2E2E2E2E2E2E2E2E2E2E2E2E2E2E2E2E2E2E2E2E2E2E2E2E2E2E2E2E2E2E2E2E2E2E2E2E2E2E2E2E2E2E2E2E2E2E2E2E2E2E2E2F5E2E2E200F5E2E2E2F5E2E2E2E2
310
E2E2E2E2E2E2E2E2E2E2E2E2E2E2E2E2E2E2E2E2E2E2E2E2E2E2E2E2E2E2E2E2E2E2E2E2E2E2E2E2E2E2E2E2E2E2E2E2E2E2E2E2E2E2E2E2E2E2E2E2E2E2E2E2E2E2E2E2E2E2E2E2E2E2E2E2E2E2E2E2E2E2E2E2E2E2E2E2E2E2E2E2E2E2F5E2E2E200F5E2E2E2F5E2E2E2E2E2E2E2E2E2E2E2E2E2E2E2E2E2E2E2E2E2E2E2
310
E2E2E2E2E2E2E2E2E2E2E2E2E2E2E2E2E2E2E2E2E2E2E2E2E2E2E2E2E2E2E2E2E2E2E2E2E2E2E2E2E2E2E2E2E2E2E2E2E2E2E2E2E2E2E2E2E2E2E2E2E2E2E2E2E2E2E2E2E2E2E2E2E2E2E2F5E2E2E200F5E2E2E2F5E2E2E2E2E2E2E2E2E2E2E2E2E2E2E2E2E2E2E2E2E2E2E2E2E2E2E2E2E2E2E2E2E2E2E2E2E2E2E2E2E2E2
310
E2E2E2E2E2E2E2E2E2E2E2E2E2E2E2E2E2E2E2E2E2E2E2E2E2E2E2E2E2E2E2E2E2E2E2E2E2E2E2E2E2E2E2E2E2E2E2E2E2E2E2E2E2E2E2E2F5E2E2E200F5E2E2E2F5E2E2E2E2E2E2E2E2E2E2E2E2E2E2E2E2E2E2E2E2E2E2E2E2E2E2E2E2E2E2E2E2E2E2E2E2E2E2E2E2E2E2E2E2E2E2E2E2E2E2E2E2E2E2E2E2E2E2E2E2E2
310
E2E2E2E2E2E2E2E2E2E2E2E2E2E2E2E2E2E2E2E2E2E2E2E2E2E2E2E2E2E2E2E2E2E2E2E2E2F5E2E2E200F5E2E2E2F5F5F5F5F5F5F5F5E2E2E2E2E2E2E2E2E2F5F5F5F5F5F5F5F5F5F5F5F5F5F5F5F5E2E2E2E2E2E2E2E2E2F5F5F5F5F5F5F5F5F5F5F5F5F5F5F5F5E2E2E2E2E2E2E2E2E2F5F5F5F5F5F5F5F5F5F5F5F5F5F5
310
F5F5E2E2E2E2E2E2E2E2E2F5F5F5F5F5F5F5F5E2E2E200F5E2E2E2E2E2E2E2E2E2E2E2E2E2E2E2E2E2E2E2E2E2E2E2E2E2E2E2E2E2E2E2E2E2E2E2E2E2E2E2E2E2E2E2E2E2E2E2E2E2E2E2E2E2E2E2E2E2E2E2E2E2E2E2E2E2E2E2E2E2E2E2E2E2E2E2E2E2E2E2E2E2E2E2E2E2E2E2E2E2E2E2E2E2E2E2E2E2E2E2E2E2E2E2
310
E2E2E200F5E2E2E2E2E2E2E2E2E2E2E2E2E2E2E2E2E2E2E2E2E2E2E2E2E2E2E2E2E2E2E2E2E2E2E2E2E2E2E2E2E2E2E2E2E2E2E2E2E2E2E2E2E2E2E2E2E2E2E2E2E2E2E2E2E2E2E2E2E2E2E2E2E2E2E2E2E2E2E2E2E2E2E2E2E2E2E2E2E2E2E2E2E2E2E2E2E2E2E2E2E2E2E2E2E2E200F5E2E2E2E2E2E2E2E2E2E2E2E2E2E2
310
E2E2E2E2E2E2E2E2E2E2E2E2E2E2E2E2E2E2E2E2E2E2E2E2E2E2E2E2E2E2E2E2E2E2E2E2E2E2E2E2E2E2E2E2E2E2E2E2E2E2E2E2E2E2E2E2E2E2E2E2E2E2E2E2E2E2E2E2E2E2E2E2E2E2E2E2E2E2E2E2E2E2E2E2E2E2E2E2E2E2E2E200F5F5F5F5F5F5F5F5F5F5F5F5F5F5F5F5F5F5F5F5F5F5F5F5F5F5F5F5F5F5F5F5F5F5
310
F5F5F5F5F5F5F5F5F5F5F5F5F5F5F5F5F5F5F5F5F5F5F5F5F5F5F5F5F5F5F5F5F5F5F5F5F5F5F5F5F5F5F5F5F5F5F5F5F5F5F5F5F5F5F5F5F5F5F5F5F5F5F5F5F5F5F5F5F5F5F5F5F500EFEFEFEFEFEFEFEFEFEFEFEFEFEFEFEFEFEFEFEFEFEFEFEFEFEFEFEFEFEFEFEFEFEFEFEFEFEFEFEFEFEFEFEFEFEFEFEFEFEFEFEFEF
310
EFEFEFEFEFEFEFEFEFEFEFEFEFEFEFEFEFEFEFEFEFEFEFEFEFEFEFEFEFEFEFEFEFEFEFEFEFEFEFEFEFEFEFEFEFEFEFEFEFEFEFEFEFEF00
  0
ENDSEC
  0
EOF
