  0
SECTION
  2
HEADER
  9
$ACADVER
  1
AC1021
  9
$ACADMAINTVER
 70
     1
  9
$DWGCODEPAGE
  3
ANSI_1252
  9
$LASTSAVEDBY
  1
RSutcliffe
  9
$INSBASE
 10
0.0
 20
0.0
 30
0.0
  9
$EXTMIN
 10
41.70621659841333
 20
92.6425136252941
 30
-0.0015258207003583
  9
$EXTMAX
 10
289.763806042012
 20
270.6550627978381
 30
0.0000000349246037
  9
$LIMMIN
 10
0.0
 20
0.0
  9
$LIMMAX
 10
17.0
 20
11.0
  9
$ORTHOMODE
 70
     1
  9
$REGENMODE
 70
     1
  9
$FILLMODE
 70
     1
  9
$QTEXTMODE
 70
     0
  9
$MIRRTEXT
 70
     1
  9
$LTSCALE
 40
20.0
  9
$ATTMODE
 70
     1
  9
$TEXTSIZE
 40
2.0
  9
$TRACEWID
 40
0.05
  9
$TEXTSTYLE
  7
WEB PAGE
  9
$CLAYER
  8
0
  9
$CELTYPE
  6
BYLAYER
  9
$CECOLOR
 62
   256
  9
$CELTSCALE
 40
1.0
  9
$DISPSILH
 70
     0
  9
$DIMSCALE
 40
1.0
  9
$DIMASZ
 40
3.0
  9
$DIMEXO
 40
2.0
  9
$DIMDLI
 40
1.0
  9
$DIMRND
 40
0.0
  9
$DIMDLE
 40
0.0
  9
$DIMEXE
 40
1.0
  9
$DIMTP
 40
0.0
  9
$DIMTM
 40
0.0
  9
$DIMTXT
 40
1.75
  9
$DIMCEN
 40
1.0
  9
$DIMTSZ
 40
0.0
  9
$DIMTOL
 70
     0
  9
$DIMLIM
 70
     0
  9
$DIMTIH
 70
     1
  9
$DIMTOH
 70
     1
  9
$DIMSE1
 70
     0
  9
$DIMSE2
 70
     0
  9
$DIMTAD
 70
     0
  9
$DIMZIN
 70
     0
  9
$DIMBLK
  1

  9
$DIMASO
 70
     1
  9
$DIMSHO
 70
     1
  9
$DIMPOST
  1

  9
$DIMAPOST
  1

  9
$DIMALT
 70
     0
  9
$DIMALTD
 70
     2
  9
$DIMALTF
 40
25.4
  9
$DIMLFAC
 40
1.0
  9
$DIMTOFL
 70
     0
  9
$DIMTVP
 40
0.0
  9
$DIMTIX
 70
     0
  9
$DIMSOXD
 70
     0
  9
$DIMSAH
 70
     0
  9
$DIMBLK1
  1

  9
$DIMBLK2
  1

  9
$DIMSTYLE
  2
STANDARD
  9
$DIMCLRD
 70
     0
  9
$DIMCLRE
 70
     0
  9
$DIMCLRT
 70
     0
  9
$DIMTFAC
 40
1.0
  9
$DIMGAP
 40
1.0
  9
$DIMJUST
 70
     0
  9
$DIMSD1
 70
     0
  9
$DIMSD2
 70
     0
  9
$DIMTOLJ
 70
     1
  9
$DIMTZIN
 70
     0
  9
$DIMALTZ
 70
     0
  9
$DIMALTTZ
 70
     0
  9
$DIMUPT
 70
     0
  9
$DIMDEC
 70
     4
  9
$DIMTDEC
 70
     4
  9
$DIMALTU
 70
     2
  9
$DIMALTTD
 70
     2
  9
$DIMTXSTY
  7
WEB PAGE
  9
$DIMAUNIT
 70
     0
  9
$DIMADEC
 70
     0
  9
$DIMALTRND
 40
0.0
  9
$DIMAZIN
 70
     0
  9
$DIMDSEP
 70
    46
  9
$DIMATFIT
 70
     3
  9
$DIMFRAC
 70
     2
  9
$DIMLDRBLK
  1

  9
$DIMLUNIT
 70
     4
  9
$DIMLWD
 70
    -2
  9
$DIMLWE
 70
    -2
  9
$DIMTMOVE
 70
     0
  9
$DIMFXL
 40
1.0
  9
$DIMFXLON
 70
     0
  9
$DIMJOGANG
 40
0.7853981633974483
  9
$DIMTFILL
 70
     0
  9
$DIMTFILLCLR
 70
     0
  9
$DIMARCSYM
 70
     0
  9
$DIMLTYPE
  6

  9
$DIMLTEX1
  6

  9
$DIMLTEX2
  6

  9
$LUNITS
 70
     4
  9
$LUPREC
 70
     4
  9
$SKETCHINC
 40
0.1
  9
$FILLETRAD
 40
0.0
  9
$AUNITS
 70
     1
  9
$AUPREC
 70
     4
  9
$MENU
  1
acad
  9
$ELEVATION
 40
0.0
  9
$PELEVATION
 40
0.0
  9
$THICKNESS
 40
0.0
  9
$LIMCHECK
 70
     0
  9
$CHAMFERA
 40
0.0
  9
$CHAMFERB
 40
0.0
  9
$CHAMFERC
 40
0.0
  9
$CHAMFERD
 40
0.0
  9
$SKPOLY
 70
     0
  9
$TDCREATE
 40
2451029.636190972
  9
$TDUCREATE
 40
2451029.844524306
  9
$TDUPDATE
 40
2454105.482069040
  9
$TDUUPDATE
 40
2454105.690402373
  9
$TDINDWG
 40
3.0302626852
  9
$TDUSRTIMER
 40
3.0302626852
  9
$USRTIMER
 70
     1
  9
$ANGBASE
 50
0.0
  9
$ANGDIR
 70
     0
  9
$PDMODE
 70
     2
  9
$PDSIZE
 40
0.0
  9
$PLINEWID
 40
0.0
  9
$SPLFRAME
 70
     0
  9
$SPLINETYPE
 70
     6
  9
$SPLINESEGS
 70
     8
  9
$HANDSEED
  5
130E3
  9
$SURFTAB1
 70
     6
  9
$SURFTAB2
 70
     6
  9
$SURFTYPE
 70
     6
  9
$SURFU
 70
     6
  9
$SURFV
 70
     6
  9
$UCSBASE
  2

  9
$UCSNAME
  2

  9
$UCSORG
 10
0.0
 20
0.0
 30
0.0
  9
$UCSXDIR
 10
1.0
 20
0.0
 30
0.0
  9
$UCSYDIR
 10
0.0
 20
1.0
 30
0.0
  9
$UCSORTHOREF
  2

  9
$UCSORTHOVIEW
 70
     0
  9
$UCSORGTOP
 10
0.0
 20
0.0
 30
0.0
  9
$UCSORGBOTTOM
 10
0.0
 20
0.0
 30
0.0
  9
$UCSORGLEFT
 10
0.0
 20
0.0
 30
0.0
  9
$UCSORGRIGHT
 10
0.0
 20
0.0
 30
0.0
  9
$UCSORGFRONT
 10
0.0
 20
0.0
 30
0.0
  9
$UCSORGBACK
 10
0.0
 20
0.0
 30
0.0
  9
$PUCSBASE
  2

  9
$PUCSNAME
  2

  9
$PUCSORG
 10
0.0
 20
0.0
 30
0.0
  9
$PUCSXDIR
 10
1.0
 20
0.0
 30
0.0
  9
$PUCSYDIR
 10
0.0
 20
1.0
 30
0.0
  9
$PUCSORTHOREF
  2

  9
$PUCSORTHOVIEW
 70
     0
  9
$PUCSORGTOP
 10
0.0
 20
0.0
 30
0.0
  9
$PUCSORGBOTTOM
 10
0.0
 20
0.0
 30
0.0
  9
$PUCSORGLEFT
 10
0.0
 20
0.0
 30
0.0
  9
$PUCSORGRIGHT
 10
0.0
 20
0.0
 30
0.0
  9
$PUCSORGFRONT
 10
0.0
 20
0.0
 30
0.0
  9
$PUCSORGBACK
 10
0.0
 20
0.0
 30
0.0
  9
$USERI1
 70
     0
  9
$USERI2
 70
     0
  9
$USERI3
 70
     0
  9
$USERI4
 70
     0
  9
$USERI5
 70
     0
  9
$USERR1
 40
0.0
  9
$USERR2
 40
0.0
  9
$USERR3
 40
0.0
  9
$USERR4
 40
0.0
  9
$USERR5
 40
0.0
  9
$WORLDVIEW
 70
     1
  9
$SHADEDGE
 70
     3
  9
$SHADEDIF
 70
    70
  9
$TILEMODE
 70
     1
  9
$MAXACTVP
 70
    16
  9
$PINSBASE
 10
0.0
 20
0.0
 30
0.0
  9
$PLIMCHECK
 70
     0
  9
$PEXTMIN
 10
0.1725342901511637
 20
0.1315364760812923
 30
0.0
  9
$PEXTMAX
 10
7.970382223964809
 20
10.41007468559776
 30
0.0
  9
$PLIMMIN
 10
-0.161649064214197
 20
-0.1589081902421915
  9
$PLIMMAX
 10
8.338350695489911
 20
10.84109156946191
  9
$UNITMODE
 70
     0
  9
$VISRETAIN
 70
     0
  9
$PLINEGEN
 70
     0
  9
$PSLTSCALE
 70
     1
  9
$TREEDEPTH
 70
  3020
  9
$CMLSTYLE
  2
STANDARD
  9
$CMLJUST
 70
     0
  9
$CMLSCALE
 40
1.0
  9
$PROXYGRAPHICS
 70
     1
  9
$MEASUREMENT
 70
     0
  9
$CELWEIGHT
370
    -1
  9
$ENDCAPS
280
     0
  9
$JOINSTYLE
280
     0
  9
$LWDISPLAY
290
     0
  9
$INSUNITS
 70
     1
  9
$HYPERLINKBASE
  1

  9
$STYLESHEET
  1

  9
$XEDIT
290
     1
  9
$CEPSNTYPE
380
     0
  9
$PSTYLEMODE
290
     1
  9
$FINGERPRINTGUID
  2
{EED38BEA-5B6B-467F-90D5-C3127D1C881D}
  9
$VERSIONGUID
  2
{5C0BF026-99FD-4B08-ACCF-AB84476F222C}
  9
$EXTNAMES
290
     1
  9
$PSVPSCALE
 40
0.0
  9
$OLESTARTUP
290
     0
  9
$SORTENTS
280
    96
  9
$INDEXCTL
280
     0
  9
$HIDETEXT
280
     0
  9
$XCLIPFRAME
290
     0
  9
$HALOGAP
280
     0
  9
$OBSCOLOR
 70
   257
  9
$OBSLTYPE
280
     0
  9
$INTERSECTIONDISPLAY
280
     0
  9
$INTERSECTIONCOLOR
 70
   257
  9
$DIMASSOC
280
     1
  9
$PROJECTNAME
  1

  9
$CAMERADISPLAY
290
     0
  9
$LENSLENGTH
 40
50.0
  9
$CAMERAHEIGHT
 40
0.0
  9
$STEPSPERSEC
 40
2.0
  9
$STEPSIZE
 40
6.0
  9
$3DDWFPREC
 40
2.0
  9
$PSOLWIDTH
 40
0.25
  9
$PSOLHEIGHT
 40
4.0
  9
$LOFTANG1
 40
1.570796326794896
  9
$LOFTANG2
 40
1.570796326794896
  9
$LOFTMAG1
 40
0.0
  9
$LOFTMAG2
 40
0.0
  9
$LOFTPARAM
 70
     7
  9
$LOFTNORMALS
280
     1
  9
$LATITUDE
 40
37.795
  9
$LONGITUDE
 40
-122.394
  9
$NORTHDIRECTION
 40
0.0
  9
$TIMEZONE
 70
 -8000
  9
$LIGHTGLYPHDISPLAY
280
     1
  9
$TILEMODELIGHTSYNCH
280
     1
  9
$CMATERIAL
347
12F7B
  9
$SOLIDHIST
280
     1
  9
$SHOWHIST
280
     1
  9
$DWFFRAME
280
     2
  9
$DGNFRAME
280
     0
  9
$REALWORLDSCALE
290
     1
  9
$INTERFERECOLOR
 62
     1
  9
$INTERFEREOBJVS
345
12F88
  9
$INTERFEREVPVS
346
12F85
  9
$CSHADOW
280
     0
  9
$SHADOWPLANELOCATION
 40
0.0
  0
ENDSEC
  0
SECTION
  2
CLASSES
  0
CLASS
  1
DICTIONARYVAR
  2
AcDbDictionaryVar
  3
ObjectDBX Classes
 90
        0
 91
        3
280
     0
281
     0
  0
CLASS
  1
ACDBDICTIONARYWDFLT
  2
AcDbDictionaryWithDefault
  3
ObjectDBX Classes
 90
        0
 91
        1
280
     0
281
     0
  0
CLASS
  1
MATERIAL
  2
AcDbMaterial
  3
ObjectDBX Classes
 90
     1024
 91
        3
280
     0
281
     0
  0
CLASS
  1
VISUALSTYLE
  2
AcDbVisualStyle
  3
ObjectDBX Classes
 90
     4095
 91
       16
280
     0
281
     0
  0
CLASS
  1
TABLESTYLE
  2
AcDbTableStyle
  3
ObjectDBX Classes
 90
     4095
 91
        1
280
     0
281
     0
  0
CLASS
  1
SORTENTSTABLE
  2
AcDbSortentsTable
  3
ObjectDBX Classes
 90
        0
 91
        1
280
     0
281
     0
  0
ENDSEC
  0
SECTION
  2
TABLES
  0
TABLE
  2
VPORT
  5
8
102
{ACAD_XDICTIONARY
360
13050
102
}
330
0
100
AcDbSymbolTable
 70
     1
  0
VPORT
  5
12F78
330
8
100
AcDbSymbolTableRecord
100
AcDbViewportTableRecord
  2
*Active
 70
     0
 10
0.0
 20
0.0
 11
1.0
 21
1.0
 12
165.7350113202126
 22
181.6487882115661
 13
0.0
 23
0.0
 14
1.0
 24
1.0
 15
0.25
 25
0.25
 16
0.0
 26
0.0
 36
1.0
 17
0.0
 27
0.0
 37
0.0
 40
179.3889348620224
 41
1.544516129032258
 42
50.0
 43
0.0
 44
0.0
 50
0.0
 51
0.0
 71
     0
 72
   100
 73
     1
 74
     0
 75
     0
 76
     0
 77
     0
 78
     0
281
     0
 65
     1
110
0.0
120
0.0
130
0.0
111
1.0
121
0.0
131
0.0
112
0.0
122
1.0
132
0.0
 79
     0
146
0.0
348
12F84
 60
     3
 61
     5
292
     1
282
     1
141
0.0
142
0.0
 63
   250
421
  3355443
  0
ENDTAB
  0
TABLE
  2
LTYPE
  5
5
330
0
100
AcDbSymbolTable
 70
     6
  0
LTYPE
  5
11
330
5
100
AcDbSymbolTableRecord
100
AcDbLinetypeTableRecord
  2
BYBLOCK
 70
     0
  3

 72
    65
 73
     0
 40
0.0
  0
LTYPE
  5
12
330
5
100
AcDbSymbolTableRecord
100
AcDbLinetypeTableRecord
  2
BYLAYER
 70
     0
  3

 72
    65
 73
     0
 40
0.0
  0
LTYPE
  5
13
330
5
100
AcDbSymbolTableRecord
100
AcDbLinetypeTableRecord
  2
CONTINUOUS
 70
     0
  3
Solid line
 72
    65
 73
     0
 40
0.0
  0
LTYPE
  5
3A
330
5
100
AcDbSymbolTableRecord
100
AcDbLinetypeTableRecord
  2
HIDDEN
 70
     0
  3
__ __ __ __ __ __ __ __ __ __ __ __ __ __ __ __
 72
    65
 73
     2
 40
0.375
 49
0.25
 74
     0
 49
-0.125
 74
     0
  0
ENDTAB
  0
TABLE
  2
LAYER
  5
2
102
{ACAD_XDICTIONARY
360
1302D
102
}
330
0
100
AcDbSymbolTable
 70
    38
  0
LAYER
  5
E
330
2
100
AcDbSymbolTableRecord
100
AcDbLayerTableRecord
  2
0
 70
     0
 62
     7
  6
CONTINUOUS
370
    -3
390
B579
347
12F7D
  0
LAYER
  5
41
330
2
100
AcDbSymbolTableRecord
100
AcDbLayerTableRecord
  2
BDR
 70
     0
 62
     7
  6
CONTINUOUS
370
    -3
390
B579
347
12F7D
  0
LAYER
  5
43
330
2
100
AcDbSymbolTableRecord
100
AcDbLayerTableRecord
  2
5
 70
     0
 62
     7
  6
CONTINUOUS
370
    -3
390
B579
347
12F7D
  0
LAYER
  5
44
330
2
100
AcDbSymbolTableRecord
100
AcDbLayerTableRecord
  2
AME_FRZ
 70
     0
 62
     7
  6
CONTINUOUS
370
    -3
390
B579
347
12F7D
  0
LAYER
  5
45
330
2
100
AcDbSymbolTableRecord
100
AcDbLayerTableRecord
  2
ASHADE
 70
     0
 62
     7
  6
CONTINUOUS
370
    -3
390
B579
347
12F7D
  0
LAYER
  5
B91F
330
2
100
AcDbSymbolTableRecord
100
AcDbLayerTableRecord
  2
HATCH
 70
     0
 62
     4
  6
CONTINUOUS
370
    -3
390
B579
347
12F7D
  0
LAYER
  5
F047
330
2
100
AcDbSymbolTableRecord
100
AcDbLayerTableRecord
  2
Defpoints
 70
     0
 62
     7
  6
CONTINUOUS
290
     0
370
    -3
390
B579
347
12F7D
  0
LAYER
  5
F086
330
2
100
AcDbSymbolTableRecord
100
AcDbLayerTableRecord
  2
SECTION JOINTS
 70
     0
 62
     7
  6
CONTINUOUS
370
    25
390
B579
347
12F7D
  0
LAYER
  5
111E5
330
2
100
AcDbSymbolTableRecord
100
AcDbLayerTableRecord
  2
TEXT
 70
     0
 62
     7
  6
CONTINUOUS
370
    25
390
B579
347
12F7D
  0
LAYER
  5
117C7
330
2
100
AcDbSymbolTableRecord
100
AcDbLayerTableRecord
  2
FRAMING
 70
     0
 62
     7
  6
CONTINUOUS
370
    25
390
B579
347
12F7D
  0
LAYER
  5
119C9
330
2
100
AcDbSymbolTableRecord
100
AcDbLayerTableRecord
  2
OUTSIDE
 70
     0
 62
     7
  6
CONTINUOUS
370
    -3
390
B579
347
12F7D
  0
LAYER
  5
11C8D
330
2
100
AcDbSymbolTableRecord
100
AcDbLayerTableRecord
  2
HIDDEN
 70
     0
 62
     2
  6
HIDDEN
370
    -3
390
B579
347
12F7D
  0
LAYER
  5
1210A
330
2
100
AcDbSymbolTableRecord
100
AcDbLayerTableRecord
  2
REVERSE-ANGLE
 70
     0
 62
     4
  6
CONTINUOUS
370
    -3
390
B579
347
12F7D
  0
LAYER
  5
1210C
330
2
100
AcDbSymbolTableRecord
100
AcDbLayerTableRecord
  2
JAMB
 70
     0
 62
     1
  6
CONTINUOUS
370
    -3
390
B579
347
12F7D
  0
LAYER
  5
1210D
330
2
100
AcDbSymbolTableRecord
100
AcDbLayerTableRecord
  2
UPPER-ANGLE
 70
     0
 62
     7
  6
CONTINUOUS
370
    -3
390
B579
347
12F7D
  0
ENDTAB
  0
TABLE
  2
STYLE
  5
3
330
0
100
AcDbSymbolTable
 70
     6
  0
STYLE
  5
F
330
3
100
AcDbSymbolTableRecord
100
AcDbTextStyleTableRecord
  2
STANDARD
 70
     0
 40
0.0
 41
1.0
 50
0.0
 71
     0
 42
2.0
  3
TIMES.TTF
  4

1001
ACAD
1000
Times New Roman
1071
       18
  0
STYLE
  5
1D21
330
3
100
AcDbSymbolTableRecord
100
AcDbTextStyleTableRecord
  2
SIMPLEX
 70
     0
 40
0.1
 41
0.6
 50
0.0
 71
     0
 42
0.1
  3
SIMPLEX.shx
  4

  0
STYLE
  5
10B94
330
3
100
AcDbSymbolTableRecord
100
AcDbTextStyleTableRecord
  2
WEB PAGE
 70
     0
 40
0.0
 41
1.0
 50
0.0
 71
     0
 42
2.0
  3
TIMES.TTF
  4

1001
ACAD
1000
Times New Roman
1071
       18
  0
ENDTAB
  0
TABLE
  2
VIEW
  5
6
330
0
100
AcDbSymbolTable
 70
     1
  0
ENDTAB
  0
TABLE
  2
UCS
  5
7
330
0
100
AcDbSymbolTable
 70
     0
  0
ENDTAB
  0
TABLE
  2
APPID
  5
9
330
0
100
AcDbSymbolTable
 70
     7
  0
APPID
  5
10
330
9
100
AcDbSymbolTableRecord
100
AcDbRegAppTableRecord
  2
ACAD
 70
     0
  0
APPID
  5
3F
330
9
100
AcDbSymbolTableRecord
100
AcDbRegAppTableRecord
  2
AME_SOL
 70
     0
  0
APPID
  5
40
330
9
100
AcDbSymbolTableRecord
100
AcDbRegAppTableRecord
  2
AVE_RENDER
 70
     0
  0
APPID
  5
71A7
330
9
100
AcDbSymbolTableRecord
100
AcDbRegAppTableRecord
  2
AVE_ENTITY_MATERIAL
 70
     0
  0
APPID
  5
71A8
330
9
100
AcDbSymbolTableRecord
100
AcDbRegAppTableRecord
  2
AVE_FINISH
 70
     0
  0
APPID
  5
71A9
330
9
100
AcDbSymbolTableRecord
100
AcDbRegAppTableRecord
  2
AVE_MATERIAL
 70
     0
  0
APPID
  5
71AA
330
9
100
AcDbSymbolTableRecord
100
AcDbRegAppTableRecord
  2
AVE_GLOBAL
 70
     0
  0
ENDTAB
  0
TABLE
  2
DIMSTYLE
  5
A
330
0
100
AcDbSymbolTable
 70
     1
100
AcDbDimStyleTable
 71
     1
340
190D
  0
DIMSTYLE
105
190D
102
{ACAD_REACTORS
330
11CDE
330
11CDF
330
11CE0
330
11CE1
330
11CFE
330
11CFD
330
11D00
330
11D1F
330
11EA8
330
1205D
330
12600
102
}
330
A
100
AcDbSymbolTableRecord
100
AcDbDimStyleTableRecord
  2
STANDARD
 70
     0
 41
3.0
 42
2.0
 43
1.0
 44
1.0
140
1.75
141
1.0
147
1.0
276
     2
277
     4
340
10B94
  0
ENDTAB
  0
TABLE
  2
BLOCK_RECORD
  5
1
330
0
100
AcDbSymbolTable
 70
    94
  0
BLOCK_RECORD
  5
17
330
1
100
AcDbSymbolTableRecord
100
AcDbBlockTableRecord
  2
*MODEL_SPACE
340
B57C
 70
     0
280
     1
281
     0
  0
BLOCK_RECORD
  5
14
330
1
100
AcDbSymbolTableRecord
100
AcDbBlockTableRecord
  2
*PAPER_SPACE
340
B57D
 70
     0
280
     1
281
     0
  0
BLOCK_RECORD
  5
20
330
1
100
AcDbSymbolTableRecord
100
AcDbBlockTableRecord
  2
AME_NIL
340
0
102
{BLKREFS
331
3374
331
3E3C
102
}
 70
     0
280
     1
281
     0
  0
BLOCK_RECORD
  5
21
330
1
100
AcDbSymbolTableRecord
100
AcDbBlockTableRecord
  2
AME_SOL
340
0
102
{BLKREFS
331
3375
331
3E3D
102
}
 70
     0
280
     1
281
     0
  0
BLOCK_RECORD
  5
22
330
1
100
AcDbSymbolTableRecord
100
AcDbBlockTableRecord
  2
AVE_RENDER
340
0
102
{BLKREFS
331
3376
331
3377
331
3378
331
3E3E
331
3E3F
331
3E40
331
120FE
331
120FF
331
12100
331
12101
331
12102
331
12103
331
12104
331
12105
102
}
 70
     0
280
     1
281
     0
  0
BLOCK_RECORD
  5
11D2A
330
1
100
AcDbSymbolTableRecord
100
AcDbBlockTableRecord
  2
*D64
340
0
 70
     0
280
     1
281
     0
  0
BLOCK_RECORD
  5
11D37
330
1
100
AcDbSymbolTableRecord
100
AcDbBlockTableRecord
  2
*D65
340
0
 70
     0
280
     1
281
     0
  0
BLOCK_RECORD
  5
11D44
330
1
100
AcDbSymbolTableRecord
100
AcDbBlockTableRecord
  2
*D66
340
0
 70
     0
280
     1
281
     0
  0
BLOCK_RECORD
  5
11D51
330
1
100
AcDbSymbolTableRecord
100
AcDbBlockTableRecord
  2
*D67
340
0
 70
     0
280
     1
281
     0
  0
BLOCK_RECORD
  5
11D5E
330
1
100
AcDbSymbolTableRecord
100
AcDbBlockTableRecord
  2
*D68
340
0
 70
     0
280
     1
281
     0
  0
BLOCK_RECORD
  5
11E29
330
1
100
AcDbSymbolTableRecord
100
AcDbBlockTableRecord
  2
15R-138TRK
340
0
102
{BLKREFS
331
123EB
102
}
 70
     0
280
     1
281
     0
  0
BLOCK_RECORD
  5
11E49
330
1
100
AcDbSymbolTableRecord
100
AcDbBlockTableRecord
  2
WD-9-3-38
340
0
102
{BLKREFS
331
123ED
102
}
 70
     1
280
     1
281
     0
  0
BLOCK_RECORD
  5
11EA9
330
1
100
AcDbSymbolTableRecord
100
AcDbBlockTableRecord
  2
*D71
340
0
 70
     0
280
     1
281
     0
  0
BLOCK_RECORD
  5
12034
330
1
100
AcDbSymbolTableRecord
100
AcDbBlockTableRecord
  2
A$C2D8E259A
340
0
102
{BLKREFS
331
12045
331
125B9
102
}
 70
     0
280
     1
281
     0
  0
BLOCK_RECORD
  5
1205E
330
1
100
AcDbSymbolTableRecord
100
AcDbBlockTableRecord
  2
*D73
340
0
 70
     0
280
     1
281
     0
  0
BLOCK_RECORD
  5
12149
330
1
100
AcDbSymbolTableRecord
100
AcDbBlockTableRecord
  2
t-4
340
0
102
{BLKREFS
331
12158
102
}
 70
     0
280
     1
281
     0
  0
BLOCK_RECORD
  5
12159
330
1
100
AcDbSymbolTableRecord
100
AcDbBlockTableRecord
  2
t-5
340
0
102
{BLKREFS
331
12168
102
}
 70
     0
280
     1
281
     0
  0
BLOCK_RECORD
  5
12169
330
1
100
AcDbSymbolTableRecord
100
AcDbBlockTableRecord
  2
t-6
340
0
102
{BLKREFS
331
12178
102
}
 70
     0
280
     1
281
     0
  0
BLOCK_RECORD
  5
12179
330
1
100
AcDbSymbolTableRecord
100
AcDbBlockTableRecord
  2
t-7
340
0
102
{BLKREFS
331
12188
102
}
 70
     0
280
     1
281
     0
  0
BLOCK_RECORD
  5
12189
330
1
100
AcDbSymbolTableRecord
100
AcDbBlockTableRecord
  2
A$C5DFD450B
340
0
102
{BLKREFS
331
1219D
102
}
 70
     0
280
     1
281
     0
  0
BLOCK_RECORD
  5
1219C
330
1
100
AcDbSymbolTableRecord
100
AcDbBlockTableRecord
  2
RASPLT-10
340
0
102
{BLKREFS
331
121A0
102
}
 70
     0
280
     1
281
     0
  0
BLOCK_RECORD
  5
122B2
330
1
100
AcDbSymbolTableRecord
100
AcDbBlockTableRecord
  2
A$C426517AB
340
0
102
{BLKREFS
331
122EE
102
}
 70
     0
280
     1
281
     0
  0
BLOCK_RECORD
  5
122F0
330
1
100
AcDbSymbolTableRecord
100
AcDbBlockTableRecord
  2
A$C355A0678
340
0
102
{BLKREFS
331
12329
102
}
 70
     0
280
     1
281
     0
  0
BLOCK_RECORD
  5
12334
330
1
100
AcDbSymbolTableRecord
100
AcDbBlockTableRecord
  2
A$C4F3F2A85
340
0
102
{BLKREFS
331
12390
102
}
 70
     0
280
     1
281
     0
  0
BLOCK_RECORD
  5
1238F
330
1
100
AcDbSymbolTableRecord
100
AcDbBlockTableRecord
  2
23-LHR-START
340
0
102
{BLKREFS
331
123EF
102
}
 70
     1
280
     1
281
     0
  0
BLOCK_RECORD
  5
12393
330
1
100
AcDbSymbolTableRecord
100
AcDbBlockTableRecord
  2
A$C67061884
340
0
102
{BLKREFS
331
123EC
102
}
 70
     0
280
     1
281
     0
  0
BLOCK_RECORD
  5
12601
330
1
100
AcDbSymbolTableRecord
100
AcDbBlockTableRecord
  2
*D89
340
0
 70
     0
280
     1
281
     0
  0
ENDTAB
  0
ENDSEC
  0
SECTION
  2
BLOCKS
  0
BLOCK
  5
57
330
17
100
AcDbEntity
  8
0
100
AcDbBlockBegin
  2
*MODEL_SPACE
 70
     0
 10
0.0
 20
0.0
 30
0.0
  3
*MODEL_SPACE
  1

  0
ENDBLK
  5
58
330
17
100
AcDbEntity
  8
0
100
AcDbBlockEnd
  0
BLOCK
  5
55
330
14
100
AcDbEntity
 67
     1
  8
0
100
AcDbBlockBegin
  2
*PAPER_SPACE
 70
     0
 10
0.0
 20
0.0
 30
0.0
  3
*PAPER_SPACE
  1

  0
ENDBLK
  5
56
330
14
100
AcDbEntity
 67
     1
  8
0
100
AcDbBlockEnd
  0
BLOCK
  5
91E
330
20
100
AcDbEntity
  8
0
100
AcDbBlockBegin
  2
AME_NIL
 70
     0
 10
0.0
 20
0.0
 30
0.0
  3
AME_NIL
  1
AME_NIL
  0
ENDBLK
  5
91F
330
20
100
AcDbEntity
  8
0
100
AcDbBlockEnd
  0
BLOCK
  5
920
330
21
100
AcDbEntity
  8
0
100
AcDbBlockBegin
  2
AME_SOL
 70
     0
 10
0.0
 20
0.0
 30
0.0
  3
AME_SOL
  1
AME_SOL
  0
ENDBLK
  5
921
330
21
100
AcDbEntity
  8
0
100
AcDbBlockEnd
  0
BLOCK
  5
922
330
22
100
AcDbEntity
  8
0
100
AcDbBlockBegin
  2
AVE_RENDER
 70
     0
 10
0.0
 20
0.0
 30
0.0
  3
AVE_RENDER
  1
AVE_RENDER
  0
ENDBLK
  5
923
330
22
100
AcDbEntity
  8
0
100
AcDbBlockEnd
  0
BLOCK
  5
11D35
330
11D2A
100
AcDbEntity
  8
0
100
AcDbBlockBegin
  2
*D64
 70
     1
 10
0.0
 20
0.0
 30
0.0
  3
*D64
  1

  0
LINE
  5
12640
330
11D2A
100
AcDbEntity
  8
TEXT
 62
     0
370
    -2
100
AcDbLine
 10
132.2169295018095
 20
123.0362941793405
 30
0.0
 11
72.24645204465868
 21
123.0362941793405
 31
0.0
  0
LINE
  5
12641
330
11D2A
100
AcDbEntity
  8
TEXT
 62
     0
370
    -2
100
AcDbLine
 10
139.5919295018095
 20
251.3569815263083
 30
0.0
 11
72.24645204465871
 21
251.3569815263083
 31
0.0
  0
LINE
  5
12642
330
11D2A
100
AcDbEntity
  8
TEXT
 62
     0
370
    -2
100
AcDbLine
 10
73.24645204465868
 20
126.0362941793405
 30
0.0
 11
73.2464520446587
 21
189.9681415977906
 31
0.0
  0
LINE
  5
12643
330
11D2A
100
AcDbEntity
  8
TEXT
 62
     0
370
    -2
100
AcDbLine
 10
73.24645204465871
 20
248.3569815263083
 30
0.0
 11
73.2464520446587
 21
196.6348082644573
 31
0.0
  0
SOLID
  5
12644
330
11D2A
100
AcDbEntity
  8
TEXT
 62
     0
100
AcDbTrace
 10
72.74645204465868
 20
126.0362941793405
 30
0.0
 11
73.74645204465868
 21
126.0362941793405
 31
0.0
 12
73.24645204465868
 22
123.0362941793405
 32
0.0
 13
73.24645204465868
 23
123.0362941793405
 33
0.0
  0
SOLID
  5
12645
330
11D2A
100
AcDbEntity
  8
TEXT
 62
     0
100
AcDbTrace
 10
72.74645204465871
 20
248.3569815263083
 30
0.0
 11
73.74645204465871
 21
248.3569815263083
 31
0.0
 12
73.24645204465871
 22
251.3569815263083
 32
0.0
 13
73.24645204465871
 23
251.3569815263083
 33
0.0
  0
MTEXT
  5
12646
330
11D2A
100
AcDbEntity
  8
TEXT
 62
     0
100
AcDbMText
 10
73.24645204465866
 20
193.301474931124
 30
0.0
 40
1.75
 41
0.0
 46
0.0
 71
     5
 72
     1
  1
\A1;FLOOR TO\PSHAFT CENTER
  7
WEB PAGE
 73
     1
 44
1.0
  0
POINT
  5
12647
330
11D2A
100
AcDbEntity
  8
Defpoints
 62
     0
100
AcDbPoint
 10
134.2169295018095
 20
123.0362941793405
 30
0.0
  0
POINT
  5
12648
330
11D2A
100
AcDbEntity
  8
Defpoints
 62
     0
100
AcDbPoint
 10
141.5919295018095
 20
251.3569815263083
 30
0.0
  0
POINT
  5
12649
330
11D2A
100
AcDbEntity
  8
Defpoints
 62
     0
100
AcDbPoint
 10
73.24645204465871
 20
251.3569815263083
 30
0.0
  0
ENDBLK
  5
11D36
330
11D2A
100
AcDbEntity
  8
0
100
AcDbBlockEnd
  0
BLOCK
  5
11D42
330
11D37
100
AcDbEntity
  8
0
100
AcDbBlockBegin
  2
*D65
 70
     1
 10
0.0
 20
0.0
 30
0.0
  3
*D65
  1

  0
LINE
  5
12636
330
11D37
100
AcDbEntity
  8
TEXT
 62
     0
370
    -2
100
AcDbLine
 10
132.2169295018095
 20
123.0362941793405
 30
0.0
 11
51.02439923534406
 21
123.0362941793405
 31
0.0
  0
LINE
  5
12637
330
11D37
100
AcDbEntity
  8
TEXT
 62
     0
370
    -2
100
AcDbLine
 10
136.2169295018095
 20
254.7319815263083
 30
0.0
 11
51.02439923534409
 21
254.7319815263084
 31
0.0
  0
LINE
  5
12638
330
11D37
100
AcDbEntity
  8
TEXT
 62
     0
370
    -2
100
AcDbLine
 10
52.02439923534406
 20
126.0362941793405
 30
0.0
 11
52.02439923534408
 21
178.0912897901557
 31
0.0
  0
LINE
  5
12639
330
11D37
100
AcDbEntity
  8
TEXT
 62
     0
370
    -2
100
AcDbLine
 10
52.02439923534409
 20
251.7319815263083
 30
0.0
 11
52.02439923534408
 21
184.7579564568223
 31
0.0
  0
SOLID
  5
1263A
330
11D37
100
AcDbEntity
  8
TEXT
 62
     0
100
AcDbTrace
 10
51.52439923534406
 20
126.0362941793405
 30
0.0
 11
52.52439923534407
 21
126.0362941793405
 31
0.0
 12
52.02439923534406
 22
123.0362941793405
 32
0.0
 13
52.02439923534406
 23
123.0362941793405
 33
0.0
  0
SOLID
  5
1263B
330
11D37
100
AcDbEntity
  8
TEXT
 62
     0
100
AcDbTrace
 10
51.52439923534409
 20
251.7319815263083
 30
0.0
 11
52.52439923534409
 21
251.7319815263083
 31
0.0
 12
52.02439923534409
 22
254.7319815263084
 32
0.0
 13
52.02439923534409
 23
254.7319815263084
 33
0.0
  0
MTEXT
  5
1263C
330
11D37
100
AcDbEntity
  8
TEXT
 62
     0
100
AcDbMText
 10
52.02439923534405
 20
181.424623123489
 30
0.0
 40
1.75
 41
0.0
 46
0.0
 71
     5
 72
     1
  1
\A1;MINIMUM\PCEILING HEIGHT
  7
WEB PAGE
 73
     1
 44
1.0
  0
POINT
  5
1263D
330
11D37
100
AcDbEntity
  8
Defpoints
 62
     0
100
AcDbPoint
 10
134.2169295018095
 20
123.0362941793405
 30
0.0
  0
POINT
  5
1263E
330
11D37
100
AcDbEntity
  8
Defpoints
 62
     0
100
AcDbPoint
 10
138.2169295018095
 20
254.7319815263083
 30
0.0
  0
POINT
  5
1263F
330
11D37
100
AcDbEntity
  8
Defpoints
 62
     0
100
AcDbPoint
 10
52.02439923534409
 20
254.7319815263084
 30
0.0
  0
ENDBLK
  5
11D43
330
11D37
100
AcDbEntity
  8
0
100
AcDbBlockEnd
  0
BLOCK
  5
11D4F
330
11D44
100
AcDbEntity
  8
0
100
AcDbBlockBegin
  2
*D66
 70
     1
 10
0.0
 20
0.0
 30
0.0
  3
*D66
  1

  0
LINE
  5
125E2
330
11D44
100
AcDbEntity
  8
TEXT
 62
     0
370
    -2
100
AcDbLine
 10
207.4861505668555
 20
123.0362941793405
 30
0.0
 11
174.0501848453942
 21
123.0362941793405
 31
0.0
  0
LINE
  5
125E3
330
11D44
100
AcDbEntity
  8
TEXT
 62
     0
370
    -2
100
AcDbLine
 10
145.3059517211348
 20
228.0261576158589
 30
0.0
 11
176.0501848453942
 21
228.0261576158589
 31
0.0
  0
LINE
  5
125E4
330
11D44
100
AcDbEntity
  8
TEXT
 62
     0
370
    -2
100
AcDbLine
 10
175.0501848453941
 20
126.0362941793405
 30
0.0
 11
175.0501848453941
 21
171.379062324093
 31
0.0
  0
LINE
  5
125E5
330
11D44
100
AcDbEntity
  8
TEXT
 62
     0
370
    -2
100
AcDbLine
 10
175.0501848453942
 20
225.0261576158589
 30
0.0
 11
175.0501848453941
 21
178.379062324093
 31
0.0
  0
SOLID
  5
125E6
330
11D44
100
AcDbEntity
  8
TEXT
 62
     0
100
AcDbTrace
 10
174.5501848453941
 20
126.0362941793405
 30
0.0
 11
175.5501848453941
 21
126.0362941793405
 31
0.0
 12
175.0501848453941
 22
123.0362941793405
 32
0.0
 13
175.0501848453941
 23
123.0362941793405
 33
0.0
  0
SOLID
  5
125E7
330
11D44
100
AcDbEntity
  8
TEXT
 62
     0
100
AcDbTrace
 10
174.5501848453942
 20
225.0261576158589
 30
0.0
 11
175.5501848453942
 21
225.0261576158589
 31
0.0
 12
175.0501848453942
 22
228.0261576158589
 32
0.0
 13
175.0501848453942
 23
228.0261576158589
 33
0.0
  0
MTEXT
  5
125E8
330
11D44
100
AcDbEntity
  8
TEXT
 62
     0
100
AcDbMText
 10
175.0501848453941
 20
174.879062324093
 30
0.0
 40
1.75
 41
0.0
 46
0.0
 71
     5
 72
     1
  1
\A1;VERTICAL TRACK\PDOOR HEIGHT-15"
  7
WEB PAGE
 73
     1
 44
1.0
  0
POINT
  5
125E9
330
11D44
100
AcDbEntity
  8
Defpoints
 62
     0
100
AcDbPoint
 10
209.4861505668555
 20
123.0362941793405
 30
0.0
  0
POINT
  5
125EA
330
11D44
100
AcDbEntity
  8
Defpoints
 62
     0
100
AcDbPoint
 10
143.3059517211348
 20
228.0261576158589
 30
0.0
  0
POINT
  5
125EB
330
11D44
100
AcDbEntity
  8
Defpoints
 62
     0
100
AcDbPoint
 10
175.0501848453942
 20
228.0261576158589
 30
0.0
  0
ENDBLK
  5
11D50
330
11D44
100
AcDbEntity
  8
0
100
AcDbBlockEnd
  0
BLOCK
  5
11D5C
330
11D51
100
AcDbEntity
  8
0
100
AcDbBlockBegin
  2
*D67
 70
     1
 10
0.0
 20
0.0
 30
0.0
  3
*D67
  1

  0
LINE
  5
120D5
330
11D51
100
AcDbEntity
  8
TEXT
 62
     0
370
    -2
100
AcDbLine
 10
132.2169295018095
 20
243.0362941793405
 30
0.0
 11
117.0575413775432
 21
243.0362941793405
 31
0.0
  0
LINE
  5
120D6
330
11D51
100
AcDbEntity
  8
TEXT
 62
     0
370
    -2
100
AcDbLine
 10
132.2169295018095
 20
123.0362941793405
 30
0.0
 11
117.0575413775432
 21
123.0362941793405
 31
0.0
  0
LINE
  5
120D7
330
11D51
100
AcDbEntity
  8
TEXT
 62
     0
370
    -2
100
AcDbLine
 10
118.0575413775432
 20
240.0362941793405
 30
0.0
 11
118.0575413775432
 21
186.3696275126739
 31
0.0
  0
LINE
  5
120D8
330
11D51
100
AcDbEntity
  8
TEXT
 62
     0
370
    -2
100
AcDbLine
 10
118.0575413775432
 20
126.0362941793405
 30
0.0
 11
118.0575413775432
 21
179.7029608460072
 31
0.0
  0
SOLID
  5
120D9
330
11D51
100
AcDbEntity
  8
TEXT
 62
     0
100
AcDbTrace
 10
117.5575413775432
 20
240.0362941793405
 30
0.0
 11
118.5575413775432
 21
240.0362941793405
 31
0.0
 12
118.0575413775432
 22
243.0362941793405
 32
0.0
 13
118.0575413775432
 23
243.0362941793405
 33
0.0
  0
SOLID
  5
120DA
330
11D51
100
AcDbEntity
  8
TEXT
 62
     0
100
AcDbTrace
 10
117.5575413775432
 20
126.0362941793405
 30
0.0
 11
118.5575413775432
 21
126.0362941793405
 31
0.0
 12
118.0575413775432
 22
123.0362941793405
 32
0.0
 13
118.0575413775432
 23
123.0362941793405
 33
0.0
  0
MTEXT
  5
120DB
330
11D51
100
AcDbEntity
  8
TEXT
 62
     0
100
AcDbMText
 10
118.0575413775432
 20
183.0362941793405
 30
0.0
 40
1.75
 41
0.0
 46
0.0
 71
     5
 72
     1
  1
\A1;OPENING\PHEIGHT
  7
WEB PAGE
 73
     1
 44
1.0
  0
POINT
  5
120DC
330
11D51
100
AcDbEntity
  8
Defpoints
 62
     0
100
AcDbPoint
 10
134.2169295018095
 20
243.0362941793405
 30
0.0
  0
POINT
  5
120DD
330
11D51
100
AcDbEntity
  8
Defpoints
 62
     0
100
AcDbPoint
 10
134.2169295018095
 20
123.0362941793405
 30
0.0
  0
POINT
  5
120DE
330
11D51
100
AcDbEntity
  8
Defpoints
 62
     0
100
AcDbPoint
 10
118.0575413775432
 20
123.0362941793405
 30
0.0
  0
ENDBLK
  5
11D5D
330
11D51
100
AcDbEntity
  8
0
100
AcDbBlockEnd
  0
BLOCK
  5
11D6A
330
11D5E
100
AcDbEntity
  8
0
100
AcDbBlockBegin
  2
*D68
 70
     1
 10
0.0
 20
0.0
 30
0.0
  3
*D68
  1

  0
LINE
  5
125A3
330
11D5E
100
AcDbEntity
  8
TEXT
 62
     0
370
    -2
100
AcDbLine
 10
132.2169295018095
 20
243.0362941793405
 30
0.0
 11
117.0575413775432
 21
243.0362941793405
 31
0.0
  0
LINE
  5
125A4
330
11D5E
100
AcDbEntity
  8
TEXT
 62
     0
370
    -2
100
AcDbLine
 10
136.2169295018095
 20
254.7319815263083
 30
0.0
 11
117.0575413775432
 21
254.7319815263083
 31
0.0
  0
LINE
  5
125A5
330
11D5E
100
AcDbEntity
  8
TEXT
 62
     0
370
    -2
100
AcDbLine
 10
118.0575413775432
 20
246.0362941793405
 30
0.0
 11
118.0575413775432
 21
251.7319815263083
 31
0.0
  0
LINE
  5
125A6
330
11D5E
100
AcDbEntity
  8
TEXT
 62
     0
370
    -2
100
AcDbLine
 10
118.0575413775432
 20
254.7319815263083
 30
0.0
 11
118.0575413775432
 21
267.7412811734821
 31
0.0
  0
LINE
  5
125A7
330
11D5E
100
AcDbEntity
  8
TEXT
 62
     0
370
    -2
100
AcDbLine
 10
118.0575413775432
 20
267.7412811734821
 30
0.0
 11
121.0575413775432
 21
267.7412811734821
 31
0.0
  0
SOLID
  5
125A8
330
11D5E
100
AcDbEntity
  8
TEXT
 62
     0
100
AcDbTrace
 10
117.5575413775432
 20
246.0362941793405
 30
0.0
 11
118.5575413775432
 21
246.0362941793405
 31
0.0
 12
118.0575413775432
 22
243.0362941793405
 32
0.0
 13
118.0575413775432
 23
243.0362941793405
 33
0.0
  0
SOLID
  5
125A9
330
11D5E
100
AcDbEntity
  8
TEXT
 62
     0
100
AcDbTrace
 10
117.5575413775432
 20
251.7319815263083
 30
0.0
 11
118.5575413775432
 21
251.7319815263083
 31
0.0
 12
118.0575413775432
 22
254.7319815263083
 32
0.0
 13
118.0575413775432
 23
254.7319815263083
 33
0.0
  0
MTEXT
  5
125AA
330
11D5E
100
AcDbEntity
  8
TEXT
 62
     0
100
AcDbMText
 10
128.9325413775432
 20
267.7412811734821
 30
0.0
 40
1.75
 41
0.0
 46
0.0
 71
     5
 72
     1
  1
\A1;MINIMUM\PHEADROOM
  7
WEB PAGE
 73
     1
 44
1.0
  0
POINT
  5
125AB
330
11D5E
100
AcDbEntity
  8
Defpoints
 62
     0
100
AcDbPoint
 10
134.2169295018095
 20
243.0362941793405
 30
0.0
  0
POINT
  5
125AC
330
11D5E
100
AcDbEntity
  8
Defpoints
 62
     0
100
AcDbPoint
 10
138.2169295018095
 20
254.7319815263083
 30
0.0
  0
POINT
  5
125AD
330
11D5E
100
AcDbEntity
  8
Defpoints
 62
     0
100
AcDbPoint
 10
118.0575413775432
 20
254.7319815263083
 30
0.0
  0
ENDBLK
  5
11D6B
330
11D5E
100
AcDbEntity
  8
0
100
AcDbBlockEnd
  0
BLOCK
  5
11E46
330
11E29
100
AcDbEntity
  8
0
100
AcDbBlockBegin
  2
15R-138TRK
 70
     0
 10
0.0
 20
0.0
 30
0.0
  3
15R-138TRK
  1

  0
LINE
  5
11E2A
330
11E29
100
AcDbEntity
  8
0
  6
HIDDEN
100
AcDbLine
 10
114.1051810554323
 20
7.450154694662671
 30
0.0
 11
-6.3373817739552
 21
7.450154694662671
 31
0.0
  0
LINE
  5
11E2B
330
11E29
100
AcDbEntity
  8
0
100
AcDbLine
 10
114.1051810554324
 20
6.850154694662649
 30
0.0
 11
-6.3373817739552
 21
6.850154694662649
 31
0.0
  0
LINE
  5
11E2C
330
11E29
100
AcDbEntity
  8
0
100
AcDbLine
 10
114.1051810554324
 20
8.950154694662671
 30
0.0
 11
-6.3373817739552
 21
8.950154694662671
 31
0.0
  0
ARC
  5
11E2D
330
11E29
100
AcDbEntity
  8
0
  6
HIDDEN
100
AcDbCircle
 10
-6.3373817739552
 20
-8.609845305337387
 30
0.0
 40
16.06
100
AcDbArc
 50
90.0
 51
179.0210950958157
  0
ARC
  5
11E2E
330
11E29
100
AcDbEntity
  8
0
100
AcDbCircle
 10
-6.3373817739552
 20
-8.609845305337387
 30
0.0
 40
15.46
100
AcDbArc
 50
90.0
 51
178.8881104285096
  0
ARC
  5
11E2F
330
11E29
100
AcDbEntity
  8
0
100
AcDbCircle
 10
-6.3373817739552
 20
-8.609845305337387
 30
0.0
 40
17.56
100
AcDbArc
 50
90.0
 51
179.0210950958157
  0
CIRCLE
  5
11E30
330
11E29
100
AcDbEntity
  8
0
100
AcDbCircle
 10
-22.70481894456754
 20
-7.709845305337353
 30
0.0
 40
0.136
  0
CIRCLE
  5
11E31
330
11E29
100
AcDbEntity
  8
0
100
AcDbCircle
 10
-23.45481894456753
 20
-7.709845305337353
 30
0.0
 40
0.136
  0
LINE
  5
11E32
330
11E29
100
AcDbEntity
  8
0
100
AcDbLine
 10
-21.79447076250665
 20
-8.309845305337319
 30
0.0
 11
-23.89481894456759
 21
-8.309845305337319
 31
0.0
  0
CIRCLE
  5
11E33
330
11E29
100
AcDbEntity
  8
0
100
AcDbCircle
 10
-8.991068944567587
 20
8.140154694662612
 30
0.0
 40
0.25
  0
CIRCLE
  5
11E34
330
11E29
100
AcDbEntity
  8
0
100
AcDbCircle
 10
-10.05106894456759
 20
8.140154694662612
 30
0.0
 40
0.136
  0
CIRCLE
  5
11E35
330
11E29
100
AcDbEntity
  8
0
100
AcDbCircle
 10
-5.051068944567589
 20
8.140154694662612
 30
0.0
 40
0.136
  0
CIRCLE
  5
11E36
330
11E29
100
AcDbEntity
  8
0
100
AcDbCircle
 10
13.94893105543241
 20
8.140154694662612
 30
0.0
 40
0.136
  0
CIRCLE
  5
11E37
330
11E29
100
AcDbEntity
  8
0
100
AcDbCircle
 10
13.94893105543241
 20
8.140154694662612
 30
0.0
 40
0.136
  0
CIRCLE
  5
11E38
330
11E29
100
AcDbEntity
  8
0
100
AcDbCircle
 10
37.94893105543241
 20
8.140154694662612
 30
0.0
 40
0.136
  0
CIRCLE
  5
11E39
330
11E29
100
AcDbEntity
  8
0
100
AcDbCircle
 10
37.94893105543241
 20
8.140154694662612
 30
0.0
 40
0.136
  0
CIRCLE
  5
11E3A
330
11E29
100
AcDbEntity
  8
0
100
AcDbCircle
 10
61.94893105543241
 20
8.140154694662612
 30
0.0
 40
0.136
  0
CIRCLE
  5
11E3B
330
11E29
100
AcDbEntity
  8
0
100
AcDbCircle
 10
61.94893105543241
 20
8.140154694662612
 30
0.0
 40
0.136
  0
CIRCLE
  5
11E3C
330
11E29
100
AcDbEntity
  8
0
100
AcDbCircle
 10
78.44893105543241
 20
8.140154694662612
 30
0.0
 40
0.136
  0
CIRCLE
  5
11E3D
330
11E29
100
AcDbEntity
  8
0
100
AcDbCircle
 10
78.44893105543241
 20
8.140154694662612
 30
0.0
 40
0.136
  0
CIRCLE
  5
11E3E
330
11E29
100
AcDbEntity
  8
0
100
AcDbCircle
 10
85.9489310554324
 20
8.140154694662612
 30
0.0
 40
0.136
  0
CIRCLE
  5
11E3F
330
11E29
100
AcDbEntity
  8
0
100
AcDbCircle
 10
85.9489310554324
 20
8.140154694662612
 30
0.0
 40
0.136
  0
CIRCLE
  5
11E40
330
11E29
100
AcDbEntity
  8
0
100
AcDbCircle
 10
112.8551810554324
 20
8.140154694662726
 30
0.0
 40
0.2075
  0
CIRCLE
  5
11E41
330
11E29
100
AcDbEntity
  8
0
100
AcDbCircle
 10
110.1989310554325
 20
8.140154694662612
 30
0.0
 40
0.136
  0
CIRCLE
  5
11E42
330
11E29
100
AcDbEntity
  8
0
100
AcDbCircle
 10
110.1989310554325
 20
8.140154694662612
 30
0.0
 40
0.136
  0
LINE
  5
11E43
330
11E29
100
AcDbEntity
  8
0
100
AcDbLine
 10
114.1051810554324
 20
6.850154694662649
 30
0.0
 11
114.1051810554324
 21
8.950154694662671
 31
0.0
  0
CIRCLE
  5
11E44
330
11E29
100
AcDbEntity
  8
0
100
AcDbCircle
 10
113.5051810554324
 20
8.510154694662674
 30
0.0
 40
0.136
  0
CIRCLE
  5
11E45
330
11E29
100
AcDbEntity
  8
0
100
AcDbCircle
 10
113.5051810554324
 20
7.760154694662674
 30
0.0
 40
0.136
  0
ENDBLK
  5
11E47
330
11E29
100
AcDbEntity
  8
0
100
AcDbBlockEnd
  0
BLOCK
  5
11E59
330
11E49
100
AcDbEntity
  8
0
100
AcDbBlockBegin
  2
WD-9-3-38
 70
     0
 10
0.0
 20
0.0
 30
0.0
  3
WD-9-3-38
  1

  0
LINE
  5
11E4A
330
11E49
100
AcDbEntity
  8
0
100
AcDbLine
 10
0.0
 20
4.25
 30
0.0
 11
0.0
 21
0.0
 31
0.0
  0
LINE
  5
11E4B
330
11E49
100
AcDbEntity
  8
0
100
AcDbLine
 10
5.0
 20
4.25
 30
0.0
 11
5.0
 21
-2.0
 31
0.0
  0
LINE
  5
11E4C
330
11E49
100
AcDbEntity
  8
0
100
AcDbLine
 10
0.0
 20
0.0
 30
0.0
 11
2.25
 21
-0.0000000000000142
 31
0.0
  0
LINE
  5
11E4D
330
11E49
100
AcDbEntity
  8
0
100
AcDbLine
 10
4.4375
 20
-1.462500000000005
 30
0.0
 11
3.1875
 21
-1.462500000000005
 31
0.0
  0
LINE
  5
11E4E
330
11E49
100
AcDbEntity
  8
0
100
AcDbLine
 10
3.1875
 20
-1.837500000000005
 30
0.0
 11
4.4375
 21
-1.837500000000005
 31
0.0
  0
LINE
  5
11E4F
330
11E49
100
AcDbEntity
  8
0
100
AcDbLine
 10
5.0
 20
-2.0
 30
0.0
 11
2.25
 21
-2.0
 31
0.0
  0
LINE
  5
11E50
330
11E49
100
AcDbEntity
  8
0
100
AcDbLine
 10
2.25
 20
-2.0
 30
0.0
 11
2.25
 21
-1.837500000000019
 31
0.0
  0
LINE
  5
11E51
330
11E49
100
AcDbEntity
  8
0
100
AcDbLine
 10
2.25
 20
-1.462500000000019
 30
0.0
 11
2.25
 21
-0.0000000000000142
 31
0.0
  0
LINE
  5
11E52
330
11E49
100
AcDbEntity
  8
0
100
AcDbLine
 10
2.5
 20
-1.462500000000005
 30
0.0
 11
2.25
 21
-1.462500000000019
 31
0.0
  0
LINE
  5
11E53
330
11E49
100
AcDbEntity
  8
0
100
AcDbLine
 10
2.25
 20
-1.837500000000019
 30
0.0
 11
2.5
 21
-1.837500000000005
 31
0.0
  0
ARC
  5
11E54
330
11E49
100
AcDbEntity
  8
0
100
AcDbCircle
 10
3.1875
 20
-1.650000000000005
 30
0.0
 40
0.1875
100
AcDbArc
 50
90.0
 51
270.0
  0
ARC
  5
11E55
330
11E49
100
AcDbEntity
  8
0
100
AcDbCircle
 10
2.5
 20
-1.650000000000005
 30
0.0
 40
0.1875
100
AcDbArc
 50
270.0
 51
90.0
  0
ARC
  5
11E56
330
11E49
100
AcDbEntity
  8
0
100
AcDbCircle
 10
4.4375
 20
-1.650000000000005
 30
0.0
 40
0.1875
100
AcDbArc
 50
270.0
 51
90.0
  0
LINE
  5
11E57
330
11E49
100
AcDbEntity
  8
0
100
AcDbLine
 10
0.0
 20
4.25
 30
0.0
 11
5.0
 21
4.25
 31
0.0
  0
CIRCLE
  5
11E58
330
11E49
100
AcDbEntity
  8
0
100
AcDbCircle
 10
3.375
 20
2.599999999999994
 30
0.0
 40
0.5
  0
ENDBLK
  5
11E5A
330
11E49
100
AcDbEntity
  8
0
100
AcDbBlockEnd
  0
BLOCK
  5
11EB4
330
11EA9
100
AcDbEntity
  8
0
100
AcDbBlockBegin
  2
*D71
 70
     1
 10
0.0
 20
0.0
 30
0.0
  3
*D71
  1

  0
LINE
  5
12436
330
11EA9
100
AcDbEntity
  8
TEXT
 62
     0
370
    -2
100
AcDbLine
 10
141.1811086385404
 20
230.0519815263082
 30
0.0
 11
141.1811086385404
 21
234.5002273578662
 31
0.0
  0
LINE
  5
12437
330
11EA9
100
AcDbEntity
  8
TEXT
 62
     0
370
    -2
100
AcDbLine
 10
279.1811086385404
 20
241.2119815263083
 30
0.0
 11
279.1811086385404
 21
232.5002273578662
 31
0.0
  0
LINE
  5
12438
330
11EA9
100
AcDbEntity
  8
TEXT
 62
     0
370
    -2
100
AcDbLine
 10
144.1811086385404
 20
233.5002273578662
 30
0.0
 11
185.8894419718737
 21
233.5002273578662
 31
0.0
  0
LINE
  5
12439
330
11EA9
100
AcDbEntity
  8
TEXT
 62
     0
370
    -2
100
AcDbLine
 10
276.1811086385404
 20
233.5002273578662
 30
0.0
 11
234.4727753052071
 21
233.5002273578662
 31
0.0
  0
SOLID
  5
1243A
330
11EA9
100
AcDbEntity
  8
TEXT
 62
     0
100
AcDbTrace
 10
144.1811086385404
 20
234.0002273578662
 30
0.0
 11
144.1811086385404
 21
233.0002273578662
 31
0.0
 12
141.1811086385404
 22
233.5002273578662
 32
0.0
 13
141.1811086385404
 23
233.5002273578662
 33
0.0
  0
SOLID
  5
1243B
330
11EA9
100
AcDbEntity
  8
TEXT
 62
     0
100
AcDbTrace
 10
276.1811086385404
 20
234.0002273578662
 30
0.0
 11
276.1811086385404
 21
233.0002273578662
 31
0.0
 12
279.1811086385404
 22
233.5002273578662
 32
0.0
 13
279.1811086385404
 23
233.5002273578662
 33
0.0
  0
MTEXT
  5
1243C
330
11EA9
100
AcDbEntity
  8
TEXT
 62
     0
100
AcDbMText
 10
210.1811086385404
 20
233.5002273578662
 30
0.0
 40
1.75
 41
0.0
 46
0.0
 71
     5
 72
     1
  1
\A1;HORIZONTAL TRACK LENGTH\P(BACKROOM: DOOR HEIGHT + 18")
  7
WEB PAGE
 73
     1
 44
1.0
  0
POINT
  5
1243D
330
11EA9
100
AcDbEntity
  8
Defpoints
 62
     0
100
AcDbPoint
 10
141.1811086385404
 20
228.0519815263082
 30
0.0
  0
POINT
  5
1243E
330
11EA9
100
AcDbEntity
  8
Defpoints
 62
     0
100
AcDbPoint
 10
279.1811086385404
 20
243.2119815263083
 30
0.0
  0
POINT
  5
1243F
330
11EA9
100
AcDbEntity
  8
Defpoints
 62
     0
100
AcDbPoint
 10
279.1811086385404
 20
233.5002273578662
 30
0.0
  0
ENDBLK
  5
11EB5
330
11EA9
100
AcDbEntity
  8
0
100
AcDbBlockEnd
  0
BLOCK
  5
12043
330
12034
100
AcDbEntity
  8
0
100
AcDbBlockBegin
  2
A$C2D8E259A
 70
     0
 10
0.0
 20
0.0
 30
0.0
  3
A$C2D8E259A
  1

  0
LINE
  5
12035
330
12034
100
AcDbEntity
  8
0
100
AcDbLine
 10
-0.0000004604032604
 20
2.095456975818166
 30
0.0
 11
0.9999995395967395
 21
2.095456975818166
 31
0.0
  0
LINE
  5
12036
330
12034
100
AcDbEntity
  8
0
100
AcDbLine
 10
0.0549995395967393
 20
2.040456975818166
 30
0.0
 11
0.9999995395967395
 21
2.040456975818166
 31
0.0
  0
LINE
  5
12037
330
12034
100
AcDbEntity
  8
0
100
AcDbLine
 10
0.8478670952251974
 20
0.3621827433166693
 30
0.0
 11
0.6627309988545634
 21
0.1415461353480936
 31
0.0
  0
LINE
  5
12038
330
12034
100
AcDbEntity
  8
0
100
AcDbLine
 10
0.8899995395967437
 20
0.3268294247839059
 30
0.0
 11
0.8478670952251974
 21
0.3621827433166658
 31
0.0
  0
LINE
  5
12039
330
12034
100
AcDbEntity
  8
0
100
AcDbLine
 10
0.2262781434198011
 20
0.2224495439404386
 30
0.0
 11
0.0549995395967393
 21
0.6071475867100134
 31
0.0
  0
LINE
  5
1203A
330
12034
100
AcDbEntity
  8
0
100
AcDbLine
 10
0.1751036101700158
 20
0.2021667940502745
 30
0.0
 11
-0.0000004604032569
 21
0.5954569758181663
 31
0.0
  0
ARC
  5
1203B
330
12034
100
AcDbEntity
  8
0
100
AcDbCircle
 10
0.4673896658592263
 20
0.3054569758181671
 30
0.0
 40
0.255
100
AcDbArc
 50
198.997042049035
 51
320.0
  0
LINE
  5
1203C
330
12034
100
AcDbEntity
  8
0
100
AcDbLine
 10
0.8899995395967366
 20
0.3268294247839059
 30
0.0
 11
0.7048634432261061
 21
0.1061928168153337
 31
0.0
  0
ARC
  5
1203D
330
12034
100
AcDbEntity
  8
0
100
AcDbCircle
 10
0.4673896658592263
 20
0.3054569758181671
 30
0.0
 40
0.31
100
AcDbArc
 50
199.4627615683172
 51
320.0
  0
LINE
  5
1203E
330
12034
100
AcDbEntity
  8
0
100
AcDbLine
 10
-0.0000004604032604
 20
1.184456975818165
 30
0.0
 11
0.0549995395967429
 21
1.184456975818165
 31
0.0
  0
LINE
  5
1203F
330
12034
100
AcDbEntity
  8
0
100
AcDbLine
 10
-0.0000004604032604
 20
1.456456975818166
 30
0.0
 11
0.0549995395967429
 21
1.456456975818166
 31
0.0
  0
LINE
  5
12040
330
12034
100
AcDbEntity
  8
0
100
AcDbLine
 10
0.0549995395967393
 20
0.6071475867100134
 30
0.0
 11
0.0549995395967393
 21
2.040456975818166
 31
0.0
  0
LINE
  5
12041
330
12034
100
AcDbEntity
  8
0
100
AcDbLine
 10
-0.0000004604032569
 20
0.5954569758181663
 30
0.0
 11
-0.0000004604032604
 21
2.095456975818166
 31
0.0
  0
LINE
  5
12042
330
12034
100
AcDbEntity
  8
0
100
AcDbLine
 10
0.9999995395967395
 20
2.095456975818166
 30
0.0
 11
0.9999995395967395
 21
2.040456975818166
 31
0.0
  0
ENDBLK
  5
12044
330
12034
100
AcDbEntity
  8
0
100
AcDbBlockEnd
  0
BLOCK
  5
1206B
330
1205E
100
AcDbEntity
  8
0
100
AcDbBlockBegin
  2
*D73
 70
     1
 10
0.0
 20
0.0
 30
0.0
  3
*D73
  1

  0
ARC
  5
12654
330
1205E
100
AcDbEntity
  8
TEXT
 62
     0
370
    -2
100
AcDbCircle
 10
230.7309720002921
 20
203.8626398882773
 30
0.0
 40
5.663360582444521
100
AcDbArc
 50
118.5653662259091
 51
149.2826831129546
  0
ARC
  5
12655
330
1205E
100
AcDbEntity
  8
TEXT
 62
     0
370
    -2
100
AcDbCircle
 10
230.7309720002921
 20
203.8626398882773
 30
0.0
 40
5.663360582444521
100
AcDbArc
 50
255.7173168870455
 51
286.4346337740909
  0
SOLID
  5
12656
330
1205E
100
AcDbEntity
  8
TEXT
 62
     0
100
AcDbTrace
 10
226.3443360268908
 20
206.6230699766265
 30
0.0
 11
225.3800492626131
 21
206.8879303855946
 31
0.0
 12
225.0676114178476
 22
203.8626398882773
 32
0.0
 13
225.0676114178476
 23
203.8626398882773
 33
0.0
  0
SOLID
  5
12657
330
1205E
100
AcDbEntity
  8
TEXT
 62
     0
100
AcDbTrace
 10
229.0865016725862
 20
197.9397627091468
 30
0.0
 11
229.5810707913662
 21
198.8089010104252
 31
0.0
 12
226.726371328141
 22
199.8580392161262
 32
0.0
 13
226.726371328141
 23
199.8580392161262
 33
0.0
  0
MTEXT
  5
12658
330
1205E
100
AcDbEntity
  8
TEXT
 62
     0
100
AcDbMText
 10
225.4059124387044
 20
201.9345854926937
 30
0.0
 40
1.75
 41
0.0
 46
0.0
 71
     5
 72
     1
  1
\A1;45°
  7
WEB PAGE
 73
     1
 44
1.0
  0
POINT
  5
12659
330
1205E
100
AcDbEntity
  8
Defpoints
 62
     0
100
AcDbPoint
 10
225.8263578651037
 20
201.030959597055
 30
0.0
  0
POINT
  5
1265A
330
1205E
100
AcDbEntity
  8
Defpoints
 62
     0
100
AcDbPoint
 10
218.9987389532583
 20
192.1304068412434
 30
0.0
  0
POINT
  5
1265B
330
1205E
100
AcDbEntity
  8
Defpoints
 62
     0
100
AcDbPoint
 10
240.8184567060802
 20
203.8626398882773
 30
0.0
  0
POINT
  5
1265C
330
1205E
100
AcDbEntity
  8
Defpoints
 62
     0
100
AcDbPoint
 10
218.9987389532583
 20
203.8626398882773
 30
0.0
  0
POINT
  5
1265D
330
1205E
100
AcDbEntity
  8
Defpoints
 62
     0
100
AcDbPoint
 10
230.7309720002921
 20
203.8626398882773
 30
0.0
  0
ENDBLK
  5
1206C
330
1205E
100
AcDbEntity
  8
0
100
AcDbBlockEnd
  0
BLOCK
  5
12156
330
12149
100
AcDbEntity
  8
0
100
AcDbBlockBegin
  2
t-4
 70
     0
 10
0.0
 20
0.0
 30
0.0
  3
t-4
  1

  0
LINE
  5
1214A
330
12149
100
AcDbEntity
  8
OUTSIDE
100
AcDbLine
 10
-0.4375
 20
1.9375
 30
0.0
 11
2.4375
 21
1.9375
 31
0.0
  0
ARC
  5
1214B
330
12149
100
AcDbEntity
  8
OUTSIDE
100
AcDbCircle
 10
0.890625
 20
0.71875
 30
0.0
 40
0.140625
100
AcDbArc
 50
90.0
 51
270.0
  0
LINE
  5
1214C
330
12149
100
AcDbEntity
  8
OUTSIDE
100
AcDbLine
 10
2.4375
 20
-0.5
 30
0.0
 11
-0.4375
 21
-0.5
 31
0.0
  0
LINE
  5
1214D
330
12149
100
AcDbEntity
  8
OUTSIDE
100
AcDbLine
 10
-0.4375
 20
-0.5
 30
0.0
 11
-0.4375
 21
1.9375
 31
0.0
  0
LINE
  5
1214E
330
12149
100
AcDbEntity
  8
OUTSIDE
100
AcDbLine
 10
0.4375
 20
-0.5
 30
0.0
 11
0.4375
 21
1.9375
 31
0.0
  0
TEXT
  5
1214F
330
12149
100
AcDbEntity
  8
OUTSIDE
100
AcDbText
 10
0.1023293143974229
 20
0.6536125580388159
 30
0.0
 40
0.2355474917550282
  1
4
 50
90.0
100
AcDbText
  0
CIRCLE
  5
12150
330
12149
100
AcDbEntity
  8
OUTSIDE
100
AcDbCircle
 10
0.0
 20
0.0
 30
0.0
 40
0.15625
  0
CIRCLE
  5
12151
330
12149
100
AcDbEntity
  8
OUTSIDE
100
AcDbCircle
 10
0.0
 20
1.5
 30
0.0
 40
0.15625
  0
LINE
  5
12152
330
12149
100
AcDbEntity
  8
OUTSIDE
100
AcDbLine
 10
2.4375
 20
1.9375
 30
0.0
 11
2.4375
 21
-0.5
 31
0.0
  0
ARC
  5
12153
330
12149
100
AcDbEntity
  8
OUTSIDE
100
AcDbCircle
 10
1.984375
 20
0.71875
 30
0.0
 40
0.140625
100
AcDbArc
 50
270.0
 51
90.0
  0
LINE
  5
12154
330
12149
100
AcDbEntity
  8
OUTSIDE
100
AcDbLine
 10
0.890625
 20
0.578125
 30
0.0
 11
1.984375
 21
0.578125
 31
0.0
  0
LINE
  5
12155
330
12149
100
AcDbEntity
  8
OUTSIDE
100
AcDbLine
 10
0.890625
 20
0.859375
 30
0.0
 11
1.984375
 21
0.859375
 31
0.0
  0
ENDBLK
  5
12157
330
12149
100
AcDbEntity
  8
0
100
AcDbBlockEnd
  0
BLOCK
  5
12166
330
12159
100
AcDbEntity
  8
0
100
AcDbBlockBegin
  2
t-5
 70
     0
 10
0.0
 20
0.0
 30
0.0
  3
t-5
  1

  0
LINE
  5
1215A
330
12159
100
AcDbEntity
  8
OUTSIDE
100
AcDbLine
 10
2.6875
 20
-0.5
 30
0.0
 11
-0.4375
 21
-0.5
 31
0.0
  0
LINE
  5
1215B
330
12159
100
AcDbEntity
  8
OUTSIDE
100
AcDbLine
 10
-0.4375
 20
1.9375
 30
0.0
 11
2.6875
 21
1.9375
 31
0.0
  0
LINE
  5
1215C
330
12159
100
AcDbEntity
  8
OUTSIDE
100
AcDbLine
 10
-0.4375
 20
-0.5
 30
0.0
 11
-0.4375
 21
1.9375
 31
0.0
  0
LINE
  5
1215D
330
12159
100
AcDbEntity
  8
OUTSIDE
100
AcDbLine
 10
0.4375
 20
-0.5
 30
0.0
 11
0.4375
 21
1.9375
 31
0.0
  0
CIRCLE
  5
1215E
330
12159
100
AcDbEntity
  8
OUTSIDE
100
AcDbCircle
 10
0.0
 20
1.5
 30
0.0
 40
0.15625
  0
CIRCLE
  5
1215F
330
12159
100
AcDbEntity
  8
OUTSIDE
100
AcDbCircle
 10
0.0
 20
0.0
 30
0.0
 40
0.15625
  0
TEXT
  5
12160
330
12159
100
AcDbEntity
  8
OUTSIDE
100
AcDbText
 10
0.1023293143974229
 20
0.6536125580388159
 30
0.0
 40
0.2355474917550282
  1
5
 50
90.0
100
AcDbText
  0
ARC
  5
12161
330
12159
100
AcDbEntity
  8
OUTSIDE
100
AcDbCircle
 10
1.140625
 20
0.71875
 30
0.0
 40
0.140625
100
AcDbArc
 50
90.0
 51
270.0
  0
ARC
  5
12162
330
12159
100
AcDbEntity
  8
OUTSIDE
100
AcDbCircle
 10
2.234375
 20
0.71875
 30
0.0
 40
0.140625
100
AcDbArc
 50
270.0
 51
90.0
  0
LINE
  5
12163
330
12159
100
AcDbEntity
  8
OUTSIDE
100
AcDbLine
 10
1.140625
 20
0.578125
 30
0.0
 11
2.234375
 21
0.578125
 31
0.0
  0
LINE
  5
12164
330
12159
100
AcDbEntity
  8
OUTSIDE
100
AcDbLine
 10
1.140625
 20
0.859375
 30
0.0
 11
2.234375
 21
0.859375
 31
0.0
  0
LINE
  5
12165
330
12159
100
AcDbEntity
  8
OUTSIDE
100
AcDbLine
 10
2.6875
 20
1.9375
 30
0.0
 11
2.6875
 21
-0.5
 31
0.0
  0
ENDBLK
  5
12167
330
12159
100
AcDbEntity
  8
0
100
AcDbBlockEnd
  0
BLOCK
  5
12176
330
12169
100
AcDbEntity
  8
0
100
AcDbBlockBegin
  2
t-6
 70
     0
 10
0.0
 20
0.0
 30
0.0
  3
t-6
  1

  0
LINE
  5
1216A
330
12169
100
AcDbEntity
  8
OUTSIDE
100
AcDbLine
 10
2.9375
 20
-0.5
 30
0.0
 11
2.9375
 21
1.9375
 31
0.0
  0
LINE
  5
1216B
330
12169
100
AcDbEntity
  8
OUTSIDE
100
AcDbLine
 10
0.4375
 20
-0.5
 30
0.0
 11
0.4375
 21
1.9375
 31
0.0
  0
LINE
  5
1216C
330
12169
100
AcDbEntity
  8
OUTSIDE
100
AcDbLine
 10
-0.4375
 20
-0.5
 30
0.0
 11
-0.4375
 21
1.9375
 31
0.0
  0
TEXT
  5
1216D
330
12169
100
AcDbEntity
  8
OUTSIDE
100
AcDbText
 10
0.1023293143974229
 20
0.6536125580388159
 30
0.0
 40
0.2355474917550282
  1
6
 50
90.0
100
AcDbText
  0
ARC
  5
1216E
330
12169
100
AcDbEntity
  8
OUTSIDE
100
AcDbCircle
 10
1.390625
 20
0.71875
 30
0.0
 40
0.140625
100
AcDbArc
 50
90.0
 51
270.0
  0
ARC
  5
1216F
330
12169
100
AcDbEntity
  8
OUTSIDE
100
AcDbCircle
 10
2.484375
 20
0.71875
 30
0.0
 40
0.140625
100
AcDbArc
 50
270.0
 51
90.0
  0
LINE
  5
12170
330
12169
100
AcDbEntity
  8
OUTSIDE
100
AcDbLine
 10
2.9375
 20
-0.5
 30
0.0
 11
-0.4375
 21
-0.5
 31
0.0
  0
CIRCLE
  5
12171
330
12169
100
AcDbEntity
  8
OUTSIDE
100
AcDbCircle
 10
0.0
 20
0.0
 30
0.0
 40
0.15625
  0
LINE
  5
12172
330
12169
100
AcDbEntity
  8
OUTSIDE
100
AcDbLine
 10
1.390625
 20
0.578125
 30
0.0
 11
2.484375
 21
0.578125
 31
0.0
  0
LINE
  5
12173
330
12169
100
AcDbEntity
  8
OUTSIDE
100
AcDbLine
 10
-0.4375
 20
1.9375
 30
0.0
 11
2.9375
 21
1.9375
 31
0.0
  0
CIRCLE
  5
12174
330
12169
100
AcDbEntity
  8
OUTSIDE
100
AcDbCircle
 10
0.0
 20
1.5
 30
0.0
 40
0.15625
  0
LINE
  5
12175
330
12169
100
AcDbEntity
  8
OUTSIDE
100
AcDbLine
 10
1.390625
 20
0.859375
 30
0.0
 11
2.484375
 21
0.859375
 31
0.0
  0
ENDBLK
  5
12177
330
12169
100
AcDbEntity
  8
0
100
AcDbBlockEnd
  0
BLOCK
  5
12186
330
12179
100
AcDbEntity
  8
0
100
AcDbBlockBegin
  2
t-7
 70
     0
 10
0.0
 20
0.0
 30
0.0
  3
t-7
  1

  0
LINE
  5
1217A
330
12179
100
AcDbEntity
  8
OUTSIDE
100
AcDbLine
 10
1.640625
 20
0.578125
 30
0.0
 11
2.734375
 21
0.578125
 31
0.0
  0
LINE
  5
1217B
330
12179
100
AcDbEntity
  8
OUTSIDE
100
AcDbLine
 10
1.640625
 20
0.859375
 30
0.0
 11
2.734375
 21
0.859375
 31
0.0
  0
LINE
  5
1217C
330
12179
100
AcDbEntity
  8
OUTSIDE
100
AcDbLine
 10
3.1875
 20
-0.5
 30
0.0
 11
-0.4375
 21
-0.5
 31
0.0
  0
LINE
  5
1217D
330
12179
100
AcDbEntity
  8
OUTSIDE
100
AcDbLine
 10
-0.4375
 20
1.9375
 30
0.0
 11
3.1875
 21
1.9375
 31
0.0
  0
ARC
  5
1217E
330
12179
100
AcDbEntity
  8
OUTSIDE
100
AcDbCircle
 10
1.640625
 20
0.71875
 30
0.0
 40
0.140625
100
AcDbArc
 50
90.0
 51
270.0
  0
TEXT
  5
1217F
330
12179
100
AcDbEntity
  8
OUTSIDE
100
AcDbText
 10
0.1023293143974229
 20
0.6536125580388159
 30
0.0
 40
0.2355474917550282
  1
7
 50
90.0
100
AcDbText
  0
CIRCLE
  5
12180
330
12179
100
AcDbEntity
  8
OUTSIDE
100
AcDbCircle
 10
0.0
 20
0.0
 30
0.0
 40
0.15625
  0
CIRCLE
  5
12181
330
12179
100
AcDbEntity
  8
OUTSIDE
100
AcDbCircle
 10
0.0
 20
1.5
 30
0.0
 40
0.15625
  0
LINE
  5
12182
330
12179
100
AcDbEntity
  8
OUTSIDE
100
AcDbLine
 10
0.4375
 20
-0.5
 30
0.0
 11
0.4375
 21
1.9375
 31
0.0
  0
LINE
  5
12183
330
12179
100
AcDbEntity
  8
OUTSIDE
100
AcDbLine
 10
-0.4375
 20
-0.5
 30
0.0
 11
-0.4375
 21
1.9375
 31
0.0
  0
ARC
  5
12184
330
12179
100
AcDbEntity
  8
OUTSIDE
100
AcDbCircle
 10
2.734375
 20
0.71875
 30
0.0
 40
0.140625
100
AcDbArc
 50
270.0
 51
90.0
  0
LINE
  5
12185
330
12179
100
AcDbEntity
  8
OUTSIDE
100
AcDbLine
 10
3.1875
 20
-0.5
 30
0.0
 11
3.1875
 21
1.9375
 31
0.0
  0
ENDBLK
  5
12187
330
12179
100
AcDbEntity
  8
0
100
AcDbBlockEnd
  0
BLOCK
  5
1219A
330
12189
100
AcDbEntity
  8
0
100
AcDbBlockBegin
  2
A$C5DFD450B
 70
     0
 10
0.0
 20
0.0
 30
0.0
  3
A$C5DFD450B
  1

  0
LINE
  5
1218A
330
12189
100
AcDbEntity
  8
OUTSIDE
100
AcDbLine
 10
4.249999232383288
 20
2.374999854020416
 30
0.0
 11
-0.0000007676167115
 21
2.374999854020416
 31
0.0
  0
LINE
  5
1218B
330
12189
100
AcDbEntity
  8
OUTSIDE
100
AcDbLine
 10
4.249999232383288
 20
-0.000000145979584
 30
0.0
 11
-0.0000007676167115
 21
-0.000000145979584
 31
0.0
  0
LINE
  5
1218C
330
12189
100
AcDbEntity
  8
OUTSIDE
100
AcDbLine
 10
3.869374232383393
 20
1.921624854020478
 30
0.0
 11
1.910624232383213
 21
1.92162485402045
 31
0.0
  0
LINE
  5
1218D
330
12189
100
AcDbEntity
  8
OUTSIDE
100
AcDbLine
 10
3.869374232383393
 20
1.640374854020478
 30
0.0
 11
1.910624232383213
 21
1.64037485402045
 31
0.0
  0
LINE
  5
1218E
330
12189
100
AcDbEntity
  8
OUTSIDE
100
AcDbLine
 10
3.869374232383393
 20
0.4543748540204433
 30
0.0
 11
1.910624232383213
 21
0.4543748540204149
 31
0.0
  0
LINE
  5
1218F
330
12189
100
AcDbEntity
  8
OUTSIDE
100
AcDbLine
 10
3.869374232383393
 20
0.7356248540204433
 30
0.0
 11
1.910624232383213
 21
0.7356248540204149
 31
0.0
  0
TEXT
  5
12190
330
12189
100
AcDbEntity
  8
OUTSIDE
100
AcDbText
 10
1.578058710696495
 20
0.954305879579806
 30
0.0
 40
0.2912332314499508
  1
10
 50
90.0
100
AcDbText
  0
ARC
  5
12191
330
12189
100
AcDbEntity
  8
OUTSIDE
100
AcDbCircle
 10
1.910624232383213
 20
1.780999854020421
 30
0.0
 40
0.1406249999999567
100
AcDbArc
 50
90.0
 51
270.0
  0
ARC
  5
12192
330
12189
100
AcDbEntity
  8
OUTSIDE
100
AcDbCircle
 10
1.910624232383213
 20
0.5949998540203865
 30
0.0
 40
0.1406249999999567
100
AcDbArc
 50
90.0
 51
270.0
  0
LINE
  5
12193
330
12189
100
AcDbEntity
  8
OUTSIDE
100
AcDbLine
 10
0.9999992323832884
 20
2.374999854020416
 30
0.0
 11
0.9999992323832884
 21
-0.000000145979584
 31
0.0
  0
LINE
  5
12194
330
12189
100
AcDbEntity
  8
OUTSIDE
100
AcDbLine
 10
-0.0000007676167115
 20
2.374999854020416
 30
0.0
 11
-0.0000007676167115
 21
-0.000000145979584
 31
0.0
  0
CIRCLE
  5
12195
330
12189
100
AcDbEntity
  8
OUTSIDE
100
AcDbCircle
 10
0.4999992323832885
 20
0.4374998540204161
 30
0.0
 40
0.15625
  0
CIRCLE
  5
12196
330
12189
100
AcDbEntity
  8
OUTSIDE
100
AcDbCircle
 10
0.4999992323832885
 20
1.937499854020416
 30
0.0
 40
0.15625
  0
ARC
  5
12197
330
12189
100
AcDbEntity
  8
OUTSIDE
100
AcDbCircle
 10
3.869374232383393
 20
0.5949998540203865
 30
0.0
 40
0.1406249999999567
100
AcDbArc
 50
270.0
 51
90.0
  0
ARC
  5
12198
330
12189
100
AcDbEntity
  8
OUTSIDE
100
AcDbCircle
 10
3.869374232383393
 20
1.780999854020421
 30
0.0
 40
0.1406249999999567
100
AcDbArc
 50
270.0
 51
90.0
  0
LINE
  5
12199
330
12189
100
AcDbEntity
  8
OUTSIDE
100
AcDbLine
 10
4.249999232383288
 20
2.374999854020416
 30
0.0
 11
4.249999232383288
 21
-0.000000145979584
 31
0.0
  0
ENDBLK
  5
1219B
330
12189
100
AcDbEntity
  8
0
100
AcDbBlockEnd
  0
BLOCK
  5
1219E
330
1219C
100
AcDbEntity
  8
0
100
AcDbBlockBegin
  2
RASPLT-10
 70
     0
 10
0.0
 20
0.0
 30
0.0
  3
RASPLT-10
  1

  0
INSERT
  5
1219D
330
1219C
100
AcDbEntity
  8
BDR
100
AcDbBlockReference
  2
A$C5DFD450B
 10
-0.4999992323832885
 20
-0.4374998540204161
 30
0.0
  0
ENDBLK
  5
1219F
330
1219C
100
AcDbEntity
  8
0
100
AcDbBlockEnd
  0
BLOCK
  5
122EC
330
122B2
100
AcDbEntity
  8
0
100
AcDbBlockBegin
  2
A$C426517AB
 70
     0
 10
0.0
 20
0.0
 30
0.0
  3
A$C426517AB
  1

  0
LINE
  5
122B3
330
122B2
100
AcDbEntity
  8
5
 62
     7
100
AcDbLine
 10
3.400848246022576
 20
104.9922464706093
 30
0.0
 11
2.124843259096792
 21
0.0000000365351411
 31
0.0
  0
LINE
  5
122B4
330
122B2
100
AcDbEntity
  8
HIDDEN
 62
     7
100
AcDbLine
 10
2.963380552547164
 20
104.9975631580545
 30
0.0
 11
1.687375565621607
 21
0.0053167239806413
 31
0.0
  0
LINE
  5
122B5
330
122B2
100
AcDbEntity
  8
5
 62
     7
100
AcDbLine
 10
0.0000001765025104
 20
0.0258239469846444
 30
0.0
 11
1.27600516342818
 21
105.0180703810588
 31
0.0
  0
CIRCLE
  5
122B6
330
122B2
100
AcDbEntity
  8
5
 62
     7
100
AcDbCircle
 10
0.8276307142289169
 20
1.265857794515284
 30
0.0
 40
0.203
  0
CIRCLE
  5
122B7
330
122B2
100
AcDbEntity
  8
5
 62
     7
100
AcDbCircle
 10
1.194628599375164
 20
0.6051490899425858
 30
0.0
 40
0.1405
  0
CIRCLE
  5
122B8
330
122B2
100
AcDbEntity
  8
5
 62
     7
100
AcDbCircle
 10
0.4446839819888737
 20
0.6142634112777046
 30
0.0
 40
0.1405
  0
LINE
  5
122B9
330
122B2
100
AcDbEntity
  8
0
100
AcDbLine
 10
2.124843259096223
 20
0.0000000365351411
 30
0.0
 11
0.000000176501942
 21
0.0258239469846444
 31
0.0
  0
LINE
  5
122BA
330
122B2
100
AcDbEntity
  8
5
 62
     7
100
AcDbLine
 10
0.6726199689326223
 20
2.747100931661293
 30
0.0
 11
0.6792005089365603
 21
3.288560945414133
 31
0.0
  0
LINE
  5
122BB
330
122B2
100
AcDbEntity
  8
5
 62
     7
100
AcDbLine
 10
0.9501804973521643
 20
3.285267637305082
 30
0.0
 11
0.9435999573481694
 21
2.743807623552129
 31
0.0
  0
ARC
  5
122BC
330
122B2
100
AcDbEntity
  8
5
 62
     7
100
AcDbCircle
 10
0.808109963140339
 20
2.745454277606654
 30
0.0
 40
0.1355
100
AcDbArc
 50
179.3036999999984
 51
359.3036999999985
  0
ARC
  5
122BD
330
122B2
100
AcDbEntity
  8
5
 62
     7
100
AcDbCircle
 10
0.8146905031443338
 20
3.286914291359607
 30
0.0
 40
0.1355
100
AcDbArc
 50
359.3036999999985
 51
179.3036999999984
  0
CIRCLE
  5
122BE
330
122B2
100
AcDbEntity
  8
5
 62
     7
100
AcDbCircle
 10
0.8205145544775405
 20
3.766128901869365
 30
0.0
 40
0.1405
  0
CIRCLE
  5
122BF
330
122B2
100
AcDbEntity
  8
5
 62
     7
100
AcDbCircle
 10
0.8022859118071323
 20
2.266239667096897
 30
0.0
 40
0.1405
  0
CIRCLE
  5
122C0
330
122B2
100
AcDbEntity
  8
5
 62
     7
100
AcDbCircle
 10
1.022134543540346
 20
22.42125628899862
 30
0.0
 40
0.1325
  0
LINE
  5
122C1
330
122B2
100
AcDbEntity
  8
5
 62
     7
100
AcDbLine
 10
0.5544519609663326
 20
25.08343635277288
 30
0.0
 11
0.5407804789635407
 21
23.95851942669344
 31
0.0
  0
LINE
  5
122C2
330
122B2
100
AcDbEntity
  8
5
 62
     7
100
AcDbLine
 10
1.47745172391842
 20
23.88463114024228
 30
0.0
 11
0.602516336967824
 21
23.89526451513336
 31
0.0
  0
CIRCLE
  5
122C3
330
122B2
100
AcDbEntity
  8
5
 62
     7
100
AcDbCircle
 10
1.03656676756384
 20
23.60876859247583
 30
0.0
 40
0.1325
  0
ARC
  5
122C4
330
122B2
100
AcDbEntity
  8
5
 62
     7
100
AcDbCircle
 10
0.6032758637457505
 20
23.95775989991557
 30
0.0
 40
0.0625
100
AcDbArc
 50
179.3036999999984
 51
269.3036999999985
  0
ARC
  5
122C5
330
122B2
100
AcDbEntity
  8
5
 62
     7
100
AcDbCircle
 10
1.112548328040645
 20
27.28506670266324
 30
0.0
 40
0.1355
100
AcDbArc
 50
359.3036999999985
 51
179.3036999999984
  0
CIRCLE
  5
122C6
330
122B2
100
AcDbEntity
  8
5
 62
     7
100
AcDbCircle
 10
1.118372379373795
 20
27.764281313173
 30
0.0
 40
0.1405
  0
LINE
  5
122C7
330
122B2
100
AcDbEntity
  8
5
 62
     7
100
AcDbLine
 10
1.492642259477122
 20
25.13453883588602
 30
0.0
 11
0.6177068725264121
 21
25.1451722107771
 31
0.0
  0
CIRCLE
  5
122C8
330
122B2
100
AcDbEntity
  8
5
 62
     7
100
AcDbCircle
 10
1.100143736703444
 20
26.26439207840054
 30
0.0
 40
0.1405
  0
CIRCLE
  5
122C9
330
122B2
100
AcDbEntity
  8
5
 62
     7
100
AcDbCircle
 10
1.058591828881048
 20
25.42103475854356
 30
0.0
 40
0.1325
  0
ARC
  5
122CA
330
122B2
100
AcDbEntity
  8
5
 62
     7
100
AcDbCircle
 10
1.10596778803665
 20
26.74360668891029
 30
0.0
 40
0.1355
100
AcDbArc
 50
179.3036999999984
 51
359.3036999999985
  0
ARC
  5
122CB
330
122B2
100
AcDbEntity
  8
5
 62
     7
100
AcDbCircle
 10
0.6169473457485424
 20
25.0826768259949
 30
0.0
 40
0.0625
100
AcDbArc
 50
89.30369999999845
 51
179.3036999999984
  0
LINE
  5
122CC
330
122B2
100
AcDbEntity
  8
5
 62
     7
100
AcDbLine
 10
0.9770583338329288
 20
27.28671335671777
 30
0.0
 11
0.9704777938289339
 21
26.74525334296493
 31
0.0
  0
LINE
  5
122CD
330
122B2
100
AcDbEntity
  8
5
 62
     7
100
AcDbLine
 10
1.241457782244481
 20
26.74196003485576
 30
0.0
 11
1.248038322248476
 21
27.28342004860861
 31
0.0
  0
LINE
  5
122CE
330
122B2
100
AcDbEntity
  8
5
 62
     7
100
AcDbLine
 10
1.554378117481348
 20
25.07128392432594
 30
0.0
 11
1.540706635478613
 21
23.9463669982465
 31
0.0
  0
ARC
  5
122CF
330
122B2
100
AcDbEntity
  8
5
 62
     7
100
AcDbCircle
 10
1.478211250696404
 20
23.94712652502449
 30
0.0
 40
0.0625
100
AcDbArc
 50
269.3036999999985
 51
359.3036999999985
  0
ARC
  5
122D0
330
122B2
100
AcDbEntity
  8
5
 62
     7
100
AcDbCircle
 10
1.491882732699195
 20
25.07204345110381
 30
0.0
 40
0.0625
100
AcDbArc
 50
359.3036999999985
 51
89.30369999999845
  0
ARC
  5
122D1
330
122B2
100
AcDbEntity
  8
5
 62
     7
100
AcDbCircle
 10
1.552644874933719
 20
30.07167423367878
 30
0.0
 40
0.0625
100
AcDbArc
 50
359.3036999999985
 51
89.30369999999845
  0
LINE
  5
122D2
330
122B2
100
AcDbEntity
  8
5
 62
     7
100
AcDbLine
 10
1.601468777713137
 20
28.94599778082147
 30
0.0
 11
1.615140259715929
 21
30.07091470690091
 31
0.0
  0
LINE
  5
122D3
330
122B2
100
AcDbEntity
  8
5
 62
     7
100
AcDbLine
 10
1.538213866153
 20
28.88426192281725
 30
0.0
 11
0.6632784792023472
 21
28.89489529770833
 31
0.0
  0
CIRCLE
  5
122D4
330
122B2
100
AcDbEntity
  8
5
 62
     7
100
AcDbCircle
 10
1.13378619513918
 20
31.60817784459573
 30
0.0
 40
0.1325
  0
CIRCLE
  5
122D5
330
122B2
100
AcDbEntity
  8
5
 62
     7
100
AcDbCircle
 10
1.119353971115572
 20
30.42066554111853
 30
0.0
 40
0.1325
  0
ARC
  5
122D6
330
122B2
100
AcDbEntity
  8
5
 62
     7
100
AcDbCircle
 10
0.6640380059803306
 20
28.95739068249054
 30
0.0
 40
0.0625
100
AcDbArc
 50
179.3036999999984
 51
269.3036999999985
  0
ARC
  5
122D7
330
122B2
100
AcDbEntity
  8
5
 62
     7
100
AcDbCircle
 10
0.6777094879830657
 20
30.08230760856986
 30
0.0
 40
0.0625
100
AcDbArc
 50
89.30369999999845
 51
179.3036999999984
  0
LINE
  5
122D8
330
122B2
100
AcDbEntity
  8
5
 62
     7
100
AcDbLine
 10
0.6015426211981776
 20
28.95815020926841
 30
0.0
 11
0.6152141032009695
 21
30.08306713534774
 31
0.0
  0
LINE
  5
122D9
330
122B2
100
AcDbEntity
  8
5
 62
     7
100
AcDbLine
 10
1.553404401711645
 20
30.13416961846099
 30
0.0
 11
0.6784690147610491
 21
30.14480299335196
 31
0.0
  0
ARC
  5
122DA
330
122B2
100
AcDbEntity
  8
5
 62
     7
100
AcDbCircle
 10
1.538973392930927
 20
28.94675730759946
 30
0.0
 40
0.0625
100
AcDbArc
 50
269.3036999999985
 51
359.3036999999985
  0
CIRCLE
  5
122DB
330
122B2
100
AcDbEntity
  8
5
 62
     7
100
AcDbCircle
 10
1.09732890979842
 20
28.6083993750508
 30
0.0
 40
0.1325
  0
ARC
  5
122DC
330
122B2
100
AcDbEntity
  8
5
 62
     7
100
AcDbCircle
 10
1.391426528592091
 20
50.74190979032642
 30
0.0
 40
0.1355
100
AcDbArc
 50
179.3036999999984
 51
359.3036999999985
  0
LINE
  5
122DD
330
122B2
100
AcDbEntity
  8
5
 62
     7
100
AcDbLine
 10
1.26251707438837
 20
51.2850164581339
 30
0.0
 11
1.255936534384318
 21
50.74355644438094
 31
0.0
  0
LINE
  5
122DE
330
122B2
100
AcDbEntity
  8
5
 62
     7
100
AcDbLine
 10
1.526916522799865
 20
50.74026313627189
 30
0.0
 11
1.533497062803917
 21
51.28172315002473
 31
0.0
  0
ARC
  5
122DF
330
122B2
100
AcDbEntity
  8
5
 62
     7
100
AcDbCircle
 10
1.398007068596143
 20
51.28336980407926
 30
0.0
 40
0.1355
100
AcDbArc
 50
359.3036999999985
 51
179.3036999999984
  0
CIRCLE
  5
122E0
330
122B2
100
AcDbEntity
  8
5
 62
     7
100
AcDbCircle
 10
1.403831119929236
 20
51.76258441458912
 30
0.0
 40
0.1405
  0
CIRCLE
  5
122E1
330
122B2
100
AcDbEntity
  8
5
 62
     7
100
AcDbCircle
 10
1.385602477258885
 20
50.26269517981654
 30
0.0
 40
0.1405
  0
ARC
  5
122E2
330
122B2
100
AcDbEntity
  8
5
 62
     7
100
AcDbCircle
 10
1.689665351321934
 20
75.28159756043908
 30
0.0
 40
0.1355
100
AcDbArc
 50
359.3036999999985
 51
179.3036999999984
  0
LINE
  5
122E3
330
122B2
100
AcDbEntity
  8
5
 62
     7
100
AcDbLine
 10
1.554175357114218
 20
75.28324421449361
 30
0.0
 11
1.547594817110223
 21
74.74178420074077
 31
0.0
  0
LINE
  5
122E4
330
122B2
100
AcDbEntity
  8
5
 62
     7
100
AcDbLine
 10
1.818574805525713
 20
74.7384908926316
 30
0.0
 11
1.825155345529765
 21
75.27995090638455
 31
0.0
  0
ARC
  5
122E5
330
122B2
100
AcDbEntity
  8
5
 62
     7
100
AcDbCircle
 10
1.683084811317883
 20
74.74013754668613
 30
0.0
 40
0.1355
100
AcDbArc
 50
179.3036999999984
 51
359.3036999999985
  0
CIRCLE
  5
122E6
330
122B2
100
AcDbEntity
  8
5
 62
     7
100
AcDbCircle
 10
1.695489402655141
 20
75.76081217094884
 30
0.0
 40
0.1405
  0
CIRCLE
  5
122E7
330
122B2
100
AcDbEntity
  8
5
 62
     7
100
AcDbCircle
 10
1.677260759984733
 20
74.26092293617637
 30
0.0
 40
0.1405
  0
LINE
  5
122E8
330
122B2
100
AcDbEntity
  8
0
100
AcDbLine
 10
3.400848246022576
 20
104.9922464706093
 30
0.0
 11
1.27600516342818
 21
105.0180703810588
 31
0.0
  0
CIRCLE
  5
122E9
330
122B2
100
AcDbEntity
  8
5
 62
     7
100
AcDbCircle
 10
2.073254630037922
 20
103.7582888373018
 30
0.0
 40
0.203
  0
CIRCLE
  5
122EA
330
122B2
100
AcDbEntity
  8
5
 62
     7
100
AcDbCircle
 10
1.706256744891675
 20
104.4189975418745
 30
0.0
 40
0.1405
  0
CIRCLE
  5
122EB
330
122B2
100
AcDbEntity
  8
5
 62
     7
100
AcDbCircle
 10
2.456201362277965
 20
104.4098832205394
 30
0.0
 40
0.1405
  0
ENDBLK
  5
122ED
330
122B2
100
AcDbEntity
  8
0
100
AcDbBlockEnd
  0
BLOCK
  5
12327
330
122F0
100
AcDbEntity
  8
0
100
AcDbBlockBegin
  2
A$C355A0678
 70
     0
 10
0.0
 20
0.0
 30
0.0
  3
A$C355A0678
  1

  0
LINE
  5
122F1
330
122F0
100
AcDbEntity
  8
JAMB
 62
     7
100
AcDbLine
 10
0.0000003355806371
 20
122.0000001864485
 30
0.0
 11
0.0000003355805802
 21
0.0000001864484886
 31
0.0
  0
LINE
  5
122F2
330
122F0
100
AcDbEntity
  8
REVERSE-ANGLE
 62
     7
100
AcDbLine
 10
0.0000003355805802
 20
0.0000001864484886
 30
0.0
 11
0.0000003355805802
 21
122.0000001864485
 31
0.0
  0
LINE
  5
122F3
330
122F0
100
AcDbEntity
  8
REVERSE-ANGLE
 62
     7
100
AcDbLine
 10
0.1000003355806029
 20
0.0000001864484886
 30
0.0
 11
0.1000003355805461
 21
122.0000001864485
 31
0.0
  0
LINE
  5
122F4
330
122F0
100
AcDbEntity
  8
REVERSE-ANGLE
 62
     7
100
AcDbLine
 10
1.62500033558058
 20
4.500000186448488
 30
0.0
 11
1.62500033558058
 21
25.50000018644849
 31
0.0
  0
LINE
  5
122F5
330
122F0
100
AcDbEntity
  8
UPPER-ANGLE
100
AcDbLine
 10
1.62500033558058
 20
0.0000001864484886
 30
0.0
 11
1.62500033558058
 21
1.500000186448488
 31
0.0
  0
LINE
  5
122F6
330
122F0
100
AcDbEntity
  8
UPPER-ANGLE
100
AcDbLine
 10
0.0000003355805802
 20
0.0000001864484886
 30
0.0
 11
1.62500033558058
 21
0.0000001864484886
 31
0.0
  0
LINE
  5
122F7
330
122F0
100
AcDbEntity
  8
REVERSE-ANGLE
 62
     7
100
AcDbLine
 10
1.205000335580621
 20
4.500000186448488
 30
0.0
 11
1.62500033558058
 21
4.500000186448488
 31
0.0
  0
LINE
  5
122F8
330
122F0
100
AcDbEntity
  8
REVERSE-ANGLE
 62
     7
100
AcDbLine
 10
1.205000335580621
 20
1.500000186448488
 30
0.0
 11
1.62500033558058
 21
1.500000186448488
 31
0.0
  0
CIRCLE
  5
122F9
330
122F0
100
AcDbEntity
  8
REVERSE-ANGLE
 62
     7
100
AcDbCircle
 10
0.7750003355805575
 20
3.750000186448488
 30
0.0
 40
0.1325
  0
LINE
  5
122FA
330
122F0
100
AcDbEntity
  8
REVERSE-ANGLE
 62
     7
100
AcDbLine
 10
0.0000003355805802
 20
2.807500186448493
 30
0.0
 11
0.1000003355806029
 21
2.807500186448493
 31
0.0
  0
LINE
  5
122FB
330
122F0
100
AcDbEntity
  8
REVERSE-ANGLE
 62
     7
100
AcDbLine
 10
0.0000003355805802
 20
3.192500186448484
 30
0.0
 11
0.1000003355806029
 21
3.192500186448484
 31
0.0
  0
LINE
  5
122FC
330
122F0
100
AcDbEntity
  8
REVERSE-ANGLE
 62
     7
100
AcDbLine
 10
1.205000335580621
 20
1.500000186448488
 30
0.0
 11
1.205000335580621
 21
4.500000186448488
 31
0.0
  0
CIRCLE
  5
122FD
330
122F0
100
AcDbEntity
  8
REVERSE-ANGLE
 62
     7
100
AcDbCircle
 10
0.7750003355805575
 20
2.250000186448488
 30
0.0
 40
0.1325
  0
LINE
  5
122FE
330
122F0
100
AcDbEntity
  8
REVERSE-ANGLE
 62
     7
100
AcDbLine
 10
1.62500033558058
 20
76.50000018644849
 30
0.0
 11
1.625000335580637
 21
103.5000001864485
 31
0.0
  0
LINE
  5
122FF
330
122F0
100
AcDbEntity
  8
REVERSE-ANGLE
 62
     7
100
AcDbLine
 10
1.62500033558058
 20
52.50000018644849
 30
0.0
 11
1.62500033558058
 21
73.50000018644848
 31
0.0
  0
LINE
  5
12300
330
122F0
100
AcDbEntity
  8
REVERSE-ANGLE
 62
     7
100
AcDbLine
 10
1.62500033558058
 20
28.50000018644849
 30
0.0
 11
1.62500033558058
 21
49.50000018644849
 31
0.0
  0
LINE
  5
12301
330
122F0
100
AcDbEntity
  8
REVERSE-ANGLE
 62
     7
100
AcDbLine
 10
1.205000335580621
 20
25.50000018644849
 30
0.0
 11
1.205000335580621
 21
28.50000018644849
 31
0.0
  0
LINE
  5
12302
330
122F0
100
AcDbEntity
  8
REVERSE-ANGLE
 62
     7
100
AcDbLine
 10
1.205000335580621
 20
25.50000018644849
 30
0.0
 11
1.62500033558058
 21
25.50000018644849
 31
0.0
  0
CIRCLE
  5
12303
330
122F0
100
AcDbEntity
  8
REVERSE-ANGLE
 62
     7
100
AcDbCircle
 10
0.7750003355805575
 20
26.25000018644849
 30
0.0
 40
0.1325
  0
LINE
  5
12304
330
122F0
100
AcDbEntity
  8
REVERSE-ANGLE
 62
     7
100
AcDbLine
 10
0.0000003355805802
 20
27.19250018644848
 30
0.0
 11
0.1000003355806029
 21
27.19250018644848
 31
0.0
  0
LINE
  5
12305
330
122F0
100
AcDbEntity
  8
REVERSE-ANGLE
 62
     7
100
AcDbLine
 10
0.0000003355805802
 20
26.80750018644849
 30
0.0
 11
0.1000003355806029
 21
26.80750018644849
 31
0.0
  0
LINE
  5
12306
330
122F0
100
AcDbEntity
  8
REVERSE-ANGLE
 62
     7
100
AcDbLine
 10
1.205000335580621
 20
28.50000018644849
 30
0.0
 11
1.62500033558058
 21
28.50000018644849
 31
0.0
  0
CIRCLE
  5
12307
330
122F0
100
AcDbEntity
  8
REVERSE-ANGLE
 62
     7
100
AcDbCircle
 10
0.7750003355805575
 20
27.75000018644849
 30
0.0
 40
0.1325
  0
LINE
  5
12308
330
122F0
100
AcDbEntity
  8
REVERSE-ANGLE
 62
     7
100
AcDbLine
 10
1.205000335580621
 20
52.50000018644849
 30
0.0
 11
1.62500033558058
 21
52.50000018644849
 31
0.0
  0
LINE
  5
12309
330
122F0
100
AcDbEntity
  8
REVERSE-ANGLE
 62
     7
100
AcDbLine
 10
1.205000335580621
 20
49.50000018644849
 30
0.0
 11
1.62500033558058
 21
49.50000018644849
 31
0.0
  0
LINE
  5
1230A
330
122F0
100
AcDbEntity
  8
REVERSE-ANGLE
 62
     7
100
AcDbLine
 10
1.205000335580621
 20
49.50000018644849
 30
0.0
 11
1.205000335580621
 21
52.50000018644849
 31
0.0
  0
LINE
  5
1230B
330
122F0
100
AcDbEntity
  8
REVERSE-ANGLE
 62
     7
100
AcDbLine
 10
0.0000003355805802
 20
50.80750018644849
 30
0.0
 11
0.1000003355806029
 21
50.80750018644849
 31
0.0
  0
LINE
  5
1230C
330
122F0
100
AcDbEntity
  8
REVERSE-ANGLE
 62
     7
100
AcDbLine
 10
0.0000003355805802
 20
51.19250018644848
 30
0.0
 11
0.1000003355806029
 21
51.19250018644848
 31
0.0
  0
CIRCLE
  5
1230D
330
122F0
100
AcDbEntity
  8
REVERSE-ANGLE
 62
     7
100
AcDbCircle
 10
0.7750003355805575
 20
50.25000018644849
 30
0.0
 40
0.1325
  0
CIRCLE
  5
1230E
330
122F0
100
AcDbEntity
  8
REVERSE-ANGLE
 62
     7
100
AcDbCircle
 10
0.7750003355805575
 20
51.75000018644849
 30
0.0
 40
0.1325
  0
CIRCLE
  5
1230F
330
122F0
100
AcDbEntity
  8
REVERSE-ANGLE
 62
     7
100
AcDbCircle
 10
0.7750003355805575
 20
75.75000018644849
 30
0.0
 40
0.1325
  0
LINE
  5
12310
330
122F0
100
AcDbEntity
  8
REVERSE-ANGLE
 62
     7
100
AcDbLine
 10
1.205000335580621
 20
73.50000018644848
 30
0.0
 11
1.205000335580621
 21
76.50000018644849
 31
0.0
  0
LINE
  5
12311
330
122F0
100
AcDbEntity
  8
REVERSE-ANGLE
 62
     7
100
AcDbLine
 10
1.205000335580621
 20
73.50000018644848
 30
0.0
 11
1.62500033558058
 21
73.50000018644848
 31
0.0
  0
LINE
  5
12312
330
122F0
100
AcDbEntity
  8
REVERSE-ANGLE
 62
     7
100
AcDbLine
 10
0.0000003355805802
 20
75.19250018644848
 30
0.0
 11
0.1000003355806029
 21
75.19250018644848
 31
0.0
  0
LINE
  5
12313
330
122F0
100
AcDbEntity
  8
REVERSE-ANGLE
 62
     7
100
AcDbLine
 10
0.0000003355805802
 20
74.80750018644849
 30
0.0
 11
0.1000003355806029
 21
74.80750018644849
 31
0.0
  0
CIRCLE
  5
12314
330
122F0
100
AcDbEntity
  8
REVERSE-ANGLE
 62
     7
100
AcDbCircle
 10
0.7750003355805575
 20
74.25000018644849
 30
0.0
 40
0.1325
  0
LINE
  5
12315
330
122F0
100
AcDbEntity
  8
REVERSE-ANGLE
 62
     7
100
AcDbLine
 10
1.205000335580621
 20
76.50000018644849
 30
0.0
 11
1.62500033558058
 21
76.50000018644849
 31
0.0
  0
LINE
  5
12316
330
122F0
100
AcDbEntity
  8
REVERSE-ANGLE
 62
     7
100
AcDbLine
 10
1.625000335580637
 20
106.5000001864485
 30
0.0
 11
1.625000335580637
 21
122.0000001864485
 31
0.0
  0
LINE
  5
12317
330
122F0
100
AcDbEntity
  8
REVERSE-ANGLE
 62
     7
100
AcDbLine
 10
0.0000003355805802
 20
98.8075001864485
 30
0.0
 11
0.1000003355806029
 21
98.8075001864485
 31
0.0
  0
LINE
  5
12318
330
122F0
100
AcDbEntity
  8
REVERSE-ANGLE
 62
     7
100
AcDbLine
 10
0.0000003355805802
 20
99.19250018644849
 30
0.0
 11
0.1000003355806029
 21
99.19250018644849
 31
0.0
  0
LINE
  5
12319
330
122F0
100
AcDbEntity
  8
REVERSE-ANGLE
 62
     7
100
AcDbLine
 10
1.205000335580621
 20
106.5000001864485
 30
0.0
 11
1.62500033558058
 21
106.5000001864485
 31
0.0
  0
LINE
  5
1231A
330
122F0
100
AcDbEntity
  8
REVERSE-ANGLE
 62
     7
100
AcDbLine
 10
1.205000335580621
 20
103.5000001864485
 30
0.0
 11
1.62500033558058
 21
103.5000001864485
 31
0.0
  0
LINE
  5
1231B
330
122F0
100
AcDbEntity
  8
REVERSE-ANGLE
 62
     7
100
AcDbLine
 10
1.205000335580621
 20
103.5000001864485
 30
0.0
 11
1.205000335580621
 21
106.5000001864485
 31
0.0
  0
CIRCLE
  5
1231C
330
122F0
100
AcDbEntity
  8
REVERSE-ANGLE
 62
     7
100
AcDbCircle
 10
0.7750003355805575
 20
104.2500001864485
 30
0.0
 40
0.1325
  0
CIRCLE
  5
1231D
330
122F0
100
AcDbEntity
  8
REVERSE-ANGLE
 62
     7
100
AcDbCircle
 10
0.7750003355805575
 20
105.7500001864485
 30
0.0
 40
0.1325
  0
ARC
  5
1231E
330
122F0
100
AcDbEntity
  8
UPPER-ANGLE
100
AcDbCircle
 10
1.045554792862787
 20
117.8675001864484
 30
0.0
 40
0.1925000000000002
100
AcDbArc
 50
0.0
 51
180.0
  0
ARC
  5
1231F
330
122F0
100
AcDbEntity
  8
UPPER-ANGLE
100
AcDbCircle
 10
1.045554792862787
 20
116.7525001864485
 30
0.0
 40
0.1925000000000002
100
AcDbArc
 50
180.0
 51
0.0
  0
LINE
  5
12320
330
122F0
100
AcDbEntity
  8
UPPER-ANGLE
100
AcDbLine
 10
1.238054792862783
 20
116.7525001864485
 30
0.0
 11
1.238054792862783
 21
117.8675001864484
 31
0.0
  0
LINE
  5
12321
330
122F0
100
AcDbEntity
  8
UPPER-ANGLE
100
AcDbLine
 10
0.8530547928627925
 20
116.7525001864485
 30
0.0
 11
0.8530547928627925
 21
117.8675001864484
 31
0.0
  0
LINE
  5
12322
330
122F0
100
AcDbEntity
  8
UPPER-ANGLE
100
AcDbLine
 10
0.0000003355806371
 20
122.0000001864485
 30
0.0
 11
1.625000335580637
 21
122.0000001864485
 31
0.0
  0
LINE
  5
12323
330
122F0
100
AcDbEntity
  8
UPPER-ANGLE
100
AcDbLine
 10
1.238054792862783
 20
120.4025001864485
 30
0.0
 11
1.238054792862783
 21
121.5175001864484
 31
0.0
  0
LINE
  5
12324
330
122F0
100
AcDbEntity
  8
UPPER-ANGLE
100
AcDbLine
 10
0.8530547928627925
 20
120.4025001864485
 30
0.0
 11
0.8530547928627925
 21
121.5175001864484
 31
0.0
  0
ARC
  5
12325
330
122F0
100
AcDbEntity
  8
UPPER-ANGLE
100
AcDbCircle
 10
1.045554792862787
 20
120.4025001864485
 30
0.0
 40
0.1925000000000002
100
AcDbArc
 50
180.0
 51
0.0
  0
ARC
  5
12326
330
122F0
100
AcDbEntity
  8
UPPER-ANGLE
100
AcDbCircle
 10
1.045554792862787
 20
121.5175001864484
 30
0.0
 40
0.1925000000000002
100
AcDbArc
 50
0.0
 51
180.0
  0
ENDBLK
  5
12328
330
122F0
100
AcDbEntity
  8
0
100
AcDbBlockEnd
  0
BLOCK
  5
1238D
330
12334
100
AcDbEntity
  8
0
100
AcDbBlockBegin
  2
A$C4F3F2A85
 70
     0
 10
0.0
 20
0.0
 30
0.0
  3
A$C4F3F2A85
  1

  0
CIRCLE
  5
12335
330
12334
100
AcDbEntity
  8
0
100
AcDbCircle
 10
17.21249918160902
 20
2.624999360800586
 30
0.0
 40
0.25
  0
LINE
  5
12336
330
12334
100
AcDbEntity
  8
0
100
AcDbLine
 10
-0.0000008183909586
 20
3.64999936080062
 30
0.0
 11
22.87499918160904
 21
3.64999936080062
 31
0.0
  0
LINE
  5
12337
330
12334
100
AcDbEntity
  8
0
100
AcDbLine
 10
21.74999918160904
 20
-0.0000006391994702
 30
0.0
 11
-0.0000008183909586
 21
-0.0000006391994702
 31
0.0
  0
ARC
  5
12338
330
12334
100
AcDbEntity
  8
0
100
AcDbCircle
 10
2.087499181609018
 20
0.6934993608006153
 30
0.0
 40
0.1375000000000002
100
AcDbArc
 50
90.0
 51
270.0
  0
LINE
  5
12339
330
12334
100
AcDbEntity
  8
0
100
AcDbLine
 10
2.17749918160905
 20
0.6934993608006153
 30
0.0
 11
1.9974991816091
 21
0.6934993608006153
 31
0.0
  0
CIRCLE
  5
1233A
330
12334
100
AcDbEntity
  8
0
100
AcDbCircle
 10
1.694999181609091
 20
3.054999360800593
 30
0.0
 40
0.1700000000000017
  0
LINE
  5
1233B
330
12334
100
AcDbEntity
  8
0
100
AcDbLine
 10
1.694999181609091
 20
2.964999360800561
 30
0.0
 11
1.694999181609091
 21
3.144999360800625
 31
0.0
  0
LINE
  5
1233C
330
12334
100
AcDbEntity
  8
0
100
AcDbLine
 10
1.784999181609009
 20
3.054999360800593
 30
0.0
 11
1.604999181609059
 21
3.054999360800593
 31
0.0
  0
LINE
  5
1233D
330
12334
100
AcDbEntity
  8
0
100
AcDbLine
 10
0.3879991816090751
 20
0.4319993608005462
 30
0.0
 11
0.3879991816090751
 21
0.6119993608006098
 31
0.0
  0
ARC
  5
1233E
330
12334
100
AcDbEntity
  8
0
100
AcDbCircle
 10
0.3879991816090751
 20
0.521999360800578
 30
0.0
 40
0.2039999999999988
100
AcDbArc
 50
90.0
 51
269.999999999999
  0
LINE
  5
1233F
330
12334
100
AcDbEntity
  8
0
100
AcDbLine
 10
1.379999181609036
 20
0.4319993608005462
 30
0.0
 11
1.379999181609036
 21
0.6119993608006098
 31
0.0
  0
ARC
  5
12340
330
12334
100
AcDbEntity
  8
0
100
AcDbCircle
 10
1.379999181609036
 20
0.521999360800578
 30
0.0
 40
0.2040000000000011
100
AcDbArc
 50
270.0
 51
90.0
  0
LINE
  5
12341
330
12334
100
AcDbEntity
  8
0
100
AcDbLine
 10
1.379999181609036
 20
0.3179993608005134
 30
0.0
 11
0.3879991816090751
 21
0.3179993608005134
 31
0.0
  0
LINE
  5
12342
330
12334
100
AcDbEntity
  8
0
100
AcDbLine
 10
1.469999181609068
 20
0.521999360800578
 30
0.0
 11
1.289999181609118
 21
0.521999360800578
 31
0.0
  0
LINE
  5
12343
330
12334
100
AcDbEntity
  8
0
100
AcDbLine
 10
0.477999181609107
 20
0.521999360800578
 30
0.0
 11
0.2979991816090432
 21
0.521999360800578
 31
0.0
  0
LINE
  5
12344
330
12334
100
AcDbEntity
  8
0
100
AcDbLine
 10
1.379999181609036
 20
0.7259993608005289
 30
0.0
 11
0.3879991816090751
 21
0.7259993608005289
 31
0.0
  0
LINE
  5
12345
330
12334
100
AcDbEntity
  8
0
100
AcDbLine
 10
-0.0000008183909586
 20
-0.0000006391994702
 30
0.0
 11
-0.0000008183909586
 21
3.64999936080062
 31
0.0
  0
ARC
  5
12346
330
12334
100
AcDbEntity
  8
0
100
AcDbCircle
 10
16.14999918160902
 20
2.569999360800579
 30
0.0
 40
0.1499999999999999
100
AcDbArc
 50
180.0
 51
0.0
  0
LINE
  5
12347
330
12334
100
AcDbEntity
  8
0
100
AcDbLine
 10
16.14999918160902
 20
2.479999360800547
 30
0.0
 11
16.14999918160902
 21
2.659999360800611
 31
0.0
  0
LINE
  5
12348
330
12334
100
AcDbEntity
  8
0
100
AcDbLine
 10
16.14999918160902
 20
2.534999360800611
 30
0.0
 11
16.14999918160902
 21
2.714999360800561
 31
0.0
  0
ARC
  5
12349
330
12334
100
AcDbEntity
  8
0
100
AcDbCircle
 10
16.14999918160902
 20
2.624999360800529
 30
0.0
 40
0.1499999999999999
100
AcDbArc
 50
0.0
 51
180.0
  0
LINE
  5
1234A
330
12334
100
AcDbEntity
  8
0
100
AcDbLine
 10
16.23999918160905
 20
2.624999360800529
 30
0.0
 11
16.0599991816091
 21
2.624999360800529
 31
0.0
  0
LINE
  5
1234B
330
12334
100
AcDbEntity
  8
0
100
AcDbLine
 10
16.23999918160905
 20
2.569999360800579
 30
0.0
 11
16.0599991816091
 21
2.569999360800579
 31
0.0
  0
LINE
  5
1234C
330
12334
100
AcDbEntity
  8
0
100
AcDbLine
 10
15.99999918160904
 20
2.569999360800579
 30
0.0
 11
15.99999918160904
 21
2.624999360800529
 31
0.0
  0
LINE
  5
1234D
330
12334
100
AcDbEntity
  8
0
100
AcDbLine
 10
16.29999918160911
 20
2.569999360800579
 30
0.0
 11
16.29999918160911
 21
2.624999360800529
 31
0.0
  0
ARC
  5
1234E
330
12334
100
AcDbEntity
  8
0
100
AcDbCircle
 10
16.14999918160902
 20
2.624999360800529
 30
0.0
 40
0.1499999999999999
100
AcDbArc
 50
336.0429657177626
 51
336.0429657177639
  0
LINE
  5
1234F
330
12334
100
AcDbEntity
  8
0
100
AcDbLine
 10
8.992499181609105
 20
1.002499360800584
 30
0.0
 11
8.992499181609105
 21
1.182499360800534
 31
0.0
  0
CIRCLE
  5
12350
330
12334
100
AcDbEntity
  8
0
100
AcDbCircle
 10
8.992499181609105
 20
1.092499360800616
 30
0.0
 40
0.2424999999999997
  0
LINE
  5
12351
330
12334
100
AcDbEntity
  8
0
100
AcDbLine
 10
9.082499181609023
 20
1.092499360800616
 30
0.0
 11
8.902499181609073
 21
1.092499360800616
 31
0.0
  0
ARC
  5
12352
330
12334
100
AcDbEntity
  8
0
100
AcDbCircle
 10
16.14999918160902
 20
0.4499993608005753
 30
0.0
 40
0.1499999999999999
100
AcDbArc
 50
180.0
 51
0.0
  0
LINE
  5
12353
330
12334
100
AcDbEntity
  8
0
100
AcDbLine
 10
16.14999918160902
 20
0.3599993608005434
 30
0.0
 11
16.14999918160902
 21
0.5399993608006071
 31
0.0
  0
LINE
  5
12354
330
12334
100
AcDbEntity
  8
0
100
AcDbLine
 10
16.14999918160902
 20
0.4149993608006071
 30
0.0
 11
16.14999918160902
 21
0.5949993608005571
 31
0.0
  0
ARC
  5
12355
330
12334
100
AcDbEntity
  8
0
100
AcDbCircle
 10
16.14999918160902
 20
0.5049993608005252
 30
0.0
 40
0.1499999999999999
100
AcDbArc
 50
336.0429657177626
 51
336.0429657177639
  0
LINE
  5
12356
330
12334
100
AcDbEntity
  8
0
100
AcDbLine
 10
13.1174991816091
 20
0.7174993608006162
 30
0.0
 11
13.1174991816091
 21
0.8974993608005661
 31
0.0
  0
CIRCLE
  5
12357
330
12334
100
AcDbEntity
  8
0
100
AcDbCircle
 10
13.1174991816091
 20
0.8074993608005343
 30
0.0
 40
0.2424999999999997
  0
LINE
  5
12358
330
12334
100
AcDbEntity
  8
0
100
AcDbLine
 10
13.20749918160902
 20
0.8074993608005343
 30
0.0
 11
13.02749918160907
 21
0.8074993608005343
 31
0.0
  0
ARC
  5
12359
330
12334
100
AcDbEntity
  8
0
100
AcDbCircle
 10
16.14999918160902
 20
0.5049993608005252
 30
0.0
 40
0.1499999999999999
100
AcDbArc
 50
0.0
 51
180.0
  0
LINE
  5
1235A
330
12334
100
AcDbEntity
  8
0
100
AcDbLine
 10
16.23999918160905
 20
0.5049993608005252
 30
0.0
 11
16.0599991816091
 21
0.5049993608005252
 31
0.0
  0
LINE
  5
1235B
330
12334
100
AcDbEntity
  8
0
100
AcDbLine
 10
16.23999918160905
 20
0.4499993608005753
 30
0.0
 11
16.0599991816091
 21
0.4499993608005753
 31
0.0
  0
LINE
  5
1235C
330
12334
100
AcDbEntity
  8
0
100
AcDbLine
 10
15.99999918160904
 20
0.4499993608005753
 30
0.0
 11
15.99999918160904
 21
0.5049993608005252
 31
0.0
  0
LINE
  5
1235D
330
12334
100
AcDbEntity
  8
0
100
AcDbLine
 10
16.29999918160911
 20
0.4499993608005753
 30
0.0
 11
16.29999918160911
 21
0.5049993608005252
 31
0.0
  0
CIRCLE
  5
1235E
330
12334
100
AcDbEntity
  8
5
 62
     7
100
AcDbCircle
 10
3.819107710178286
 20
2.45780012804073
 30
0.0
 40
0.1875
  0
CIRCLE
  5
1235F
330
12334
100
AcDbEntity
  8
5
 62
     7
100
AcDbCircle
 10
2.881607710178286
 20
2.45780012804073
 30
0.0
 40
0.1875
  0
CIRCLE
  5
12360
330
12334
100
AcDbEntity
  8
5
 62
     7
100
AcDbCircle
 10
4.756607710178286
 20
2.45780012804073
 30
0.0
 40
0.1875
  0
CIRCLE
  5
12361
330
12334
100
AcDbEntity
  8
0
100
AcDbCircle
 10
3.694999181609091
 20
3.054999360800593
 30
0.0
 40
0.1700000000000017
  0
CIRCLE
  5
12362
330
12334
100
AcDbEntity
  8
0
100
AcDbCircle
 10
2.694999181609091
 20
3.054999360800593
 30
0.0
 40
0.1700000000000017
  0
LINE
  5
12363
330
12334
100
AcDbEntity
  8
0
100
AcDbLine
 10
2.694999181609091
 20
2.964999360800561
 30
0.0
 11
2.694999181609091
 21
3.144999360800625
 31
0.0
  0
LINE
  5
12364
330
12334
100
AcDbEntity
  8
0
100
AcDbLine
 10
2.784999181609123
 20
3.054999360800593
 30
0.0
 11
2.604999181609059
 21
3.054999360800593
 31
0.0
  0
CIRCLE
  5
12365
330
12334
100
AcDbEntity
  8
0
100
AcDbCircle
 10
4.694999181609091
 20
3.054999360800593
 30
0.0
 40
0.1700000000000017
  0
LINE
  5
12366
330
12334
100
AcDbEntity
  8
0
100
AcDbLine
 10
4.784999181609123
 20
3.054999360800593
 30
0.0
 11
4.604999181609059
 21
3.054999360800593
 31
0.0
  0
LINE
  5
12367
330
12334
100
AcDbEntity
  8
0
100
AcDbLine
 10
3.694999181609091
 20
2.964999360800561
 30
0.0
 11
3.694999181609091
 21
3.144999360800625
 31
0.0
  0
LINE
  5
12368
330
12334
100
AcDbEntity
  8
0
100
AcDbLine
 10
3.784999181609123
 20
3.054999360800593
 30
0.0
 11
3.604999181609059
 21
3.054999360800593
 31
0.0
  0
LINE
  5
12369
330
12334
100
AcDbEntity
  8
0
100
AcDbLine
 10
4.694999181609091
 20
2.964999360800561
 30
0.0
 11
4.694999181609091
 21
3.144999360800625
 31
0.0
  0
ARC
  5
1236A
330
12334
100
AcDbEntity
  8
0
100
AcDbCircle
 10
2.942499181609036
 20
0.6934993608006153
 30
0.0
 40
0.1374999999999997
100
AcDbArc
 50
270.0
 51
90.0
  0
LINE
  5
1236B
330
12334
100
AcDbEntity
  8
0
100
AcDbLine
 10
2.942499181609036
 20
0.5559993608005698
 30
0.0
 11
2.087499181609018
 21
0.5559993608005698
 31
0.0
  0
LINE
  5
1236C
330
12334
100
AcDbEntity
  8
0
100
AcDbLine
 10
2.087499181609018
 20
0.6034993608005835
 30
0.0
 11
2.087499181609018
 21
0.7834993608005334
 31
0.0
  0
LINE
  5
1236D
330
12334
100
AcDbEntity
  8
0
100
AcDbLine
 10
2.942499181609036
 20
0.6034993608005835
 30
0.0
 11
2.942499181609036
 21
0.7834993608005334
 31
0.0
  0
LINE
  5
1236E
330
12334
100
AcDbEntity
  8
0
100
AcDbLine
 10
3.032499181609068
 20
0.6934993608006153
 30
0.0
 11
2.852499181609118
 21
0.6934993608006153
 31
0.0
  0
LINE
  5
1236F
330
12334
100
AcDbEntity
  8
0
100
AcDbLine
 10
2.942499181609036
 20
0.830999360800547
 30
0.0
 11
2.087499181609018
 21
0.830999360800547
 31
0.0
  0
ARC
  5
12370
330
12334
100
AcDbEntity
  8
0
100
AcDbCircle
 10
21.06999918160909
 20
2.604999360800547
 30
0.0
 40
0.1499999999999999
100
AcDbArc
 50
90.0
 51
270.0
  0
LINE
  5
12371
330
12334
100
AcDbEntity
  8
0
100
AcDbLine
 10
21.06999918160909
 20
2.514999360800516
 30
0.0
 11
21.06999918160909
 21
2.694999360800579
 31
0.0
  0
LINE
  5
12372
330
12334
100
AcDbEntity
  8
0
100
AcDbLine
 10
21.12499918160904
 20
2.514999360800516
 30
0.0
 11
21.12499918160904
 21
2.694999360800579
 31
0.0
  0
ARC
  5
12373
330
12334
100
AcDbEntity
  8
0
100
AcDbCircle
 10
21.12499918160904
 20
2.604999360800547
 30
0.0
 40
0.1499999999999999
100
AcDbArc
 50
270.0
 51
90.0
  0
ARC
  5
12374
330
12334
100
AcDbEntity
  8
0
100
AcDbCircle
 10
21.12499918160904
 20
2.604999360800547
 30
0.0
 40
0.1499999999999999
100
AcDbArc
 50
246.0429657177613
 51
246.0429657177626
  0
LINE
  5
12375
330
12334
100
AcDbEntity
  8
0
100
AcDbLine
 10
21.06999918160909
 20
2.45499936080057
 30
0.0
 11
21.12499918160904
 21
2.45499936080057
 31
0.0
  0
LINE
  5
12376
330
12334
100
AcDbEntity
  8
0
100
AcDbLine
 10
21.03499918160901
 20
2.604999360800547
 30
0.0
 11
21.21499918160907
 21
2.604999360800547
 31
0.0
  0
LINE
  5
12377
330
12334
100
AcDbEntity
  8
0
100
AcDbLine
 10
20.97999918160906
 20
2.604999360800547
 30
0.0
 11
21.15999918160901
 21
2.604999360800547
 31
0.0
  0
LINE
  5
12378
330
12334
100
AcDbEntity
  8
0
100
AcDbLine
 10
21.06999918160909
 20
2.754999360800525
 30
0.0
 11
21.12499918160904
 21
2.754999360800525
 31
0.0
  0
ARC
  5
12379
330
12334
100
AcDbEntity
  8
0
100
AcDbCircle
 10
21.06999918160909
 20
0.479999360800548
 30
0.0
 40
0.1499999999999999
100
AcDbArc
 50
90.0
 51
270.0
  0
LINE
  5
1237A
330
12334
100
AcDbEntity
  8
0
100
AcDbLine
 10
22.87499918160904
 20
1.124999360800529
 30
0.0
 11
21.74999918160904
 21
-0.0000006391994702
 31
0.0
  0
LINE
  5
1237B
330
12334
100
AcDbEntity
  8
0
100
AcDbLine
 10
22.66032302892836
 20
0.2146755134813247
 30
0.0
 11
22.87499918160904
 21
1.124999360800529
 31
0.0
  0
LINE
  5
1237C
330
12334
100
AcDbEntity
  8
0
100
AcDbLine
 10
22.75184041646401
 20
0.1231581259455652
 30
0.0
 11
22.87499918160904
 21
1.124999360800529
 31
0.0
  0
LINE
  5
1237D
330
12334
100
AcDbEntity
  8
0
100
AcDbLine
 10
21.06999918160909
 20
0.3899993608005161
 30
0.0
 11
21.06999918160909
 21
0.5699993608005798
 31
0.0
  0
LINE
  5
1237E
330
12334
100
AcDbEntity
  8
0
100
AcDbLine
 10
21.12499918160904
 20
0.3899993608005161
 30
0.0
 11
21.12499918160904
 21
0.5699993608005798
 31
0.0
  0
ARC
  5
1237F
330
12334
100
AcDbEntity
  8
0
100
AcDbCircle
 10
21.12499918160904
 20
0.479999360800548
 30
0.0
 40
0.1499999999999999
100
AcDbArc
 50
270.0
 51
90.0
  0
LINE
  5
12380
330
12334
100
AcDbEntity
  8
0
100
AcDbLine
 10
22.66032302892836
 20
0.2146755134813247
 30
0.0
 11
21.74999918160904
 21
-0.0000006391994702
 31
0.0
  0
LINE
  5
12381
330
12334
100
AcDbEntity
  8
0
100
AcDbLine
 10
21.74999918160904
 20
-0.0000006391994702
 30
0.0
 11
22.75184041646401
 21
0.1231581259455652
 31
0.0
  0
LINE
  5
12382
330
12334
100
AcDbEntity
  8
0
100
AcDbLine
 10
22.87499918160904
 20
-0.0000006391994702
 30
0.0
 11
22.87499918160904
 21
-0.0000006391994702
 31
0.0
  0
LINE
  5
12383
330
12334
100
AcDbEntity
  8
0
100
AcDbLine
 10
21.12499918160904
 20
0.3299993608005707
 30
0.0
 11
21.06999918160909
 21
0.3299993608005707
 31
0.0
  0
ARC
  5
12384
330
12334
100
AcDbEntity
  8
0
100
AcDbCircle
 10
21.12499918160904
 20
0.479999360800548
 30
0.0
 40
0.1499999999999999
100
AcDbArc
 50
246.0429657177613
 51
246.0429657177626
  0
LINE
  5
12385
330
12334
100
AcDbEntity
  8
0
100
AcDbLine
 10
22.66032302892836
 20
0.2146755134813247
 30
0.0
 11
22.75184041646401
 21
0.1231581259455652
 31
0.0
  0
LINE
  5
12386
330
12334
100
AcDbEntity
  8
0
100
AcDbLine
 10
21.03499918160901
 20
0.479999360800548
 30
0.0
 11
21.21499918160907
 21
0.479999360800548
 31
0.0
  0
LINE
  5
12387
330
12334
100
AcDbEntity
  8
0
100
AcDbLine
 10
20.97999918160906
 20
0.479999360800548
 30
0.0
 11
21.15999918160901
 21
0.479999360800548
 31
0.0
  0
LINE
  5
12388
330
12334
100
AcDbEntity
  8
0
100
AcDbLine
 10
21.06999918160909
 20
0.6299993608005252
 30
0.0
 11
21.12499918160904
 21
0.6299993608005252
 31
0.0
  0
LINE
  5
12389
330
12334
100
AcDbEntity
  8
0
100
AcDbLine
 10
17.26749918160908
 20
0.417499360800548
 30
0.0
 11
17.26749918160908
 21
0.5974993608006117
 31
0.0
  0
LINE
  5
1238A
330
12334
100
AcDbEntity
  8
0
100
AcDbLine
 10
17.35749918160911
 20
0.5074993608005798
 30
0.0
 11
17.17749918160905
 21
0.5074993608005798
 31
0.0
  0
CIRCLE
  5
1238B
330
12334
100
AcDbEntity
  8
0
100
AcDbCircle
 10
17.26749918160908
 20
0.5074993608005798
 30
0.0
 40
0.2424999999999997
  0
LINE
  5
1238C
330
12334
100
AcDbEntity
  8
0
100
AcDbLine
 10
22.87499918160904
 20
3.64999936080062
 30
0.0
 11
22.87499918160904
 21
1.124999360800529
 31
0.0
  0
ENDBLK
  5
1238E
330
12334
100
AcDbEntity
  8
0
100
AcDbBlockEnd
  0
BLOCK
  5
12391
330
1238F
100
AcDbEntity
  8
0
100
AcDbBlockBegin
  2
23-LHR-START
 70
     0
 10
0.0
 20
0.0
 30
0.0
  3
23-LHR-START
  1

  0
INSERT
  5
12390
330
1238F
100
AcDbEntity
  8
BDR
100
AcDbBlockReference
  2
A$C4F3F2A85
 10
-10.87499918160904
 20
0.0000006391994702
 30
0.0
  0
ENDBLK
  5
12392
330
1238F
100
AcDbEntity
  8
0
100
AcDbBlockEnd
  0
BLOCK
  5
123AE
330
12393
100
AcDbEntity
  8
0
100
AcDbBlockBegin
  2
A$C67061884
 70
     0
 10
0.0
 20
0.0
 30
0.0
  3
A$C67061884
  1

  0
LINE
  5
12394
330
12393
100
AcDbEntity
  8
BDR
100
AcDbLine
 10
18.18467821179124
 20
4.899999923583436
 30
0.0
 11
140.2816998688372
 21
4.899999923583436
 31
0.0
  0
LINE
  5
12395
330
12393
100
AcDbEntity
  8
BDR
100
AcDbLine
 10
9.59127736150171
 20
5.499999923583459
 30
0.0
 11
140.2816998688372
 21
5.499999923583345
 31
0.0
  0
LINE
  5
12396
330
12393
100
AcDbEntity
  8
BDR
100
AcDbLine
 10
9.59127736150171
 20
6.999999923583459
 30
0.0
 11
140.2816998688372
 21
6.999999923583459
 31
0.0
  0
LINE
  5
12397
330
12393
100
AcDbEntity
  8
BDR
100
AcDbLine
 10
9.59127736150171
 20
4.899999923583436
 30
0.0
 11
140.2816998688372
 21
4.899999923583436
 31
0.0
  0
ARC
  5
12398
330
12393
100
AcDbEntity
  8
BDR
100
AcDbCircle
 10
9.59127736150171
 20
-6.937000076416552
 30
0.0
 40
12.437
100
AcDbArc
 50
90.0
 51
140.4607781859427
  0
ARC
  5
12399
330
12393
100
AcDbEntity
  8
BDR
100
AcDbCircle
 10
9.59127736150171
 20
-6.937000076416552
 30
0.0
 40
13.937
100
AcDbArc
 50
90.0
 51
133.4868503829713
  0
ARC
  5
1239A
330
12393
100
AcDbEntity
  8
BDR
100
AcDbCircle
 10
9.59127736150171
 20
-6.937000076416552
 30
0.0
 40
11.837
100
AcDbArc
 50
90.0
 51
144.1232387817257
  0
LINE
  5
1239B
330
12393
100
AcDbEntity
  8
BDR
100
AcDbLine
 10
0.0000000742995496
 20
-0.0000000764165407
 30
0.0
 11
0.0000000742995496
 21
3.174744036247716
 31
0.0
  0
LINE
  5
1239C
330
12393
100
AcDbEntity
  8
BDR
100
AcDbLine
 10
2.704500074299545
 20
4.48199992358343
 30
0.0
 11
2.704500074299545
 21
3.891999923583398
 31
0.0
  0
LINE
  5
1239D
330
12393
100
AcDbEntity
  8
BDR
100
AcDbLine
 10
2.419500074299548
 20
4.48199992358343
 30
0.0
 11
2.419500074299548
 21
3.891999923583398
 31
0.0
  0
ARC
  5
1239E
330
12393
100
AcDbEntity
  8
BDR
100
AcDbCircle
 10
2.562000074299533
 20
4.48199992358343
 30
0.0
 40
0.1425
100
AcDbArc
 50
0.0
 51
180.0
  0
ARC
  5
1239F
330
12393
100
AcDbEntity
  8
BDR
100
AcDbCircle
 10
2.562000074299533
 20
3.891999923583398
 30
0.0
 40
0.1425
100
AcDbArc
 50
180.0
 51
0.0
  0
CIRCLE
  5
123A0
330
12393
100
AcDbEntity
  8
BDR
100
AcDbCircle
 10
17.18544986883719
 20
6.1899999235834
 30
0.0
 40
0.25
  0
CIRCLE
  5
123A1
330
12393
100
AcDbEntity
  8
BDR
100
AcDbCircle
 10
16.12544986883722
 20
6.1899999235834
 30
0.0
 40
0.136
  0
CIRCLE
  5
123A2
330
12393
100
AcDbEntity
  8
BDR
100
AcDbCircle
 10
21.12544986883722
 20
6.1899999235834
 30
0.0
 40
0.136
  0
CIRCLE
  5
123A3
330
12393
100
AcDbEntity
  8
BDR
100
AcDbCircle
 10
136.1254498688372
 20
6.1899999235834
 30
0.0
 40
0.136
  0
CIRCLE
  5
123A4
330
12393
100
AcDbEntity
  8
BDR
100
AcDbCircle
 10
40.12544986883722
 20
6.1899999235834
 30
0.0
 40
0.136
  0
CIRCLE
  5
123A5
330
12393
100
AcDbEntity
  8
BDR
100
AcDbCircle
 10
64.12544986883722
 20
6.1899999235834
 30
0.0
 40
0.136
  0
CIRCLE
  5
123A6
330
12393
100
AcDbEntity
  8
BDR
100
AcDbCircle
 10
80.62544986883722
 20
6.1899999235834
 30
0.0
 40
0.136
  0
CIRCLE
  5
123A7
330
12393
100
AcDbEntity
  8
BDR
100
AcDbCircle
 10
88.12544986883722
 20
6.1899999235834
 30
0.0
 40
0.136
  0
CIRCLE
  5
123A8
330
12393
100
AcDbEntity
  8
BDR
100
AcDbCircle
 10
112.1254498688372
 20
6.1899999235834
 30
0.0
 40
0.136
  0
ARC
  5
123A9
330
12393
100
AcDbEntity
  8
BDR
100
AcDbCircle
 10
139.2081998688372
 20
6.1899999235834
 30
0.0
 40
0.136
100
AcDbArc
 50
270.0
 51
90.0
  0
LINE
  5
123AA
330
12393
100
AcDbEntity
  8
BDR
100
AcDbLine
 10
139.2081998688372
 20
6.325999923583367
 30
0.0
 11
138.8551998688372
 21
6.325999923583367
 31
0.0
  0
LINE
  5
123AB
330
12393
100
AcDbEntity
  8
BDR
100
AcDbLine
 10
139.2081998688372
 20
6.053999923583432
 30
0.0
 11
138.8551998688372
 21
6.053999923583432
 31
0.0
  0
ARC
  5
123AC
330
12393
100
AcDbEntity
  8
BDR
100
AcDbCircle
 10
138.8551998688372
 20
6.1899999235834
 30
0.0
 40
0.136
100
AcDbArc
 50
90.0
 51
270.0
  0
LINE
  5
123AD
330
12393
100
AcDbEntity
  8
BDR
100
AcDbLine
 10
140.2816998688372
 20
6.999999923583459
 30
0.0
 11
140.2816998688372
 21
4.899999923583436
 31
0.0
  0
ENDBLK
  5
123AF
330
12393
100
AcDbEntity
  8
0
100
AcDbBlockEnd
  0
BLOCK
  5
1260C
330
12601
100
AcDbEntity
  8
0
100
AcDbBlockBegin
  2
*D89
 70
     1
 10
0.0
 20
0.0
 30
0.0
  3
*D89
  1

  0
LINE
  5
1264A
330
12601
100
AcDbEntity
  8
FRAMING
 62
     0
370
    -2
100
AcDbLine
 10
132.2169295018095
 20
123.0362941793405
 30
0.0
 11
94.40292831778377
 21
123.0362941793405
 31
0.0
  0
LINE
  5
1264B
330
12601
100
AcDbEntity
  8
FRAMING
 62
     0
370
    -2
100
AcDbLine
 10
136.2169298373901
 20
245.036294365789
 30
0.0
 11
94.4029283177838
 21
245.036294365789
 31
0.0
  0
LINE
  5
1264C
330
12601
100
AcDbEntity
  8
FRAMING
 62
     0
370
    -2
100
AcDbLine
 10
95.40292831778378
 20
126.0362941793405
 30
0.0
 11
95.40292831778378
 21
178.9112942725648
 31
0.0
  0
LINE
  5
1264D
330
12601
100
AcDbEntity
  8
FRAMING
 62
     0
370
    -2
100
AcDbLine
 10
95.4029283177838
 20
242.036294365789
 30
0.0
 11
95.40292831778378
 21
189.1612942725648
 31
0.0
  0
SOLID
  5
1264E
330
12601
100
AcDbEntity
  8
FRAMING
 62
     0
100
AcDbTrace
 10
94.90292831778377
 20
126.0362941793405
 30
0.0
 11
95.90292831778377
 21
126.0362941793405
 31
0.0
 12
95.40292831778378
 22
123.0362941793405
 32
0.0
 13
95.40292831778378
 23
123.0362941793405
 33
0.0
  0
SOLID
  5
1264F
330
12601
100
AcDbEntity
  8
FRAMING
 62
     0
100
AcDbTrace
 10
94.90292831778381
 20
242.036294365789
 30
0.0
 11
95.90292831778381
 21
242.036294365789
 31
0.0
 12
95.4029283177838
 22
245.036294365789
 32
0.0
 13
95.4029283177838
 23
245.036294365789
 33
0.0
  0
MTEXT
  5
12650
330
12601
100
AcDbEntity
  8
FRAMING
 62
     0
100
AcDbMText
 10
95.40292831778376
 20
184.0362942725648
 30
0.0
 40
1.75
 41
0.0
 46
0.0
 71
     5
 72
     1
  1
\A1;2" CLIP STYLE\PREVERSE ANGLE\PDOOR HEIGHT+2"
  7
WEB PAGE
 73
     1
 44
1.0
  0
POINT
  5
12651
330
12601
100
AcDbEntity
  8
Defpoints
 62
     0
100
AcDbPoint
 10
134.2169295018095
 20
123.0362941793405
 30
0.0
  0
POINT
  5
12652
330
12601
100
AcDbEntity
  8
Defpoints
 62
     0
100
AcDbPoint
 10
138.2169298373902
 20
245.036294365789
 30
0.0
  0
POINT
  5
12653
330
12601
100
AcDbEntity
  8
Defpoints
 62
     0
100
AcDbPoint
 10
95.4029283177838
 20
245.036294365789
 30
0.0
  0
ENDBLK
  5
1260D
330
12601
100
AcDbEntity
  8
0
100
AcDbBlockEnd
  0
ENDSEC
  0
SECTION
  2
ENTITIES
  0
INSERT
  5
3374
330
17
100
AcDbEntity
  8
AME_FRZ
100
AcDbBlockReference
  2
AME_NIL
 10
0.0
 20
0.0
 30
0.0
 41
24.609375
 42
24.609375
 43
24.609375
  0
INSERT
  5
3375
330
17
100
AcDbEntity
  8
AME_FRZ
100
AcDbBlockReference
  2
AME_SOL
 10
0.0
 20
0.0
 30
0.0
 41
24.609375
 42
24.609375
 43
24.609375
1001
AME_SOL
1000
R2.1
1000
AME2
1000
sq cm
1070
     3
1070
     0
1070
     3
1000
wire
1040
45.0
1000
U
1040
1.0
1000
cm
1000
gm
1000
MILD_STEEL
1070
    25
1000
CSG
1070
     1
1070
     3
1070
     3
1070
     3
1070
     0
1000
cu cm
1070
     1
1070
     0
1005
2D0D
  0
INSERT
  5
3376
330
17
100
AcDbEntity
  8
ASHADE
 62
     1
100
AcDbBlockReference
  2
AVE_RENDER
 10
0.0
 20
0.0
 30
0.0
 41
24.609375
 42
24.609375
 43
24.609375
1001
AVE_RENDER
1002
{
1070
     2
1000
Pref
1070
    30
1070
    20
1070
     0
1070
     0
1000

1070
    10
1070
     0
1070
    30
1040
1.0
1070
     1
1040
0.3
1040
0.7
1040
0.0
1040
10.0
1010
-1.0
1020
-1.0
1030
-1.0
1040
0.3
1070
    49
1002
}
  0
INSERT
  5
3377
330
17
100
AcDbEntity
  8
ASHADE
 62
     3
100
AcDbBlockReference
  2
AVE_RENDER
 10
0.0
 20
0.0
 30
0.0
 41
24.609375
 42
24.609375
 43
24.609375
1001
AVE_RENDER
1002
{
1070
     0
1000
Full Opt
1070
     0
1070
     1
1070
     1
1070
     1
1070
     0
1070
     0
1070
     0
1070
     1
1070
     1
1040
0.0001
1040
0.0001
1002
}
  0
INSERT
  5
3378
330
17
100
AcDbEntity
  8
ASHADE
 62
     4
100
AcDbBlockReference
  2
AVE_RENDER
 10
0.0
 20
0.0
 30
0.0
 41
24.609375
 42
24.609375
 43
24.609375
1001
AVE_RENDER
1002
{
1070
     0
1000
Quick Opt
1070
     0
1070
     1
1070
     1
1070
     1
1070
     0
1070
     0
1070
     1
1002
}
  0
INSERT
  5
3E3C
330
17
100
AcDbEntity
  8
AME_FRZ
100
AcDbBlockReference
  2
AME_NIL
 10
0.0
 20
0.0
 30
0.0
 41
34.993056
 42
34.993056
 43
34.993056
  0
INSERT
  5
3E3D
330
17
100
AcDbEntity
  8
AME_FRZ
100
AcDbBlockReference
  2
AME_SOL
 10
0.0
 20
0.0
 30
0.0
 41
34.993056
 42
34.993056
 43
34.993056
1001
AME_SOL
1000
R2.1
1000
AME2
1000
sq cm
1070
     3
1070
     0
1070
     3
1000
wire
1040
45.0
1000
U
1040
1.0
1000
cm
1000
gm
1000
MILD_STEEL
1070
    25
1000
CSG
1070
     1
1070
     3
1070
     3
1070
     3
1070
     0
1000
cu cm
1070
     1
1070
     0
1005
2D0D
  0
INSERT
  5
3E3E
330
17
100
AcDbEntity
  8
ASHADE
 62
     1
100
AcDbBlockReference
  2
AVE_RENDER
 10
0.0
 20
0.0
 30
0.0
 41
34.993056
 42
34.993056
 43
34.993056
1001
AVE_RENDER
1002
{
1070
     2
1000
Pref
1070
    30
1070
    20
1070
     0
1070
     0
1000

1070
    10
1070
     0
1070
    30
1040
1.0
1070
     1
1040
0.3
1040
0.7
1040
0.0
1040
10.0
1010
-1.0
1020
-1.0
1030
-1.0
1040
0.3
1070
    49
1002
}
  0
INSERT
  5
3E3F
330
17
100
AcDbEntity
  8
ASHADE
 62
     3
100
AcDbBlockReference
  2
AVE_RENDER
 10
0.0
 20
0.0
 30
0.0
 41
34.993056
 42
34.993056
 43
34.993056
1001
AVE_RENDER
1002
{
1070
     0
1000
Full Opt
1070
     0
1070
     1
1070
     1
1070
     1
1070
     0
1070
     0
1070
     0
1070
     1
1070
     1
1040
0.0001
1040
0.0001
1002
}
  0
INSERT
  5
3E40
330
17
100
AcDbEntity
  8
ASHADE
 62
     4
100
AcDbBlockReference
  2
AVE_RENDER
 10
0.0
 20
0.0
 30
0.0
 41
34.993056
 42
34.993056
 43
34.993056
1001
AVE_RENDER
1002
{
1070
     0
1000
Quick Opt
1070
     0
1070
     1
1070
     1
1070
     1
1070
     0
1070
     0
1070
     1
1002
}
  0
MTEXT
  5
405A
330
17
100
AcDbEntity
  8
BDR
100
AcDbMText
 10
353.0635595970848
 20
56.58463448330076
 30
0.0
 40
0.1
 41
37.627
 46
0.0
 71
     1
 72
     5
  1

  7
SIMPLEX
 73
     1
 44
1.0
  0
MTEXT
  5
8913
330
17
100
AcDbEntity
  8
BDR
100
AcDbMText
 10
877.3233813939555
 20
282.200335478095
 30
0.0
 40
3.0
 41
0.0
 46
0.0
 71
     4
 72
     1
  1
\A1;
 73
     1
 44
1.0
  0
MTEXT
  5
BB0D
330
17
100
AcDbEntity
  8
HATCH
 48
0.5
100
AcDbMText
 10
862.711853351133
 20
170.0626199810501
 30
0.0
 40
1.1
 41
0.0
 46
0.0
 71
     4
 72
     1
  1

 73
     1
 44
1.0
  0
MTEXT
  5
BD7C
330
17
100
AcDbEntity
  8
BDR
100
AcDbMText
 10
648.3700742151118
 20
223.690432353357
 30
0.0
 40
2.5
 41
0.0
 46
0.0
 71
     1
 72
     1
  1

 73
     1
 44
1.0
  0
MTEXT
  5
CE5A
330
17
100
AcDbEntity
  8
BDR
100
AcDbMText
 10
645.7641368582438
 20
217.5930814931963
 30
0.0
 40
2.5
 41
0.0
 46
0.0
 71
     1
 72
     1
  1

 73
     1
 44
1.0
  0
MTEXT
  5
D3E4
330
17
100
AcDbEntity
  8
0
100
AcDbMText
 10
393.5054431651311
 20
218.3654697964034
 30
0.0
 40
2.5
 41
0.0
 46
0.0
 71
     1
 72
     1
  1

 73
     1
 44
1.0
  0
MTEXT
  5
D891
330
17
100
AcDbEntity
  8
BDR
100
AcDbMText
 10
278.8170020773584
 20
330.6127380359346
 30
0.0
 40
2.5
 41
0.0
 46
0.0
 71
     1
 72
     1
  1

 73
     1
 44
1.0
  0
MTEXT
  5
D894
330
17
100
AcDbEntity
  8
BDR
100
AcDbMText
 10
282.4572809863948
 20
283.699790306357
 30
0.0
 40
2.5
 41
0.0
 46
0.0
 71
     1
 72
     1
  1

 73
     1
 44
1.0
  0
MTEXT
  5
D8BC
330
17
100
AcDbEntity
  8
BDR
100
AcDbMText
 10
280.6377852630108
 20
262.5297979250931
 30
0.0
 40
2.5
 41
0.0
 46
0.0
 71
     1
 72
     1
  1

 73
     1
 44
1.0
  0
MTEXT
  5
D8BE
330
17
100
AcDbEntity
  8
BDR
100
AcDbMText
 10
280.052229178619
 20
230.2002619872308
 30
0.0
 40
2.5
 41
0.0
 46
0.0
 71
     1
 72
     1
  1

 73
     1
 44
1.0
  0
MTEXT
  5
D8C2
330
17
100
AcDbEntity
  8
BDR
100
AcDbMText
 10
210.2931674542633
 20
331.4813092531851
 30
0.0
 40
2.5
 41
0.0
 46
0.0
 71
     9
 72
     1
  1

 73
     1
 44
1.0
  0
MTEXT
  5
DE82
330
17
100
AcDbEntity
  8
0
100
AcDbMText
 10
230.9601867147205
 20
186.4290317625283
 30
0.0
 40
3.5
 41
0.0
 46
0.0
 71
     1
 72
     1
  1

 73
     1
 44
1.0
  0
DIMENSION
  5
11CDE
330
17
100
AcDbEntity
  8
TEXT
100
AcDbDimension
  2
*D64
 10
73.24645204465871
 20
251.3569815263083
 30
0.0
 11
73.24645204465866
 21
193.301474931124
 31
0.0
 70
   160
  1
FLOOR TO\PSHAFT CENTER
 71
     5
 42
128.3206873469677
 73
     0
 74
     0
 75
     0
  3
STANDARD
100
AcDbAlignedDimension
 13
134.2169295018095
 23
123.0362941793405
 33
0.0
 14
141.5919295018095
 24
251.3569815263083
 34
0.0
 50
90.0
100
AcDbRotatedDimension
1001
ACAD
1000
DSTYLE
1002
{
1070
    40
1040
1.0
1002
}
  0
DIMENSION
  5
11CDF
330
17
100
AcDbEntity
  8
TEXT
100
AcDbDimension
  2
*D65
 10
52.02439923534409
 20
254.7319815263084
 30
0.0
 11
52.02439923534405
 21
181.424623123489
 31
0.0
 70
   160
  1
MINIMUM\PCEILING HEIGHT
 71
     5
 42
131.6956873469678
 73
     0
 74
     0
 75
     0
  3
STANDARD
100
AcDbAlignedDimension
 13
134.2169295018095
 23
123.0362941793405
 33
0.0
 14
138.2169295018095
 24
254.7319815263083
 34
0.0
 50
90.0
100
AcDbRotatedDimension
1001
ACAD
1000
DSTYLE
1002
{
1070
    40
1040
1.0
1002
}
  0
DIMENSION
  5
11CE0
330
17
100
AcDbEntity
  8
TEXT
100
AcDbDimension
  2
*D66
 10
175.0501848453942
 20
228.0261576158589
 30
0.0
 11
175.0501848453941
 21
174.879062324093
 31
0.0
 70
   160
  1
VERTICAL TRACK\PDOOR HEIGHT-15"
 71
     5
 42
104.9898634365183
 73
     0
 74
     0
 75
     0
  3
STANDARD
100
AcDbAlignedDimension
 13
209.4861505668555
 23
123.0362941793405
 33
0.0
 14
143.3059517211348
 24
228.0261576158589
 34
0.0
 50
90.0
100
AcDbRotatedDimension
1001
ACAD
1000
DSTYLE
1002
{
1070
    40
1040
1.0
1002
}
  0
DIMENSION
  5
11CE1
330
17
100
AcDbEntity
  8
TEXT
100
AcDbDimension
  2
*D67
 10
118.0575413775432
 20
123.0362941793405
 30
0.0
 11
118.0575413775432
 21
183.0362941793405
 31
0.0
 70
    32
  1
OPENING\PHEIGHT
 71
     5
 42
120.0
 73
     0
 74
     0
 75
     0
  3
STANDARD
100
AcDbAlignedDimension
 13
134.2169295018095
 23
243.0362941793405
 33
0.0
 14
134.2169295018095
 24
123.0362941793405
 34
0.0
 50
90.0
100
AcDbRotatedDimension
1001
ACAD
1000
DSTYLE
1002
{
1070
    40
1040
1.0
1002
}
  0
LINE
  5
11CE2
102
{ACAD_REACTORS
330
125A2
102
}
330
17
100
AcDbEntity
  8
BDR
100
AcDbLine
 10
134.2169295018095
 20
123.0362941793405
 30
0.0
 11
134.2169295018095
 21
260.7319815263084
 31
0.0
  0
LINE
  5
11CE3
102
{ACAD_REACTORS
330
125A2
102
}
330
17
100
AcDbEntity
  8
BDR
100
AcDbLine
 10
138.2169295018095
 20
123.0362941793405
 30
0.0
 11
138.2169295018095
 21
254.7319815263083
 31
0.0
  0
LINE
  5
11CE5
330
17
100
AcDbEntity
  8
BDR
100
AcDbLine
 10
221.5803211345133
 20
123.0362941793405
 30
0.0
 11
134.2169295018095
 21
123.0362941793405
 31
0.0
  0
LINE
  5
11CE7
330
17
100
AcDbEntity
  8
BDR
100
AcDbLine
 10
143.9177665418533
 20
128.6449767593611
 30
0.0
 11
149.2001130840964
 21
132.1052976094799
 31
0.0
  0
SOLID
  5
11CE8
330
17
100
AcDbEntity
  8
BDR
100
AcDbTrace
 10
144.2069509655484
 20
128.2370890675977
 30
0.0
 11
143.6285821181579
 21
129.0528644511245
 31
0.0
 12
141.4704403912728
 22
126.9098702171898
 32
0.0
 13
141.4704403912728
 23
126.9098702171898
 33
0.0
  0
MTEXT
  5
11CE9
330
17
100
AcDbEntity
  8
TEXT
100
AcDbMText
 10
153.2376139064116
 20
131.338915125552
 30
0.0
 40
1.75
 41
0.0
 46
0.0
 71
     7
 72
     1
  1
TRACK CLIPS
  7
WEB PAGE
 73
     1
 44
1.0
  0
LINE
  5
11CEA
330
17
100
AcDbEntity
  8
TEXT
100
AcDbLine
 10
149.2001130840964
 20
132.1052976094799
 30
0.0
 11
152.2001130840964
 21
132.1052976094799
 31
0.0
  0
MTEXT
  5
11CF6
330
17
100
AcDbEntity
  8
TEXT
100
AcDbMText
 10
157.3544737420578
 20
239.5244656155448
 30
0.0
 40
1.75
 41
0.0
 46
0.0
 71
     1
 72
     1
  1
REVERSE ANGLE
  7
WEB PAGE
 73
     1
 44
1.0
  0
MTEXT
  5
11CF7
330
17
100
AcDbEntity
  8
TEXT
100
AcDbMText
 10
193.0628087582627
 20
267.5868201661784
 30
0.0
 40
1.75
 41
0.0
 46
0.0
 71
     6
 72
     1
  1
LOW HEADROOM STARTER
  7
WEB PAGE
 73
     1
 44
1.0
  0
LINE
  5
11CF8
102
{ACAD_REACTORS
330
125A2
102
}
330
17
100
AcDbEntity
  8
BDR
100
AcDbLine
 10
138.2169295018095
 20
254.7319815263083
 30
0.0
 11
282.651584289913
 21
254.7319815263083
 31
0.0
  0
LINE
  5
11CF9
102
{ACAD_REACTORS
330
125A2
102
}
330
17
100
AcDbEntity
  8
BDR
100
AcDbLine
 10
134.2169295018095
 20
260.7319815263084
 30
0.0
 11
282.651584289913
 21
260.7319815263083
 31
0.0
  0
LEADER
  5
11CFD
330
17
100
AcDbEntity
  8
TEXT
100
AcDbLeader
  3
STANDARD
 73
     0
 74
     0
 75
     1
 40
3.5
 76
     3
 10
144.6977006074696
 20
247.6364896432845
 30
0.0
 10
154.5006349140169
 20
267.519788379157
 30
0.0
 10
157.5006349140169
 20
267.519788379157
 30
0.0
213
-30.35839136054324
223
2.172941992376536
233
0.0
1001
ACAD
1000
DSTYLE
1002
{
1070
    40
1040
1.0
1070
   147
1040
3.0
1002
}
  0
DIMENSION
  5
11CFE
330
17
100
AcDbEntity
  8
TEXT
100
AcDbDimension
  2
*D68
 10
118.0575413775432
 20
254.7319815263083
 30
0.0
 11
128.9325413775432
 21
267.7412811734821
 31
0.0
 70
   160
  1
MINIMUM\PHEADROOM
 71
     5
 42
11.69568734696778
 73
     0
 74
     0
 75
     0
  3
STANDARD
100
AcDbAlignedDimension
 13
134.2169295018095
 23
243.0362941793405
 33
0.0
 14
138.2169295018095
 24
254.7319815263083
 34
0.0
 50
90.0
100
AcDbRotatedDimension
1001
ACAD
1000
DSTYLE
1002
{
1070
    40
1040
1.0
1002
}
  0
LEADER
  5
11D00
330
17
100
AcDbEntity
  8
TEXT
100
AcDbLeader
  3
STANDARD
 73
     0
 40
3.5
 76
     2
 10
139.13166414243
 20
238.5947914984012
 30
0.0
 10
155.9615954346191
 20
238.5928741216772
 30
0.0
213
-28.01915490533588
223
-1.822965986319815
233
0.0
1001
ACAD
1000
DSTYLE
1002
{
1070
    40
1040
1.0
1070
   147
1040
3.0
1002
}
  0
LINE
  5
11D06
102
{ACAD_REACTORS
330
125A2
102
}
330
17
100
AcDbEntity
  8
BDR
100
AcDbLine
 10
138.2169295018095
 20
243.0362941793405
 30
0.0
 11
134.2169295018095
 21
243.0362941793405
 31
0.0
  0
LINE
  5
11D0E
330
17
100
AcDbEntity
  8
0
100
AcDbLine
 10
200.4501372573052
 20
243.2356200458947
 30
0.0
 11
198.9585995563759
 21
243.2356200458947
 31
0.0
  0
LINE
  5
11D0F
330
17
100
AcDbEntity
  8
0
100
AcDbLine
 10
198.9585995563759
 20
243.2356200458947
 30
0.0
 11
198.9585995563759
 21
254.7319815263083
 31
0.0
  0
LINE
  5
11D10
330
17
100
AcDbEntity
  8
0
100
AcDbLine
 10
199.0829341391311
 20
243.2356200458947
 30
0.0
 11
199.0829341391307
 21
254.7319815263083
 31
0.0
  0
LINE
  5
11D12
330
17
100
AcDbEntity
  8
0
100
AcDbLine
 10
200.450137257305
 20
243.2356200458947
 30
0.0
 11
200.4501372573052
 21
254.7319815263083
 31
0.0
  0
CIRCLE
  5
11D13
330
17
100
AcDbEntity
  8
0
100
AcDbCircle
 10
199.7043684068405
 20
249.8829627059807
 30
0.0
 40
0.2171678892550922
  0
CIRCLE
  5
11D14
330
17
100
AcDbEntity
  8
0
100
AcDbCircle
 10
199.7043684068405
 20
243.9048796006622
 30
0.0
 40
0.2171678892550922
  0
CIRCLE
  5
11D15
330
17
100
AcDbEntity
  8
0
100
AcDbCircle
 10
199.7043684068405
 20
245.8975739691017
 30
0.0
 40
0.2171678892550922
  0
CIRCLE
  5
11D16
330
17
100
AcDbEntity
  8
0
100
AcDbCircle
 10
199.7043684068405
 20
246.8915346930002
 30
0.0
 40
0.2171678892550922
  0
CIRCLE
  5
11D17
330
17
100
AcDbEntity
  8
0
100
AcDbCircle
 10
199.7043684068405
 20
244.8988403245607
 30
0.0
 40
0.2171678892550922
  0
CIRCLE
  5
11D18
330
17
100
AcDbEntity
  8
0
100
AcDbCircle
 10
199.7043684068405
 20
248.8842290614396
 30
0.0
 40
0.2171678892550922
  0
CIRCLE
  5
11D19
330
17
100
AcDbEntity
  8
0
100
AcDbCircle
 10
199.7043684068405
 20
247.8902683375412
 30
0.0
 40
0.2171678892550922
  0
MTEXT
  5
11D1B
330
17
100
AcDbEntity
  8
TEXT
100
AcDbMText
 10
243.6468156676218
 20
213.1189795321841
 30
0.0
 40
1.75
 41
0.0
 46
0.0
 71
     4
 72
     1
  1
BACK AND INTERMEDIATE HANGERS\PSUPPLIED BY OTHERS
  7
WEB PAGE
 73
     1
 44
1.0
  0
LINE
  5
11D1C
330
17
100
AcDbEntity
  8
0
100
AcDbLine
 10
277.1371978134137
 20
243.6708960988133
 30
0.0
 11
277.1371978134137
 21
254.7319815263084
 31
0.0
  0
LINE
  5
11D1D
330
17
100
AcDbEntity
  8
0
100
AcDbLine
 10
277.2615323961688
 20
243.6708960988133
 30
0.0
 11
277.2615323961683
 21
254.7319815263084
 31
0.0
  0
LINE
  5
11D1E
330
17
100
AcDbEntity
  8
0
100
AcDbLine
 10
278.6287355143427
 20
243.6708960988133
 30
0.0
 11
278.628735514343
 21
254.7319815263084
 31
0.0
  0
LEADER
  5
11D1F
330
17
100
AcDbEntity
  8
TEXT
100
AcDbLeader
  3
STANDARD
 73
     0
 74
     0
 75
     1
 40
3.5
 76
     3
 10
236.0317510635117
 20
206.4137127938592
 30
0.0
 10
239.9304076504474
 20
214.4180408475007
 30
0.0
 10
242.9304076504473
 20
214.4180408475007
 30
0.0
213
-30.73869949890218
223
37.29359984281018
233
0.0
1001
ACAD
1000
DSTYLE
1002
{
1070
    40
1040
1.0
1002
}
  0
LINE
  5
11D20
330
17
100
AcDbEntity
  8
0
100
AcDbLine
 10
278.6287355143429
 20
243.6708960988133
 30
0.0
 11
277.1371978134137
 21
243.6708960988133
 31
0.0
  0
CIRCLE
  5
11D21
330
17
100
AcDbEntity
  8
0
100
AcDbCircle
 10
277.8829666638783
 20
244.3401556535807
 30
0.0
 40
0.2075
  0
CIRCLE
  5
11D22
330
17
100
AcDbEntity
  8
0
100
AcDbCircle
 10
277.8829666638783
 20
247.3268107459186
 30
0.0
 40
0.2171678892550922
  0
CIRCLE
  5
11D23
330
17
100
AcDbEntity
  8
0
100
AcDbCircle
 10
277.8829666638783
 20
248.3255443904598
 30
0.0
 40
0.2171678892550922
  0
CIRCLE
  5
11D24
330
17
100
AcDbEntity
  8
0
100
AcDbCircle
 10
277.8829666638783
 20
249.3195051143581
 30
0.0
 40
0.2171678892550922
  0
CIRCLE
  5
11D25
330
17
100
AcDbEntity
  8
0
100
AcDbCircle
 10
277.8829666638783
 20
245.3341163774791
 30
0.0
 40
0.2171678892550922
  0
CIRCLE
  5
11D26
330
17
100
AcDbEntity
  8
0
100
AcDbCircle
 10
277.8829666638783
 20
246.3328500220202
 30
0.0
 40
0.2171678892550922
  0
CIRCLE
  5
11D27
330
17
100
AcDbEntity
  8
0
100
AcDbCircle
 10
277.8829666638783
 20
250.3182387588993
 30
0.0
 40
0.2171678892550922
  0
CIRCLE
  5
11D28
330
17
100
AcDbEntity
  8
0
100
AcDbCircle
 10
277.8829666638783
 20
251.1904214308082
 30
0.0
 40
0.2171678892550922
  0
LINE
  5
11D29
102
{ACAD_REACTORS
330
125A2
102
}
330
17
100
AcDbEntity
  8
BDR
100
AcDbLine
 10
282.651584289913
 20
260.7319815263083
 30
0.0
 11
282.651584289913
 21
254.7319815263083
 31
0.0
  0
DIMENSION
  5
11EA8
330
17
100
AcDbEntity
  8
TEXT
100
AcDbDimension
  2
*D71
 10
279.1811086385404
 20
233.5002273578662
 30
0.0
 11
210.1811086385404
 21
233.5002273578662
 31
0.0
 70
    32
  1
HORIZONTAL TRACK LENGTH\P(BACKROOM: DOOR HEIGHT + 18")
 71
     5
 42
137.9999999999999
 73
     0
 74
     0
 75
     0
  3
STANDARD
100
AcDbAlignedDimension
 13
141.1811086385404
 23
228.0519815263082
 33
0.0
 14
279.1811086385404
 24
243.2119815263083
 34
0.0
100
AcDbRotatedDimension
  0
LWPOLYLINE
  5
12008
330
17
100
AcDbEntity
  8
FRAMING
100
AcDbPolyline
 90
        6
 70
     0
 43
0.0
 10
216.4987389532583
 20
203.8626398882773
 10
212.8184567060801
 20
203.8626398882773
 10
212.8184567060801
 20
206.3626398882773
 10
240.8184567060802
 20
206.3626398882773
 10
240.8184567060802
 20
203.8626398882773
 10
218.9987389532583
 20
203.8626398882773
  0
LWPOLYLINE
  5
1200A
330
17
100
AcDbEntity
  8
FRAMING
100
AcDbPolyline
 90
        2
 70
     0
 43
0.0
 10
218.9987389532583
 20
192.1304068412435
 10
230.7309720002921
 20
203.8626398882773
  0
CIRCLE
  5
1200B
330
17
100
AcDbEntity
  8
FRAMING
100
AcDbCircle
 10
217.7487389532583
 20
183.1126398882773
 30
0.0
 40
0.5
  0
CIRCLE
  5
1200C
330
17
100
AcDbEntity
  8
FRAMING
100
AcDbCircle
 10
217.7487389532583
 20
185.1126398882773
 30
0.0
 40
0.5
  0
CIRCLE
  5
1200D
330
17
100
AcDbEntity
  8
FRAMING
100
AcDbCircle
 10
217.7487389532583
 20
187.1126398882772
 30
0.0
 40
0.5
  0
CIRCLE
  5
1200E
330
17
100
AcDbEntity
  8
FRAMING
100
AcDbCircle
 10
217.7487389532583
 20
189.1126398882772
 30
0.0
 40
0.5
  0
CIRCLE
  5
1200F
330
17
100
AcDbEntity
  8
FRAMING
100
AcDbCircle
 10
217.7487389532583
 20
191.1126398882773
 30
0.0
 40
0.5
  0
CIRCLE
  5
12010
330
17
100
AcDbEntity
  8
FRAMING
100
AcDbCircle
 10
217.7487389532583
 20
193.1126398882772
 30
0.0
 40
0.5
  0
CIRCLE
  5
12011
330
17
100
AcDbEntity
  8
FRAMING
100
AcDbCircle
 10
217.7487389532583
 20
195.1126398882772
 30
0.0
 40
0.5
  0
CIRCLE
  5
12012
330
17
100
AcDbEntity
  8
FRAMING
100
AcDbCircle
 10
217.7487389532583
 20
197.1126398882772
 30
0.0
 40
0.5
  0
CIRCLE
  5
12013
330
17
100
AcDbEntity
  8
FRAMING
100
AcDbCircle
 10
217.7487389532583
 20
199.1126398882773
 30
0.0
 40
0.5
  0
CIRCLE
  5
12014
330
17
100
AcDbEntity
  8
FRAMING
100
AcDbCircle
 10
217.7487389532583
 20
201.1126398882773
 30
0.0
 40
0.5
  0
CIRCLE
  5
12015
330
17
100
AcDbEntity
  8
FRAMING
100
AcDbCircle
 10
217.7487389532583
 20
203.1126398882773
 30
0.0
 40
0.5
  0
CIRCLE
  5
12016
330
17
100
AcDbEntity
  8
FRAMING
100
AcDbCircle
 10
217.7487389532583
 20
205.1126398882773
 30
0.0
 40
0.5
  0
CIRCLE
  5
12017
330
17
100
AcDbEntity
  8
FRAMING
100
AcDbCircle
 10
217.7487389532583
 20
205.1126398882773
 30
0.0
 40
0.5
  0
CIRCLE
  5
12018
330
17
100
AcDbEntity
  8
FRAMING
100
AcDbCircle
 10
219.7487389532583
 20
205.1126398882773
 30
0.0
 40
0.5
  0
CIRCLE
  5
12019
330
17
100
AcDbEntity
  8
FRAMING
100
AcDbCircle
 10
221.7487389532583
 20
205.1126398882773
 30
0.0
 40
0.5
  0
CIRCLE
  5
1201A
330
17
100
AcDbEntity
  8
FRAMING
100
AcDbCircle
 10
223.7487389532583
 20
205.1126398882773
 30
0.0
 40
0.5
  0
CIRCLE
  5
1201B
330
17
100
AcDbEntity
  8
FRAMING
100
AcDbCircle
 10
225.7487389532583
 20
205.1126398882773
 30
0.0
 40
0.5
  0
CIRCLE
  5
1201C
330
17
100
AcDbEntity
  8
FRAMING
100
AcDbCircle
 10
227.7487389532583
 20
205.1126398882773
 30
0.0
 40
0.5
  0
CIRCLE
  5
1201D
330
17
100
AcDbEntity
  8
FRAMING
100
AcDbCircle
 10
229.7487389532583
 20
205.1126398882773
 30
0.0
 40
0.5
  0
CIRCLE
  5
1201E
330
17
100
AcDbEntity
  8
FRAMING
100
AcDbCircle
 10
231.7487389532583
 20
205.1126398882773
 30
0.0
 40
0.5
  0
CIRCLE
  5
1201F
330
17
100
AcDbEntity
  8
FRAMING
100
AcDbCircle
 10
233.7487389532583
 20
205.1126398882773
 30
0.0
 40
0.5
  0
CIRCLE
  5
12020
330
17
100
AcDbEntity
  8
FRAMING
100
AcDbCircle
 10
235.7487389532583
 20
205.1126398882773
 30
0.0
 40
0.5
  0
CIRCLE
  5
12021
330
17
100
AcDbEntity
  8
FRAMING
100
AcDbCircle
 10
237.7487389532583
 20
205.1126398882773
 30
0.0
 40
0.5
  0
CIRCLE
  5
12022
330
17
100
AcDbEntity
  8
FRAMING
100
AcDbCircle
 10
239.7487389532583
 20
205.1126398882773
 30
0.0
 40
0.5
  0
CIRCLE
  5
12023
330
17
100
AcDbEntity
  8
FRAMING
100
AcDbCircle
 10
223.8492440166467
 20
195.2131449516656
 30
0.0
 40
0.5
  0
CIRCLE
  5
12024
330
17
100
AcDbEntity
  8
FRAMING
100
AcDbCircle
 10
222.4350304542736
 20
193.7989313892924
 30
0.0
 40
0.5
  0
CIRCLE
  5
12025
330
17
100
AcDbEntity
  8
FRAMING
100
AcDbCircle
 10
221.0208168919005
 20
192.3847178269194
 30
0.0
 40
0.5
  0
CIRCLE
  5
12026
330
17
100
AcDbEntity
  8
FRAMING
100
AcDbCircle
 10
219.6066033295274
 20
190.9705042645463
 30
0.0
 40
0.5
  0
CIRCLE
  5
12028
330
17
100
AcDbEntity
  8
FRAMING
100
AcDbCircle
 10
230.9203118285122
 20
202.2842127635311
 30
0.0
 40
0.5
  0
CIRCLE
  5
12029
330
17
100
AcDbEntity
  8
FRAMING
100
AcDbCircle
 10
229.5060982661391
 20
200.869999201158
 30
0.0
 40
0.5
  0
CIRCLE
  5
1202A
330
17
100
AcDbEntity
  8
FRAMING
100
AcDbCircle
 10
228.091884703766
 20
199.4557856387849
 30
0.0
 40
0.5
  0
CIRCLE
  5
1202B
330
17
100
AcDbEntity
  8
FRAMING
100
AcDbCircle
 10
226.6776711413929
 20
198.0415720764118
 30
0.0
 40
0.5
  0
CIRCLE
  5
1202C
330
17
100
AcDbEntity
  8
FRAMING
100
AcDbCircle
 10
225.2634575790198
 20
196.6273585140387
 30
0.0
 40
0.5
  0
CIRCLE
  5
1202D
330
17
100
AcDbEntity
  8
FRAMING
100
AcDbCircle
 10
233.7487389532583
 20
205.1126398882773
 30
0.0
 40
0.5
  0
ARC
  5
1202E
330
17
100
AcDbEntity
  8
FRAMING
100
AcDbCircle
 10
232.3345253908852
 20
203.6984263259042
 30
0.0
 40
0.5
100
AcDbArc
 50
160.8266638561468
 51
19.17333614385317
  0
CIRCLE
  5
12030
330
17
100
AcDbEntity
  8
FRAMING
100
AcDbCircle
 10
215.7487389532583
 20
205.1126398882773
 30
0.0
 40
0.5
  0
CIRCLE
  5
12032
330
17
100
AcDbEntity
  8
FRAMING
100
AcDbCircle
 10
213.7487389532584
 20
205.1126398882773
 30
0.0
 40
0.5
  0
INSERT
  5
12045
330
17
100
AcDbEntity
  8
FRAMING
100
AcDbBlockReference
  2
A$C2D8E259A
 10
216.4987380324518
 20
182.3855466795191
 30
0.0
 41
-2.0
 42
2.0
 43
2.0
  0
LINE
  5
12047
330
17
100
AcDbEntity
  8
FRAMING
100
AcDbLine
 10
216.4987389532583
 20
206.0509356421587
 30
0.0
 11
218.9987389532583
 21
206.0509356421587
 31
0.0
  0
LINE
  5
12048
330
17
100
AcDbEntity
  8
FRAMING
100
AcDbLine
 10
218.9987389532583
 20
206.0509356421587
 30
0.0
 11
218.9987389532583
 21
182.0509356421587
 31
0.0
  0
LINE
  5
12049
330
17
100
AcDbEntity
  8
FRAMING
100
AcDbLine
 10
218.9987389532583
 20
182.0509356421587
 30
0.0
 11
216.4987389532583
 21
182.0509356421587
 31
0.0
  0
LINE
  5
1204A
330
17
100
AcDbEntity
  8
FRAMING
100
AcDbLine
 10
216.4987389532583
 20
182.0509356421587
 30
0.0
 11
216.4987389532583
 21
206.0509356421587
 31
0.0
  0
LINE
  5
1204B
330
17
100
AcDbEntity
  8
FRAMING
100
AcDbLine
 10
216.7917185835889
 20
182.0509356421587
 30
0.0
 11
216.7917185835889
 21
206.0509356421587
 31
0.0
  0
LWPOLYLINE
  5
1204C
330
17
100
AcDbEntity
  8
FRAMING
100
AcDbPolyline
 90
        2
 70
     0
 43
0.0
 10
234.2665059062248
 20
203.8626398882773
 10
218.9987389532583
 20
188.5948729353108
  0
DIMENSION
  5
1205D
330
17
100
AcDbEntity
  8
TEXT
100
AcDbDimension
  2
*D73
 10
230.7309720002921
 20
203.8626398882773
 30
0.0
 11
225.4059124387044
 21
201.9345854926937
 31
0.0
 70
   162
 71
     5
 42
0.7853981633974474
 73
     0
 74
     0
 75
     0
  3
STANDARD
100
AcDb2LineAngularDimension
 13
240.8184567060802
 23
203.8626398882773
 33
0.0
 14
218.9987389532583
 24
203.8626398882773
 34
0.0
 15
218.9987389532583
 25
192.1304068412435
 35
0.0
 16
225.8263578651037
 26
201.030959597055
 36
0.0
  0
TEXT
  5
12085
330
17
100
AcDbEntity
  8
SECTION JOINTS
100
AcDbText
 10
275.2880591886418
 20
225.5674500549922
 30
0.0
 40
2.0
  1
A
  7
WEB PAGE
100
AcDbText
  0
TEXT
  5
12088
330
17
100
AcDbEntity
  8
SECTION JOINTS
100
AcDbText
 10
275.2880591886418
 20
266.5297803373602
 30
0.0
 40
2.0
  1
A
  7
WEB PAGE
100
AcDbText
  0
SOLID
  5
12091
330
17
100
AcDbEntity
  8
SECTION JOINTS
100
AcDbTrace
 10
281.6623624735292
 20
227.0152704463048
 30
0.0
 11
278.6623624735292
 21
226.5152704463048
 31
0.0
 12
281.6623624735292
 22
226.0152704463048
 32
0.0
 13
281.6623624735292
 23
226.0152704463048
 33
0.0
1001
ACAD
1000
DSTYLE
1002
{
1070
   147
1040
1.0
1070
    77
1070
     0
1002
}
  0
LINE
  5
12092
330
17
100
AcDbEntity
  8
SECTION JOINTS
100
AcDbLine
 10
288.7127214887088
 20
267.4776007286728
 30
0.0
 11
288.7127214887088
 21
226.5152704463048
 31
0.0
1001
ACAD
1000
DSTYLE
1002
{
1070
   147
1040
1.0
1070
    77
1070
     0
1002
}
  0
LINE
  5
12093
330
17
100
AcDbEntity
  8
SECTION JOINTS
100
AcDbLine
 10
281.6623624735292
 20
226.5152704463048
 30
0.0
 11
288.7127214887088
 21
226.5152704463048
 31
0.0
1001
ACAD
1000
DSTYLE
1002
{
1070
   147
1040
1.0
1070
    77
1070
     0
1002
}
  0
LINE
  5
12094
330
17
100
AcDbEntity
  8
SECTION JOINTS
100
AcDbLine
 10
281.6623624735292
 20
267.4776007286728
 30
0.0
 11
288.7127214887088
 21
267.4776007286728
 31
0.0
1001
ACAD
1000
DSTYLE
1002
{
1070
   147
1040
1.0
1070
    77
1070
     0
1002
}
  0
SOLID
  5
12095
330
17
100
AcDbEntity
  8
SECTION JOINTS
100
AcDbTrace
 10
281.6623624735292
 20
267.9776007286728
 30
0.0
 11
278.6623624735292
 21
267.4776007286728
 31
0.0
 12
281.6623624735292
 22
266.9776007286728
 32
0.0
 13
281.6623624735292
 23
266.9776007286728
 33
0.0
1001
ACAD
1000
DSTYLE
1002
{
1070
   147
1040
1.0
1070
    77
1070
     0
1002
}
  0
TEXT
  5
12096
330
17
100
AcDbEntity
  8
TEXT
100
AcDbText
 10
223.9974214760158
 20
171.8069979598204
 30
0.0
 40
3.0
  1
%%USECTION A-A
  7
WEB PAGE
100
AcDbText
  0
TEXT
  5
12097
330
17
100
AcDbEntity
  8
TEXT
100
AcDbText
 10
213.9610025441274
 20
165.9004977722998
 30
0.0
 40
3.0
  1
%%USUPPORT HANGER DETAIL
  7
WEB PAGE
100
AcDbText
  0
INSERT
  5
12158
330
17
100
AcDbEntity
  8
FRAMING
100
AcDbBlockReference
  2
t-4
 10
138.9919298373901
 20
125.286294365789
 30
0.0
  0
INSERT
  5
12168
330
17
100
AcDbEntity
  8
FRAMING
100
AcDbBlockReference
  2
t-5
 10
138.9919298373901
 20
149.286294365789
 30
0.0
  0
INSERT
  5
12178
330
17
100
AcDbEntity
  8
FRAMING
100
AcDbBlockReference
  2
t-6
 10
138.9919298373901
 20
173.286294365789
 30
0.0
  0
INSERT
  5
12188
330
17
100
AcDbEntity
  8
FRAMING
100
AcDbBlockReference
  2
t-7
 10
138.9919298373901
 20
197.286294365789
 30
0.0
  0
INSERT
  5
121A0
330
17
100
AcDbEntity
  8
FRAMING
100
AcDbBlockReference
  2
RASPLT-10
 10
138.9919298373901
 20
227.286294365789
 30
0.0
  0
INSERT
  5
122EE
330
17
100
AcDbEntity
  8
FRAMING
100
AcDbBlockReference
  2
A$C426517AB
 10
139.9051034751122
 20
123.0339111452495
 30
0.0
  0
INSERT
  5
12329
330
17
100
AcDbEntity
  8
FRAMING
100
AcDbBlockReference
  2
A$C355A0678
 10
138.2169295018095
 20
123.0362941793405
 30
0.0
  0
INSERT
  5
123EB
330
17
100
AcDbEntity
  8
FRAMING
100
AcDbBlockReference
  2
15R-138TRK
 10
165.075927583108
 20
236.3618268316457
 30
0.0
  0
INSERT
  5
123EC
330
17
100
AcDbEntity
  8
FRAMING
100
AcDbBlockReference
  2
A$C67061884
 10
138.8994087697031
 20
240.4869816027249
 30
0.0
  0
INSERT
  5
123ED
330
17
100
AcDbEntity
  8
FRAMING
100
AcDbBlockReference
  2
WD-9-3-38
 10
138.2169295018095
 20
248.7569815263083
 30
0.0
  0
CIRCLE
  5
123EE
330
17
100
AcDbEntity
  8
FRAMING
100
AcDbCircle
 10
141.5919295018095
 20
251.3569815263083
 30
0.0
 40
2.375
  0
INSERT
  5
123EF
330
17
100
AcDbEntity
  8
FRAMING
100
AcDbBlockReference
  2
23-LHR-START
 10
149.7498586385404
 20
244.0519815263082
 30
0.0
  0
LINE
  5
123F0
330
17
100
AcDbEntity
  8
0
100
AcDbLine
 10
179.9734740992762
 20
247.0868287757715
 30
0.0
 11
177.9984740992762
 21
247.0868287757716
 31
0.0
  0
LINE
  5
123F1
330
17
100
AcDbEntity
  8
0
100
AcDbLine
 10
177.9984740992762
 20
243.9868287757716
 30
0.0
 11
179.9734740992761
 21
243.9868287757715
 31
0.0
  0
ARC
  5
123F2
330
17
100
AcDbEntity
  8
0
100
AcDbCircle
 10
177.9984740992762
 20
246.8868287757715
 30
0.0
 40
0.2
100
AcDbArc
 50
90.0
 51
180.0
  0
CIRCLE
  5
123F3
330
17
100
AcDbEntity
  8
0
100
AcDbCircle
 10
179.0248586385403
 20
246.6769815263083
 30
0.0
 40
0.136
  0
ARC
  5
123F4
330
17
100
AcDbEntity
  8
0
100
AcDbCircle
 10
177.9984740992762
 20
244.1868287757716
 30
0.0
 40
0.2
100
AcDbArc
 50
180.0
 51
270.0
  0
LINE
  5
123F5
330
17
100
AcDbEntity
  8
0
100
AcDbLine
 10
177.7984740992762
 20
246.8868287757715
 30
0.0
 11
177.7984740992762
 21
244.1868287757716
 31
0.0
  0
CIRCLE
  5
123F6
330
17
100
AcDbEntity
  8
0
100
AcDbCircle
 10
179.0445422272709
 20
244.5031629784458
 30
0.0
 40
0.136
  0
ARC
  5
123F7
330
17
100
AcDbEntity
  8
0
100
AcDbCircle
 10
179.9734740992762
 20
246.8868287757715
 30
0.0
 40
0.2
100
AcDbArc
 50
0.0
 51
90.0
  0
ARC
  5
123F8
330
17
100
AcDbEntity
  8
0
100
AcDbCircle
 10
179.9734740992761
 20
244.1868287757716
 30
0.0
 40
0.2
100
AcDbArc
 50
270.0
 51
0.0
  0
LINE
  5
123F9
330
17
100
AcDbEntity
  8
0
100
AcDbLine
 10
180.1734740992761
 20
244.1868287757716
 30
0.0
 11
180.1734740992761
 21
246.8868287757715
 31
0.0
  0
CIRCLE
  5
123FA
330
17
100
AcDbEntity
  8
0
100
AcDbCircle
 10
203.0248586385404
 20
246.6769815263083
 30
0.0
 40
0.136
  0
LINE
  5
123FB
330
17
100
AcDbEntity
  8
0
100
AcDbLine
 10
203.9734740992762
 20
247.0868287757715
 30
0.0
 11
201.9984740992762
 21
247.0868287757716
 31
0.0
  0
LINE
  5
123FC
330
17
100
AcDbEntity
  8
0
100
AcDbLine
 10
201.9984740992762
 20
243.9868287757716
 30
0.0
 11
203.9734740992761
 21
243.9868287757715
 31
0.0
  0
ARC
  5
123FD
330
17
100
AcDbEntity
  8
0
100
AcDbCircle
 10
201.9984740992762
 20
246.8868287757715
 30
0.0
 40
0.2
100
AcDbArc
 50
90.0
 51
180.0
  0
ARC
  5
123FE
330
17
100
AcDbEntity
  8
0
100
AcDbCircle
 10
201.9984740992762
 20
244.1868287757716
 30
0.0
 40
0.2
100
AcDbArc
 50
180.0
 51
270.0
  0
LINE
  5
123FF
330
17
100
AcDbEntity
  8
0
100
AcDbLine
 10
201.7984740992762
 20
246.8868287757715
 30
0.0
 11
201.7984740992762
 21
244.1868287757716
 31
0.0
  0
ARC
  5
12400
330
17
100
AcDbEntity
  8
0
100
AcDbCircle
 10
203.9734740992762
 20
246.8868287757715
 30
0.0
 40
0.2
100
AcDbArc
 50
0.0
 51
90.0
  0
ARC
  5
12401
330
17
100
AcDbEntity
  8
0
100
AcDbCircle
 10
203.9734740992761
 20
244.1868287757716
 30
0.0
 40
0.2
100
AcDbArc
 50
270.0
 51
0.0
  0
CIRCLE
  5
12402
330
17
100
AcDbEntity
  8
0
100
AcDbCircle
 10
203.0445422272709
 20
244.5031629784458
 30
0.0
 40
0.136
  0
LINE
  5
12403
330
17
100
AcDbEntity
  8
0
100
AcDbLine
 10
204.1734740992762
 20
244.1868287757716
 30
0.0
 11
204.1734740992762
 21
246.8868287757715
 31
0.0
  0
LINE
  5
12404
330
17
100
AcDbEntity
  8
0
100
AcDbLine
 10
227.9734740992763
 20
247.0868287757715
 30
0.0
 11
225.9984740992762
 21
247.0868287757716
 31
0.0
  0
LINE
  5
12405
330
17
100
AcDbEntity
  8
0
100
AcDbLine
 10
225.9984740992762
 20
243.9868287757716
 30
0.0
 11
227.9734740992761
 21
243.9868287757715
 31
0.0
  0
ARC
  5
12406
330
17
100
AcDbEntity
  8
0
100
AcDbCircle
 10
225.9984740992762
 20
246.8868287757715
 30
0.0
 40
0.2
100
AcDbArc
 50
90.0
 51
180.0
  0
ARC
  5
12407
330
17
100
AcDbEntity
  8
0
100
AcDbCircle
 10
225.9984740992762
 20
244.1868287757716
 30
0.0
 40
0.2
100
AcDbArc
 50
180.0
 51
270.0
  0
LINE
  5
12408
330
17
100
AcDbEntity
  8
0
100
AcDbLine
 10
225.7984740992762
 20
246.8868287757715
 30
0.0
 11
225.7984740992762
 21
244.1868287757716
 31
0.0
  0
ARC
  5
12409
330
17
100
AcDbEntity
  8
0
100
AcDbCircle
 10
227.9734740992763
 20
246.8868287757715
 30
0.0
 40
0.2
100
AcDbArc
 50
0.0
 51
90.0
  0
CIRCLE
  5
1240A
330
17
100
AcDbEntity
  8
0
100
AcDbCircle
 10
227.0248586385404
 20
246.6769815263083
 30
0.0
 40
0.136
  0
ARC
  5
1240B
330
17
100
AcDbEntity
  8
0
100
AcDbCircle
 10
227.9734740992761
 20
244.1868287757716
 30
0.0
 40
0.2
100
AcDbArc
 50
270.0
 51
0.0
  0
LINE
  5
1240C
330
17
100
AcDbEntity
  8
0
100
AcDbLine
 10
228.1734740992762
 20
244.1868287757716
 30
0.0
 11
228.1734740992762
 21
246.8868287757715
 31
0.0
  0
CIRCLE
  5
1240D
330
17
100
AcDbEntity
  8
0
100
AcDbCircle
 10
227.0445422272709
 20
244.5031629784458
 30
0.0
 40
0.136
  0
CIRCLE
  5
1240E
330
17
100
AcDbEntity
  8
0
100
AcDbCircle
 10
251.0248586385404
 20
246.6769815263083
 30
0.0
 40
0.136
  0
ARC
  5
1240F
330
17
100
AcDbEntity
  8
0
100
AcDbCircle
 10
249.9984740992762
 20
246.8868287757715
 30
0.0
 40
0.2
100
AcDbArc
 50
90.0
 51
180.0
  0
LINE
  5
12410
330
17
100
AcDbEntity
  8
0
100
AcDbLine
 10
251.9734740992762
 20
247.0868287757715
 30
0.0
 11
249.9984740992762
 21
247.0868287757716
 31
0.0
  0
ARC
  5
12411
330
17
100
AcDbEntity
  8
0
100
AcDbCircle
 10
251.9734740992762
 20
246.8868287757715
 30
0.0
 40
0.2
100
AcDbArc
 50
0.0
 51
90.0
  0
ARC
  5
12412
330
17
100
AcDbEntity
  8
0
100
AcDbCircle
 10
249.9984740992762
 20
244.1868287757716
 30
0.0
 40
0.2
100
AcDbArc
 50
180.0
 51
270.0
  0
LINE
  5
12413
330
17
100
AcDbEntity
  8
0
100
AcDbLine
 10
249.9984740992762
 20
243.9868287757716
 30
0.0
 11
251.9734740992761
 21
243.9868287757715
 31
0.0
  0
ARC
  5
12414
330
17
100
AcDbEntity
  8
0
100
AcDbCircle
 10
251.9734740992761
 20
244.1868287757716
 30
0.0
 40
0.2
100
AcDbArc
 50
270.0
 51
0.0
  0
CIRCLE
  5
12415
330
17
100
AcDbEntity
  8
0
100
AcDbCircle
 10
251.0445422272709
 20
244.5031629784458
 30
0.0
 40
0.136
  0
LINE
  5
12416
330
17
100
AcDbEntity
  8
0
100
AcDbLine
 10
252.1734740992762
 20
244.1868287757716
 30
0.0
 11
252.1734740992762
 21
246.8868287757715
 31
0.0
  0
LINE
  5
12417
330
17
100
AcDbEntity
  8
0
100
AcDbLine
 10
249.7984740992762
 20
246.8868287757715
 30
0.0
 11
249.7984740992762
 21
244.1868287757716
 31
0.0
  0
LINE
  5
12418
330
17
100
AcDbEntity
  8
0
100
AcDbLine
 10
273.9984740992762
 20
243.9868287757716
 30
0.0
 11
275.9734740992761
 21
243.9868287757715
 31
0.0
  0
LINE
  5
12419
330
17
100
AcDbEntity
  8
0
100
AcDbLine
 10
275.9734740992763
 20
247.0868287757715
 30
0.0
 11
273.9984740992762
 21
247.0868287757716
 31
0.0
  0
ARC
  5
1241A
330
17
100
AcDbEntity
  8
0
100
AcDbCircle
 10
273.9984740992762
 20
246.8868287757715
 30
0.0
 40
0.2
100
AcDbArc
 50
90.0
 51
180.0
  0
ARC
  5
1241B
330
17
100
AcDbEntity
  8
0
100
AcDbCircle
 10
273.9984740992762
 20
244.1868287757716
 30
0.0
 40
0.2
100
AcDbArc
 50
180.0
 51
270.0
  0
LINE
  5
1241C
330
17
100
AcDbEntity
  8
0
100
AcDbLine
 10
273.7984740992762
 20
246.8868287757715
 30
0.0
 11
273.7984740992762
 21
244.1868287757716
 31
0.0
  0
CIRCLE
  5
1241D
330
17
100
AcDbEntity
  8
0
100
AcDbCircle
 10
275.0445422272709
 20
244.5031629784458
 30
0.0
 40
0.136
  0
CIRCLE
  5
1241E
330
17
100
AcDbEntity
  8
0
100
AcDbCircle
 10
275.0248586385404
 20
246.6769815263083
 30
0.0
 40
0.136
  0
ARC
  5
1241F
330
17
100
AcDbEntity
  8
0
100
AcDbCircle
 10
275.9734740992763
 20
246.8868287757715
 30
0.0
 40
0.2
100
AcDbArc
 50
0.0
 51
90.0
  0
ARC
  5
12420
330
17
100
AcDbEntity
  8
0
100
AcDbCircle
 10
275.9734740992761
 20
244.1868287757716
 30
0.0
 40
0.2
100
AcDbArc
 50
270.0
 51
0.0
  0
LINE
  5
12421
330
17
100
AcDbEntity
  8
0
100
AcDbLine
 10
276.1734740992762
 20
244.1868287757716
 30
0.0
 11
276.1734740992762
 21
246.8868287757715
 31
0.0
  0
CIRCLE
  5
1245F
330
17
100
AcDbEntity
  8
0
100
AcDbCircle
 10
199.6818624597908
 20
252.8006509698917
 30
0.0
 40
0.2171678892550922
  0
CIRCLE
  5
12460
330
17
100
AcDbEntity
  8
0
100
AcDbCircle
 10
199.6818624597908
 20
251.8019173253506
 30
0.0
 40
0.2171678892550922
  0
CIRCLE
  5
12461
330
17
100
AcDbEntity
  8
0
100
AcDbCircle
 10
199.6818624597908
 20
250.8079566014522
 30
0.0
 40
0.2171678892550922
  0
CIRCLE
  5
12464
330
17
100
AcDbEntity
  8
0
100
AcDbCircle
 10
199.6593565127412
 20
253.7256448653631
 30
0.0
 40
0.2171678892550922
  0
CIRCLE
  5
12465
330
17
100
AcDbEntity
  8
0
100
AcDbCircle
 10
277.8829666638783
 20
252.1843821547065
 30
0.0
 40
0.2171678892550922
  0
CIRCLE
  5
12466
330
17
100
AcDbEntity
  8
0
100
AcDbCircle
 10
277.8829666638783
 20
253.1831157992477
 30
0.0
 40
0.2171678892550922
  0
CIRCLE
  5
12467
330
17
100
AcDbEntity
  8
0
100
AcDbCircle
 10
277.8829666638783
 20
254.0552984711567
 30
0.0
 40
0.2171678892550922
  0
HATCH
  5
125A2
330
17
100
AcDbEntity
  8
FRAMING
100
AcDbHatch
 10
0.0
 20
0.0
 30
0.0
210
0.0
220
0.0
230
1.0
  2
ANSI31
 70
     0
 71
     1
 91
        1
 92
        7
 72
     0
 73
     1
 93
        6
 10
282.651584289913
 20
260.7319815263083
 10
134.2169295018095
 20
260.7319815263084
 10
134.2169295018095
 20
243.0362941793405
 10
138.2169295018095
 20
243.0362941793406
 10
138.2169295018095
 20
254.7319815263084
 10
282.651584289913
 20
254.7319815263084
 97
        6
330
11CF9
330
11CE2
330
11D06
330
11CE3
330
11CF8
330
11D29
 75
     0
 76
     1
 52
0.0
 41
15.0
 77
     0
 78
     1
 53
45.0
 43
0.0
 44
0.0
 45
-1.325825214724776
 46
1.325825214724776
 79
     0
 47
0.2253355884828899
 98
        2
 10
160.772917267216
 20
259.8960430115011
 10
203.8662105961132
 20
258.093358218952
  0
INSERT
  5
125B9
330
17
100
AcDbEntity
  8
FRAMING
100
AcDbBlockReference
  2
A$C2D8E259A
 10
216.4987380324518
 20
186.8304503731647
 30
0.0
 41
-2.0
 42
2.0
 43
2.0
  0
MTEXT
  5
125C0
330
17
100
AcDbEntity
  8
TEXT
100
AcDbMText
 10
155.149942140114
 20
216.0282154865604
 30
0.0
 40
1.75
 41
0.0
 46
0.0
 71
     7
 72
     1
  1
OFFSET\PSPLICE PLATE
  7
WEB PAGE
 73
     1
 44
1.0
  0
LEADER
  5
125C1
330
17
100
AcDbEntity
  8
TEXT
100
AcDbLeader
  3
STANDARD
 73
     0
 74
     0
 75
     1
 40
3.5
 76
     3
 10
142.3462983491445
 20
227.1684508863222
 30
0.0
 10
151.307050297785
 20
219.6721032232302
 30
0.0
 10
154.307050297785
 20
219.6721032232302
 30
0.0
213
-48.64761024359063
223
59.9694878650547
233
0.0
1001
ACAD
1000
DSTYLE
1002
{
1070
    40
1040
1.0
1070
   147
1040
3.0
1002
}
  0
TEXT
  5
125D2
330
17
100
AcDbEntity
  8
TEXT
100
AcDbText
 10
137.107457825411
 20
93.60809198256484
 30
0.0
 40
3.0
  1
%%UANGLE MOUNT TRACK SET DETAIL
  7
WEB PAGE
 72
     1
 11
174.3868377821522
 21
93.60809198256484
 31
0.0
100
AcDbText
  0
TEXT
  5
125D3
330
17
100
AcDbEntity
  8
TEXT
100
AcDbText
 10
121.9711925045747
 20
100.1878718953146
 30
0.0
 40
3.0
  1
%%USTANDARD LIFT LOW HEADROOM TO THE FRONT
  7
WEB PAGE
 72
     1
 11
174.3868377821522
 21
100.1878718953146
 31
0.0
100
AcDbText
  0
DIMENSION
  5
12600
330
17
100
AcDbEntity
  8
FRAMING
100
AcDbDimension
  2
*D89
 10
95.4029283177838
 20
245.036294365789
 30
0.0
 11
95.40292831778376
 21
184.0362942725648
 31
0.0
 70
    32
  1
2" CLIP STYLE\PREVERSE ANGLE\PDOOR HEIGHT+2"
 71
     5
 42
122.0000001864485
 73
     0
 74
     0
 75
     0
  3
STANDARD
100
AcDbAlignedDimension
 13
134.2169295018095
 23
123.0362941793405
 33
0.0
 14
138.2169298373902
 24
245.036294365789
 34
0.0
 50
90.0
100
AcDbRotatedDimension
  0
TEXT
  5
12690
330
17
100
AcDbEntity
  8
TEXT
100
AcDbText
 10
262.6650918502148
 20
135.6570397270522
 30
0.0
 40
1.75
  1
F= DH + 8-11/16"
  7
WEB PAGE
 72
     1
 11
272.2225900477635
 21
135.6570397270522
 31
0.0
100
AcDbText
  0
TEXT
  5
12691
330
17
100
AcDbEntity
  8
TEXT
100
AcDbText
 10
215.4203316163811
 20
135.7513001242342
 30
0.0
 40
1.75
  1
12-3/16"
  7
WEB PAGE
 72
     1
 11
219.9669249833602
 21
135.7513001242342
 31
0.0
100
AcDbText
  0
TEXT
  5
12692
330
17
100
AcDbEntity
  8
TEXT
100
AcDbText
 10
243.5934790099353
 20
135.6570397270522
 30
0.0
 40
1.75
  1
5250-216
  7
WEB PAGE
 72
     1
 11
248.5457140495892
 21
135.6570397270522
 31
0.0
100
AcDbText
  0
TEXT
  5
12693
330
17
100
AcDbEntity
  8
TEXT
100
AcDbText
 10
195.3106744933861
 20
135.4937961296039
 30
0.0
 40
1.75
  1
13' - 18'
  7
WEB PAGE
 72
     1
 11
199.4364855964863
 21
135.4937961296039
 31
0.0
100
AcDbText
  0
LINE
  5
12694
330
17
100
AcDbEntity
  8
TEXT
100
AcDbLine
 10
189.9731901269065
 20
148.8507884406853
 30
0.0
 11
189.9731901269065
 21
131.0663492368126
 31
0.0
  0
LINE
  5
12695
330
17
100
AcDbEntity
  8
TEXT
100
AcDbLine
 10
209.4199741053796
 20
148.8507884406853
 30
0.0
 11
209.4199741053796
 21
131.0663492368127
 31
0.0
  0
LINE
  5
12696
330
17
100
AcDbEntity
  8
TEXT
100
AcDbLine
 10
228.6788459208481
 20
148.8507884406853
 30
0.0
 11
228.6788459208481
 21
131.0663492368127
 31
0.0
  0
LINE
  5
12697
330
17
100
AcDbEntity
  8
TEXT
100
AcDbLine
 10
256.9026715476112
 20
148.8507884406853
 30
0.0
 11
256.9026715476112
 21
131.0663492368128
 31
0.0
  0
LINE
  5
12698
330
17
100
AcDbEntity
  8
TEXT
100
AcDbLine
 10
287.5425085479157
 20
148.8507884406853
 30
0.0
 11
287.5425085479157
 21
131.0663492368128
 31
0.0
  0
LINE
  5
12699
330
17
100
AcDbEntity
  8
TEXT
100
AcDbLine
 10
240.1887565515673
 20
131.0663492368127
 30
0.0
 11
240.1887565515673
 21
148.8507884406853
 31
0.0
  0
LINE
  5
1269A
330
17
100
AcDbEntity
  8
TEXT
100
AcDbLine
 10
228.6788459208482
 20
134.6999590377808
 30
0.0
 11
189.9731901269065
 21
134.6999590377808
 31
0.0
  0
LINE
  5
1269B
330
17
100
AcDbEntity
  8
TEXT
100
AcDbLine
 10
228.6788459208482
 20
131.0663492368127
 30
0.0
 11
189.9731901269064
 21
131.0663492368126
 31
0.0
  0
TEXT
  5
1269C
330
17
100
AcDbEntity
  8
TEXT
100
AcDbText
 10
193.7401239543429
 20
127.4755539649792
 30
0.0
 40
1.75
  1
* ADD 4" FOR OPERATOR.
  7
WEB PAGE
 72
     1
 11
209.306544285994
 21
127.4755539649792
 31
0.0
100
AcDbText
  0
TEXT
  5
1269D
330
17
100
AcDbEntity
  8
TEXT
100
AcDbText
 10
195.497532914849
 20
131.9879629513726
 30
0.0
 40
1.75
  1
19' - 20'
  7
WEB PAGE
 72
     1
 11
199.6233440179492
 21
131.9879629513726
 31
0.0
100
AcDbText
  0
TEXT
  5
1269E
330
17
100
AcDbEntity
  8
TEXT
100
AcDbText
 10
215.4203316163811
 20
132.0816384557406
 30
0.0
 40
1.75
  1
15-1/16"
  7
WEB PAGE
 72
     1
 11
219.9669249833602
 21
132.0816384557406
 31
0.0
100
AcDbText
  0
TEXT
  5
1269F
330
17
100
AcDbEntity
  8
TEXT
100
AcDbText
 10
262.6650918502148
 20
131.8545611393966
 30
0.0
 40
1.75
  1
F= DH + 10-1/16"
  7
WEB PAGE
 72
     1
 11
272.2225900477635
 21
131.8545611393966
 31
0.0
100
AcDbText
  0
LINE
  5
126A0
330
17
100
AcDbEntity
  8
TEXT
100
AcDbLine
 10
287.5425085479157
 20
134.699959037781
 30
0.0
 11
240.1887565515673
 21
134.6999590377809
 31
0.0
  0
LINE
  5
126A1
330
17
100
AcDbEntity
  8
TEXT
100
AcDbLine
 10
287.5425085479157
 20
131.0663492368128
 30
0.0
 11
240.1887565515673
 21
131.0663492368127
 31
0.0
  0
TEXT
  5
126A2
330
17
100
AcDbEntity
  8
TEXT
100
AcDbText
 10
244.2394775679743
 20
131.8545611393966
 30
0.0
 40
1.75
  1
800-312
  7
WEB PAGE
 72
     1
 11
248.5457140495892
 21
131.8545611393966
 31
0.0
100
AcDbText
  0
TEXT
  5
126A3
330
17
100
AcDbEntity
  8
TEXT
100
AcDbText
 10
211.5076807058902
 20
143.1200934562266
 30
0.0
 40
1.75
  1
HEADROOM
  7
WEB PAGE
 72
     1
 11
218.9726230274475
 21
143.1200934562266
 31
0.0
100
AcDbText
  0
MTEXT
  5
126A4
330
17
100
AcDbEntity
  8
TEXT
100
AcDbMText
 10
209.5299096505221
 20
157.8598138970919
 30
0.0
 40
2.6
 41
37.3125
 46
0.0
 71
     2
 72
     5
  1
HEADROOM\PREQUIREMENTS
 73
     1
 44
1.0
  0
LINE
  5
126A5
330
17
100
AcDbEntity
  8
TEXT
100
AcDbLine
 10
189.9731901269065
 20
141.9671786397171
 30
0.0
 11
228.6788459208481
 21
141.9671786397171
 31
0.0
  0
LINE
  5
126A6
330
17
100
AcDbEntity
  8
TEXT
100
AcDbLine
 10
189.9731901269065
 20
148.8507884406853
 30
0.0
 11
228.6788459208481
 21
148.8507884406853
 31
0.0
  0
LINE
  5
126A7
330
17
100
AcDbEntity
  8
TEXT
100
AcDbLine
 10
228.6788459208482
 20
138.333568838749
 30
0.0
 11
189.9731901269064
 21
138.3335688387489
 31
0.0
  0
LINE
  5
126A8
330
17
100
AcDbEntity
  8
TEXT
100
AcDbLine
 10
189.9731901269065
 20
159.0893129043698
 30
0.0
 11
228.6788459208481
 21
159.0893129043697
 31
0.0
  0
LINE
  5
126A9
330
17
100
AcDbEntity
  8
TEXT
100
AcDbLine
 10
189.9731901269065
 20
148.8507884406853
 30
0.0
 11
189.9731901269065
 21
159.0893129043698
 31
0.0
  0
TEXT
  5
126AA
330
17
100
AcDbEntity
  8
TEXT
100
AcDbText
 10
196.1434294475054
 20
146.1659324185985
 30
0.0
 40
1.75
  1
DOOR
  7
WEB PAGE
 72
     1
 11
199.8156536724514
 21
146.1659324185985
 31
0.0
100
AcDbText
  0
TEXT
  5
126AB
330
17
100
AcDbEntity
  8
TEXT
100
AcDbText
 10
195.0078851072026
 20
143.1200934562266
 30
0.0
 40
1.75
  1
HEIGHT
  7
WEB PAGE
 72
     1
 11
199.8156536724514
 21
143.1200934562266
 31
0.0
100
AcDbText
  0
TEXT
  5
126AC
330
17
100
AcDbEntity
  8
TEXT
100
AcDbText
 10
196.4499518829264
 20
139.2775384870345
 30
0.0
 40
1.75
  1
7' - 12'
  7
WEB PAGE
 72
     1
 11
199.9297644279877
 21
139.2775384870345
 31
0.0
100
AcDbText
  0
LINE
  5
126AD
330
17
100
AcDbEntity
  8
TEXT
100
AcDbLine
 10
228.6788459208481
 20
148.8507884406853
 30
0.0
 11
228.6788459208481
 21
159.0893129043697
 31
0.0
  0
TEXT
  5
126AE
330
17
100
AcDbEntity
  8
TEXT
100
AcDbText
 10
215.4203316163811
 20
139.2775384870345
 30
0.0
 40
1.75
  1
11-3/16"
  7
WEB PAGE
 72
     1
 11
219.9669249833602
 21
139.2775384870345
 31
0.0
100
AcDbText
  0
TEXT
  5
126AF
330
17
100
AcDbEntity
  8
TEXT
100
AcDbText
 10
212.7996778219681
 20
146.1659324185985
 30
0.0
 40
1.75
  1
MINIMUM
  7
WEB PAGE
 72
     1
 11
218.9726230274475
 21
146.1659324185985
 31
0.0
100
AcDbText
  0
TEXT
  5
126B0
330
17
100
AcDbEntity
  8
TEXT
100
AcDbText
 10
263.3110904082538
 20
139.3016675556713
 30
0.0
 40
1.75
  1
F= DH + 8-5/16"
  7
WEB PAGE
 72
     1
 11
272.2225900477635
 21
139.3016675556713
 31
0.0
100
AcDbText
  0
TEXT
  5
126B1
330
17
100
AcDbEntity
  8
TEXT
100
AcDbText
 10
263.3110904082538
 20
142.7884440045686
 30
0.0
 40
1.75
  1
F= DH + 8-5/16"
  7
WEB PAGE
 72
     1
 11
272.2225900477635
 21
142.7884440045686
 31
0.0
100
AcDbText
  0
LINE
  5
126B2
330
17
100
AcDbEntity
  8
TEXT
100
AcDbLine
 10
240.1887565515673
 20
145.6007884406853
 30
0.0
 11
287.5425085479157
 21
145.6007884406853
 31
0.0
  0
LINE
  5
126B3
330
17
100
AcDbEntity
  8
TEXT
100
AcDbLine
 10
240.1887565515673
 20
159.0893129043698
 30
0.0
 11
287.5425085479157
 21
159.0893129043698
 31
0.0
  0
LINE
  5
126B4
330
17
100
AcDbEntity
  8
TEXT
100
AcDbLine
 10
287.5425085479157
 20
141.9671786397172
 30
0.0
 11
240.1887565515673
 21
141.9671786397172
 31
0.0
  0
LINE
  5
126B5
330
17
100
AcDbEntity
  8
TEXT
100
AcDbLine
 10
287.5425085479157
 20
138.3335688387491
 30
0.0
 11
240.1887565515673
 21
138.333568838749
 31
0.0
  0
LINE
  5
126B6
330
17
100
AcDbEntity
  8
TEXT
100
AcDbLine
 10
240.1887565515673
 20
148.8507884406853
 30
0.0
 11
287.5425085479157
 21
148.8507884406853
 31
0.0
  0
MTEXT
  5
126B7
330
17
100
AcDbEntity
  8
TEXT
100
AcDbMText
 10
263.8656325497414
 20
157.8758355322002
 30
0.0
 40
2.6
 41
37.3125
 46
0.0
 71
     2
 72
     5
  1
FLOOR TO SHAFT\PCENTER DISTANCE
 73
     1
 44
1.0
  0
LINE
  5
126B8
330
17
100
AcDbEntity
  8
TEXT
100
AcDbLine
 10
240.1887565515673
 20
148.8507884406853
 30
0.0
 11
240.1887565515673
 21
159.0893129043698
 31
0.0
  0
TEXT
  5
126B9
330
17
100
AcDbEntity
  8
TEXT
100
AcDbText
 10
244.4317811387249
 20
146.275220453466
 30
0.0
 40
1.75
  1
DRUM
  7
WEB PAGE
 72
     1
 11
248.3084033449253
 21
146.275220453466
 31
0.0
100
AcDbText
  0
TEXT
  5
126BA
330
17
100
AcDbEntity
  8
TEXT
100
AcDbText
 10
244.2394775679743
 20
139.3016675556713
 30
0.0
 40
1.75
  1
400-144
  7
WEB PAGE
 72
     1
 11
248.5457140495892
 21
139.3016675556713
 31
0.0
100
AcDbText
  0
TEXT
  5
126BB
330
17
100
AcDbEntity
  8
TEXT
100
AcDbText
 10
244.8854761260132
 20
142.7884440045686
 30
0.0
 40
1.75
  1
400-96
  7
WEB PAGE
 72
     1
 11
248.5457140495892
 21
142.7884440045686
 31
0.0
100
AcDbText
  0
TEXT
  5
126BC
330
17
100
AcDbEntity
  8
TEXT
100
AcDbText
 10
265.9051783678788
 20
146.275220453466
 30
0.0
 40
1.75
  1
FORMULA
  7
WEB PAGE
 72
     1
 11
272.2225900477635
 21
146.275220453466
 31
0.0
100
AcDbText
  0
LINE
  5
126BD
330
17
100
AcDbEntity
  8
TEXT
100
AcDbLine
 10
287.5425085479157
 20
148.8507884406853
 30
0.0
 11
287.5425085479157
 21
159.0893129043698
 31
0.0
  0
TEXT
  5
12F75
330
17
100
AcDbEntity
  8
TEXT
100
AcDbText
 10
242.1200149458983
 20
127.6101042547458
 30
0.0
 40
1.75
  1
DH = DOOR HEIGHT
  7
WEB PAGE
 72
     1
 11
254.1523689473403
 21
127.6101042547458
 31
0.0
100
AcDbText
  0
TEXT
  5
12F76
330
17
100
AcDbEntity
  8
TEXT
100
AcDbText
 10
243.2574759251409
 20
124.1913512195769
 30
0.0
 40
1.75
  1
F = FLOOR TO SHAFT CENTER
  7
WEB PAGE
 72
     1
 11
261.4053670570804
 21
124.1913512195769
 31
0.0
100
AcDbText
  0
VIEWPORT
  5
C943
330
14
100
AcDbEntity
 67
     1
  8
0
100
AcDbViewport
 10
4.07148985534495
 20
5.271015715841184
 30
0.0
 40
18.40003730579956
 41
11.9131402773556
 68
     1
 69
     1
 12
4.07148985534495
 22
5.271015715841184
 13
0.0
 23
0.0
 14
0.5
 24
0.5
 15
0.5
 25
0.5
 16
0.0
 26
0.0
 36
1.0
 17
0.0
 27
0.0
 37
0.0
 42
50.0
 43
0.0
 44
0.0
 45
11.9131402773556
 50
0.0
 51
0.0
 72
   100
 90
    32800
  1

281
     0
 71
     1
 74
     0
110
0.0
120
0.0
130
0.0
111
1.0
121
0.0
131
0.0
112
0.0
122
1.0
132
0.0
 79
     0
146
0.0
170
     0
 61
     5
348
12F84
292
     1
282
     1
141
0.0
142
0.0
 63
   250
421
  3355443
  0
VIEWPORT
  5
12F58
330
14
100
AcDbEntity
 67
     1
  8
Defpoints
100
AcDbViewport
 10
4.079628041892878
 20
4.890190561261637
 30
0.0
 40
7.601191933029673
 41
9.196113250920623
 68
     2
 69
     2
 12
166.4468291051083
 22
181.5475724545379
 13
0.0
 23
0.0
 14
1.0
 24
1.0
 15
0.25
 25
0.25
 16
0.0
 26
0.0
 36
1.0
 17
0.0
 27
0.0
 37
0.0
 42
50.0
 43
0.0
 44
0.0
 45
306.2209572893319
 50
0.0
 51
0.0
 72
   100
 90
    32768
  1

281
     0
 71
     1
 74
     0
110
0.0
120
0.0
130
0.0
111
1.0
121
0.0
131
0.0
112
0.0
122
1.0
132
0.0
 79
     0
146
0.0
170
     0
 61
     5
348
12F84
292
     1
282
     1
141
0.0
142
0.0
 63
   250
421
  3355443
  0
ENDSEC
  0
SECTION
  2
OBJECTS
  0
DICTIONARY
  5
C
330
0
100
AcDbDictionary
281
     1
  3
ACAD_COLOR
350
12F8F
  3
ACAD_GROUP
350
D
  3
ACAD_LAYOUT
350
B57A
  3
ACAD_MATERIAL
350
12F7A
  3
ACAD_MLINESTYLE
350
1A
  3
ACAD_PLOTSETTINGS
350
B57B
  3
ACAD_PLOTSTYLENAME
350
B578
  3
ACAD_TABLESTYLE
350
12F90
  3
ACAD_VISUALSTYLE
350
12F7E
  3
AcadDim
350
119E2
  3
ACDBVARIABLEDICTIONARY
350
59
  0
DICTIONARY
  5
13050
330
8
100
AcDbDictionary
280
     1
281
     1
  0
DICTIONARY
  5
1302D
330
2
100
AcDbDictionary
280
     1
281
     1
  3
ACAD_LAYERSTATES
360
1302E
  0
DICTIONARY
  5
12F8F
102
{ACAD_REACTORS
330
C
102
}
330
C
100
AcDbDictionary
281
     1
  0
DICTIONARY
  5
D
102
{ACAD_REACTORS
330
C
102
}
330
C
100
AcDbDictionary
281
     1
  0
DICTIONARY
  5
B57A
102
{ACAD_REACTORS
330
C
102
}
330
C
100
AcDbDictionary
281
     1
  3
Layout1
350
B57D
  3
Model
350
B57C
  0
DICTIONARY
  5
12F7A
102
{ACAD_REACTORS
330
C
102
}
330
C
100
AcDbDictionary
281
     1
  3
ByBlock
350
12F7C
  3
ByLayer
350
12F7B
  3
Global
350
12F7D
  0
DICTIONARY
  5
1A
102
{ACAD_REACTORS
330
C
102
}
330
C
100
AcDbDictionary
281
     1
  3
STANDARD
350
1B
  0
DICTIONARY
  5
B57B
102
{ACAD_REACTORS
330
C
102
}
330
C
100
AcDbDictionary
281
     1
  0
ACDBDICTIONARYWDFLT
  5
B578
102
{ACAD_REACTORS
330
C
102
}
330
C
100
AcDbDictionary
281
     1
  3
Normal
350
B579
100
AcDbDictionaryWithDefault
340
B579
  0
DICTIONARY
  5
12F90
102
{ACAD_REACTORS
330
C
102
}
330
C
100
AcDbDictionary
281
     1
  3
Standard
350
12F91
  0
DICTIONARY
  5
12F7E
102
{ACAD_REACTORS
330
C
102
}
330
C
100
AcDbDictionary
281
     1
  3
2dWireframe
350
12F84
  3
3D Hidden
350
12F86
  3
3dWireframe
350
12F85
  3
Basic
350
12F83
  3
Brighten
350
12F8A
  3
ColorChange
350
12F8E
  3
Conceptual
350
12F87
  3
Dim
350
12F89
  3
Facepattern
350
12F8D
  3
Flat
350
12F7F
  3
FlatWithEdges
350
12F80
  3
Gouraud
350
12F81
  3
GouraudWithEdges
350
12F82
  3
Linepattern
350
12F8C
  3
Realistic
350
12F88
  3
Thicken
350
12F8B
  0
XRECORD
  5
119E2
102
{ACAD_REACTORS
330
C
102
}
330
C
100
AcDbXrecord
280
     1
 90
   990106
  3

 60
     0
 61
     0
 62
     1
 63
     3
 64
     0
 65
     0
 66
     0
 67
     3
 68
     1
 69
     0
 70
     0
 71
     0
 72
     0
 40
0.0
170
     0
340
0
  0
DICTIONARY
  5
59
102
{ACAD_REACTORS
330
C
102
}
330
C
100
AcDbDictionary
281
     1
  3
CTABLESTYLE
350
1303F
  3
DIMADEC
350
5A
  3
SORTENTS
350
769A
  0
DICTIONARY
  5
1302E
102
{ACAD_REACTORS
330
1302D
102
}
330
1302D
100
AcDbDictionary
281
     1
  0
LAYOUT
  5
B57D
102
{ACAD_XDICTIONARY
360
1304D
102
}
102
{ACAD_REACTORS
330
B57A
102
}
330
B57A
100
AcDbPlotSettings
  1

  2
Acrobat PDFWriter
  4
Letter
  6

 40
7.143749713897705
 41
7.143756389617919
 42
7.14373779296875
 43
7.14373779296875
 44
215.8999938964844
 45
279.3999938964844
 46
0.254
 47
0.508
 48
0.0
 49
0.0
140
0.0
141
0.0
142
1.0
143
1.0
 70
   692
 72
     0
 73
     0
 74
     1
  7

 75
    16
147
1.0
 76
     0
 77
     2
 78
   300
148
-3.431638481391534
149
-3.757055211110303
100
AcDbLayout
  1
Layout1
 70
     1
 71
     1
 10
-0.161649064214197
 20
-0.1589081902421915
 11
8.338350695489911
 21
10.84109156946191
 12
0.0
 22
0.0
 32
0.0
 14
0.1725342901511637
 24
0.1315364760812923
 34
0.0
 15
7.970382223964809
 25
10.41007468559776
 35
0.0
146
0.0
 13
0.0
 23
0.0
 33
0.0
 16
1.0
 26
0.0
 36
0.0
 17
0.0
 27
1.0
 37
0.0
 76
     0
330
14
331
C943
  0
LAYOUT
  5
B57C
102
{ACAD_REACTORS
330
B57A
102
}
330
B57A
100
AcDbPlotSettings
  1

  2
PMKT1 Marketing HP-8100DN Laser
  4
Letter
  6

 40
4.233333110809326
 41
4.233341693878173
 42
4.233322143554687
 43
4.23333740234375
 44
215.8999938964844
 45
279.3999938964844
 46
7.365999999999998
 47
0.0
 48
139.3684830884462
 49
213.5442578355003
140
281.5818113799604
141
346.2220205485337
142
1.0
143
23.33815986057009
 70
 11956
 72
     0
 73
     1
 74
     1
  7

 75
     0
147
0.0428482796404829
 76
     0
 77
     2
 78
   300
148
-1065.836727318253
149
-2361.921169776842
100
AcDbLayout
  1
Model
 70
     1
 71
     0
 10
0.0
 20
0.0
 11
12.0
 21
9.0
 12
0.0
 22
0.0
 32
0.0
 14
0.0
 24
0.0
 34
0.0
 15
0.0
 25
0.0
 35
0.0
146
0.0
 13
0.0
 23
0.0
 33
0.0
 16
1.0
 26
0.0
 36
0.0
 17
0.0
 27
1.0
 37
0.0
 76
     0
330
17
331
12F78
  0
MATERIAL
  5
12F7C
102
{ACAD_REACTORS
330
12F7A
102
}
330
12F7A
100
AcDbMaterial
  1
ByBlock
  0
MATERIAL
  5
12F7B
102
{ACAD_REACTORS
330
12F7A
102
}
330
12F7A
100
AcDbMaterial
  1
ByLayer
  0
MATERIAL
  5
12F7D
102
{ACAD_REACTORS
330
12F7A
102
}
330
12F7A
100
AcDbMaterial
  1
Global
  0
MLINESTYLE
  5
1B
102
{ACAD_REACTORS
330
1A
102
}
330
1A
100
AcDbMlineStyle
  2
STANDARD
 70
     0
  3

 62
   256
 51
90.0
 52
90.0
 71
     2
 49
0.5
 62
   256
  6
BYLAYER
 49
-0.5
 62
   256
  6
BYLAYER
  0
ACDBPLACEHOLDER
  5
B579
102
{ACAD_REACTORS
330
B578
102
}
330
B578
  0
TABLESTYLE
  5
12F91
102
{ACAD_REACTORS
330
12F90
102
}
330
12F90
100
AcDbTableStyle
  3
Standard
 70
     0
 71
     0
 40
0.06
 41
0.06
280
     0
281
     0
  7
STANDARD
140
0.18
170
     2
 62
     0
 63
     7
283
     0
 90
      512
 91
        0
  1

274
    -2
284
     1
 64
     0
275
    -2
285
     1
 65
     0
276
    -2
286
     1
 66
     0
277
    -2
287
     1
 67
     0
278
    -2
288
     1
 68
     0
279
    -2
289
     1
 69
     0
  7
STANDARD
140
0.25
170
     5
 62
     0
 63
     7
283
     0
 90
      512
 91
        0
  1

274
    -2
284
     1
 64
     0
275
    -2
285
     1
 65
     0
276
    -2
286
     1
 66
     0
277
    -2
287
     1
 67
     0
278
    -2
288
     1
 68
     0
279
    -2
289
     1
 69
     0
  7
STANDARD
140
0.18
170
     5
 62
     0
 63
     7
283
     0
 90
      512
 91
        0
  1

274
    -2
284
     1
 64
     0
275
    -2
285
     1
 65
     0
276
    -2
286
     1
 66
     0
277
    -2
287
     1
 67
     0
278
    -2
288
     1
 68
     0
279
    -2
289
     1
 69
     0
  0
VISUALSTYLE
  5
12F84
102
{ACAD_REACTORS
330
12F7E
102
}
330
12F7E
100
AcDbVisualStyle
  2
2dWireframe
 70
     4
 71
     0
 72
     2
 73
     0
 90
        0
 40
-0.6
 41
-30.0
 62
     5
 63
     7
421
 16777215
 74
     1
 91
        4
 64
     7
 65
   257
 75
     1
175
     1
 42
1.0
 92
        0
 66
   257
 43
1.0
 76
     1
 77
     6
 78
     2
 67
     7
 79
     5
170
     0
171
     0
290
     0
174
     0
 93
        1
 44
0.0
173
     0
291
     0
 45
0.0
  0
VISUALSTYLE
  5
12F86
102
{ACAD_REACTORS
330
12F7E
102
}
330
12F7E
100
AcDbVisualStyle
  2
3D Hidden
 70
     6
 71
     1
 72
     2
 73
     2
 90
        0
 40
-0.6
 41
-30.0
 62
     5
 63
     7
421
 16777215
 74
     2
 91
        2
 64
     7
 65
   257
 75
     2
175
     1
 42
40.0
 92
        0
 66
   257
 43
1.0
 76
     1
 77
     6
 78
     2
 67
     7
 79
     3
170
     0
171
     0
290
     0
174
     0
 93
        1
 44
0.0
173
     0
291
     0
 45
0.0
  0
VISUALSTYLE
  5
12F85
102
{ACAD_REACTORS
330
12F7E
102
}
330
12F7E
100
AcDbVisualStyle
  2
3dWireframe
 70
     5
 71
     0
 72
     2
 73
     0
 90
        0
 40
-0.6
 41
-30.0
 62
     5
 63
     7
421
 16777215
 74
     1
 91
        4
 64
     7
 65
   257
 75
     1
175
     1
 42
1.0
 92
        0
 66
   257
 43
1.0
 76
     1
 77
     6
 78
     2
 67
     7
 79
     5
170
     0
171
     0
290
     0
174
     0
 93
        1
 44
0.0
173
     0
291
     0
 45
0.0
  0
VISUALSTYLE
  5
12F83
102
{ACAD_REACTORS
330
12F7E
102
}
330
12F7E
100
AcDbVisualStyle
  2
Basic
 70
     7
 71
     1
 72
     0
 73
     1
 90
        0
 40
-0.6
 41
-30.0
 62
     5
 63
     7
421
 16777215
 74
     0
 91
        4
 64
     7
 65
   257
 75
     1
175
     1
 42
1.0
 92
        8
 66
     7
 43
1.0
 76
     1
 77
     6
 78
     2
 67
     7
 79
     5
170
     0
171
     0
290
     0
174
     0
 93
        1
 44
0.0
173
     0
291
     1
 45
0.0
  0
VISUALSTYLE
  5
12F8A
102
{ACAD_REACTORS
330
12F7E
102
}
330
12F7E
100
AcDbVisualStyle
  2
Brighten
 70
    12
 71
     2
 72
     2
 73
     0
 90
        0
 40
-0.6
 41
-30.0
 62
     5
 63
     7
421
 16777215
 74
     1
 91
        4
 64
     7
 65
   257
 75
     1
175
     1
 42
1.0
 92
        8
 66
     7
 43
1.0
 76
     1
 77
     6
 78
     2
 67
     7
 79
     5
170
     0
171
     0
290
     0
174
     0
 93
        1
 44
50.0
173
     0
291
     1
 45
0.0
  0
VISUALSTYLE
  5
12F8E
102
{ACAD_REACTORS
330
12F7E
102
}
330
12F7E
100
AcDbVisualStyle
  2
ColorChange
 70
    16
 71
     2
 72
     2
 73
     3
 90
        0
 40
-0.6
 41
-30.0
 62
     5
 63
     8
421
  8421504
 74
     1
 91
        4
 64
     7
 65
   257
 75
     1
175
     1
 42
1.0
 92
        8
 66
     8
424
  8421504
 43
1.0
 76
     1
 77
     6
 78
     2
 67
     7
 79
     5
170
     0
171
     0
290
     0
174
     0
 93
        1
 44
0.0
173
     0
291
     1
 45
0.0
  0
VISUALSTYLE
  5
12F87
102
{ACAD_REACTORS
330
12F7E
102
}
330
12F7E
100
AcDbVisualStyle
  2
Conceptual
 70
     9
 71
     3
 72
     2
 73
     0
 90
        0
 40
-0.6
 41
-30.0
 62
     5
 63
     7
421
 16777215
 74
     2
 91
        2
 64
     7
 65
   257
 75
     1
175
     1
 42
40.0
 92
        8
 66
     7
 43
1.0
 76
     1
 77
     6
 78
     2
 67
     7
 79
     3
170
     0
171
     0
290
     0
174
     0
 93
        1
 44
0.0
173
     0
291
     0
 45
0.0
  0
VISUALSTYLE
  5
12F89
102
{ACAD_REACTORS
330
12F7E
102
}
330
12F7E
100
AcDbVisualStyle
  2
Dim
 70
    11
 71
     2
 72
     2
 73
     0
 90
        0
 40
-0.6
 41
-30.0
 62
     5
 63
     7
421
 16777215
 74
     1
 91
        4
 64
     7
 65
   257
 75
     1
175
     1
 42
1.0
 92
        8
 66
     7
 43
1.0
 76
     1
 77
     6
 78
     2
 67
     7
 79
     5
170
     0
171
     0
290
     0
174
     0
 93
        1
 44
-50.0
173
     0
291
     1
 45
0.0
  0
VISUALSTYLE
  5
12F8D
102
{ACAD_REACTORS
330
12F7E
102
}
330
12F7E
100
AcDbVisualStyle
  2
Facepattern
 70
    15
 71
     2
 72
     2
 73
     0
 90
        0
 40
-0.6
 41
-30.0
 62
     5
 63
     7
421
 16777215
 74
     1
 91
        4
 64
     7
 65
   257
 75
     1
175
     1
 42
1.0
 92
        8
 66
     7
 43
1.0
 76
     1
 77
     6
 78
     2
 67
     7
 79
     5
170
     0
171
     0
290
     0
174
     0
 93
        1
 44
0.0
173
     0
291
     1
 45
0.0
  0
VISUALSTYLE
  5
12F7F
102
{ACAD_REACTORS
330
12F7E
102
}
330
12F7E
100
AcDbVisualStyle
  2
Flat
 70
     0
 71
     2
 72
     1
 73
     1
 90
        2
 40
-0.6
 41
30.0
 62
     5
 63
     7
421
 16777215
 74
     0
 91
        4
 64
     7
 65
   257
 75
     1
175
     1
 42
1.0
 92
        8
 66
     7
 43
1.0
 76
     1
 77
     6
 78
     2
 67
     7
 79
     5
170
     0
171
     0
290
     0
174
     0
 93
       13
 44
0.0
173
     0
291
     1
 45
0.0
  0
VISUALSTYLE
  5
12F80
102
{ACAD_REACTORS
330
12F7E
102
}
330
12F7E
100
AcDbVisualStyle
  2
FlatWithEdges
 70
     1
 71
     2
 72
     1
 73
     1
 90
        2
 40
-0.6
 41
30.0
 62
     5
 63
     7
421
 16777215
 74
     1
 91
        4
 64
     7
 65
   257
 75
     1
175
     1
 42
1.0
 92
        0
 66
   257
 43
1.0
 76
     1
 77
     6
 78
     2
 67
     7
 79
     5
170
     0
171
     0
290
     0
174
     0
 93
       13
 44
0.0
173
     0
291
     1
 45
0.0
  0
VISUALSTYLE
  5
12F81
102
{ACAD_REACTORS
330
12F7E
102
}
330
12F7E
100
AcDbVisualStyle
  2
Gouraud
 70
     2
 71
     2
 72
     2
 73
     1
 90
        2
 40
-0.6
 41
30.0
 62
     5
 63
     7
421
 16777215
 74
     0
 91
        4
 64
     7
 65
   257
 75
     1
175
     1
 42
1.0
 92
        0
 66
     7
 43
1.0
 76
     1
 77
     6
 78
     2
 67
     7
 79
     5
170
     0
171
     0
290
     0
174
     0
 93
       13
 44
0.0
173
     0
291
     1
 45
0.0
  0
VISUALSTYLE
  5
12F82
102
{ACAD_REACTORS
330
12F7E
102
}
330
12F7E
100
AcDbVisualStyle
  2
GouraudWithEdges
 70
     3
 71
     2
 72
     2
 73
     1
 90
        2
 40
-0.6
 41
30.0
 62
     5
 63
     7
421
 16777215
 74
     1
 91
        4
 64
     7
 65
   257
 75
     1
175
     1
 42
1.0
 92
        0
 66
   257
 43
1.0
 76
     1
 77
     6
 78
     2
 67
     7
 79
     5
170
     0
171
     0
290
     0
174
     0
 93
       13
 44
0.0
173
     0
291
     1
 45
0.0
  0
VISUALSTYLE
  5
12F8C
102
{ACAD_REACTORS
330
12F7E
102
}
330
12F7E
100
AcDbVisualStyle
  2
Linepattern
 70
    14
 71
     2
 72
     2
 73
     0
 90
        0
 40
-0.6
 41
-30.0
 62
     5
 63
     7
421
 16777215
 74
     1
 91
        4
 64
     7
 65
   257
 75
     7
175
     7
 42
1.0
 92
        8
 66
     7
 43
1.0
 76
     1
 77
     6
 78
     2
 67
     7
 79
     5
170
     0
171
     0
290
     0
174
     0
 93
        1
 44
0.0
173
     0
291
     1
 45
0.0
  0
VISUALSTYLE
  5
12F88
102
{ACAD_REACTORS
330
12F7E
102
}
330
12F7E
100
AcDbVisualStyle
  2
Realistic
 70
     8
 71
     2
 72
     2
 73
     0
 90
        0
 40
-0.6
 41
-30.0
 62
     5
 63
     7
421
 16777215
 74
     1
 91
        0
 64
     7
 65
   257
 75
     1
175
     1
 42
1.0
 92
        8
 66
     8
424
  7895160
 43
1.0
 76
     1
 77
     6
 78
     2
 67
     7
 79
     5
170
     0
171
     0
290
     0
174
     0
 93
       13
 44
0.0
173
     0
291
     0
 45
0.0
  0
VISUALSTYLE
  5
12F8B
102
{ACAD_REACTORS
330
12F7E
102
}
330
12F7E
100
AcDbVisualStyle
  2
Thicken
 70
    13
 71
     2
 72
     2
 73
     0
 90
        0
 40
-0.6
 41
-30.0
 62
     5
 63
     7
421
 16777215
 74
     1
 91
        4
 64
     7
 65
   257
 75
     1
175
     1
 42
1.0
 92
       12
 66
     7
 43
1.0
 76
     1
 77
     6
 78
     2
 67
     7
 79
     5
170
     0
171
     0
290
     0
174
     0
 93
        1
 44
0.0
173
     0
291
     1
 45
0.0
  0
DICTIONARYVAR
  5
1303F
102
{ACAD_REACTORS
330
59
102
}
330
59
100
DictionaryVariables
280
     0
  1
STANDARD
  0
DICTIONARYVAR
  5
5A
102
{ACAD_REACTORS
330
59
102
}
330
59
100
DictionaryVariables
280
     0
  1
0
  0
DICTIONARYVAR
  5
769A
102
{ACAD_REACTORS
330
59
102
}
330
59
100
DictionaryVariables
280
     0
  1
96
  0
DICTIONARY
  5
1304D
330
B57D
100
AcDbDictionary
280
     1
281
     1
  3
ADSK_XREC_LAYOUTTHUMBNAIL
360
1304E
  0
XRECORD
  5
1304E
102
{ACAD_REACTORS
330
1304D
102
}
330
1304D
100
AcDbXrecord
280
     1
310
280000006B0000008C0000000100080000000000103B0000000000000000000000010000000000000000000000000000FFFFFF000000000000000000000000000000000000000000000000000000000000000000330000006600000099000000CC000000FF00000000330000333300006633000099330000CC330000FF3300
310
0000660000336600006666000099660000CC660000FF66000000990000339900006699000099990000CC990000FF99000000CC000033CC000066CC000099CC0000CCCC0000FFCC000000FF000033FF000066FF000099FF0000CCFF0000FFFF000000003300330033006600330099003300CC003300FF003300003333003333
310
33006633330099333300CC333300FF33330000663300336633006666330099663300CC663300FF66330000993300339933006699330099993300CC993300FF99330000CC330033CC330066CC330099CC3300CCCC3300FFCC330000FF330033FF330066FF330099FF3300CCFF3300FFFF330000006600330066006600660099
310
006600CC006600FF00660000336600333366006633660099336600CC336600FF33660000666600336666006666660099666600CC666600FF66660000996600339966006699660099996600CC996600FF99660000CC660033CC660066CC660099CC6600CCCC6600FFCC660000FF660033FF660066FF660099FF6600CCFF6600
310
FFFF660000009900330099006600990099009900CC009900FF00990000339900333399006633990099339900CC339900FF33990000669900336699006666990099669900CC669900FF66990000999900339999006699990099999900CC999900FF99990000CC990033CC990066CC990099CC9900CCCC9900FFCC990000FF99
310
0033FF990066FF990099FF9900CCFF9900FFFF99000000CC003300CC006600CC009900CC00CC00CC00FF00CC000033CC003333CC006633CC009933CC00CC33CC00FF33CC000066CC003366CC006666CC009966CC00CC66CC00FF66CC000099CC003399CC006699CC009999CC00CC99CC00FF99CC0000CCCC0033CCCC0066CC
310
CC0099CCCC00CCCCCC00FFCCCC0000FFCC0033FFCC0066FFCC0099FFCC00CCFFCC00FFFFCC000000FF003300FF006600FF009900FF00CC00FF00FF00FF000033FF003333FF006633FF009933FF00CC33FF00FF33FF000066FF003366FF006666FF009966FF00CC66FF00FF66FF000099FF003399FF006699FF009999FF00CC
310
99FF00FF99FF0000CCFF0033CCFF0066CCFF0099CCFF00CCCCFF00FFCCFF0000FFFF0033FFFF0066FFFF0099FFFF00CCFFFF00FFFFFF00000000000D0D0D001A1A1A00282828003535350043434300505050005D5D5D006B6B6B00787878008686860093939300A1A1A100AEAEAE00BBBBBB00C9C9C900D6D6D600E4E4E400
310
F1F1F100FFFFFF0000000000000000000000000000000000000000000000000000000000000000000000000000000000F5F5F5F5F5F5F5F5F5F5F5F5F5F5F5F5F5F5F5F5F5F5F5F5F5F5F5F5F5F5F5F5F5F5F5F5F5F5F5F5F5F5F5F5F5F5F5F5F5F5F5F5F5F5F5F5F5F5F5F5F5F5F5F5F5F5F5F5F5F5F5F5F5F5F5F5F5F5F5
310
F5F5F5F5F5F5F5F5F5F5F5F5F5F5F5F5F5F5F5F5F5F5F5F5F5F5F5F5CDF5E2E2E2E2E2E2E2E2E2E2E2E2E2E2E2E2E2E2E2E2E2E2E2E2E2E2E2E2E2E2E2E2E2E2E2E2E2E2E2E2E2E2E2E2E2E2E2E2E2E2E2E2E2E2E2E2E2E2E2E2E2E2E2E2E2E2E2E2E2E2E2E2E2E2E2E2E2E2E2E2E2E2E2E2E2E2E2E2E2E2E2E2E2E2E2E2E2
310
E2E2E2E2E2E2E2E2E200F5E2E2E2E2E2E2E2E2E2E2E2E2E2E2E2E2E2E2E2E2E2E2E2E2E2E2E2E2E2E2E2E2E2E2E2E2E2E2E2E2E2E2E2E2E2E2E2E2E2E2E2E2E2E2E2E2E2E2E2E2E2E2E2E2E2E2E2E2E2E2E2E2E2E2E2E2E2E2E2E2E2E2E2E2E2E2E2E2E2E2E2E2E2E2E2E2E2E2E2E2E2E2E2E2E2E2CDF5E2E2E2E2E2E2E2E2
310
E2E2E2E2E2E2E2E2E2E2E2E2E2E2E2E2E2E2E2E2E2E2E2E2E2E2E2E2E2E2E2E2E2E2E2E2E2E2E2E2E2E2E2E2E2E2E2E2E2E2E2E2E2E2E2E2E2E2E2E2E2E2E2E2E2E2E2E2E2E2E2E2E2E2E2E2E2E2E2E2E2E2E2E2E2E2E2E2E2E2E2E2E2E2E2E2E2E200F5E2E2E2F5F5F5F5F5F5F5F5E2E2E2E2E2E2E2E2E2F5F5F5F5F5F5F5
310
F5F5F5F5F5F5F5F5F5E2E2E2E2E2E2E2E2E2F5F5F5F5F5F5F5F5F5F5F5F5F5F5F5F5E2E2E2E2E2E2E2E2E2F5F5F5F5F5F5F5F5F5F5F5F5F5F5F5F5E2E2E2E2E2E2E2E2E2F5F5F5F5F5F5F5F5E2E2E2CDF5E2E2E2F5E2E2E2E2E2E2E2E2E2E2E2E2E2E2E2E2E2E2E2E2E2E2E2E2E2E2E2E2E2E2E2E2E2E2E2E2E2E2E2E2E2E2
310
E2E2E2E2E2E2E2E2E2E2E2E2E2E2E2E2E2E2E2E2E2E2E2E2E2E2E2E2E2E2E2E2E2E2E2E2E2E2E2E2E2E2E2E2E2E2E2E2E2E2E2E2E2E2E2E2F5E2E2E200F5E2E2E2F5E2F5F5F5F5F5F5F5F5F5F5F5F5F5F5F5F5F5F5F5F5F5F5F5F5F5F5F5F5F5F5F5F5F5F5F5F5F5F5F5F5F5F5F5F5F5F5F5F5F5F5F5F5F5F5F5F5F5F5F5F5
310
F5F5F5F5F5F5F5F5F5F5F5F5F5F5F5F5F5F5F5F5F5F5F5F5F5F5F5F5F5F5F5F5F5F5F5F5E2F5E2E2E2CDF5E2E2E2F5E2F5E2E2E2E2E2E2E2E2E2E2E2E2E2E2E2E2E2E2E2E2E2E2E2E2E2E2E2E2E2E2E2E2E2E2E2E2E2E2E2E2E2E2E2E2E2E2E2E2E2E2E2E2E2E2E2E2E2E2E2E2E2E2E2E2E2E2E2E2E2E2E2E2E2E2E2E2E2E2
310
E2E2E2E2E2E2E2E2E2E2E2E2E2E2E2E2F5E2F5E2E2E200F5E2E2E2F5E2F5E2E2E2E2E2E2E2E2E2E2E2E2E2E2E2E2E2E2E2E2E2E2E2E2E2E2E2E2E2E2E2E2E2E2E2E2E2E2E2E2E2E2E2E2E2E2E2E2E2E2E2E2E2E2E2E2E2E2E2E2E2E2E2E2E2E2E2E2E2E2E2E2E2E2E2E2E2E2E2E2E2E2E2E2E2E2E2E2E2E2E2E2E2E2F5E2F5
310
E2E2E2CDF5E2E2E2F5E2F5E2E2E2E2E2E2E2E2E2E2E2E2E2E2E2E2E2E2E2E2E2E2E2E2E2E2E2E2E2E2E2E2E2E2E2E2E2E2E2E2E2E2E2E2E2E2E2E2E2E2E2E2E2E2E2E2E2E2E2E2E2E2E2E2E2E2E2E2E2E2E2E2E2E2E2E2E2E2E2E2E2E2E2E2E2E2E2E2E2E2E2E2E2E2F5E2F5E2E2E200F5E2E2E2F5E2F5E2E2E2E2E2E2E2E2
310
E2E2E2E2E2E2E2E2E2E2E2E2E2E2E2E2E2E2E2E2E2E2E2E2E2E2E2E2E2E2E2E2E2E2E2E2E2E2E2E2E2E2E2E2E2E2E2E2E2E2E2E2E2E2E2E2E2E2E2E2E2E2E2E2E2E2E2E2E2E2E2E2E2E2E2E2E2E2E2E2E2E2E2E2E2E2F5E2F5E2E2E2CDF5E2E2E2F5E2F5E2E2E2E2E2E2E2E2E2E2E2E2E2E2E2E2E2E2E2E2E2E2E2E2E2E2E2
310
E2E2E2E2E2E2E2E2E2E2E2E2E2E2E2E2E2E2E2E2E2E2E2E2E2E2E2E2E2E2E2E2E2E2E2E2E2E2E2E2E2E2E2E2E2E2E2E2E2E2E2E2E2E2E2E2E2E2E2E2E2E2E2E2E2E2E2F5E2F5E2E2E200F5E2E2E2F5E2F5E2E2E2E2E2E2E2E2E2E2E2E2E2E2E2E2E2E2E2E2E2E2E2E2E2E2E2E2E2E2E2E2E2E2E2E2E2E2E2E2E2E2E2E2E2E2
310
E2E2E2E2E2E2E2E2E2E2E2E2E2E2E2E2E2E2E2E2E2E2E2E2E2E2E2E2E2E2E2E2E2E2E2E2E2E2E2E2E2E2E2E2E2E2E2E2F5E2F5E2E2E2CDF5E2E2E2E2E2F5E2E2E2E2E2E2E2E2E2E2E2E2E2E2E2E2E2E2E2E2E2E2E2E2E2E2E2E2E2E2E2E2E2E2E2E2E2E2E2E2E2E2E2E2E2E2E2E2E2E2E2E2E2E2E2E2E2E2E2E2E2E2E2E2E2
310
E2E2E2E2E2E2E2E2E2E2E2E2E2E2E2E2E2E2E2E2E2E2E2E2E2E2E2E2E2F5E2E2E2E2E200F5E2E2E2E2E2F5E2E2E2E2E2E2E2E2E2E2E2E2E2E2E2E2E2E2E2E2E2E2E2E2E2E2E2E2E2E2E2E2E2E2E2E2E2E2E2E2E2E2E2E2E2E2E2E2E2E2E2E2E2E2E2E2E2E2E2E2E2E2E2E2E2E2E2E2E2E2E2E2E2E2E2E2E2E2E2E2E2E2E2E2
310
E2E2E2E2E2E2E2E2E2E2F5E2E2E2E2E2CDF5E2E2E2E2E2F5E2E2E2E2E2E2E2E2E2E2E2E2E2E2E2E2E2E2E2E2E2E2E2E2E2E2E2E2E2E2E2E2E2E2E2E2E2E2E2E2E2E2E2E2E2E2E2E2E2E2E2E2E2E2E2E2E2E2E2E2E2E2E2E2E2E2E2E2E2E2E2E2E2E2E2E2E2E2E2E2E2E2E2E2E2E2E2E2E2E2E2E2E2E2F5E2E2E2E2E200F5E2
310
E2E2E2E2F5E2E2E2E2E2E2E2E2E2E2E2E2E2E2E2E2E2E2E2E2E2E2E2E2E2E2E2E2E2E2E2E2E2E2E2E2E2E2E2E2E2E2E2E2E2E2E2E2E2E2E2E2E2E2E2E2E2E2E2E2E2E2E2E2E2E2E2E2E2E2E2E2E2E2E2E2E2E2E2E2E2E2E2E2E2E2E2E2E2E2E2E2E2E2F5E2E2E2E2E2CDF5E2E2E2E2E2F5E2E2E2E2E2E2E2E2E2E2E2E2E2E2
310
E2E2E2E2E2E2E2E2E2E2E2E2E2E2E2E2E2E2E2E2E2E2E2E2E2E2E2E2E2E2E2E2E2E2E2E2E2E2E2E2E2E2E2E2E2E2E2E2E2E2E2E2E2E2E2E2E2E2E2E2E2E2E2E2E2E2E2E2E2E2E2E2E2E2E2E2E2E2E2E2F5E2E2E2E2E200F5E2E2E2E2E2F5E2E2E2E2E2E2E2E2E2E2E2E2E2E2E2E2E2E2E2E2E2E2E2E2E2E2E2E2E2E2E2E2E2
310
E2E2E2E2E2E2E2E2E2E2E2E2E2E2E2E2E2E2E2E2E2E2E2E2E2E2E2E2E2E2E2E2E2E2E2E2E2E2E2E2E2E2E2E2E2E2E2E2E2E2E2E2E2E2E2E2E2E2E2E2E2F5E2E2E2E2E2CDF5E2E2E2E2E2F5E2E2E2E2E2E2E2E2E2E2E2E2E2E2E2E2E2E2E2E2E2E2E2E2E2E2E2E2E2E2E2E2E2E2E2E2E2E2E2E2E2E2E2E2E2E2E2E2E2E2E2E2
310
E2E2E2E2E2E2E2E2E2E2E2E2E2E2E2E2E2E2E2E2E2E2E2E2E2E2E2E2E2E2E2E2E2E2E2E2E2E2E2E2E2E2F5E2E2E2E2E200F5E2E2E2E2E2F5E2E2E2E2E2E2E2E2E2E2E2E2E2E2E2E2E2E2E2E2E2E2E2E2E2E2E2E2E2E2E2E2E2E2E2E2E2E2E2E2E2E2E2E2E2E2E2E2E2E2E2E2E2E2E2E2E2E2E2E2E2E2E2E2E2E2E2E2E2E2E2
310
E2E2E2E2E2E2E2E2E2E2E2E2E2E2E2E2E2E2E2E2E2E2E2F5E2E2E2E2E2CDF5E2E2E2E2E2F5E2E2E2E2E2E2E2E2E2E2E2E2E2E2E2E2E2E2E2E2E2E2E2E2E2E2E2E2E2E2E2E2E2E2E2E2E2E2E2E2E2E2E2E2E2E2E2E2E2E2E2E2E2E2E2E2E2E2E2E2E2E2E2E2E2E2E2E2E2E2E2E2E2E2E2E2E2E2E2E2E2E2E2E2E2E2E2E2E2E2
310
E2E2E2E2F5E2E2E2E2E200F5E2E2E2F5E2F5E2E2E2E2E2E2E2E2E2E2E2E2E2E2E2E2E2E2E2E2E2E2E2E2E2E2E2E2E2E2E2E2E2E2E2E2E2E2E2E2E2E2E2E2E2E2E2E2E2E2E2E2E2E2E2E2E2E2E2E2E2E2E2E2E2E2E2E2E2E2E2E2E2E2E2E2E2E2E2E2E2E2E2E2E2E2E2E2E2E2E2E2E2E2F5E2F5E2E2E2CDF5E2E2E2F5E2F5E2
310
E2E2E2E2E2E2E2E2E2E2E2E2E2E2E2E2E2E2E2E2E2E2E2E2E2E2E2E2E2E2E2E2E2E2E2E2E2E2E2E2E2E2E2E2E2E2E2E2E2E2E2E2E2E2E2E2E2E2E2E2E2E2E2E2E2E2E2E2E2E2E2E2E2E2E2E2E2E2E2E2E2E2E2E2E2E2E2E2E2E2E2E2E2F5E2F5E2E2E200F5E2E2E2F5E2F5E2E2E2E2E2E2E2E2E2E2E2E2E2E2E2E2E2E2E2E2
310
E2E2E2E2E2E2E2E2E2E2E2E2E2E2E2E2E2E2E2E2E2E2E2E2E2E2E2E2E2E2E2E2E2E2E2E2E2E2E2E2E2E2E2E2E2E2E2E2E2E2E2E2E2E2E2E2E2E2E2E2E2E2E2E2E2E2E2E2E2E2E2E2E2E2F5E2F5E2E2E2CDF5E2E2E2F5E2F5E2E2E2E2E2E2E2E2E2E2E2E2E2E2E2E2E2E2E2E2E2E2E2E2E2E2E2E2E2E2E2E2E2E2E2E2E2E2E2
310
E2E2E2E2E2E2E2E2E2E2E2E2E2E2E2E2E2E2E2E2E2E2E2E2E2E2E2E2E2E2E2E2E2E2E2E2E2E2E2E2E2E2E2E2E2E2E2E2E2E2E2E2E2E2E2F5E2F5E2E2E200F5E2E2E2F5E2F5E2E2E2E2E2E2E2E2E2E2E2E2E2E2E2E2E2E2E2E2E2E2E2E2E2E2E2E2E2E2E2E2E2E2E2E2E2E2E2E2E2E2E2E2E2E2E2E2E2E2E2E2E2E2E2E2E2E2
310
E2E2E2E2E2E2E2E2E2E2E2E2E2E2E2E2E2E2E2E2E2E2E2E2E2E2E2E2E2E2E2E2E2E2E2E2F5E2F5E2E2E2CDF5E2E2E2F5E2F5E2E2E2E2E2E2E2E2E2E2E2E2E2E2E2E2E2E2E2E2E2E2E2E2E2E2E2E2E2E2E2E2E2E2E2E2E2E2E2E2E2E2E2E2E2E2E2E2E2E2E2E2E2E2E2E2E2E2E2E2E2E2E2E2E2E2E2E2E2E2E2E2E2E2E2E2E2
310
E2E2E2E2E2E2E2E2E2E2E2E2E2E2E2E2E2F5E2F5E2E2E200F5E2E2E2F5E2F5E2E2E2E2E2E2E2E2E2E2E2E2E2E2E2E2E2E2E2E2E2E2E2E2E2E2E2E2E2E2E2E2E2E2E2E2E2E2E2E2E2E2E2E2E2E2E2E2E2E2E2E2E2E2E2E2E2E2E2E2E2E2E2E2E2E2E2E2E2E2E2E2E2E2E2E2E2E2E2E2E2E2E2E2E2E2E2E2E2E2E2E2E2E2F5E2
310
F5E2E2E200F5E2E2E2F5E2F5E2E2E2E2E2E2E2E2E2E2E2E2E2E2E2E2E2E2E2E2E2E2E2E2E2E2E2E2E2E2E2E2E2E2E2E2E2E2E2E2E2E2E2E2E2E2E2E2E2E2E2E2E2E2E2E2E2E2E2E2E2E2E2E2E2E2E2E2E2E2E2E2E2E2E2E2E2E2E2E2E2E2E2E2E2E2E2E2E2E2E2E2E2E2F5E2F5E2E2E200F5E2E2E2F5E2F5E2E2E2E2E2E2E2
310
E2E2E2E2E2E2E2E2E2E2E2E2E2E2E2E2E2E2E2E2E2E2E2E2E2E2E2E2F5F5F5F5F5F5F5F5F5F5F5F5F5F5F5F5F5F5F5F5F5F5F5F5F5F5F5F5F5F5E2E2E2E2E2E2E2E2E2E2E2E2E2E2E2E2E2E2E2E2E2E2E2E2E2E2E2E2E2F5E2F5E2E2E200F5E2E2E2F5E2F5E2E2E2E2E2E2E2E2E2E2E2E2E2E2E2E2E2E2E2E2E2E2E2E2E2E2
310
E2E2E2E2E2E2E2E2E2F5F5F5F5F5F5F5F5F5F5F5F5F5F5F5F5F5F5F5F5F5F5F5F5F5F5F5F5F5E2E2E2E2E2E2E2E2E2E2E2E2E2E2E2E2E2E2E2E2E2E2E2E2E2E2E2E2E2E2F5E2F5E2E2E200F5E2E2E2F5E2F5E2E2E2E2E2E2E2E2E2E2E2E2E2E2E2E2E2E2E2E2E2E2E2E2E2E2E2E2E2E2F5F5F5F5F5F5F5F5F5F5F5F5F5F5F5
310
F5F5F5F5F5F5F5F5F5F5F5F5F5F5F5F5F5F5F5F5F5F5F5F5F5E2E2E2E2E2E2E2E2E2E2E2E2E2E2E2E2E2E2E2E2E2E2E2E2F5E2F5E2E2E200F5E2E2E2F5E2F5E2E2E2E2E2E2E2E2E2E2E2E2E2E2E2E2E2E2E2E2E2E2E2E2E2E2E2E2E2E2F5F5F5F5F5F5F5F5F5F5F5F5F5F5F5F5F5F5F5F5F5F5F5F5F5F5F5F5F5F5F5F5F5F5
310
F5F5F5F5F5E2E2E2E2E2E2E2E2E2E2E2E2E2E2E2E2E2E2E2E2E2E2E2E2E2F5E2F5E2E2E200F5E2E2E2F5E2F5E2E2E2E2E2E2E2E2E2E2E2E2E2E2E2E2E2E2E2E2E2E2E2E2E2E2E2E2E2E2E2E2E2E2E2E2E2E2E2E2E2E2E2E2E2E2E2E2E2E2E2E2E2E2E2E2E2E2E2E2E2E2E2E2E2E2E2E2E2E2E2E2E2E2E2E2E2E2E2E2E2E2E2
310
E2E2E2E2E2E2E2E2E2E2E2F5E2F5E2E2E200F5E2E2E2F5E2F5E2E2E2E2E2E2E2E2E2E2E2E2E2E2E2E2E2E2E2E2E2E2E2E2E2E2E2E2E2E2E2E2E2E2E2E2E2E2E2E2E2E2E2E2E2E2E2E2E2E2E2E2E2E2E2E2E2E2E2E2E2E2E2E2E2E2E2E2E2E2E2E2E2E2E2E2E2E2E2E2E2E2E2E2E2E2E2E2E2E2E2E2E2E2F5E2F5E2E2E200F5
310
E2E2E2F5E2F5E2E2E2E2E2E2E2E2E2E2E2E2E2E2E2E2E2E2E2E2E2E2E2E2E2E2E2E2E2E2E2E2E2E2E2E2E2E2E2E2E2E2E2E2E2E2E2E2E2E2E2E2E2E2E2E2E2E2E2E2E2E2E2E2E2E2E2E2E2E2E2E2E2E2E2E2E2E2E2E2E2E2E2E2E2E2E2E2E2E2E2E2E2E2F5E2F5E2E2E200F5E2E2E2F5E2F5E2E2E2E2E2E2E2E2E2E2E2E2E2
310
E2E2E2E2E2E2E2E2E2E2E2E2E2E2E2E2E2E2E2E2E2E2E2E2E2E2E2E2E2E2E2E2E2E2E2E2E2E2E2E2E2E2E2E2E2E2E2E2E2E2E2E2E2E2E2E2E2E2E2E2E2E2E2E2E2E2E2E2E2E2E2E2E2E2E2E2E2E2E2E2E2F5E2F5E2E2E2F5F5E2E2E2F5E2F5E2E2E2E2E2E2E2E2E2E2E2E2E2E2E2E2E2E2E2E2E2E2E2E2E2E2E2E2E2E2E2E2
310
E2E2E2E2E2E2E2E2E2E2E2E2E2E2E2E2E2E2E2E2E2E2E2E2E2E2E2E2E2E2E2E2E2E2E2E2E2E2E2E2E2E2E2E2E2E2E2E2E2E2E2E2E2E2E2E2E2E2E2E2E2E2F5E2F5E2E2E2EFF5E2E2E2E2E2F5E2E2E2E2E2E2E2E2E2E2E2E2E2E2E2E2E2E2E2E2E2E2E2E2E2E2E2E2E2E2E2E2E2E2E2E2E2E2E2E2E2E2E2E2E2E2E2E2E2E2E2
310
E2E2E2E2E2E2E2E2E2E2E2E2E2E2E2E2E2E2E2E2E2E2E2E2E2E2E2E2E2E2E2E2E2E2E2E2E2E2E2E2E2E2E2F5E2E2E2E2E2E2F5E2E2E2E2E2F5E2E2E2E2E2E2E2E2E2E2E2E2E2E2E2E2E2E2E2E2E2E2E2E2E2E2E2E2E2E2E2E2E2E2E2E2E2E2E2E2E2E2E2E2E2E2E2E2E2E2E2E2E2E2E2E2E2E2E2E2E2E2E2E2E2E2E2E2E2E2
310
E2E2E2E2E2E2E2E2E2E2E2E2E2E2E2E2E2E2E2E2E2E2E2E2F5E2E2E2E2E2F5F5E2E2E2E2E2F5E2E2E2F5F5F5F5F5F5F5F5F5F5F5F5F5F5F5F5F5F5F5F5F5F5F5F5F5F5F5F5F5F5F5F5F5F5F5F5F5F5F5F5F5F5F5F5F5F5F5F5F5F5F5F5F5F5F5F5F5F5F5F5F5F5F5F5F5E2E2E2E2E2E2E2E2E2E2E2E2E2E2E2E2E2E2E2E2E2
310
E2E2E2E2E2F5E2E2E2E2E2EFF5E2E2E2E2E2F5E2E2E2F5F5E2E2E2E2E2E2F5F5E2E2E2E2E2E2E2F5E2E2E2E2E2E2E2F5E2E2E2E2E2F5E2F5F5E2E2E2E2E2E2E2E2E2E2E2E2F5E2E2E2E2E2E2E2E2E2E2E2E2E2E2E2E2E2E2E2E2E2E2E2E2F5F5F5F5F5F5F5F5F5F5F5F5F5F5E2E2E2E2E2F5E2E2E2E2E2E2F5E2E2E2E2E2F5
310
E2E2E2F5F5E2E2E2E2E2E2F5F5E2E2E2E2E2E2E2F5E2E2E2E2E2E2E2F5E2E2E2E2E2F5E2F5F5F5E2E2E2E2E2E2E2E2E2E2E2F5E2E2E2E2E2E2F5F5F5F5F5F5F5F5F5F5F5F5E2E2E2E2E2E2F5F5F5F5F5F5F5F5F5E2E2E2E2E2E2E2E2E2E2F5E2E2E2E2E2EFF5E2E2E2E2E2F5E2E2E2F5E2E2E2E2E2E2E2F5E2E2E2E2E2E2E2
310
E2F5E2E2E2E2E2E2E2F5E2E2E2E2E2F5E2F5F5F5E2E2F5F5F5F5F5F5F5E2E2F5E2E2E2E2F5F5F5F5F5F5F5F5F5F5F5F5F5F5F5F5E2E2E2F5F5F5F5F5F5F5F5F5F5F5F5F5F5F5F5F5F5F5E2F5E2E2E2E2E2E2F5E2E2E2E2E2F5E2E2E2F5E2E2E2E2E2E2E2F5E2E2E2E2E2E2E2E2F5E2E2E2E2E2E2E2F5E2E2E2E2E2F5E2F5F5
310
E2F5F5F5E2E2E2E2E2E2E2E2F5E2E2E2E2F5E2F5F5F5F5E2E2F5E2F5F5F5E2E2F5E2E2E2F5E2F5F5F5E2E2F5E2F5F5F5F5F5F5F5E2E2F5E2F5E2E2E2E2E2E2F5E2E2E2E2E2F5E2E2E2F5E2E2E2E2E2E2E2F5E2E2E2E2E2E2E2E2F5E2E2E2E2E2E2E2F5E2E2E2E2E2F5E2F5F5E2E2E2E2E2E2E2E2E2E2E2E2F5E2E2E2E2F5F5
310
F5F5F5F5F5F5F5F5F5F5F5F5F5F5E2E2E2F5F5F5F5F5F5F5F5F5F5F5F5F5F5F5F5F5F5F5E2F5E2E2E2E2E2EFF5E2E2E2E2E2F5E2E2E2F5E2E2E2E2E2E2E2F5E2E2E2E2E2E2E2E2F5E2E2E2E2E2E2E2F5E2E2E2E2E2F5E2F5F5E2E2E2E2E2E2E2E2E2E2E2E2F5E2E2E2E2F5F5F5F5F5F5F5F5F5F5F5F5F5F5F5F5E2E2E2F5F5
310
F5F5F5F5F5F5F5F5F5F5F5F5F5F5F5F5F5E2F5E2E2E2E2E2E2F5E2E2E2F5E2F5E2E2E2F5E2E2E2E2E2E2E2F5E2E2E2E2E2E2E2E2F5E2E2E2E2E2E2E2F5E2E2E2E2E2F5E2F5F5E2E2E2E2E2E2E2E2E2E2E2E2F5E2E2E2E2F5E2E2E2E2E2E2E2F5E2E2E2E2E2E2F5E2E2E2F5E2E2E2E2E2E2F5E2E2E2E2E2E2E2E2E2E2F5E2F5
310
E2F5E2E2E2EFF5E2E2E2F5E2F5E2E2E2F5E2E2E2E2E2E2E2F5E2E2E2E2E2E2E2E2F5E2E2E2E2E2E2E2F5E2E2E2E2E2F5E2F5F5E2E2E2E2E2E2E2E2E2E2E2E2F5E2E2E2E2F5F5F5F5F5F5F5F5F5F5F5F5F5F5F5F5E2E2E2F5F5F5F5F5F5F5F5F5F5F5F5F5F5F5F5F5F5F5E2F5E2F5E2E2E2E2F5E2E2E2F5E2F5E2E2E2F5E2E2
310
E2E2E2E2E2F5E2E2E2E2E2E2E2E2F5E2E2E2E2E2E2E2F5E2E2E2E2E2F5E2F5F5E2E2E2E2E2E2E2E2E2E2E2E2F5E2E2E2E2F5E2E2F5F5E2E2E2F5F5F5F5F5F5E2F5E2E2E2F5F5F5F5F5F5F5F5F5F5F5F5F5F5F5F5F5F5F5E2F5E2F5E2E2E2E2F5E2E2E2F5E2F5E2E2E2F5E2E2E2E2E2E2E2F5E2E2E2E2E2E2E2E2F5E2E2E2E2
310
E2E2E2F5E2E2E2E2E2F5E2F5F5E2E2E2E2E2E2E2E2E2E2E2E2F5E2E2E2E2F5F5F5F5F5F5F5F5F5F5F5F5F5F5F5F5E2E2E2F5F5F5F5F5F5F5F5F5F5F5F5F5F5F5F5F5F5F5E2F5E2F5E2E2E2EFF5E2E2E2F5E2F5E2E2E2F5E2E2E2E2E2E2E2F5E2E2E2E2E2E2E2E2F5E2E2E2E2E2E2E2F5E2E2E2E2E2F5E2F5F5E2E2E2E2E2E2
310
E2E2E2E2E2E2F5E2E2E2E2F5E2F5F5F5F5F5F5F5F5F5F5F5E2E2F5E2E2E2F5E2E2F5F5F5F5F5F5F5F5F5F5F5F5F5E2E2F5E2F5E2F5E2E2E2E2F5E2E2E2F5E2F5E2E2E2F5E2E2E2E2E2E2E2F5E2E2E2E2E2E2E2E2F5E2E2E2E2E2E2E2F5E2E2E2E2E2F5E2F5F5E2E2E2E2E2E2E2E2E2E2E2E2F5E2E2E2E2F5E2E2E2F5F5F5F5
310
F5F5F5F5E2E2E2F5E2E2E2F5E2E2F5F5F5F5F5F5F5F5F5F5F5F5E2E2E2F5E2F5E2F5E2E2E2EFF5E2E2E2F5E2F5E2E2E2F5E2E2E2E2E2E2E2F5E2E2E2E2E2E2E2E2F5E2E2E2E2E2E2E2F5E2E2E2E2E2F5E2F5F5E2E2E2E2E2E2E2E2E2E2E2E2F5E2E2E2E2F5E2E2E2F5F5F5F5F5F5F5F5E2E2E2F5E2E2E2F5E2E2F5F5F5F5F5
310
F5F5F5F5F5F5F5E2E2E2F5E2F5E2F5E2E2E2E2F5E2E2E2F5E2F5E2E2E2F5E2E2E2E2E2E2E2F5E2E2E2E2E2E2E2E2F5E2E2E2E2E2E2E2F5E2E2E2E2E2F5E2F5F5E2E2E2E2E2E2E2E2E2E2E2E2F5E2E2E2E2F5F5F5F5F5F5F5F5F5F5F5F5F5F5F5F5E2E2E2F5F5F5F5F5F5F5F5F5F5F5F5F5F5F5F5F5F5F5E2F5E2F5E2E2E2E2
310
F5E2E2E2F5E2F5E2E2E2F5E2E2E2E2E2E2E2F5E2E2E2E2E2E2E2E2F5E2E2E2E2E2E2E2F5E2E2E2E2E2F5E2F5F5E2E2E2E2E2E2E2E2E2E2E2E2F5E2E2E2E2E2E2E2E2E2E2E2E2E2E2E2E2E2E2E2E2E2E2E2E2E2E2E2E2E2E2E2E2E2E2E2E2E2E2E2E2E2E2E2F5E2F5E2E2E2EFF5E2E2E2F5E2F5E2E2E2F5E2E2E2E2E2E2E2F5
310
E2E2E2E2E2E2E2E2F5E2E2E2E2E2E2E2F5E2E2E2E2E2F5E2F5F5E2E2E2E2E2E2E2E2E2E2E2E2F5E2E2E2E2E2E2E2E2E2E2E2E2E2F5F5F5F5F5F5F5F5F5F5F5F5F5F5F5F5F5F5F5F5F5F5F5E2E2E2E2E2E2E2F5E2F5E2E2E2E2F5E2E2E2F5E2F5E2E2E2F5E2E2E2E2E2E2E2F5E2E2E2E2E2E2E2E2F5E2E2E2E2E2E2E2F5E2E2
310
E2E2E2F5E2F5F5E2E2E2E2E2E2E2E2E2E2E2E2F5E2E2E2E2E2E2E2E2E2E2E2E2E2F5F5F5F5F5F5F5F5F5F5F5F5F5F5F5F5F5F5F5F5F5F5E2E2E2E2E2E2E2E2F5E2F5E2E2E2EFF5E2E2E2F5E2F5E2E2E2F5E2E2E2E2E2E2E2F5E2E2E2E2E2E2E2E2F5E2E2E2E2E2E2E2F5E2E2E2E2E2F5E2F5F5E2E2E2E2E2E2E2E2E2E2E2E2
310
F5E2E2E2E2E2E2E2E2E2E2E2E2E2E2E2E2E2F5F5F5F5F5F5F5F5F5F5F5F5E2E2E2E2E2E2E2E2E2E2E2E2E2E2F5E2F5E2E2E2E2F5E2E2E2F5E2F5E2E2E2F5E2E2E2E2E2E2E2F5E2E2E2E2E2E2E2E2F5E2E2E2E2E2E2E2F5E2E2E2E2E2F5E2F5F5E2E2E2E2E2E2E2E2F5F5F5F5F5F5F5F5E2E2E2E2E2E2E2E2E2E2E2E2E2E2F5
310
F5F5F5F5F5F5F5F5F5F5E2E2E2E2E2E2E2E2E2E2E2E2E2E2E2F5E2F5E2E2E2E2F5E2E2E2F5E2F5E2E2E2F5E2E2E2E2E2E2E2F5E2E2E2E2E2E2E2E2F5E2E2E2E2E2E2E2F5E2E2E2E2E2F5E2F5F5E2E2E2E2E2E2E2E2F5F5F5F5F5F5F5F5E2E2E2E2E2E2E2E2E2E2E2E2E2E2E2E2E2E2E2E2E2E2E2E2E2E2E2E2E2E2E2E2E2E2
310
E2E2E2E2E2E2F5E2F5E2E2E2EFF5E2E2E2F5E2F5F5F5F5F5F5F5F5E2E2E2E2F5E2E2E2E2E2E2E2E2F5E2E2E2E2E2E2E2F5E2E2E2E2E2F5E2F5F5F5E2E2E2E2E2E2E2E2E2E2E2F5E2E2E2E2E2E2E2E2E2E2E2E2E2E2E2E2E2E2E2E2E2E2E2E2E2E2E2E2E2E2E2E2E2E2E2E2E2E2E2E2E2E2E2F5E2F5E2E2E2E2F5E2E2E2F5E2
310
F5E2F5F5F5F5F5E2E2E2E2E2F5E2E2E2E2F5F5F5F5F5F5F5F5E2E2F5F5F5F5E2E2E2E2F5E2F5F5F5E2E2E2E2E2E2E2E2E2E2E2F5E2E2E2E2E2E2E2E2E2E2E2E2E2E2E2E2E2E2E2E2E2E2E2E2E2E2E2E2E2E2E2E2E2E2E2E2E2E2E2E2E2E2E2F5E2F5E2E2E2EFF5E2E2E2F5E2F5E2F5F5F5F5F5E2E2E2E2E2F5E2E2E2E2F5F5
310
F5F5F5F5F5F5E2E2F5F5F5F5E2E2E2E2F5E2F5F5F5E2E2E2E2E2E2E2E2E2E2E2F5E2E2E2E2E2E2E2E2E2E2E2E2E2E2F5F5E2E2E2E2E2E2E2E2E2E2E2E2E2E2E2E2E2E2E2E2E2E2E2E2E2E2E2F5E2F5E2E2E2E2F5E2E2E2E2E2F5E2E2E2F5E2E2E2E2E2E2E2F5E2E2E2E2F5F5F5F5F5F5F5E2E2E2E2E2F5E2E2E2E2E2F5E2F5
310
F5F5E2E2E2E2E2E2E2E2E2E2E2F5E2E2E2E2E2E2E2E2E2E2E2E2E2E2F5F5E2E2E2E2E2E2E2E2E2E2E2E2E2E2E2E2E2E2E2E2E2E2E2E2E2E2E2F5E2E2E2E2E2E2F5E2E2E2E2E2F5E2E2E2F5E2E2E2E2E2E2E2F5E2E2E2E2E2E2E2E2F5E2E2E2E2E2E2E2F5E2E2E2E2E2F5E2F5F5F5E2E2E2E2E2E2E2E2E2E2E2F5E2E2E2E2E2
310
E2E2E2E2E2E2E2E2E2F5F5E2E2E2E2E2E2E2E2E2E2E2E2E2E2E2E2E2E2E2E2E2E2E2E2E2E2E2F5E2E2E2E2E2EFF5E2E2E2E2E2F5E2E2E2F5E2E2E2E2F5F5F5F5F5F5F5E2E2E2E2E2F5E2E2E2E2E2E2E2F5E2E2E2E2E2F5E2F5F5F5E2E2E2E2E2E2E2E2E2E2E2F5E2E2E2E2E2E2E2E2E2E2E2E2E2E2F5F5F5E2E2E2E2E2E2E2
310
E2E2E2E2E2E2E2E2E2E2E2E2E2E2E2E2E2E2E2F5E2E2E2E2E2E2F5E2E2E2E2E2F5E2E2E2F5E2E2E2E2E2F5F5F5F5F5E2E2E2E2E2E2F5E2E2E2E2E2E2E2F5E2E2E2E2E2F5E2F5F5F5E2E2E2E2E2E2E2E2E2E2E2F5E2E2E2E2E2E2E2E2E2E2E2E2E2E2F5F5F5F5E2E2E2E2E2E2E2E2E2E2E2E2E2E2E2E2E2E2E2E2E2E2E2E2E2
310
F5E2E2E2E2E2EFF5E2E2E2E2E2F5E2E2E2F5E2E2E2E2E2E2E2F5E2E2E2E2E2E2E2E2F5E2E2E2E2E2E2E2F5E2E2E2E2E2F5E2F5F5F5E2E2E2E2E2E2E2E2E2E2E2F5E2E2E2E2E2E2E2E2E2E2E2E2E2E2F5F5E2F5F5E2E2E2E2E2E2E2E2E2E2E2E2E2E2E2E2E2E2E2E2E2E2E2E2F5E2E2E2E2E2E2F5E2E2E2E2E2F5E2E2E2F5E2
310
E2E2E2E2E2E2F5E2E2E2E2E2E2E2E2F5E2E2E2E2E2E2E2F5E2E2E2E2E2F5E2F5F5F5E2E2E2E2E2E2E2E2E2E2E2F5E2E2E2E2E2E2E2E2E2E2E2E2E2E2F5F5E2E2F5F5F5E2E2E2E2E2E2E2E2E2E2E2E2E2E2E2E2E2E2E2E2E2E2F5E2E2E2E2E2E2F5E2E2E2E2E2F5E2E2E2F5E2E2E2E2E2E2E2F5E2E2E2E2E2E2E2E2F5E2E2E2
310
E2E2E2E2F5E2E2E2E2E2F5E2F5F5F5E2E2E2E2E2E2E2E2E2E2E2F5E2E2E2E2E2E2E2E2E2E2E2E2E2E2F5F5E2F5F5F5F5E2E2E2E2E2E2E2E2E2E2E2E2E2E2E2E2E2E2E2E2E2E2F5E2E2E2E2E2EFF5E2E2E2E2E2F5E2E2E2F5E2E2E2E2E2E2E2F5E2E2E2E2E2E2E2E2F5E2E2E2E2E2E2E2F5E2E2E2E2E2F5E2F5F5F5E2E2E2E2
310
E2E2E2E2E2E2E2F5E2E2E2E2E2E2E2E2E2E2E2E2E2F5F5F5F5F5F5F5F5F5F5F5F5E2E2E2E2E2E2E2E2E2E2E2E2E2E2E2E2E2E2F5E2E2E2E2E2E2F5E2E2E2E2E2F5E2E2E2F5E2E2E2E2E2E2E2F5E2E2E2E2E2E2E2E2F5E2E2E2E2E2E2E2F5E2E2E2E2E2F5E2F5F5F5E2E2E2E2E2E2E2E2E2E2E2F5E2E2E2E2E2E2E2E2E2E2E2
310
E2E2F5F5F5F5F5F5F5F5F5F5F5F5E2E2E2E2E2E2E2E2E2E2E2E2E2E2E2E2E2E2F5E2E2E2E2E2EFF5E2E2E2F5E2F5E2E2E2F5E2E2E2E2E2E2E2F5E2E2E2E2E2E2E2E2F5E2E2E2E2E2E2E2F5E2E2E2E2E2F5E2F5F5F5E2E2E2E2E2E2E2E2E2E2E2F5E2E2E2E2E2E2E2E2E2E2E2E2E2E2E2E2E2E2E2F5E2E2F5E2E2F5F5F5F5F5
310
F5F5F5F5F5E2E2E2E2E2E2E2E2F5E2F5E2E2E2E2F5E2E2E2F5E2F5E2E2E2F5E2E2E2E2E2E2E2F5E2E2E2E2E2E2E2E2F5E2E2E2E2E2E2E2F5E2E2E2E2E2F5E2F5F5F5E2E2E2E2E2E2E2E2E2E2E2F5E2E2E2E2E2E2E2E2E2E2E2E2E2E2E2E2E2E2E2E2E2E2E2F5E2F5F5F5F5F5F5F5F5F5F5F5F5F5F5F5F5F5E2F5E2F5E2E2E2
310
E2F5E2E2E2F5E2F5E2E2E2F5E2E2E2E2E2E2E2F5E2E2E2E2E2E2E2E2F5E2E2E2E2E2E2E2F5E2E2E2E2E2F5E2F5F5F5E2E2E2F5F5F5F5F5F5F5E2F5E2E2E2E2E2E2E2E2E2E2E2E2E2E2E2E2E2E2E2E2E2E2E2F5F5E2E2E2E2E2E2E2E2E2E2E2E2E2E2E2E2E2E2F5E2F5E2E2E2EFF5E2E2E2F5E2F5E2E2E2F5E2E2E2E2E2E2E2
310
F5E2E2E2E2E2E2E2E2F5E2E2E2E2E2E2E2F5E2E2E2E2E2F5E2F5F5F5E2E2E2F5F5F5F5E2E2E2E2F5E2E2E2E2E2E2E2E2E2E2E2E2E2E2E2E2E2E2E2E2E2E2E2E2E2E2E2E2E2E2E2E2E2E2E2E2E2E2E2E2E2E2E2F5E2F5E2E2E2F5F5E2E2E2F5E2F5E2E2E2F5E2E2E2E2E2E2E2F5E2E2E2E2E2E2E2E2F5E2E2E2E2E2E2E2F5E2
310
E2E2E2E2F5E2F5F5F5E2E2F5F5E2E2E2E2E2E2E2F5E2E2E2E2E2E2E2E2E2E2E2E2E2E2E2E2E2E2E2E2E2E2E2E2E2E2E2E2E2E2E2E2E2E2E2E2E2E2E2E2E2E2E2F5E2F5E2E2E2EFF5E2E2E2F5E2F5E2E2E2F5E2E2E2E2E2E2E2F5E2E2E2E2E2E2E2E2F5E2E2E2E2E2E2E2F5E2E2E2E2E2F5E2F5F5F5F5F5E2E2E2E2E2E2E2E2
310
E2F5E2E2E2E2E2E2E2E2E2E2E2E2E2E2E2E2E2E2E2E2E2E2E2E2E2E2E2E2E2E2E2E2E2E2E2E2F5F5E2E2E2E2E2F5E2F5E2E2E2E2F5E2E2E2F5E2F5E2E2E2F5E2E2E2E2E2E2E2F5E2E2E2E2E2E2E2E2F5E2E2E2E2E2E2E2F5E2E2E2E2E2F5E2F5F5F5E2E2E2E2E2E2E2E2E2E2E2F5E2E2E2E2E2E2E2E2E2E2E2E2E2E2E2E2E2
310
E2E2E2E2E2E2E2E2E2E2E2E2E2E2E2E2E2E2E2F5F5F5F5F5F5F5F5E2F5E2E2E2E2F5E2E2E2F5E2F5E2E2E2F5E2E2E2E2E2E2E2F5E2E2E2E2E2E2E2E2F5E2E2E2E2E2E2E2F5E2E2E2E2E2F5E2F5F5F5F5F5F5F5F5F5F5F5F5F5F5F5E2E2E2E2E2E2E2E2E2E2E2E2E2E2E2E2E2E2E2E2E2E2E2E2E2E2E2E2E2E2E2E2E2E2E2E2
310
E2E2E2F5E2E2F5F5E2F5E2E2E2EFF5E2E2E2F5E2F5E2E2E2F5E2E2E2E2E2E2E2F5E2E2E2E2E2E2E2E2F5E2E2E2E2E2E2E2F5E2E2E2E2E2F5E2F5F5F5E2E2E2E2E2E2E2E2E2E2E2E2E2E2E2E2F5F5F5F5F5F5F5F5F5F5F5F5F5F5F5F5E2E2E2E2E2E2E2E2E2E2E2E2E2E2E2E2E2E2E2E2E2E2F5F5E2F5E2E2E2F5F5E2E2E2F5
310
E2F5E2E2E2F5E2E2E2E2E2E2E2F5E2E2E2E2E2E2E2E2F5E2E2E2E2E2E2E2F5E2E2E2E2E2F5E2F5F5F5F5F5F5F5F5F5F5F5F5F5F5F5F5F5F5F5E2F5F5F5F5F5F5F5F5F5F5F5F5F5F5E2E2F5F5F5F5F5F5F5F5F5F5F5F5F5F5F5F5F5F5E2E2E2F5F5E2F5E2E2E2EFF5E2E2E2F5E2F5E2E2E2F5E2E2E2E2E2E2E2F5E2E2E2E2E2
310
E2E2E2F5E2E2E2E2E2E2E2F5E2E2E2E2E2F5E2F5E2F5F5E2E2E2F5F5F5F5F5F5F5F5E2E2E2E2E2E2E2E2E2E2E2E2E2E2E2E2E2E2E2E2E2E2E2E2E2E2E2E2E2E2E2E2E2E2E2E2E2E2F5E2E2E2F5F5E2F5E2E2E2E2F5E2E2E2F5E2F5E2E2E2F5E2E2E2E2E2E2E2F5E2E2E2E2E2E2E2E2F5E2E2E2E2E2E2E2F5E2E2E2E2E2F5E2
310
F5F5F5F5F5F5F5F5F5F5F5F5F5F5F5E2E2E2E2E2E2E2E2E2E2E2E2E2E2E2E2E2E2E2E2E2E2E2E2E2E2E2E2E2E2E2E2E2E2E2E2E2E2F5E2E2E2F5F5E2F5E2E2E2E2F5E2E2E2F5E2F5E2E2E2F5E2E2E2E2E2E2E2F5E2E2E2E2E2E2E2E2F5E2E2E2E2E2E2E2F5E2E2E2E2E2F5E2F5E2E2F5F5F5F5E2E2E2E2E2E2E2E2E2E2E2E2
310
E2E2E2E2E2E2E2E2E2E2E2E2E2E2E2E2E2E2E2E2E2E2E2E2E2E2E2E2E2E2E2E2E2E2F5E2E2E2F5F5E2F5E2E2E2EFF5E2E2E2F5E2F5E2E2E2F5E2E2E2E2E2E2E2F5E2E2E2E2E2E2E2F5F5F5F5F5F5F5F5F5F5F5F5F5F5F5F5F5F5F5F5F5F5F5F5F5F5F5F5F5F5F5F5F5F5F5F5F5F5F5F5F5F5F5F5F5F5F5F5F5F5F5F5F5F5F5
310
F5F5F5F5F5F5F5F5F5F5F5F5F5F5F5F5E2E2E2F5F5E2F5E2E2E2E2F5E2E2E2F5E2F5E2E2E2F5E2E2E2E2E2E2E2F5E2E2E2E2E2E2E2E2E2E2E2E2E2E2E2E2F5E2E2E2E2E2F5F5F5F5F5F5F5F5F5F5F5F5F5F5F5F5F5F5F5F5F5F5F5F5F5F5F5F5F5F5F5F5F5F5F5F5F5F5F5F5F5F5F5F5F5F5F5F5F5F5F5F5F5F5F5F5E2E2E2
310
F5F5E2F5E2E2E2EFF5E2E2E2F5E2F5E2E2E2F5E2E2E2E2E2E2E2F5F5E2E2E2E2E2E2E2E2E2E2E2E2E2E2E2F5E2E2E2E2E2F5F5F5F5F5F5E2E2E2E2E2E2E2E2E2E2E2E2E2E2E2E2E2E2E2F5E2E2E2E2E2E2E2E2E2E2E2E2E2E2E2E2E2E2E2E2E2E2E2E2E2E2E2E2F5F5E2E2E2F5F5E2F5E2E2E2E2F5E2E2E2F5E2F5E2E2E2F5
310
F5E2E2E2E2E2E2F5F5F5F5F5F5F5F5F5F5F5F5F5F5F5F5F5F5F5F5F5F5F5F5F5F5F5F5F5E2E2E2E2E2E2E2E2E2E2E2E2E2E2E2E2E2E2E2F5E2E2E2E2E2E2E2E2E2E2E2E2E2E2E2E2E2E2E2E2E2E2E2E2E2E2E2E2F5F5E2E2E2F5F5E2F5E2E2E2E2F5E2E2E2E2E2F5E2E2E2F5F5F5F5F5F5F5F5F5F5F5F5F5F5F5F5F5F5F5F5
310
F5F5F5F5F5F5F5F5F5F5F5F5F5F5F5F5F5F5F5F5F5F5F5F5F5F5F5F5F5F5F5F5F5F5F5F5F5F5F5F5F5F5F5F5F5F5F5F5F5F5F5F5F5F5F5F5F5F5F5F5F5F5F5F5F5F5F5F5E2E2F5F5E2E2E2E2E2EFF5E2E2E2E2E2F5E2E2E2E2E2E2E2E2E2E2E2E2E2E2E2E2E2E2E2E2E2E2E2E2E2E2E2E2F5E2E2E2E2E2F5F5F5F5F5F5F5F5
310
F5F5F5F5F5F5F5F5F5F5F5F5F5F5F5F5F5F5F5F5F5F5F5F5F5F5F5F5F5F5F5F5F5F5F5F5F5F5F5F5F5F5F5F5F5F5F5F5F5E2E2F5F5E2E2E2E2E2E2F5E2E2E2E2E2F5E2E2E2E2E2E2E2E2E2E2E2E2E2E2E2E2E2E2E2E2E2E2E2E2E2E2E2E2F5E2E2E2E2E2F5F5F5F5F5F5F5F5F5F5F5F5F5F5F5F5F5F5F5F5F5F5F5F5F5F5F5
310
F5F5F5F5F5F5F5F5F5F5F5F5F5F5F5F5F5F5F5F5F5F5F5F5F5F5F5F5F5F5E2E2F5F5E2E2E2E2E2EFF5E2E2E2E2E2F5E2E2E2E2E2E2E2E2E2E2E2E2E2E2E2E2E2E2E2E2E2E2E2E2E2E2E2E2F5E2E2E2E2E2E2E2E2E2E2E2E2F5E2E2E2E2E2E2E2E2E2E2E2E2E2E2E2E2E2E2E2E2E2E2E2E2E2E2E2E2E2E2E2E2E2E2E2E2E2E2
310
E2E2E2E2E2E2E2E2E2E2E2E2E2F5F5E2E2E2E2E2E2F5E2E2E2E2E2F5E2E2E2E2E2E2E2E2E2E2E2E2E2E2E2E2E2E2E2E2E2E2E2E2E2E2E2E2F5E2F5F5F5F5F5E2E2E2E2E2E2E2F5E2F5F5F5F5F5F5F5F5F5F5F5F5F5E2E2E2E2E2E2E2E2E2E2E2E2E2E2E2E2E2E2E2E2E2E2E2E2E2E2E2E2E2E2F5F5E2E2E2E2F5F5E2E2E2E2
310
E2E2F5E2E2E2E2E2F5E2E2E2E2E2E2E2E2E2E2E2E2E2E2E2E2E2E2E2E2E2E2E2E2E2E2E2E2F5F5F5F5F5F5F5E2E2E2E2E2E2E2F5F5E2E2E2E2E2E2E2E2E2E2E2E2E2E2E2E2E2E2E2E2E2E2E2E2E2E2E2E2E2E2E2E2E2E2E2E2E2E2E2E2E2E2E2E2E2F5F5F5F5F5F5E2E2E2E2E2EFF5E2E2E2E2E2F5E2E2E2E2E2E2E2E2E2E2
310
E2E2E2E2E2E2E2E2E2E2E2E2E2E2E2E2E2E2E2E2E2E2E2E2E2E2E2E2E2E2E2E2E2E2E2E2E2E2E2E2E2E2E2E2E2E2E2E2E2E2E2E2E2E2E2E2E2E2E2E2E2E2E2E2E2E2E2E2E2E2E2E2E2E2E2E2E2E2E2E2E2E2E2E2F5E2E2E2E2E2E2F5E2E2E2E2E2F5E2E2E2E2E2E2E2E2E2E2E2E2E2E2E2E2E2E2E2E2E2E2E2E2E2E2E2E2E2
310
E2E2E2E2E2E2E2E2E2E2E2E2E2E2E2E2E2E2E2E2E2E2E2E2E2E2E2E2E2E2E2E2E2E2E2E2E2E2E2E2E2E2E2E2E2E2E2E2E2E2E2E2E2E2E2E2E2E2E2E2E2E2E2E2E2F5E2E2E2E2E2EFF5E2E2E2E2E2F5E2E2E2E2E2E2E2E2E2E2E2E2E2E2E2E2E2E2E2E2E2E2E2E2E2E2E2E2E2E2E2E2E2E2E2E2E2E2E2E2E2E2E2E2E2E2E2E2
310
E2E2E2E2E2E2E2E2E2E2E2E2E2E2E2E2E2E2E2E2E2E2E2E2E2E2E2E2E2E2E2E2E2E2E2E2E2E2E2E2E2E2E2E2E2E2F5E2E2E2E2E2E2F5E2E2E2F5E2F5E2E2E2E2E2E2E2E2E2E2E2E2E2E2E2E2E2E2E2E2E2E2E2E2E2E2E2E2E2E2E2E2E2E2E2E2E2E2E2E2E2E2E2E2E2E2E2E2E2E2E2E2E2E2E2E2E2E2E2E2E2E2E2E2E2E2E2
310
E2E2E2E2E2E2E2E2E2E2E2E2E2E2E2E2E2E2E2E2E2E2E2E2E2E2E2F5E2F5E2E2E2E2F5E2E2E2F5E2F5E2E2E2E2E2E2E2E2E2E2E2E2E2E2E2E2E2E2E2E2E2E2E2E2E2E2E2E2E2E2E2E2E2E2E2E2E2E2E2E2E2E2E2E2E2E2E2E2E2E2E2E2E2E2E2E2E2E2E2E2E2E2E2E2E2E2E2E2E2E2E2E2E2E2E2E2E2E2E2E2E2E2E2E2E2E2
310
E2E2E2E2E2E2E2E2F5E2F5E2E2E2EFF5E2E2E2F5E2F5E2E2E2E2E2E2E2E2E2E2E2E2E2E2E2E2E2E2E2E2E2E2E2E2E2E2E2E2E2E2E2E2E2E2E2E2E2E2E2E2E2E2E2E2E2E2E2E2E2E2E2E2E2E2E2E2E2E2E2E2E2E2E2E2E2E2E2E2E2E2E2E2E2E2E2E2E2E2E2E2E2E2E2E2E2E2E2E2E2E2E2E2E2E2F5E2F5E2E2E2E2F5E2E2E2
310
F5E2F5E2E2E2E2E2E2E2E2E2E2E2E2E2E2E2E2E2E2E2E2E2E2E2E2E2E2E2E2E2E2E2E2E2E2E2E2E2E2E2E2E2E2E2E2E2E2E2E2E2E2E2E2E2E2E2E2E2E2E2E2E2E2E2E2E2E2E2E2E2E2E2E2E2E2E2E2E2E2E2E2E2E2E2E2E2E2E2E2E2E2E2E2E2E2F5E2F5E2E2E2EFF5E2E2E2F5E2F5E2E2E2E2E2E2E2E2E2E2E2E2E2E2E2E2
310
E2E2E2E2E2E2E2E2E2E2E2E2E2E2E2E2E2E2E2E2E2E2E2E2E2E2E2E2E2E2E2E2E2E2E2E2E2E2E2E2E2E2E2E2E2E2E2E2E2E2E2E2E2E2E2E2E2E2E2E2E2E2E2E2E2E2E2E2E2E2E2E2E2E2E2E2E2E2F5E2F5E2E2E2E2F5E2E2E2F5E2F5E2E2E2E2E2E2E2E2E2E2E2E2E2E2E2E2E2E2E2E2E2E2E2E2E2E2E2E2E2E2E2E2E2E2E2
310
E2E2E2E2E2E2E2E2E2E2E2E2E2E2E2E2E2E2E2E2E2E2E2E2E2E2E2E2E2E2E2E2E2E2E2E2E2E2E2E2E2E2E2E2E2E2E2E2E2E2E2E2E2E2E2E2E2E2E2F5E2F5E2E2E2E2F5E2E2E2F5E2F5E2E2E2E2E2E2E2E2E2E2E2E2E2E2E2E2E2E2E2E2E2E2E2E2E2E2E2E2E2E2E2E2E2E2E2E2E2E2E2E2E2E2E2E2E2E2E2E2E2E2E2E2E2E2
310
E2E2E2E2E2E2E2E2E2E2E2E2E2E2E2E2E2E2E2E2E2E2E2E2E2E2E2E2E2E2E2E2E2E2E2E2E2E2E2E2F5E2F5E2E2E2EFF5E2E2E2F5E2F5E2E2E2E2E2E2E2E2E2E2E2E2E2E2E2E2E2E2E2E2E2E2E2E2E2E2E2E2E2E2E2E2E2E2E2E2E2E2E2E2E2E2E2E2E2E2E2E2E2E2E2E2E2E2E2E2E2E2E2E2E2E2E2E2E2E2E2E2E2E2E2E2E2
310
E2E2E2E2E2E2E2E2E2E2E2E2E2E2E2E2E2E2E2E2E2F5E2F5E2E2E2E2F5E2E2E2F5E2F5E2E2E2E2E2E2E2E2E2E2E2E2E2E2E2E2E2E2E2E2E2E2E2E2E2E2E2E2E2E2E2E2E2E2E2E2E2E2E2E2E2E2E2E2E2E2E2E2E2E2E2E2E2E2E2E2E2E2E2E2E2E2E2E2E2E2E2E2E2E2E2E2E2E2E2E2E2E2E2E2E2E2E2E2E2E2E2E2E2E2E2E2
310
E2E2F5E2F5E2E2E2EFF5E2E2E2F5E2F5E2E2E2E2E2E2E2E2E2E2E2E2E2E2E2E2E2E2E2E2E2E2E2E2E2E2E2E2E2E2E2E2E2E2E2E2E2E2E2E2E2E2E2E2E2E2E2E2E2E2E2E2E2E2E2E2E2E2E2E2E2E2E2E2E2E2E2E2E2E2E2E2E2E2E2E2E2E2E2E2E2E2E2E2E2E2E2E2E2E2E2E2E2E2F5E2F5E2E2E2E2F5E2E2E2F5E2F5E2E2E2
310
E2E2E2E2E2E2E2E2E2E2E2E2E2E2E2E2E2E2E2E2E2E2E2E2E2E2E2E2E2E2E2E2E2E2E2E2E2E2E2E2E2E2E2E2E2E2E2E2E2E2E2E2E2E2E2E2E2E2E2E2E2E2E2E2E2E2E2E2E2E2E2E2E2E2E2E2E2E2E2E2E2E2E2E2E2E2E2E2E2E2E2F5E2F5E2E2E2E2F5E2E2E2F5E2F5E2E2E2E2E2E2E2E2E2E2E2E2E2E2E2E2E2E2E2E2E2E2
310
E2E2E2E2E2E2E2E2E2E2E2E2E2E2E2E2E2E2E2E2E2E2E2E2E2E2E2E2E2E2E2E2E2E2E2E2E2E2E2E2E2E2E2E2E2E2E2E2E2E2E2E2E2E2E2E2E2E2E2E2E2E2E2E2E2E2E2E2E2E2E2E2F5E2F5E2E2E2EFF5E2E2E2F5E2F5E2E2E2E2E2E2E2E2E2E2E2E2E2E2E2E2E2E2E2E2E2E2E2E2E2E2E2E2E2E2E2E2E2E2E2E2E2E2E2E2E2
310
E2E2E2E2E2E2E2E2E2E2E2E2E2E2E2E2E2E2E2E2E2E2E2E2E2E2E2E2E2E2E2E2E2E2E2E2E2E2E2E2E2E2E2E2E2E2E2E2E2E2E2E2E2F5E2F5E2E2E2E2F5E2E2E2F5E2F5E2E2E2E2E2E2E2E2E2E2E2E2E2E2E2E2E2E2E2E2E2E2E2E2E2E2E2E2E2E2E2E2E2E2E2E2E2E2E2E2E2E2E2E2E2E2E2E2E2E2E2E2E2E2E2E2E2E2E2E2
310
E2E2E2E2E2E2E2E2E2E2E2E2E2E2E2E2E2E2E2E2E2E2E2E2E2E2E2E2E2E2E2E2E2E2F5E2F5E2E2E2EFF5E2E2E2F5E2F5E2E2E2E2E2E2E2E2E2E2E2E2E2E2E2E2E2E2E2E2E2E2E2E2E2E2E2E2E2E2E2E2E2E2E2E2E2E2E2E2E2E2E2E2E2E2E2E2E2E2E2E2E2E2E2E2E2E2E2E2E2E2E2E2E2E2E2E2E2E2E2E2E2E2E2E2E2E2E2
310
E2E2E2E2E2E2E2E2E2E2E2E2E2E2E2F5E2F5E2E2E2E2F5E2E2E2F5E2F5E2E2E2E2E2E2E2E2E2E2E2E2E2E2E2E2E2E2E2E2E2E2E2E2E2E2E2E2E2E2E2E2E2E2E2E2E2E2E2E2E2E2E2E2E2E2E2E2E2E2E2E2E2E2E2E2E2E2E2E2E2E2E2E2E2E2E2E2E2E2E2E2E2E2E2E2E2E2E2E2E2E2E2E2E2E2E2E2E2E2E2E2E2E2F5E2F5E2
310
E2E2E2F5E2E2E2F5E2F5E2E2E2E2E2E2E2E2E2E2E2E2E2E2E2E2E2E2E2E2E2E2E2E2E2E2E2E2E2E2E2E2E2E2E2E2E2E2E2E2E2E2E2E2E2E2E2E2E2E2E2E2E2E2E2E2E2E2E2E2E2E2E2E2E2E2E2E2E2E2E2E2E2E2E2E2E2E2E2E2E2E2E2E2E2E2E2E2E2E2E2E2E2E2F5E2F5E2E2E2EFF5E2E2E2E2E2F5E2E2E2E2E2E2E2E2E2
310
E2E2E2E2E2E2E2E2E2E2E2E2E2E2E2E2E2E2E2E2E2E2E2E2E2E2E2E2E2E2E2E2E2E2E2E2E2E2E2E2E2E2E2E2E2E2E2E2E2E2E2E2E2E2E2E2E2E2E2E2E2E2E2E2E2E2E2E2E2E2E2E2E2E2E2E2E2E2E2E2E2E2E2E2E2F5E2E2E2E2E2E2F5E2E2E2E2E2F5E2E2E2E2E2E2E2E2E2E2E2E2E2E2E2E2E2E2E2E2E2E2E2E2E2E2E2E2
310
E2E2E2E2E2E2E2E2E2E2E2E2E2E2E2E2E2E2E2E2E2E2E2E2E2E2E2E2E2E2E2E2E2E2E2E2E2E2E2E2E2E2E2E2E2E2E2E2E2E2E2E2E2E2E2E2E2E2E2E2E2E2E2E2E2E2F5E2E2E2E2E2EFF5E2E2E2E2E2F5E2E2E2E2E2E2E2E2E2E2E2E2E2E2E2E2E2E2E2E2E2E2E2E2E2E2E2E2E2E2E2E2E2E2E2E2E2E2E2E2E2E2E2E2E2E2E2
310
E2E2E2E2E2E2E2E2E2E2E2E2E2E2E2E2E2E2E2E2E2E2E2E2E2E2E2E2E2E2E2E2E2E2E2E2E2E2E2E2E2E2E2E2E2E2E2F5E2E2E2E2E2E2F5E2E2E2E2E2F5E2E2E2E2E2E2E2E2E2E2E2E2E2E2E2E2E2E2E2E2E2E2E2E2E2E2E2E2E2E2E2E2E2E2E2E2E2E2E2E2E2E2E2E2E2E2E2E2E2E2E2E2E2E2E2E2E2E2E2E2E2E2E2E2E2E2
310
E2E2E2E2E2E2E2E2E2E2E2E2E2E2E2E2E2E2E2E2E2E2E2E2E2E2E2E2F5E2E2E2E2E2E2F5E2E2E2E2E2F5F5F5F5F5F5F5F5F5F5F5F5F5F5F5F5F5F5F5F5F5F5F5F5F5F5F5F5F5F5F5F5F5F5F5F5F5F5F5F5F5F5F5F5F5F5F5F5F5F5F5F5F5F5F5F5F5F5F5F5F5F5F5F5F5F5F5F5F5F5F5F5F5F5F5F5F5F5F5F5F5F5F5F5F5F5
310
F5F5F5F5F5F5F5F5F5F5E2E2E2E2E2EFF5E2E2E2E2E2E2E2E2E2E2E2E2E2E2E2E2E2E2E2E2E2E2E2E2E2E2E2E2E2E2E2E2E2E2E2E2E2E2E2E2E2E2E2E2E2E2E2E2E2E2E2E2E2E2E2E2E2E2E2E2E2E2E2E2E2E2E2E2E2E2E2E2E2E2E2E2E2E2E2E2E2E2E2E2E2E2E2E2E2E2E2E2E2E2E2E2E2E2E2E2E2E2E2E2E2E2E2F5E2E2
310
E2E2E2E2E2E2E2E2E2E2E2E2E2E2E2E2E2E2E2E2E2E2E2E2E2E2E2E2E2E2E2E2E2E2E2E2E2E2E2E2E2E2E2E2E2E2E2E2E2E2E2E2E2E2E2E2E2E2E2E2E2E2E2E2E2E2E2E2E2E2E2E2E2E2E2E2E2E2E2E2E2E2E2E2E2E2E2E2E2E2E2E2E2E2E2E2E2E2E2E2E2E2E2E2EFF5E2E2E2E2E2E2E2E2E2E2E2E2E2E2E2E2E2E2E2E2E2
310
E2E2E2E2E2E2E2E2E2E2E2E2E2E2E2E2E2E2E2E2E2E2E2E2E2E2E2E2E2E2E2E2E2E2E2E2E2E2E2E2E2E2E2E2E2E2E2E2E2E2E2E2E2E2E2E2E2E2E2E2E2E2E2E2E2E2E2E2E2E2E2E2E2E2E2E2E2E2E2E2E2E2E2E2E2E2F5E2E2E2E2E2E2E2E2E2E2E2E2E2E2E2E2E2E2E2E2E2E2E2E2E2E2E2E2E2E2E2E2E2E2E2E2E2E2E2E2
310
E2E2E2E2E2E2E2E2E2E2E2E2E2E2E2E2E2E2E2E2E2E2E2E2E2E2E2E2E2E2E2E2E2E2E2E2E2E2E2E2E2E2E2E2E2E2E2E2E2E2E2E2E2E2E2E2E2E2E2E2E2E2E2E2E2E2E2F5E2E2E2F5E2E2E2E2E2E2E2E2E2E2E2E2E2E2E2E2E2E2E2E2E2E2E2E2E2E2E2E2E2E2E2E2E2E2E2E2E2E2E2E2E2E2E2E2E2E2E2E2E2E2E2E2E2E2E2
310
E2E2E2E2E2E2E2E2E2E2E2E2E2E2E2E2E2E2E2E2E2E2E2E2E2E2E2E2E2E2E2E2E2E2E2E2E2E2E2E2E2E2E2F5E2E2E2EFF5E2E2E2F5E2E2E2E2E2E2E2E2E2E2E2E2E2E2E2E2E2E2E2E2E2E2E2E2E2E2E2E2E2E2E2E2E2E2E2E2E2E2E2E2E2E2E2E2E2E2E2E2E2E2E2E2E2E2E2E2E2E2E2E2E2E2E2E2E2E2E2E2E2E2E2E2E2E2
310
E2E2E2E2E2E2E2E2E2E2E2E2E2E2E2E2E2E2E2E2E2E2E2E2F5E2E2E2E2F5E2E2E2F5E2E2E2E2E2E2E2E2E2E2E2E2E2E2E2E2E2E2E2E2E2E2E2E2E2E2E2E2E2E2E2E2E2E2E2E2E2E2E2E2E2E2E2E2E2E2E2E2E2E2E2E2E2E2E2E2E2E2E2E2E2E2E2E2E2E2E2E2E2E2E2E2E2E2E2E2E2E2E2E2E2E2E2E2E2E2E2E2E2E2E2E2E2
310
E2E2E2E2E2F5E2E2E2EFF5E2E2E2F5E2E2E2E2E2E2E2E2E2E2E2E2E2E2E2E2E2E2E2E2E2E2E2E2E2E2E2E2E2E2E2E2E2E2E2E2E2E2E2E2E2E2E2E2E2E2E2E2E2E2E2E2E2E2E2E2E2E2E2E2E2E2E2E2E2E2E2E2E2E2E2E2E2E2E2E2E2E2E2E2E2E2E2E2E2E2E2E2E2E2E2E2E2E2E2E2E2E2F5E2E2E2E2F5E2E2E2F5E2E2E2E2
310
E2E2E2E2E2E2E2E2E2E2E2E2E2E2E2E2E2E2E2E2E2E2E2E2E2E2E2E2E2E2E2E2E2E2E2E2E2E2E2E2E2E2E2E2E2E2E2E2E2E2E2E2E2E2E2E2E2E2E2E2E2E2E2E2E2E2E2E2E2E2E2E2E2E2E2E2E2E2E2E2E2E2E2E2E2E2E2E2E2E2E2E2E2E2F5E2E2E2E2F5E2E2E2F5E2E2E2E2E2E2E2E2E2E2E2E2E2E2E2E2E2E2E2E2E2E2E2
310
E2E2E2E2E2E2E2E2E2E2E2E2E2E2E2E2E2E2E2E2E2E2E2E2E2E2E2E2E2E2E2E2E2E2E2E2E2E2E2E2E2E2E2E2E2E2E2E2E2E2E2E2E2E2E2E2E2E2E2E2E2E2E2E2E2E2E2E2E2E2E2E2E2E2E2F5E2E2E2EFF5E2E2E2F5E2E2E2E2E2E2E2E2E2E2E2E2E2E2E2E2E2E2E2E2E2E2E2E2E2E2E2E2E2E2E2E2E2E2E2E2E2E2E2E2E2E2
310
E2E2E2E2E2E2E2E2E2E2E2E2E2E2E2E2E2E2E2E2E2E2E2E2E2E2E2E2E2E2E2E2E2E2E2E2E2E2E2E2E2E2E2E2E2E2E2E2E2E2E2E2E2E2E2E2F5E2E2E2E2F5E2E2E2F5E2E2E2E2E2E2E2E2E2E2E2E2E2E2E2E2E2E2E2E2E2E2E2E2E2E2E2E2E2E2E2E2E2E2E2E2E2E2E2E2E2E2E2E2E2E2E2E2E2E2E2E2E2E2E2E2E2E2E2E2E2
310
E2E2E2E2E2E2E2E2E2E2E2E2E2E2E2E2E2E2E2E2E2E2E2E2E2E2E2E2E2E2E2E2E2E2E2E2E2F5E2E2E2EFF5E2E2E2F5F5F5F5F5F5F5F5E2E2E2E2E2E2E2E2E2F5F5F5F5F5F5F5F5F5F5F5F5F5F5F5F5E2E2E2E2E2E2E2E2E2F5F5F5F5F5F5F5F5F5F5F5F5F5F5F5F5E2E2E2E2E2E2E2E2E2F5F5F5F5F5F5F5F5F5F5F5F5F5F5
310
F5F5E2E2E2E2E2E2E2E2E2F5F5F5F5F5F5F5F5E2E2E2E2F5E2E2E2E2E2E2E2E2E2E2E2E2E2E2E2E2E2E2E2E2E2E2E2E2E2E2E2E2E2E2E2E2E2E2E2E2E2E2E2E2E2E2E2E2E2E2E2E2E2E2E2E2E2E2E2E2E2E2E2E2E2E2E2E2E2E2E2E2E2E2E2E2E2E2E2E2E2E2E2E2E2E2E2E2E2E2E2E2E2E2E2E2E2E2E2E2E2E2E2E2E2E2E2
310
E2E2E2E2F5E2E2E2E2E2E2E2E2E2E2E2E2E2E2E2E2E2E2E2E2E2E2E2E2E2E2E2E2E2E2E2E2E2E2E2E2E2E2E2E2E2E2E2E2E2E2E2E2E2E2E2E2E2E2E2E2E2E2E2E2E2E2E2E2E2E2E2E2E2E2E2E2E2E2E2E2E2E2E2E2E2E2E2E2E2E2E2E2E2E2E2E2E2E2E2E2E2E2E2E2E2E2E2E2E2E2EFF5E2E2E2E2E2E2E2E2E2E2E2E2E2E2
310
E2E2E2E2E2E2E2E2E2E2E2E2E2E2E2E2E2E2E2E2E2E2E2E2E2E2E2E2E2E2E2E2E2E2E2E2E2E2E2E2E2E2E2E2E2E2E2E2E2E2E2E2E2E2E2E2E2E2E2E2E2E2E2E2E2E2E2E2E2E2E2E2E2E2E2E2E2E2E2E2E2E2E2E2E2E2E2E2E2E2E2E2E2F5F5F5F5F5F5F5F5F5F5F5F5F5F5F5F5F5F5F5F5F5F5F5F5F5F5F5F5F5F5F5F5F5F5
310
F5F5F5F5F5F5F5F5F5F5F5F5F5F5F5F5F5F5F5F5F5F5F5F5F5F5F5F5F5F5F5F5F5F5F5F5F5F5F5F5F5F5F5F5F5F5F5F5F5F5F5F5F5F5F5F5F5F5F5F5F5F5F5F5F5F5F5F5F5F5F5F5F5EFEFEFEFEFEFEFEFEFEFEFEFEFEFEFEFEFEFEFEFEFEFEFEFEFEFEFEFEFEFEFEFEFEFEFEFEFEFEFEFEFEFEFEFEFEFEFEFEFEFEFEFEFEF
310
EFEFEFEFEFEFEFEFEFEFEFEFEFEFEFEFEFEFEFEFEFEFEFEFEFEFEFEFEFEFEFEFEFEFEFEFEFEFEFEFEFEFEFEFEFEFEFEFEFEFEFEFEFEFE2
  0
ENDSEC
  0
EOF
