  0
SECTION
  2
HEADER
  9
$ACADVER
  1
AC1021
  9
$ACADMAINTVER
 70
     1
  9
$DWGCODEPAGE
  3
ANSI_1252
  9
$LASTSAVEDBY
  1
RSutcliffe
  9
$INSBASE
 10
299.1280711153836
 20
505.9361356312583
 30
0.0
  9
$EXTMIN
 10
-310.9857286629471
 20
80.2984029598349
 30
-0.0015258207003583
  9
$EXTMAX
 10
-102.3495047004055
 20
346.041339196885
 30
0.0000000349246037
  9
$LIMMIN
 10
0.0
 20
0.0
  9
$LIMMAX
 10
12.0
 20
9.0
  9
$ORTHOMODE
 70
     0
  9
$REGENMODE
 70
     1
  9
$FILLMODE
 70
     1
  9
$QTEXTMODE
 70
     0
  9
$MIRRTEXT
 70
     1
  9
$LTSCALE
 40
1.0
  9
$ATTMODE
 70
     1
  9
$TEXTSIZE
 40
2.0
  9
$TRACEWID
 40
0.05
  9
$TEXTSTYLE
  7
WEB PAGE
  9
$CLAYER
  8
0
  9
$CELTYPE
  6
BYLAYER
  9
$CECOLOR
 62
   256
  9
$CELTSCALE
 40
1.0
  9
$DISPSILH
 70
     0
  9
$DIMSCALE
 40
1.0
  9
$DIMASZ
 40
3.0
  9
$DIMEXO
 40
2.0
  9
$DIMDLI
 40
1.0
  9
$DIMRND
 40
0.0
  9
$DIMDLE
 40
0.0
  9
$DIMEXE
 40
1.0
  9
$DIMTP
 40
0.0
  9
$DIMTM
 40
0.0
  9
$DIMTXT
 40
1.75
  9
$DIMCEN
 40
1.0
  9
$DIMTSZ
 40
0.0
  9
$DIMTOL
 70
     0
  9
$DIMLIM
 70
     0
  9
$DIMTIH
 70
     1
  9
$DIMTOH
 70
     1
  9
$DIMSE1
 70
     0
  9
$DIMSE2
 70
     0
  9
$DIMTAD
 70
     0
  9
$DIMZIN
 70
     0
  9
$DIMBLK
  1

  9
$DIMASO
 70
     1
  9
$DIMSHO
 70
     1
  9
$DIMPOST
  1

  9
$DIMAPOST
  1

  9
$DIMALT
 70
     0
  9
$DIMALTD
 70
     2
  9
$DIMALTF
 40
25.4
  9
$DIMLFAC
 40
1.0
  9
$DIMTOFL
 70
     0
  9
$DIMTVP
 40
0.0
  9
$DIMTIX
 70
     0
  9
$DIMSOXD
 70
     0
  9
$DIMSAH
 70
     0
  9
$DIMBLK1
  1

  9
$DIMBLK2
  1

  9
$DIMSTYLE
  2
STANDARD
  9
$DIMCLRD
 70
     0
  9
$DIMCLRE
 70
     0
  9
$DIMCLRT
 70
     0
  9
$DIMTFAC
 40
1.0
  9
$DIMGAP
 40
1.0
  9
$DIMJUST
 70
     0
  9
$DIMSD1
 70
     0
  9
$DIMSD2
 70
     0
  9
$DIMTOLJ
 70
     1
  9
$DIMTZIN
 70
     0
  9
$DIMALTZ
 70
     0
  9
$DIMALTTZ
 70
     0
  9
$DIMUPT
 70
     0
  9
$DIMDEC
 70
     4
  9
$DIMTDEC
 70
     4
  9
$DIMALTU
 70
     2
  9
$DIMALTTD
 70
     2
  9
$DIMTXSTY
  7
WEB PAGE
  9
$DIMAUNIT
 70
     0
  9
$DIMADEC
 70
     4
  9
$DIMALTRND
 40
0.0
  9
$DIMAZIN
 70
     0
  9
$DIMDSEP
 70
    46
  9
$DIMATFIT
 70
     3
  9
$DIMFRAC
 70
     0
  9
$DIMLDRBLK
  1

  9
$DIMLUNIT
 70
     4
  9
$DIMLWD
 70
    -2
  9
$DIMLWE
 70
    -2
  9
$DIMTMOVE
 70
     0
  9
$DIMFXL
 40
1.0
  9
$DIMFXLON
 70
     0
  9
$DIMJOGANG
 40
0.7853981633974483
  9
$DIMTFILL
 70
     0
  9
$DIMTFILLCLR
 70
     0
  9
$DIMARCSYM
 70
     0
  9
$DIMLTYPE
  6

  9
$DIMLTEX1
  6

  9
$DIMLTEX2
  6

  9
$LUNITS
 70
     4
  9
$LUPREC
 70
     4
  9
$SKETCHINC
 40
0.1
  9
$FILLETRAD
 40
0.0
  9
$AUNITS
 70
     0
  9
$AUPREC
 70
     0
  9
$MENU
  1
.
  9
$ELEVATION
 40
0.0
  9
$PELEVATION
 40
0.0
  9
$THICKNESS
 40
0.0
  9
$LIMCHECK
 70
     0
  9
$CHAMFERA
 40
0.5
  9
$CHAMFERB
 40
0.5
  9
$CHAMFERC
 40
1.0
  9
$CHAMFERD
 40
0.0
  9
$SKPOLY
 70
     1
  9
$TDCREATE
 40
2451409.294489352
  9
$TDUCREATE
 40
2451409.502822685
  9
$TDUPDATE
 40
2454083.475705648
  9
$TDUUPDATE
 40
2454083.684038982
  9
$TDINDWG
 40
1.4593065046
  9
$TDUSRTIMER
 40
1.4593065046
  9
$USRTIMER
 70
     1
  9
$ANGBASE
 50
0.0
  9
$ANGDIR
 70
     0
  9
$PDMODE
 70
     0
  9
$PDSIZE
 40
0.0
  9
$PLINEWID
 40
0.0
  9
$SPLFRAME
 70
     0
  9
$SPLINETYPE
 70
     6
  9
$SPLINESEGS
 70
     8
  9
$HANDSEED
  5
585C
  9
$SURFTAB1
 70
     6
  9
$SURFTAB2
 70
     6
  9
$SURFTYPE
 70
     6
  9
$SURFU
 70
     6
  9
$SURFV
 70
     6
  9
$UCSBASE
  2

  9
$UCSNAME
  2

  9
$UCSORG
 10
0.0
 20
0.0
 30
0.0
  9
$UCSXDIR
 10
1.0
 20
0.0
 30
0.0
  9
$UCSYDIR
 10
0.0
 20
1.0
 30
0.0
  9
$UCSORTHOREF
  2

  9
$UCSORTHOVIEW
 70
     0
  9
$UCSORGTOP
 10
0.0
 20
0.0
 30
0.0
  9
$UCSORGBOTTOM
 10
0.0
 20
0.0
 30
0.0
  9
$UCSORGLEFT
 10
0.0
 20
0.0
 30
0.0
  9
$UCSORGRIGHT
 10
0.0
 20
0.0
 30
0.0
  9
$UCSORGFRONT
 10
0.0
 20
0.0
 30
0.0
  9
$UCSORGBACK
 10
0.0
 20
0.0
 30
0.0
  9
$PUCSBASE
  2

  9
$PUCSNAME
  2

  9
$PUCSORG
 10
0.0
 20
0.0
 30
0.0
  9
$PUCSXDIR
 10
1.0
 20
0.0
 30
0.0
  9
$PUCSYDIR
 10
0.0
 20
1.0
 30
0.0
  9
$PUCSORTHOREF
  2

  9
$PUCSORTHOVIEW
 70
     0
  9
$PUCSORGTOP
 10
0.0
 20
0.0
 30
0.0
  9
$PUCSORGBOTTOM
 10
0.0
 20
0.0
 30
0.0
  9
$PUCSORGLEFT
 10
0.0
 20
0.0
 30
0.0
  9
$PUCSORGRIGHT
 10
0.0
 20
0.0
 30
0.0
  9
$PUCSORGFRONT
 10
0.0
 20
0.0
 30
0.0
  9
$PUCSORGBACK
 10
0.0
 20
0.0
 30
0.0
  9
$USERI1
 70
     0
  9
$USERI2
 70
     0
  9
$USERI3
 70
     0
  9
$USERI4
 70
     0
  9
$USERI5
 70
     0
  9
$USERR1
 40
0.0
  9
$USERR2
 40
0.0
  9
$USERR3
 40
0.0
  9
$USERR4
 40
0.0
  9
$USERR5
 40
0.0
  9
$WORLDVIEW
 70
     1
  9
$SHADEDGE
 70
     3
  9
$SHADEDIF
 70
    70
  9
$TILEMODE
 70
     1
  9
$MAXACTVP
 70
    48
  9
$PINSBASE
 10
0.0
 20
0.0
 30
0.0
  9
$PLIMCHECK
 70
     0
  9
$PEXTMIN
 10
-444.5160631156421
 20
-346.7962471910192
 30
0.0
  9
$PEXTMAX
 10
-436.7182151818284
 20
-336.5177089815028
 30
0.0
  9
$PLIMMIN
 10
-444.8450019880361
 20
-347.0810378483997
  9
$PLIMMAX
 10
-436.345002228332
 20
-336.0810380886956
  9
$UNITMODE
 70
     0
  9
$VISRETAIN
 70
     1
  9
$PLINEGEN
 70
     0
  9
$PSLTSCALE
 70
     1
  9
$TREEDEPTH
 70
  3020
  9
$CMLSTYLE
  2
STANDARD
  9
$CMLJUST
 70
     0
  9
$CMLSCALE
 40
1.0
  9
$PROXYGRAPHICS
 70
     1
  9
$MEASUREMENT
 70
     0
  9
$CELWEIGHT
370
    -1
  9
$ENDCAPS
280
     0
  9
$JOINSTYLE
280
     0
  9
$LWDISPLAY
290
     0
  9
$INSUNITS
 70
     1
  9
$HYPERLINKBASE
  1

  9
$STYLESHEET
  1
Default R14 pen assignments.ctb
  9
$XEDIT
290
     1
  9
$CEPSNTYPE
380
     0
  9
$PSTYLEMODE
290
     1
  9
$FINGERPRINTGUID
  2
{BC46CB79-887E-11D4-9211-00C04FB0DC4F}
  9
$VERSIONGUID
  2
{0E2A0041-13FF-4746-B630-871E53502157}
  9
$EXTNAMES
290
     1
  9
$PSVPSCALE
 40
0.0
  9
$OLESTARTUP
290
     0
  9
$SORTENTS
280
   127
  9
$INDEXCTL
280
     0
  9
$HIDETEXT
280
     0
  9
$XCLIPFRAME
290
     0
  9
$HALOGAP
280
     0
  9
$OBSCOLOR
 70
   257
  9
$OBSLTYPE
280
     0
  9
$INTERSECTIONDISPLAY
280
     0
  9
$INTERSECTIONCOLOR
 70
   257
  9
$DIMASSOC
280
     1
  9
$PROJECTNAME
  1

  9
$CAMERADISPLAY
290
     0
  9
$LENSLENGTH
 40
50.0
  9
$CAMERAHEIGHT
 40
0.0
  9
$STEPSPERSEC
 40
2.0
  9
$STEPSIZE
 40
6.0
  9
$3DDWFPREC
 40
2.0
  9
$PSOLWIDTH
 40
0.25
  9
$PSOLHEIGHT
 40
4.0
  9
$LOFTANG1
 40
1.570796326794896
  9
$LOFTANG2
 40
1.570796326794896
  9
$LOFTMAG1
 40
0.0
  9
$LOFTMAG2
 40
0.0
  9
$LOFTPARAM
 70
     7
  9
$LOFTNORMALS
280
     1
  9
$LATITUDE
 40
37.795
  9
$LONGITUDE
 40
-122.394
  9
$NORTHDIRECTION
 40
0.0
  9
$TIMEZONE
 70
 -8000
  9
$LIGHTGLYPHDISPLAY
280
     1
  9
$TILEMODELIGHTSYNCH
280
     1
  9
$CMATERIAL
347
5477
  9
$SOLIDHIST
280
     1
  9
$SHOWHIST
280
     1
  9
$DWFFRAME
280
     2
  9
$DGNFRAME
280
     0
  9
$REALWORLDSCALE
290
     1
  9
$INTERFERECOLOR
 62
     1
  9
$INTERFEREOBJVS
345
5484
  9
$INTERFEREVPVS
346
5481
  9
$CSHADOW
280
     0
  9
$SHADOWPLANELOCATION
 40
0.0
  0
ENDSEC
  0
SECTION
  2
CLASSES
  0
CLASS
  1
ACDBDICTIONARYWDFLT
  2
AcDbDictionaryWithDefault
  3
ObjectDBX Classes
 90
        0
 91
        1
280
     0
281
     0
  0
CLASS
  1
DICTIONARYVAR
  2
AcDbDictionaryVar
  3
ObjectDBX Classes
 90
        0
 91
        2
280
     0
281
     0
  0
CLASS
  1
MATERIAL
  2
AcDbMaterial
  3
ObjectDBX Classes
 90
     1024
 91
        3
280
     0
281
     0
  0
CLASS
  1
VISUALSTYLE
  2
AcDbVisualStyle
  3
ObjectDBX Classes
 90
     4095
 91
       16
280
     0
281
     0
  0
CLASS
  1
TABLESTYLE
  2
AcDbTableStyle
  3
ObjectDBX Classes
 90
     4095
 91
        1
280
     0
281
     0
  0
CLASS
  1
SORTENTSTABLE
  2
AcDbSortentsTable
  3
ObjectDBX Classes
 90
        0
 91
        1
280
     0
281
     0
  0
ENDSEC
  0
SECTION
  2
TABLES
  0
TABLE
  2
VPORT
  5
13
102
{ACAD_XDICTIONARY
360
5649
102
}
330
0
100
AcDbSymbolTable
 70
     1
  0
VPORT
  5
5475
330
13
100
AcDbSymbolTableRecord
100
AcDbViewportTableRecord
  2
*Active
 70
     0
 10
0.0
 20
0.0
 11
1.0
 21
1.0
 12
-206.6676166816763
 22
213.16987107836
 13
0.0
 23
0.0
 14
0.5
 24
0.5
 15
0.5
 25
0.5
 16
0.0
 26
0.0
 36
1.0
 17
0.0
 27
0.0
 37
0.0
 40
267.7950052427416
 41
1.542525773195876
 42
50.0
 43
0.0
 44
0.0
 50
90.0
 51
0.0
 71
     0
 72
   100
 73
     1
 74
     0
 75
     0
 76
     0
 77
     0
 78
     0
281
     0
 65
     1
110
0.0
120
0.0
130
0.0
111
1.0
121
0.0
131
0.0
112
0.0
122
1.0
132
0.0
 79
     0
146
0.0
348
5480
 60
     3
 61
     5
292
     1
282
     1
141
0.0
142
0.0
 63
   250
421
  3355443
  0
ENDTAB
  0
TABLE
  2
LTYPE
  5
E
330
0
100
AcDbSymbolTable
 70
     7
  0
LTYPE
  5
F
330
E
100
AcDbSymbolTableRecord
100
AcDbLinetypeTableRecord
  2
BYBLOCK
 70
     0
  3

 72
    65
 73
     0
 40
0.0
  0
LTYPE
  5
10
330
E
100
AcDbSymbolTableRecord
100
AcDbLinetypeTableRecord
  2
BYLAYER
 70
     0
  3

 72
    65
 73
     0
 40
0.0
  0
LTYPE
  5
5
330
E
100
AcDbSymbolTableRecord
100
AcDbLinetypeTableRecord
  2
CONTINUOUS
 70
     0
  3
Solid line
 72
    65
 73
     0
 40
0.0
  0
LTYPE
  5
8A
330
E
100
AcDbSymbolTableRecord
100
AcDbLinetypeTableRecord
  2
HIDDEN
 70
     0
  3
__ __ __ __ __ __ __ __ __ __ __ __ __ __ __ __
 72
    65
 73
     2
 40
0.375
 49
0.25
 74
     0
 49
-0.125
 74
     0
  0
ENDTAB
  0
TABLE
  2
LAYER
  5
A
102
{ACAD_XDICTIONARY
360
57AF
102
}
330
0
100
AcDbSymbolTable
 70
    40
  0
LAYER
  5
4
330
A
100
AcDbSymbolTableRecord
100
AcDbLayerTableRecord
  2
0
 70
     0
 62
     7
  6
CONTINUOUS
370
    -3
390
18F5
347
5479
  0
LAYER
  5
106
330
A
100
AcDbSymbolTableRecord
100
AcDbLayerTableRecord
  2
REVERSE-ANGLE
 70
     0
 62
     4
  6
CONTINUOUS
370
    -3
390
18F5
347
5479
  0
LAYER
  5
11D
330
A
100
AcDbSymbolTableRecord
100
AcDbLayerTableRecord
  2
OUTSIDE
 70
     0
 62
     7
  6
CONTINUOUS
370
    -3
390
18F5
347
5479
  0
LAYER
  5
2E
330
A
100
AcDbSymbolTableRecord
100
AcDbLayerTableRecord
  2
DEFPOINTS
 70
     0
 62
     7
  6
CONTINUOUS
290
     0
370
    -3
390
18F5
347
5479
  0
LAYER
  5
15E
330
A
100
AcDbSymbolTableRecord
100
AcDbLayerTableRecord
  2
5
 70
     0
 62
   150
  6
CONTINUOUS
370
    -3
390
18F5
347
5479
  0
LAYER
  5
169
330
A
100
AcDbSymbolTableRecord
100
AcDbLayerTableRecord
  2
HIDDEN
 70
     0
 62
     2
  6
HIDDEN
370
    -3
390
18F5
347
5479
  0
LAYER
  5
21E
330
A
100
AcDbSymbolTableRecord
100
AcDbLayerTableRecord
  2
JAMB
 70
     0
 62
     1
  6
CONTINUOUS
370
    -3
390
18F5
347
5479
  0
LAYER
  5
21F
330
A
100
AcDbSymbolTableRecord
100
AcDbLayerTableRecord
  2
UPPER-ANGLE
 70
     0
 62
     7
  6
CONTINUOUS
370
    -3
390
18F5
347
5479
  0
LAYER
  5
785
330
A
100
AcDbSymbolTableRecord
100
AcDbLayerTableRecord
  2
SPLICE-PLATE
 70
     0
 62
     3
  6
CONTINUOUS
370
    -3
390
18F5
347
5479
  0
LAYER
  5
9E9
330
A
100
AcDbSymbolTableRecord
100
AcDbLayerTableRecord
  2
BDR
 70
     0
 62
     7
  6
CONTINUOUS
370
    -3
390
18F5
347
5479
  0
LAYER
  5
2A5D
330
A
100
AcDbSymbolTableRecord
100
AcDbLayerTableRecord
  2
TEXT
 70
     0
 62
     7
  6
CONTINUOUS
370
    25
390
18F5
347
5479
  0
ENDTAB
  0
TABLE
  2
STYLE
  5
B
330
0
100
AcDbSymbolTable
 70
     8
  0
STYLE
  5
C
330
B
100
AcDbSymbolTableRecord
100
AcDbTextStyleTableRecord
  2
STANDARD
 70
     0
 40
0.0
 41
1.0
 50
0.0
 71
     0
 42
4.0
  3
BOOKOS.TTF
  4

1001
ACAD
1000
Bookman Old Style
1071
       18
  0
STYLE
  5
2A5E
330
B
100
AcDbSymbolTableRecord
100
AcDbTextStyleTableRecord
  2
WEB PAGE
 70
     0
 40
0.0
 41
1.0
 50
0.0
 71
     0
 42
2.0
  3
TIMES.TTF
  4

1001
ACAD
1000
Times New Roman
1071
       18
  0
ENDTAB
  0
TABLE
  2
VIEW
  5
11
330
0
100
AcDbSymbolTable
 70
     1
  0
ENDTAB
  0
TABLE
  2
UCS
  5
12
330
0
100
AcDbSymbolTable
 70
     0
  0
ENDTAB
  0
TABLE
  2
APPID
  5
15
330
0
100
AcDbSymbolTable
 70
     8
  0
APPID
  5
D
330
15
100
AcDbSymbolTableRecord
100
AcDbRegAppTableRecord
  2
ACAD
 70
     0
  0
APPID
  5
222
330
15
100
AcDbSymbolTableRecord
100
AcDbRegAppTableRecord
  2
AVE_RENDER
 70
     0
  0
APPID
  5
223
330
15
100
AcDbSymbolTableRecord
100
AcDbRegAppTableRecord
  2
AVE_ENTITY_MATERIAL
 70
     0
  0
APPID
  5
224
330
15
100
AcDbSymbolTableRecord
100
AcDbRegAppTableRecord
  2
AVE_FINISH
 70
     0
  0
APPID
  5
225
330
15
100
AcDbSymbolTableRecord
100
AcDbRegAppTableRecord
  2
AVE_MATERIAL
 70
     0
  0
APPID
  5
226
330
15
100
AcDbSymbolTableRecord
100
AcDbRegAppTableRecord
  2
AVE_GLOBAL
 70
     0
  0
APPID
  5
1909
330
15
100
AcDbSymbolTableRecord
100
AcDbRegAppTableRecord
  2
DCO15
 70
     0
  0
APPID
  5
3F6A
330
15
100
AcDbSymbolTableRecord
100
AcDbRegAppTableRecord
  2
AME_SOL
 70
     0
  0
ENDTAB
  0
TABLE
  2
DIMSTYLE
  5
16
330
0
100
AcDbSymbolTable
 70
     1
100
AcDbDimStyleTable
 71
     1
340
1C
  0
DIMSTYLE
105
1C
102
{ACAD_REACTORS
330
3F8C
330
3F8E
330
3F9F
330
46B1
330
4784
330
47C3
330
47C7
330
47C9
330
47CF
330
47DF
330
47F4
330
481E
330
4824
330
4826
330
4828
330
4829
330
482B
330
482F
330
4831
330
550A
330
5498
330
5499
330
549C
330
549D
330
549E
330
5546
330
5547
102
}
330
16
100
AcDbSymbolTableRecord
100
AcDbDimStyleTableRecord
  2
STANDARD
 70
     0
 41
3.0
 42
2.0
 43
1.0
 44
1.0
140
1.75
141
1.0
147
1.0
179
     4
277
     4
340
2A5E
  0
ENDTAB
  0
TABLE
  2
BLOCK_RECORD
  5
1
330
0
100
AcDbSymbolTable
 70
   210
  0
BLOCK_RECORD
  5
2
330
1
100
AcDbSymbolTableRecord
100
AcDbBlockTableRecord
  2
*MODEL_SPACE
340
18F8
 70
     0
280
     1
281
     0
  0
BLOCK_RECORD
  5
7
330
1
100
AcDbSymbolTableRecord
100
AcDbBlockTableRecord
  2
*PAPER_SPACE
340
18F9
 70
     0
280
     1
281
     0
  0
BLOCK_RECORD
  5
15C
330
1
100
AcDbSymbolTableRecord
100
AcDbBlockTableRecord
  2
SPRING-BUMPER
340
0
102
{BLKREFS
331
54B2
102
}
 70
     0
280
     1
281
     0
  0
BLOCK_RECORD
  5
145
330
1
100
AcDbSymbolTableRecord
100
AcDbBlockTableRecord
  2
EBP5
340
0
102
{BLKREFS
331
54B1
102
}
 70
     0
280
     1
281
     0
  0
BLOCK_RECORD
  5
46C
330
1
100
AcDbSymbolTableRecord
100
AcDbBlockTableRecord
  2
2RA-117
340
0
102
{BLKREFS
331
550B
102
}
 70
     0
280
     1
281
     0
  0
BLOCK_RECORD
  5
6CD
330
1
100
AcDbSymbolTableRecord
100
AcDbBlockTableRecord
  2
A$C6D1F65B0
340
0
102
{BLKREFS
331
550C
102
}
 70
     0
280
     1
281
     0
  0
BLOCK_RECORD
  5
92D
330
1
100
AcDbSymbolTableRecord
100
AcDbBlockTableRecord
  2
OTC-6
340
0
102
{BLKREFS
331
4807
331
47CD
331
550D
102
}
 70
     0
280
     1
281
     0
  0
BLOCK_RECORD
  5
939
330
1
100
AcDbSymbolTableRecord
100
AcDbBlockTableRecord
  2
OTC-8
340
0
102
{BLKREFS
331
550E
102
}
 70
     0
280
     1
281
     0
  0
BLOCK_RECORD
  5
948
330
1
100
AcDbSymbolTableRecord
100
AcDbBlockTableRecord
  2
OTC-10
340
0
102
{BLKREFS
331
550F
102
}
 70
     0
280
     1
281
     0
  0
BLOCK_RECORD
  5
957
330
1
100
AcDbSymbolTableRecord
100
AcDbBlockTableRecord
  2
OTC-12
340
0
102
{BLKREFS
331
5510
102
}
 70
     0
280
     1
281
     0
  0
BLOCK_RECORD
  5
966
330
1
100
AcDbSymbolTableRecord
100
AcDbBlockTableRecord
  2
OTC-14
340
0
102
{BLKREFS
331
5511
102
}
 70
     0
280
     1
281
     0
  0
BLOCK_RECORD
  5
9D6
330
1
100
AcDbSymbolTableRecord
100
AcDbBlockTableRecord
  2
A$C5DFD450B
340
0
102
{BLKREFS
331
18F0
102
}
 70
     0
280
     1
281
     0
  0
BLOCK_RECORD
  5
9EA
330
1
100
AcDbSymbolTableRecord
100
AcDbBlockTableRecord
  2
RASPLT-10
340
0
102
{BLKREFS
331
5514
102
}
 70
     0
280
     1
281
     0
  0
BLOCK_RECORD
  5
22A7
330
1
100
AcDbSymbolTableRecord
100
AcDbBlockTableRecord
  2
A$C69AB59AC
340
0
102
{BLKREFS
331
5515
102
}
 70
     0
280
     1
281
     0
  0
BLOCK_RECORD
  5
23A9
330
1
100
AcDbSymbolTableRecord
100
AcDbBlockTableRecord
  2
A$C564A1EE0
340
0
102
{BLKREFS
331
5516
102
}
 70
     0
280
     1
281
     0
  0
BLOCK_RECORD
  5
257D
330
1
100
AcDbSymbolTableRecord
100
AcDbBlockTableRecord
  2
A$C65C916B7
340
0
102
{BLKREFS
331
5519
102
}
 70
     0
280
     1
281
     0
  0
BLOCK_RECORD
  5
5548
330
1
100
AcDbSymbolTableRecord
100
AcDbBlockTableRecord
  2
*D201
340
0
 70
     0
280
     1
281
     0
  0
BLOCK_RECORD
  5
5555
330
1
100
AcDbSymbolTableRecord
100
AcDbBlockTableRecord
  2
*D202
340
0
 70
     0
280
     1
281
     0
  0
BLOCK_RECORD
  5
5562
330
1
100
AcDbSymbolTableRecord
100
AcDbBlockTableRecord
  2
*D203
340
0
 70
     0
280
     1
281
     0
  0
BLOCK_RECORD
  5
556F
330
1
100
AcDbSymbolTableRecord
100
AcDbBlockTableRecord
  2
*D204
340
0
 70
     0
280
     1
281
     0
  0
BLOCK_RECORD
  5
557C
330
1
100
AcDbSymbolTableRecord
100
AcDbBlockTableRecord
  2
*D205
340
0
 70
     0
280
     1
281
     0
  0
BLOCK_RECORD
  5
5589
330
1
100
AcDbSymbolTableRecord
100
AcDbBlockTableRecord
  2
*D206
340
0
 70
     0
280
     1
281
     0
  0
BLOCK_RECORD
  5
5596
330
1
100
AcDbSymbolTableRecord
100
AcDbBlockTableRecord
  2
*D207
340
0
 70
     0
280
     1
281
     0
  0
BLOCK_RECORD
  5
55A3
330
1
100
AcDbSymbolTableRecord
100
AcDbBlockTableRecord
  2
*D208
340
0
 70
     0
280
     1
281
     0
  0
ENDTAB
  0
ENDSEC
  0
SECTION
  2
BLOCKS
  0
BLOCK
  5
3
330
2
100
AcDbEntity
  8
0
100
AcDbBlockBegin
  2
*MODEL_SPACE
 70
     0
 10
0.0
 20
0.0
 30
0.0
  3
*MODEL_SPACE
  1

  0
ENDBLK
  5
6
330
2
100
AcDbEntity
  8
0
100
AcDbBlockEnd
  0
BLOCK
  5
8
330
7
100
AcDbEntity
 67
     1
  8
0
100
AcDbBlockBegin
  2
*PAPER_SPACE
 70
     0
 10
0.0
 20
0.0
 30
0.0
  3
*PAPER_SPACE
  1

  0
ENDBLK
  5
9
330
7
100
AcDbEntity
 67
     1
  8
0
100
AcDbBlockEnd
  0
BLOCK
  5
16B
330
15C
100
AcDbEntity
  8
0
100
AcDbBlockBegin
  2
SPRING-BUMPER
 70
     0
 10
0.0
 20
0.0
 30
0.0
  3
SPRING-BUMPER
  1

  0
ARC
  5
15D
330
15C
100
AcDbEntity
  8
5
 62
     7
100
AcDbCircle
 10
0.0
 20
0.0
 30
0.0
 40
2.832
100
AcDbArc
 50
270.0
 51
90.0
  0
ARC
  5
15F
330
15C
100
AcDbEntity
  8
5
 62
     7
100
AcDbCircle
 10
0.0
 20
0.0
 30
0.0
 40
2.696
100
AcDbArc
 50
270.0
 51
90.0
  0
LINE
  5
160
330
15C
100
AcDbEntity
  8
5
 62
     7
100
AcDbLine
 10
0.0
 20
2.832
 30
0.0
 11
-9.088999999999984
 21
2.832
 31
0.0
  0
LINE
  5
161
330
15C
100
AcDbEntity
  8
5
 62
     7
100
AcDbLine
 10
0.0
 20
2.695999999999997
 30
0.0
 11
-9.088999999999984
 21
2.695999999999997
 31
0.0
  0
LINE
  5
162
330
15C
100
AcDbEntity
  8
5
 62
     7
100
AcDbLine
 10
-9.088999999999984
 20
2.695999999999997
 30
0.0
 11
-9.088999999999984
 21
2.832000000000007
 31
0.0
  0
POINT
  5
163
330
15C
100
AcDbEntity
  8
DEFPOINTS
  6
ByBlock
 62
     7
100
AcDbPoint
 10
-9.088999999999984
 20
2.695999999999997
 30
0.0
  0
POINT
  5
164
330
15C
100
AcDbEntity
  8
DEFPOINTS
  6
ByBlock
 62
     7
100
AcDbPoint
 10
-9.088999999999984
 20
2.832
 30
0.0
  0
LINE
  5
165
330
15C
100
AcDbEntity
  8
5
 62
     7
100
AcDbLine
 10
0.0
 20
-2.832
 30
0.0
 11
-1.838999999999984
 21
-2.832
 31
0.0
  0
LINE
  5
166
330
15C
100
AcDbEntity
  8
5
 62
     7
100
AcDbLine
 10
0.0
 20
-2.695999999999997
 30
0.0
 11
-1.838999999999984
 21
-2.695999999999997
 31
0.0
  0
LINE
  5
167
330
15C
100
AcDbEntity
  8
5
 62
     7
100
AcDbLine
 10
-1.838999999999998
 20
-2.832
 30
0.0
 11
-1.838999999999998
 21
-2.695999999999997
 31
0.0
  0
LINE
  5
168
330
15C
100
AcDbEntity
  8
HIDDEN
 62
     7
100
AcDbLine
 10
-0.9065000000000011
 20
-2.832
 30
0.0
 11
-0.9065000000000011
 21
-2.695999999999997
 31
0.0
  0
LINE
  5
16A
330
15C
100
AcDbEntity
  8
HIDDEN
 62
     7
100
AcDbLine
 10
-0.5215000000000032
 20
-2.832
 30
0.0
 11
-0.5215000000000032
 21
-2.695999999999997
 31
0.0
  0
ENDBLK
  5
16C
330
15C
100
AcDbEntity
  8
0
100
AcDbBlockEnd
  0
BLOCK
  5
157
330
145
100
AcDbEntity
  8
0
100
AcDbBlockBegin
  2
EBP5
 70
     0
 10
0.0
 20
0.0
 30
0.0
  3
EBP5
  1

  0
LINE
  5
146
330
145
100
AcDbEntity
  8
0
100
AcDbLine
 10
0.625
 20
-0.5625
 30
0.0
 11
-3.75
 21
-0.5625
 31
0.0
  0
LINE
  5
147
330
145
100
AcDbEntity
  8
0
100
AcDbLine
 10
-3.75
 20
-0.5625
 30
0.0
 11
-3.75
 21
1.5
 31
0.0
  0
LINE
  5
148
330
145
100
AcDbEntity
  8
0
100
AcDbLine
 10
-3.75
 20
1.5
 30
0.0
 11
-5.9375
 21
1.5
 31
0.0
  0
LINE
  5
149
330
145
100
AcDbEntity
  8
0
100
AcDbLine
 10
-5.9375
 20
7.375
 30
0.0
 11
0.625
 21
7.375
 31
0.0
  0
LINE
  5
14A
330
145
100
AcDbEntity
  8
0
100
AcDbLine
 10
-5.823300000000003
 20
7.375
 30
0.0
 11
-5.823300000000003
 21
1.5
 31
0.0
  0
LINE
  5
14B
330
145
100
AcDbEntity
  8
0
100
AcDbLine
 10
-5.9375
 20
7.375
 30
0.0
 11
-5.9375
 21
1.5
 31
0.0
  0
LINE
  5
14C
330
145
100
AcDbEntity
  8
0
100
AcDbLine
 10
0.625
 20
7.375
 30
0.0
 11
0.625
 21
-0.5625
 31
0.0
  0
CIRCLE
  5
14D
330
145
100
AcDbEntity
  8
0
100
AcDbCircle
 10
-0.9375
 20
6.0
 30
0.0
 40
0.5
  0
CIRCLE
  5
14E
330
145
100
AcDbEntity
  8
0
100
AcDbCircle
 10
-0.9375
 20
6.0
 30
0.0
 40
0.75
  0
ARC
  5
14F
330
145
100
AcDbEntity
  8
0
100
AcDbCircle
 10
-1.25
 20
0.0
 30
0.0
 40
0.1875
100
AcDbArc
 50
90.0
 51
270.0
  0
ARC
  5
150
330
145
100
AcDbEntity
  8
0
100
AcDbCircle
 10
-1.875
 20
0.0
 30
0.0
 40
0.1875
100
AcDbArc
 50
270.0
 51
90.0
  0
LINE
  5
151
330
145
100
AcDbEntity
  8
0
100
AcDbLine
 10
0.0
 20
0.1875
 30
0.0
 11
-1.25
 21
0.1875
 31
0.0
  0
LINE
  5
152
330
145
100
AcDbEntity
  8
0
100
AcDbLine
 10
0.0
 20
-0.1875
 30
0.0
 11
-1.25
 21
-0.1875
 31
0.0
  0
ARC
  5
153
330
145
100
AcDbEntity
  8
0
100
AcDbCircle
 10
-3.3125
 20
0.0
 30
0.0
 40
0.1875000000000002
100
AcDbArc
 50
90.0
 51
270.0
  0
LINE
  5
154
330
145
100
AcDbEntity
  8
0
100
AcDbLine
 10
-1.875
 20
-0.1875
 30
0.0
 11
-3.3125
 21
-0.1875
 31
0.0
  0
LINE
  5
155
330
145
100
AcDbEntity
  8
0
100
AcDbLine
 10
-1.875
 20
0.1875
 30
0.0
 11
-3.3125
 21
0.1875
 31
0.0
  0
ARC
  5
156
330
145
100
AcDbEntity
  8
0
100
AcDbCircle
 10
0.0
 20
0.0
 30
0.0
 40
0.1875
100
AcDbArc
 50
270.0
 51
90.0
  0
ENDBLK
  5
158
330
145
100
AcDbEntity
  8
0
100
AcDbBlockEnd
  0
BLOCK
  5
4A3
330
46C
100
AcDbEntity
  8
0
100
AcDbBlockBegin
  2
2RA-117
 70
     0
 10
0.0
 20
0.0
 30
0.0
  3
2RA-117
  1

  0
LINE
  5
696
330
46C
100
AcDbEntity
  8
JAMB
 62
     7
100
AcDbLine
 10
-5.217125552899135
 20
76.74279650577301
 30
0.0
 11
-5.217125552899156
 21
-40.25720349422698
 31
0.0
  0
LINE
  5
697
330
46C
100
AcDbEntity
  8
REVERSE-ANGLE
 62
     7
100
AcDbLine
 10
-5.217125552899162
 20
-40.25720349422698
 30
0.0
 11
-5.217125552899178
 21
76.74279650577301
 31
0.0
  0
LINE
  5
698
330
46C
100
AcDbEntity
  8
REVERSE-ANGLE
 62
     7
100
AcDbLine
 10
-5.117125552899167
 20
-40.25720349422698
 30
0.0
 11
-5.117125552899183
 21
76.74279650577301
 31
0.0
  0
LINE
  5
699
330
46C
100
AcDbEntity
  8
REVERSE-ANGLE
 62
     7
100
AcDbLine
 10
-3.592125552899176
 20
-28.75720349422699
 30
0.0
 11
-3.592125552899162
 21
-7.757203494226985
 31
0.0
  0
CIRCLE
  5
69A
330
46C
100
AcDbEntity
  8
REVERSE-ANGLE
 62
     7
100
AcDbCircle
 10
-4.44212555289917
 20
-31.007203494227
 30
0.0
 40
0.1325
  0
LINE
  5
69B
330
46C
100
AcDbEntity
  8
REVERSE-ANGLE
 62
     7
100
AcDbLine
 10
-4.012125552899163
 20
-31.75720349422699
 30
0.0
 11
-4.012125552899163
 21
-28.75720349422699
 31
0.0
  0
LINE
  5
69C
330
46C
100
AcDbEntity
  8
REVERSE-ANGLE
 62
     7
100
AcDbLine
 10
-4.012125552899163
 20
-31.75720349422699
 30
0.0
 11
-3.592125552899162
 21
-31.75720349422699
 31
0.0
  0
LINE
  5
69D
330
46C
100
AcDbEntity
  8
REVERSE-ANGLE
 62
     7
100
AcDbLine
 10
-5.217125552899162
 20
-30.06470349422699
 30
0.0
 11
-5.117125552899167
 21
-30.06470349422699
 31
0.0
  0
LINE
  5
69E
330
46C
100
AcDbEntity
  8
REVERSE-ANGLE
 62
     7
100
AcDbLine
 10
-5.217125552899162
 20
-30.44970349422698
 30
0.0
 11
-5.117125552899167
 21
-30.44970349422698
 31
0.0
  0
LINE
  5
69F
330
46C
100
AcDbEntity
  8
REVERSE-ANGLE
 62
     7
100
AcDbLine
 10
-4.012125552899163
 20
-28.75720349422699
 30
0.0
 11
-3.592125552899162
 21
-28.75720349422699
 31
0.0
  0
CIRCLE
  5
6A0
330
46C
100
AcDbEntity
  8
REVERSE-ANGLE
 62
     7
100
AcDbCircle
 10
-4.44212555289917
 20
-29.50720349422699
 30
0.0
 40
0.1325
  0
LINE
  5
6A1
330
46C
100
AcDbEntity
  8
REVERSE-ANGLE
 62
     7
100
AcDbLine
 10
-3.592125552899176
 20
-4.757203494226978
 30
0.0
 11
-3.592125552899167
 21
16.24279650577301
 31
0.0
  0
LINE
  5
6A2
330
46C
100
AcDbEntity
  8
REVERSE-ANGLE
 62
     7
100
AcDbLine
 10
-5.217125552899162
 20
-6.44970349422698
 30
0.0
 11
-5.117125552899167
 21
-6.44970349422698
 31
0.0
  0
LINE
  5
6A3
330
46C
100
AcDbEntity
  8
REVERSE-ANGLE
 62
     7
100
AcDbLine
 10
-5.217125552899162
 20
-6.064703494226989
 30
0.0
 11
-5.117125552899167
 21
-6.064703494226989
 31
0.0
  0
LINE
  5
6A4
330
46C
100
AcDbEntity
  8
REVERSE-ANGLE
 62
     7
100
AcDbLine
 10
-4.012125552899163
 20
-4.757203494226985
 30
0.0
 11
-3.592125552899162
 21
-4.757203494226985
 31
0.0
  0
LINE
  5
6A5
330
46C
100
AcDbEntity
  8
REVERSE-ANGLE
 62
     7
100
AcDbLine
 10
-4.012125552899163
 20
-7.757203494226985
 30
0.0
 11
-3.592125552899162
 21
-7.757203494226985
 31
0.0
  0
LINE
  5
6A6
330
46C
100
AcDbEntity
  8
REVERSE-ANGLE
 62
     7
100
AcDbLine
 10
-4.012125552899163
 20
-7.757203494226985
 30
0.0
 11
-4.012125552899163
 21
-4.757203494226985
 31
0.0
  0
CIRCLE
  5
6A7
330
46C
100
AcDbEntity
  8
REVERSE-ANGLE
 62
     7
100
AcDbCircle
 10
-4.44212555289917
 20
-7.007203494226985
 30
0.0
 40
0.1325
  0
CIRCLE
  5
6A8
330
46C
100
AcDbEntity
  8
REVERSE-ANGLE
 62
     7
100
AcDbCircle
 10
-4.44212555289917
 20
-5.507203494226985
 30
0.0
 40
0.1325
  0
LINE
  5
6A9
330
46C
100
AcDbEntity
  8
UPPER-ANGLE
100
AcDbLine
 10
-5.217125552899162
 20
-40.25720349422698
 30
0.0
 11
-3.592125552899184
 21
-40.25720349422698
 31
0.0
  0
LINE
  5
6AA
330
46C
100
AcDbEntity
  8
UPPER-ANGLE
100
AcDbLine
 10
-3.592125552899184
 20
-40.25720349422698
 30
0.0
 11
-3.592125552899162
 21
-31.75720349422699
 31
0.0
  0
LINE
  5
6AB
330
46C
100
AcDbEntity
  8
UPPER-ANGLE
100
AcDbLine
 10
-5.217125552899098
 20
76.74279650577301
 30
0.0
 11
-3.59212555289912
 21
76.74279650577301
 31
0.0
  0
CIRCLE
  5
6AC
330
46C
100
AcDbEntity
  8
REVERSE-ANGLE
 62
     7
100
AcDbCircle
 10
-4.44212555289917
 20
18.49279650577301
 30
0.0
 40
0.1325
  0
CIRCLE
  5
6AD
330
46C
100
AcDbEntity
  8
REVERSE-ANGLE
 62
     7
100
AcDbCircle
 10
-4.44212555289917
 20
16.99279650577301
 30
0.0
 40
0.1325
  0
LINE
  5
6AE
330
46C
100
AcDbEntity
  8
REVERSE-ANGLE
 62
     7
100
AcDbLine
 10
-5.217125552899162
 20
17.93529650577301
 30
0.0
 11
-5.117125552899167
 21
17.93529650577301
 31
0.0
  0
LINE
  5
6AF
330
46C
100
AcDbEntity
  8
REVERSE-ANGLE
 62
     7
100
AcDbLine
 10
-5.217125552899162
 20
17.55029650577302
 30
0.0
 11
-5.117125552899167
 21
17.55029650577302
 31
0.0
  0
LINE
  5
6B0
330
46C
100
AcDbEntity
  8
REVERSE-ANGLE
 62
     7
100
AcDbLine
 10
-4.012125552899163
 20
16.24279650577301
 30
0.0
 11
-3.592125552899161
 21
16.24279650577301
 31
0.0
  0
LINE
  5
6B1
330
46C
100
AcDbEntity
  8
REVERSE-ANGLE
 62
     7
100
AcDbLine
 10
-4.012125552899163
 20
19.24279650577301
 30
0.0
 11
-3.592125552899161
 21
19.24279650577301
 31
0.0
  0
LINE
  5
6B2
330
46C
100
AcDbEntity
  8
REVERSE-ANGLE
 62
     7
100
AcDbLine
 10
-4.012125552899163
 20
16.24279650577301
 30
0.0
 11
-4.012125552899163
 21
19.24279650577301
 31
0.0
  0
LINE
  5
6B3
330
46C
100
AcDbEntity
  8
REVERSE-ANGLE
 62
     7
100
AcDbLine
 10
-4.012125552899163
 20
40.24279650577301
 30
0.0
 11
-4.012125552899163
 21
43.24279650577302
 31
0.0
  0
CIRCLE
  5
6B4
330
46C
100
AcDbEntity
  8
REVERSE-ANGLE
 62
     7
100
AcDbCircle
 10
-4.44212555289917
 20
40.99279650577301
 30
0.0
 40
0.1325
  0
CIRCLE
  5
6B5
330
46C
100
AcDbEntity
  8
REVERSE-ANGLE
 62
     7
100
AcDbCircle
 10
-4.44212555289917
 20
42.49279650577301
 30
0.0
 40
0.1325
  0
LINE
  5
6B6
330
46C
100
AcDbEntity
  8
REVERSE-ANGLE
 62
     7
100
AcDbLine
 10
-5.217125552899162
 20
41.55029650577302
 30
0.0
 11
-5.117125552899167
 21
41.55029650577302
 31
0.0
  0
LINE
  5
6B7
330
46C
100
AcDbEntity
  8
REVERSE-ANGLE
 62
     7
100
AcDbLine
 10
-5.217125552899162
 20
41.93529650577301
 30
0.0
 11
-5.117125552899167
 21
41.93529650577301
 31
0.0
  0
LINE
  5
6B8
330
46C
100
AcDbEntity
  8
REVERSE-ANGLE
 62
     7
100
AcDbLine
 10
-4.012125552899163
 20
40.24279650577301
 30
0.0
 11
-3.592125552899161
 21
40.24279650577301
 31
0.0
  0
LINE
  5
6B9
330
46C
100
AcDbEntity
  8
REVERSE-ANGLE
 62
     7
100
AcDbLine
 10
-4.012125552899163
 20
43.24279650577302
 30
0.0
 11
-3.592125552899161
 21
43.24279650577302
 31
0.0
  0
CIRCLE
  5
6BA
330
46C
100
AcDbEntity
  8
REVERSE-ANGLE
 62
     7
100
AcDbCircle
 10
-4.44212555289917
 20
60.492796505773
 30
0.0
 40
0.1325
  0
CIRCLE
  5
6BB
330
46C
100
AcDbEntity
  8
REVERSE-ANGLE
 62
     7
100
AcDbCircle
 10
-4.44212555289917
 20
58.992796505773
 30
0.0
 40
0.1325
  0
LINE
  5
6BC
330
46C
100
AcDbEntity
  8
REVERSE-ANGLE
 62
     7
100
AcDbLine
 10
-5.217125552899162
 20
65.93529650577301
 30
0.0
 11
-5.117125552899167
 21
65.93529650577301
 31
0.0
  0
LINE
  5
6BD
330
46C
100
AcDbEntity
  8
REVERSE-ANGLE
 62
     7
100
AcDbLine
 10
-5.217125552899162
 20
65.55029650577302
 30
0.0
 11
-5.117125552899167
 21
65.55029650577302
 31
0.0
  0
LINE
  5
6BE
330
46C
100
AcDbEntity
  8
REVERSE-ANGLE
 62
     7
100
AcDbLine
 10
-4.012125552899163
 20
58.242796505773
 30
0.0
 11
-4.012125552899163
 21
61.242796505773
 31
0.0
  0
LINE
  5
6BF
330
46C
100
AcDbEntity
  8
REVERSE-ANGLE
 62
     7
100
AcDbLine
 10
-4.012125552899163
 20
58.242796505773
 30
0.0
 11
-3.592125552899161
 21
58.242796505773
 31
0.0
  0
LINE
  5
6C0
330
46C
100
AcDbEntity
  8
REVERSE-ANGLE
 62
     7
100
AcDbLine
 10
-4.012125552899163
 20
61.242796505773
 30
0.0
 11
-3.592125552899161
 21
61.242796505773
 31
0.0
  0
LINE
  5
6C1
330
46C
100
AcDbEntity
  8
REVERSE-ANGLE
 62
     7
100
AcDbLine
 10
-3.592125552899144
 20
61.24279650577301
 30
0.0
 11
-3.592125552899138
 21
76.74279650577303
 31
0.0
  0
LINE
  5
6C2
330
46C
100
AcDbEntity
  8
REVERSE-ANGLE
 62
     7
100
AcDbLine
 10
-3.592125552899155
 20
43.24279650577302
 30
0.0
 11
-3.592125552899146
 21
58.242796505773
 31
0.0
  0
LINE
  5
6C3
330
46C
100
AcDbEntity
  8
REVERSE-ANGLE
 62
     7
100
AcDbLine
 10
-3.592125552899166
 20
19.24279650577301
 30
0.0
 11
-3.592125552899156
 21
40.24279650577301
 31
0.0
  0
LINE
  5
6C4
330
46C
100
AcDbEntity
  8
UPPER-ANGLE
100
AcDbLine
 10
-4.364071095616969
 20
71.49529650577301
 30
0.0
 11
-4.364071095616969
 21
72.61029650577299
 31
0.0
  0
LINE
  5
6C5
330
46C
100
AcDbEntity
  8
UPPER-ANGLE
100
AcDbLine
 10
-3.979071095616968
 20
71.49529650577301
 30
0.0
 11
-3.979071095616968
 21
72.61029650577299
 31
0.0
  0
ARC
  5
6C6
330
46C
100
AcDbEntity
  8
UPPER-ANGLE
100
AcDbCircle
 10
-4.171571095616968
 20
76.260296505773
 30
0.0
 40
0.1925000000000002
100
AcDbArc
 50
0.0
 51
180.0
  0
ARC
  5
6C7
330
46C
100
AcDbEntity
  8
UPPER-ANGLE
100
AcDbCircle
 10
-4.171571095616968
 20
75.14529650577301
 30
0.0
 40
0.1925000000000002
100
AcDbArc
 50
180.0
 51
0.0
  0
ARC
  5
6C8
330
46C
100
AcDbEntity
  8
UPPER-ANGLE
100
AcDbCircle
 10
-4.171571095616968
 20
71.49529650577301
 30
0.0
 40
0.1925000000000002
100
AcDbArc
 50
180.0
 51
0.0
  0
ARC
  5
6C9
330
46C
100
AcDbEntity
  8
UPPER-ANGLE
100
AcDbCircle
 10
-4.171571095616968
 20
72.61029650577299
 30
0.0
 40
0.1925000000000002
100
AcDbArc
 50
0.0
 51
180.0
  0
LINE
  5
6CA
330
46C
100
AcDbEntity
  8
UPPER-ANGLE
100
AcDbLine
 10
-4.364071095616969
 20
75.14529650577301
 30
0.0
 11
-4.364071095616969
 21
76.260296505773
 31
0.0
  0
LINE
  5
6CB
330
46C
100
AcDbEntity
  8
UPPER-ANGLE
100
AcDbLine
 10
-3.979071095616969
 20
75.14529650577301
 30
0.0
 11
-3.979071095616968
 21
76.260296505773
 31
0.0
  0
ENDBLK
  5
4A4
330
46C
100
AcDbEntity
  8
0
100
AcDbBlockEnd
  0
BLOCK
  5
709
330
6CD
100
AcDbEntity
  8
0
100
AcDbBlockBegin
  2
A$C6D1F65B0
 70
     0
 10
0.0
 20
0.0
 30
0.0
  3
A$C6D1F65B0
  1

  0
LINE
  5
6CE
330
6CD
100
AcDbEntity
  8
5
 62
     7
100
AcDbLine
 10
-0.0000003960316519
 20
0.0217601738954869
 30
0.0
 11
1.023966381313726
 21
100.0165174966616
 31
0.0
  0
LINE
  5
6CF
330
6CD
100
AcDbEntity
  8
5
 62
     7
100
AcDbLine
 10
3.148854974422448
 20
99.99475820264301
 30
0.0
 11
2.124888197077069
 21
0.0000008798768931
 31
0.0
  0
LINE
  5
6D0
330
6CD
100
AcDbEntity
  8
HIDDEN
 62
     7
100
AcDbLine
 10
2.711377911135315
 20
99.99923805729387
 30
0.0
 11
1.687411133789936
 21
0.0044807345277889
 31
0.0
  0
CIRCLE
  5
6D1
330
6CD
100
AcDbEntity
  8
5
 62
     7
100
AcDbCircle
 10
0.8778188051688573
 20
9.251452924794193
 30
0.0
 40
0.1405
  0
LINE
  5
6D2
330
6CD
100
AcDbEntity
  8
5
 62
     7
100
AcDbLine
 10
2.124888197077069
 20
0.0000008798768931
 30
0.0
 11
0.0000034726730291
 21
0.0221347452075662
 31
0.0
  0
CIRCLE
  5
6D3
330
6CD
100
AcDbEntity
  8
5
 62
     7
100
AcDbCircle
 10
1.196188480314987
 20
0.6097072322188098
 30
0.0
 40
0.1405
  0
CIRCLE
  5
6D4
330
6CD
100
AcDbEntity
  8
5
 62
     7
100
AcDbCircle
 10
0.4462291658194602
 20
0.6175191846884616
 30
0.0
 40
0.1405
  0
CIRCLE
  5
6D5
330
6CD
100
AcDbEntity
  8
5
 62
     7
100
AcDbCircle
 10
0.8229794531109462
 20
1.263630027366232
 30
0.0
 40
0.203
  0
ARC
  5
6D6
330
6CD
100
AcDbEntity
  8
5
 62
     7
100
AcDbCircle
 10
0.8828106427969544
 20
9.730676926756842
 30
0.0
 40
0.1355
100
AcDbArc
 50
179.4032
 51
359.4032
  0
ARC
  5
6D7
330
6CD
100
AcDbEntity
  8
5
 62
     7
100
AcDbCircle
 10
0.8884508724800355
 20
10.27214755182264
 30
0.0
 40
0.1355
100
AcDbArc
 50
359.4032
 51
179.4032
  0
CIRCLE
  5
6D8
330
6CD
100
AcDbEntity
  8
5
 62
     7
100
AcDbCircle
 10
0.8934427101081325
 20
10.75137155378526
 30
0.0
 40
0.1405
  0
LINE
  5
6D9
330
6CD
100
AcDbEntity
  8
5
 62
     7
100
AcDbLine
 10
1.023943521965605
 20
10.27073619240978
 30
0.0
 11
1.018303292282524
 21
9.729265567344
 31
0.0
  0
LINE
  5
6DA
330
6CD
100
AcDbEntity
  8
5
 62
     7
100
AcDbLine
 10
0.7473179933114409
 20
9.732088286169698
 30
0.0
 11
0.752958222994522
 21
10.27355891123548
 31
0.0
  0
ARC
  5
6DB
330
6CD
100
AcDbEntity
  8
5
 62
     7
100
AcDbCircle
 10
1.545046181593676
 20
29.93818239004438
 30
0.0
 40
0.0625
100
AcDbArc
 50
269.4032
 51
359.4032
  0
LINE
  5
6DC
330
6CD
100
AcDbEntity
  8
5
 62
     7
100
AcDbLine
 10
1.619260719839502
 20
31.06247036574854
 30
0.0
 11
1.607542791134989
 21
29.93753139400525
 31
0.0
  0
ARC
  5
6DD
330
6CD
100
AcDbEntity
  8
5
 62
     7
100
AcDbCircle
 10
1.556764110298189
 20
31.06312136178768
 30
0.0
 40
0.0625
100
AcDbArc
 50
359.4032
 51
89.40320000000001
  0
ARC
  5
6DE
330
6CD
100
AcDbEntity
  8
5
 62
     7
100
AcDbCircle
 10
1.597125864724688
 20
36.93818239004439
 30
0.0
 40
0.0625
100
AcDbArc
 50
269.4032
 51
359.4032
  0
ARC
  5
6DF
330
6CD
100
AcDbEntity
  8
5
 62
     7
100
AcDbCircle
 10
1.608843793429201
 20
38.0631213617877
 30
0.0
 40
0.0625
100
AcDbArc
 50
359.4032
 51
89.40320000000001
  0
LINE
  5
6E0
330
6CD
100
AcDbEntity
  8
5
 62
     7
100
AcDbLine
 10
1.659622474266001
 20
36.93753139400525
 30
0.0
 11
1.671340402970457
 21
38.06247036574855
 31
0.0
  0
LINE
  5
6E1
330
6CD
100
AcDbEntity
  8
5
 62
     7
100
AcDbLine
 10
1.303439557424638
 20
33.729265567344
 30
0.0
 11
1.309079787107719
 21
34.2707361924098
 31
0.0
  0
LINE
  5
6E2
330
6CD
100
AcDbEntity
  8
5
 62
     7
100
AcDbLine
 10
1.038094488136692
 20
34.2735589112355
 30
0.0
 11
1.032454258453611
 21
33.7320882861697
 31
0.0
  0
CIRCLE
  5
6E3
330
6CD
100
AcDbEntity
  8
5
 62
     7
100
AcDbCircle
 10
1.162955070311028
 20
33.25145292479424
 30
0.0
 40
0.1405
  0
ARC
  5
6E4
330
6CD
100
AcDbEntity
  8
5
 62
     7
100
AcDbCircle
 10
1.167946907939125
 20
33.73067692675686
 30
0.0
 40
0.1355
100
AcDbArc
 50
179.4032
 51
359.4032
  0
ARC
  5
6E5
330
6CD
100
AcDbEntity
  8
5
 62
     7
100
AcDbCircle
 10
0.6700936480155804
 20
29.94729633459231
 30
0.0
 40
0.0625
100
AcDbArc
 50
179.4032
 51
269.4032
  0
ARC
  5
6E6
330
6CD
100
AcDbEntity
  8
5
 62
     7
100
AcDbCircle
 10
0.6818115767200368
 20
31.07223530633561
 30
0.0
 40
0.0625
100
AcDbArc
 50
89.40320000000001
 51
179.4032
  0
LINE
  5
6E7
330
6CD
100
AcDbEntity
  8
5
 62
     7
100
AcDbLine
 10
0.6193149671787808
 20
31.07288630237474
 30
0.0
 11
0.6075970384742675
 21
29.94794733063145
 31
0.0
  0
ARC
  5
6E8
330
6CD
100
AcDbEntity
  8
5
 62
     7
100
AcDbCircle
 10
1.173587137622206
 20
34.27214755182264
 30
0.0
 40
0.1355
100
AcDbArc
 50
359.4032
 51
179.4032
  0
CIRCLE
  5
6E9
330
6CD
100
AcDbEntity
  8
5
 62
     7
100
AcDbCircle
 10
1.178578975250303
 20
34.75137155378531
 30
0.0
 40
0.1405
  0
ARC
  5
6EA
330
6CD
100
AcDbEntity
  8
5
 62
     7
100
AcDbCircle
 10
0.7221733311465926
 20
36.94729633459232
 30
0.0
 40
0.0625
100
AcDbArc
 50
179.4032
 51
269.4032
  0
ARC
  5
6EB
330
6CD
100
AcDbEntity
  8
5
 62
     7
100
AcDbCircle
 10
0.733891259851049
 20
38.0722353063356
 30
0.0
 40
0.0625
100
AcDbArc
 50
89.40320000000001
 51
179.4032
  0
LINE
  5
6EC
330
6CD
100
AcDbEntity
  8
5
 62
     7
100
AcDbLine
 10
0.6596767216052797
 20
36.94794733063145
 30
0.0
 11
0.6713946503097361
 21
38.07288630237473
 31
0.0
  0
CIRCLE
  5
6ED
330
6CD
100
AcDbEntity
  8
5
 62
     7
100
AcDbCircle
 10
1.328957213196048
 20
29.59671463532766
 30
0.0
 40
0.1325
  0
CIRCLE
  5
6EE
330
6CD
100
AcDbEntity
  8
5
 62
     7
100
AcDbCircle
 10
1.347835056737352
 20
31.40901631744994
 30
0.0
 40
0.1325
  0
LINE
  5
6EF
330
6CD
100
AcDbEntity
  8
5
 62
     7
100
AcDbLine
 10
1.544395185554577
 20
29.87568578050309
 30
0.0
 11
0.669442651976425
 21
29.88479972505101
 31
0.0
  0
LINE
  5
6F0
330
6CD
100
AcDbEntity
  8
5
 62
     7
100
AcDbLine
 10
1.557415106337344
 20
31.12561797132898
 30
0.0
 11
0.6824625727591922
 21
31.1347319158769
 31
0.0
  0
CIRCLE
  5
6F1
330
6CD
100
AcDbEntity
  8
5
 62
     7
100
AcDbCircle
 10
1.381036896327003
 20
36.59671463532766
 30
0.0
 40
0.1325
  0
CIRCLE
  5
6F2
330
6CD
100
AcDbEntity
  8
5
 62
     7
100
AcDbCircle
 10
1.399914739868364
 20
38.40901631744994
 30
0.0
 40
0.1325
  0
LINE
  5
6F3
330
6CD
100
AcDbEntity
  8
5
 62
     7
100
AcDbLine
 10
1.596474868685589
 20
36.8756857805031
 30
0.0
 11
0.7215223351074372
 21
36.88479972505103
 31
0.0
  0
LINE
  5
6F4
330
6CD
100
AcDbEntity
  8
5
 62
     7
100
AcDbLine
 10
1.6094947894683
 20
38.12561797132899
 30
0.0
 11
0.7345422558902044
 21
38.13473191587688
 31
0.0
  0
CIRCLE
  5
6F5
330
6CD
100
AcDbEntity
  8
5
 62
     7
100
AcDbCircle
 10
1.408997768539933
 20
39.2810008798769
 30
0.0
 40
0.1325
  0
CIRCLE
  5
6F6
330
6CD
100
AcDbEntity
  8
5
 62
     7
100
AcDbCircle
 10
1.371894189506946
 20
35.7190008798769
 30
0.0
 40
0.1325
  0
CIRCLE
  5
6F7
330
6CD
100
AcDbEntity
  8
5
 62
     7
100
AcDbCircle
 10
1.319814506375934
 20
28.71900087987689
 30
0.0
 40
0.1325
  0
CIRCLE
  5
6F8
330
6CD
100
AcDbEntity
  8
5
 62
     7
100
AcDbCircle
 10
1.356918085408921
 20
32.2810008798769
 30
0.0
 40
0.1325
  0
LINE
  5
6F9
330
6CD
100
AcDbEntity
  8
5
 62
     7
100
AcDbLine
 10
1.511758289948573
 20
57.73876937669782
 30
0.0
 11
1.517398519631655
 21
58.2802400017636
 31
0.0
  0
LINE
  5
6FA
330
6CD
100
AcDbEntity
  8
5
 62
     7
100
AcDbLine
 10
1.246413220660627
 20
58.2830627205893
 30
0.0
 11
1.240772990977546
 21
57.74159209552351
 31
0.0
  0
ARC
  5
6FB
330
6CD
100
AcDbEntity
  8
5
 62
     7
100
AcDbCircle
 10
1.37626564046306
 20
57.74018073611066
 30
0.0
 40
0.1355
100
AcDbArc
 50
179.4032
 51
359.4032
  0
CIRCLE
  5
6FC
330
6CD
100
AcDbEntity
  8
5
 62
     7
100
AcDbCircle
 10
1.371273802834906
 20
57.26095673414803
 30
0.0
 40
0.1405
  0
CIRCLE
  5
6FD
330
6CD
100
AcDbEntity
  8
5
 62
     7
100
AcDbCircle
 10
1.386897707774238
 20
58.76087536313912
 30
0.0
 40
0.1405
  0
ARC
  5
6FE
330
6CD
100
AcDbEntity
  8
5
 62
     7
100
AcDbCircle
 10
1.381905870146141
 20
58.28165136117646
 30
0.0
 40
0.1355
100
AcDbArc
 50
359.4032
 51
179.4032
  0
ARC
  5
6FF
330
6CD
100
AcDbEntity
  8
5
 62
     7
100
AcDbCircle
 10
1.631888349174886
 20
82.28034942503359
 30
0.0
 40
0.1355
100
AcDbArc
 50
359.4032
 51
179.4032
  0
CIRCLE
  5
700
330
6CD
100
AcDbEntity
  8
5
 62
     7
100
AcDbCircle
 10
1.621256281863708
 20
81.25965479800516
 30
0.0
 40
0.1405
  0
ARC
  5
701
330
6CD
100
AcDbEntity
  8
5
 62
     7
100
AcDbCircle
 10
1.626248119491805
 20
81.7388787999678
 30
0.0
 40
0.1355
100
AcDbArc
 50
179.4032
 51
359.4032
  0
LINE
  5
702
330
6CD
100
AcDbEntity
  8
5
 62
     7
100
AcDbLine
 10
1.761740768977318
 20
81.73746744055495
 30
0.0
 11
1.767380998660456
 21
82.27893806562073
 31
0.0
  0
LINE
  5
703
330
6CD
100
AcDbEntity
  8
5
 62
     7
100
AcDbLine
 10
1.496395699689372
 20
82.28176078444645
 30
0.0
 11
1.490755470006291
 21
81.74029015938065
 31
0.0
  0
CIRCLE
  5
704
330
6CD
100
AcDbEntity
  8
5
 62
     7
100
AcDbCircle
 10
1.636880186802983
 20
82.75957342699623
 30
0.0
 40
0.1405
  0
CIRCLE
  5
705
330
6CD
100
AcDbEntity
  8
5
 62
     7
100
AcDbCircle
 10
1.823624199844488
 20
98.75826330006109
 30
0.0
 40
0.203
  0
CIRCLE
  5
706
330
6CD
100
AcDbEntity
  8
5
 62
     7
100
AcDbCircle
 10
1.455363129877042
 20
99.41826877302814
 30
0.0
 40
0.1405
  0
CIRCLE
  5
707
330
6CD
100
AcDbEntity
  8
5
 62
     7
100
AcDbCircle
 10
2.205323809797704
 20
99.41058902219804
 30
0.0
 40
0.1405
  0
LINE
  5
708
330
6CD
100
AcDbEntity
  8
5
 62
     7
100
AcDbLine
 10
1.023966381313726
 20
100.0165174966616
 30
0.0
 11
3.148854974422448
 21
99.99475820264301
 31
0.0
  0
ENDBLK
  5
70A
330
6CD
100
AcDbEntity
  8
0
100
AcDbBlockEnd
  0
BLOCK
  5
936
330
92D
100
AcDbEntity
  8
0
100
AcDbBlockBegin
  2
OTC-6
 70
     0
 10
0.0
 20
0.0
 30
0.0
  3
OTC-6
  1

  0
LWPOLYLINE
  5
92E
330
92D
100
AcDbEntity
  8
0
100
AcDbPolyline
 90
        4
 70
     1
 43
0.0
 10
-0.5
 20
-2.0
 10
5.499999999999985
 20
-2.0
 10
5.499999999999985
 20
0.5
 10
-0.5
 20
0.5
  0
ARC
  5
92F
330
92D
100
AcDbEntity
  8
OUTSIDE
100
AcDbCircle
 10
4.796874999999985
 20
-0.71875
 30
0.0
 40
0.140625
100
AcDbArc
 50
270.0
 51
90.0
  0
CIRCLE
  5
930
330
92D
100
AcDbEntity
  8
0
100
AcDbCircle
 10
0.0
 20
0.0
 30
0.0
 40
0.136
  0
CIRCLE
  5
931
330
92D
100
AcDbEntity
  8
0
100
AcDbCircle
 10
0.0
 20
-1.5
 30
0.0
 40
0.136
  0
TEXT
  5
932
330
92D
100
AcDbEntity
  8
0
100
AcDbText
 10
0.2258530993734666
 20
-0.8627655840508623
 30
0.0
 40
0.25
  1
6
100
AcDbText
  0
LINE
  5
933
330
92D
100
AcDbEntity
  8
OUTSIDE
100
AcDbLine
 10
3.703124999999985
 20
-0.578125
 30
0.0
 11
4.796874999999985
 21
-0.578125
 31
0.0
  0
LINE
  5
934
330
92D
100
AcDbEntity
  8
OUTSIDE
100
AcDbLine
 10
3.703124999999985
 20
-0.859375
 30
0.0
 11
4.796874999999985
 21
-0.859375
 31
0.0
  0
ARC
  5
935
330
92D
100
AcDbEntity
  8
OUTSIDE
100
AcDbCircle
 10
3.703124999999985
 20
-0.71875
 30
0.0
 40
0.140625
100
AcDbArc
 50
90.0
 51
270.0
  0
ENDBLK
  5
937
330
92D
100
AcDbEntity
  8
0
100
AcDbBlockEnd
  0
BLOCK
  5
945
330
939
100
AcDbEntity
  8
0
100
AcDbBlockBegin
  2
OTC-8
 70
     0
 10
0.0
 20
0.0
 30
0.0
  3
OTC-8
  1

  0
LINE
  5
93A
330
939
100
AcDbEntity
  8
OUTSIDE
100
AcDbLine
 10
5.703125
 20
-0.578125
 30
0.0
 11
6.796875
 21
-0.578125
 31
0.0
  0
LINE
  5
93B
330
939
100
AcDbEntity
  8
OUTSIDE
100
AcDbLine
 10
5.703125
 20
-0.859375
 30
0.0
 11
6.796875
 21
-0.859375
 31
0.0
  0
LINE
  5
93C
330
939
100
AcDbEntity
  8
OUTSIDE
100
AcDbLine
 10
-0.5
 20
0.5
 30
0.0
 11
7.5
 21
0.5
 31
0.0
  0
LINE
  5
93D
330
939
100
AcDbEntity
  8
OUTSIDE
100
AcDbLine
 10
7.5
 20
-1.9375
 30
0.0
 11
-0.5
 21
-1.9375
 31
0.0
  0
TEXT
  5
93E
330
939
100
AcDbEntity
  8
0
100
AcDbText
 10
0.2258530993734666
 20
-0.8627655840508623
 30
0.0
 40
0.25
  1
8
100
AcDbText
  0
ARC
  5
93F
330
939
100
AcDbEntity
  8
OUTSIDE
100
AcDbCircle
 10
5.703125
 20
-0.71875
 30
0.0
 40
0.140625
100
AcDbArc
 50
90.0
 51
270.0
  0
LINE
  5
940
330
939
100
AcDbEntity
  8
0
100
AcDbLine
 10
-0.5
 20
0.5
 30
0.0
 11
-0.5
 21
-1.9375
 31
0.0
  0
CIRCLE
  5
941
330
939
100
AcDbEntity
  8
0
100
AcDbCircle
 10
0.0
 20
-1.5
 30
0.0
 40
0.136
  0
CIRCLE
  5
942
330
939
100
AcDbEntity
  8
0
100
AcDbCircle
 10
0.0
 20
0.0
 30
0.0
 40
0.136
  0
ARC
  5
943
330
939
100
AcDbEntity
  8
OUTSIDE
100
AcDbCircle
 10
6.796875
 20
-0.71875
 30
0.0
 40
0.140625
100
AcDbArc
 50
270.0
 51
90.0
  0
LINE
  5
944
330
939
100
AcDbEntity
  8
OUTSIDE
100
AcDbLine
 10
7.5
 20
-1.9375
 30
0.0
 11
7.5
 21
0.5
 31
0.0
  0
ENDBLK
  5
946
330
939
100
AcDbEntity
  8
0
100
AcDbBlockEnd
  0
BLOCK
  5
954
330
948
100
AcDbEntity
  8
0
100
AcDbBlockBegin
  2
OTC-10
 70
     0
 10
0.0
 20
0.0
 30
0.0
  3
OTC-10
  1

  0
LINE
  5
949
330
948
100
AcDbEntity
  8
OUTSIDE
100
AcDbLine
 10
-0.5
 20
0.5
 30
0.0
 11
9.5
 21
0.5
 31
0.0
  0
LINE
  5
94A
330
948
100
AcDbEntity
  8
OUTSIDE
100
AcDbLine
 10
9.5
 20
-1.9375
 30
0.0
 11
-0.5
 21
-1.9375
 31
0.0
  0
TEXT
  5
94B
330
948
100
AcDbEntity
  8
0
100
AcDbText
 10
0.2258530993734666
 20
-0.8627655840508623
 30
0.0
 40
0.25
  1
10
100
AcDbText
  0
LINE
  5
94C
330
948
100
AcDbEntity
  8
0
100
AcDbLine
 10
-0.5
 20
0.5
 30
0.0
 11
-0.5
 21
-1.9375
 31
0.0
  0
CIRCLE
  5
94D
330
948
100
AcDbEntity
  8
0
100
AcDbCircle
 10
0.0
 20
-1.5
 30
0.0
 40
0.136
  0
CIRCLE
  5
94E
330
948
100
AcDbEntity
  8
0
100
AcDbCircle
 10
0.0
 20
0.0
 30
0.0
 40
0.136
  0
ARC
  5
94F
330
948
100
AcDbEntity
  8
OUTSIDE
100
AcDbCircle
 10
8.796875
 20
-0.71875
 30
0.0
 40
0.140625
100
AcDbArc
 50
270.0
 51
90.0
  0
ARC
  5
950
330
948
100
AcDbEntity
  8
OUTSIDE
100
AcDbCircle
 10
7.703125
 20
-0.71875
 30
0.0
 40
0.140625
100
AcDbArc
 50
90.0
 51
270.0
  0
LINE
  5
951
330
948
100
AcDbEntity
  8
OUTSIDE
100
AcDbLine
 10
9.5
 20
-1.9375
 30
0.0
 11
9.5
 21
0.5
 31
0.0
  0
LINE
  5
952
330
948
100
AcDbEntity
  8
OUTSIDE
100
AcDbLine
 10
7.703125
 20
-0.859375
 30
0.0
 11
8.796875
 21
-0.859375
 31
0.0
  0
LINE
  5
953
330
948
100
AcDbEntity
  8
OUTSIDE
100
AcDbLine
 10
7.703125
 20
-0.578125
 30
0.0
 11
8.796875
 21
-0.578125
 31
0.0
  0
ENDBLK
  5
955
330
948
100
AcDbEntity
  8
0
100
AcDbBlockEnd
  0
BLOCK
  5
963
330
957
100
AcDbEntity
  8
0
100
AcDbBlockBegin
  2
OTC-12
 70
     0
 10
0.0
 20
0.0
 30
0.0
  3
OTC-12
  1

  0
LINE
  5
958
330
957
100
AcDbEntity
  8
OUTSIDE
100
AcDbLine
 10
-0.5
 20
0.5
 30
0.0
 11
11.5
 21
0.5
 31
0.0
  0
LINE
  5
959
330
957
100
AcDbEntity
  8
OUTSIDE
100
AcDbLine
 10
11.5
 20
-1.9375
 30
0.0
 11
-0.5
 21
-1.9375
 31
0.0
  0
CIRCLE
  5
95A
330
957
100
AcDbEntity
  8
0
100
AcDbCircle
 10
0.0
 20
0.0
 30
0.0
 40
0.136
  0
CIRCLE
  5
95B
330
957
100
AcDbEntity
  8
0
100
AcDbCircle
 10
0.0
 20
-1.5
 30
0.0
 40
0.136
  0
TEXT
  5
95C
330
957
100
AcDbEntity
  8
0
100
AcDbText
 10
0.2258530993734666
 20
-0.8627655840508623
 30
0.0
 40
0.25
  1
12
100
AcDbText
  0
LINE
  5
95D
330
957
100
AcDbEntity
  8
0
100
AcDbLine
 10
-0.5
 20
0.5
 30
0.0
 11
-0.5
 21
-1.9375
 31
0.0
  0
LINE
  5
95E
330
957
100
AcDbEntity
  8
OUTSIDE
100
AcDbLine
 10
9.703125
 20
-0.859375
 30
0.0
 11
10.796875
 21
-0.859375
 31
0.0
  0
LINE
  5
95F
330
957
100
AcDbEntity
  8
OUTSIDE
100
AcDbLine
 10
9.703125
 20
-0.578125
 30
0.0
 11
10.796875
 21
-0.578125
 31
0.0
  0
ARC
  5
960
330
957
100
AcDbEntity
  8
OUTSIDE
100
AcDbCircle
 10
9.703125
 20
-0.71875
 30
0.0
 40
0.140625
100
AcDbArc
 50
90.0
 51
270.0
  0
ARC
  5
961
330
957
100
AcDbEntity
  8
OUTSIDE
100
AcDbCircle
 10
10.796875
 20
-0.71875
 30
0.0
 40
0.140625
100
AcDbArc
 50
270.0
 51
90.0
  0
LINE
  5
962
330
957
100
AcDbEntity
  8
OUTSIDE
100
AcDbLine
 10
11.5
 20
-1.9375
 30
0.0
 11
11.5
 21
0.5
 31
0.0
  0
ENDBLK
  5
964
330
957
100
AcDbEntity
  8
0
100
AcDbBlockEnd
  0
BLOCK
  5
972
330
966
100
AcDbEntity
  8
0
100
AcDbBlockBegin
  2
OTC-14
 70
     0
 10
0.0
 20
0.0
 30
0.0
  3
OTC-14
  1

  0
LINE
  5
967
330
966
100
AcDbEntity
  8
OUTSIDE
100
AcDbLine
 10
-0.5
 20
0.5
 30
0.0
 11
13.5
 21
0.5
 31
0.0
  0
LINE
  5
968
330
966
100
AcDbEntity
  8
OUTSIDE
100
AcDbLine
 10
13.5
 20
-1.9375
 30
0.0
 11
-0.5
 21
-1.9375
 31
0.0
  0
LINE
  5
969
330
966
100
AcDbEntity
  8
0
100
AcDbLine
 10
-0.5
 20
0.5
 30
0.0
 11
-0.5
 21
-1.9375
 31
0.0
  0
CIRCLE
  5
96A
330
966
100
AcDbEntity
  8
0
100
AcDbCircle
 10
0.0
 20
-1.5
 30
0.0
 40
0.136
  0
TEXT
  5
96B
330
966
100
AcDbEntity
  8
0
100
AcDbText
 10
0.2258530993734666
 20
-0.8627655840508623
 30
0.0
 40
0.25
  1
14
100
AcDbText
  0
CIRCLE
  5
96C
330
966
100
AcDbEntity
  8
0
100
AcDbCircle
 10
0.0
 20
0.0
 30
0.0
 40
0.136
  0
LINE
  5
96D
330
966
100
AcDbEntity
  8
OUTSIDE
100
AcDbLine
 10
13.5
 20
-1.9375
 30
0.0
 11
13.5
 21
0.5
 31
0.0
  0
LINE
  5
96E
330
966
100
AcDbEntity
  8
OUTSIDE
100
AcDbLine
 10
11.703125
 20
-0.578125
 30
0.0
 11
12.796875
 21
-0.578125
 31
0.0
  0
LINE
  5
96F
330
966
100
AcDbEntity
  8
OUTSIDE
100
AcDbLine
 10
11.703125
 20
-0.859375
 30
0.0
 11
12.796875
 21
-0.859375
 31
0.0
  0
ARC
  5
970
330
966
100
AcDbEntity
  8
OUTSIDE
100
AcDbCircle
 10
11.703125
 20
-0.71875
 30
0.0
 40
0.140625
100
AcDbArc
 50
90.0
 51
270.0
  0
ARC
  5
971
330
966
100
AcDbEntity
  8
OUTSIDE
100
AcDbCircle
 10
12.796875
 20
-0.71875
 30
0.0
 40
0.140625
100
AcDbArc
 50
270.0
 51
90.0
  0
ENDBLK
  5
973
330
966
100
AcDbEntity
  8
0
100
AcDbBlockEnd
  0
BLOCK
  5
9E7
330
9D6
100
AcDbEntity
  8
0
100
AcDbBlockBegin
  2
A$C5DFD450B
 70
     0
 10
0.0
 20
0.0
 30
0.0
  3
A$C5DFD450B
  1

  0
LINE
  5
9D7
330
9D6
100
AcDbEntity
  8
OUTSIDE
100
AcDbLine
 10
4.249999232383288
 20
2.374999854020416
 30
0.0
 11
-0.0000007676167115
 21
2.374999854020416
 31
0.0
  0
LINE
  5
9D8
330
9D6
100
AcDbEntity
  8
OUTSIDE
100
AcDbLine
 10
4.249999232383288
 20
-0.000000145979584
 30
0.0
 11
-0.0000007676167115
 21
-0.000000145979584
 31
0.0
  0
LINE
  5
9D9
330
9D6
100
AcDbEntity
  8
OUTSIDE
100
AcDbLine
 10
3.869374232383393
 20
1.921624854020478
 30
0.0
 11
1.910624232383213
 21
1.92162485402045
 31
0.0
  0
LINE
  5
9DA
330
9D6
100
AcDbEntity
  8
OUTSIDE
100
AcDbLine
 10
3.869374232383393
 20
1.640374854020478
 30
0.0
 11
1.910624232383213
 21
1.64037485402045
 31
0.0
  0
LINE
  5
9DB
330
9D6
100
AcDbEntity
  8
OUTSIDE
100
AcDbLine
 10
3.869374232383393
 20
0.4543748540204433
 30
0.0
 11
1.910624232383213
 21
0.4543748540204149
 31
0.0
  0
LINE
  5
9DC
330
9D6
100
AcDbEntity
  8
OUTSIDE
100
AcDbLine
 10
3.869374232383393
 20
0.7356248540204433
 30
0.0
 11
1.910624232383213
 21
0.7356248540204149
 31
0.0
  0
TEXT
  5
9DD
330
9D6
100
AcDbEntity
  8
OUTSIDE
100
AcDbText
 10
1.578058710696495
 20
0.954305879579806
 30
0.0
 40
0.2912332314499508
  1
10
 50
90.0
100
AcDbText
  0
ARC
  5
9DE
330
9D6
100
AcDbEntity
  8
OUTSIDE
100
AcDbCircle
 10
1.910624232383213
 20
1.780999854020421
 30
0.0
 40
0.1406249999999567
100
AcDbArc
 50
90.0
 51
270.0
  0
ARC
  5
9DF
330
9D6
100
AcDbEntity
  8
OUTSIDE
100
AcDbCircle
 10
1.910624232383213
 20
0.5949998540203865
 30
0.0
 40
0.1406249999999567
100
AcDbArc
 50
90.0
 51
270.0
  0
LINE
  5
9E0
330
9D6
100
AcDbEntity
  8
OUTSIDE
100
AcDbLine
 10
0.9999992323832884
 20
2.374999854020416
 30
0.0
 11
0.9999992323832884
 21
-0.000000145979584
 31
0.0
  0
LINE
  5
9E1
330
9D6
100
AcDbEntity
  8
OUTSIDE
100
AcDbLine
 10
-0.0000007676167115
 20
2.374999854020416
 30
0.0
 11
-0.0000007676167115
 21
-0.000000145979584
 31
0.0
  0
CIRCLE
  5
9E2
330
9D6
100
AcDbEntity
  8
OUTSIDE
100
AcDbCircle
 10
0.4999992323832885
 20
0.4374998540204161
 30
0.0
 40
0.15625
  0
CIRCLE
  5
9E3
330
9D6
100
AcDbEntity
  8
OUTSIDE
100
AcDbCircle
 10
0.4999992323832885
 20
1.937499854020416
 30
0.0
 40
0.15625
  0
ARC
  5
9E4
330
9D6
100
AcDbEntity
  8
OUTSIDE
100
AcDbCircle
 10
3.869374232383393
 20
0.5949998540203865
 30
0.0
 40
0.1406249999999567
100
AcDbArc
 50
270.0
 51
90.0
  0
ARC
  5
9E5
330
9D6
100
AcDbEntity
  8
OUTSIDE
100
AcDbCircle
 10
3.869374232383393
 20
1.780999854020421
 30
0.0
 40
0.1406249999999567
100
AcDbArc
 50
270.0
 51
90.0
  0
LINE
  5
9E6
330
9D6
100
AcDbEntity
  8
OUTSIDE
100
AcDbLine
 10
4.249999232383288
 20
2.374999854020416
 30
0.0
 11
4.249999232383288
 21
-0.000000145979584
 31
0.0
  0
ENDBLK
  5
9E8
330
9D6
100
AcDbEntity
  8
0
100
AcDbBlockEnd
  0
BLOCK
  5
9EC
330
9EA
100
AcDbEntity
  8
0
100
AcDbBlockBegin
  2
RASPLT-10
 70
     0
 10
0.0
 20
0.0
 30
0.0
  3
RASPLT-10
  1

  0
INSERT
  5
18F0
330
9EA
100
AcDbEntity
  8
BDR
100
AcDbBlockReference
  2
A$C5DFD450B
 10
-0.4999992323832885
 20
-0.4374998540204161
 30
0.0
  0
ENDBLK
  5
9ED
330
9EA
100
AcDbEntity
  8
0
100
AcDbBlockEnd
  0
BLOCK
  5
22D6
330
22A7
100
AcDbEntity
  8
0
100
AcDbBlockBegin
  2
A$C69AB59AC
 70
     0
 10
0.0
 20
0.0
 30
0.0
  3
A$C69AB59AC
  1

  0
LINE
  5
22A8
330
22A7
100
AcDbEntity
  8
JAMB
 62
     7
100
AcDbLine
 10
-0.0000004018915547
 20
122.999999751847
 30
0.0
 11
-0.0000004018916115
 21
-0.000000248153043
 31
0.0
  0
LINE
  5
22A9
330
22A7
100
AcDbEntity
  8
REVERSE-ANGLE
 62
     7
100
AcDbLine
 10
-0.0000004018916115
 20
-0.000000248153043
 30
0.0
 11
-0.0000004018916115
 21
122.999999751847
 31
0.0
  0
LINE
  5
22AA
330
22A7
100
AcDbEntity
  8
REVERSE-ANGLE
 62
     7
100
AcDbLine
 10
0.0999995981084112
 20
-0.000000248153043
 30
0.0
 11
0.0999995981083544
 21
122.999999751847
 31
0.0
  0
LINE
  5
22AB
330
22A7
100
AcDbEntity
  8
REVERSE-ANGLE
 62
     7
100
AcDbLine
 10
1.624999598108388
 20
83.49999975184699
 30
0.0
 11
1.624999598108445
 21
110.499999751847
 31
0.0
  0
LINE
  5
22AC
330
22A7
100
AcDbEntity
  8
REVERSE-ANGLE
 62
     7
100
AcDbLine
 10
1.624999598108388
 20
35.49999975184696
 30
0.0
 11
1.624999598108388
 21
56.49999975184695
 31
0.0
  0
LINE
  5
22AD
330
22A7
100
AcDbEntity
  8
REVERSE-ANGLE
 62
     7
100
AcDbLine
 10
1.624999598108388
 20
11.49999975184695
 30
0.0
 11
1.624999598108388
 21
32.49999975184696
 31
0.0
  0
LINE
  5
22AE
330
22A7
100
AcDbEntity
  8
UPPER-ANGLE
100
AcDbLine
 10
1.624999598108388
 20
-0.000000248153043
 30
0.0
 11
1.624999598108388
 21
8.499999751846956
 31
0.0
  0
LINE
  5
22AF
330
22A7
100
AcDbEntity
  8
UPPER-ANGLE
100
AcDbLine
 10
-0.0000004018916115
 20
-0.000000248153043
 30
0.0
 11
1.624999598108388
 21
-0.000000248153043
 31
0.0
  0
CIRCLE
  5
22B0
330
22A7
100
AcDbEntity
  8
REVERSE-ANGLE
 62
     7
100
AcDbCircle
 10
0.7749995981083658
 20
10.74999975184695
 30
0.0
 40
0.1325
  0
LINE
  5
22B1
330
22A7
100
AcDbEntity
  8
REVERSE-ANGLE
 62
     7
100
AcDbLine
 10
1.204999598108429
 20
11.49999975184695
 30
0.0
 11
1.624999598108388
 21
11.49999975184695
 31
0.0
  0
LINE
  5
22B2
330
22A7
100
AcDbEntity
  8
REVERSE-ANGLE
 62
     7
100
AcDbLine
 10
-0.0000004018916115
 20
9.807499751846961
 30
0.0
 11
0.0999995981084112
 21
9.807499751846961
 31
0.0
  0
LINE
  5
22B3
330
22A7
100
AcDbEntity
  8
REVERSE-ANGLE
 62
     7
100
AcDbLine
 10
-0.0000004018916115
 20
10.19249975184695
 30
0.0
 11
0.0999995981084112
 21
10.19249975184695
 31
0.0
  0
LINE
  5
22B4
330
22A7
100
AcDbEntity
  8
REVERSE-ANGLE
 62
     7
100
AcDbLine
 10
1.204999598108429
 20
8.499999751846956
 30
0.0
 11
1.624999598108388
 21
8.499999751846956
 31
0.0
  0
LINE
  5
22B5
330
22A7
100
AcDbEntity
  8
REVERSE-ANGLE
 62
     7
100
AcDbLine
 10
1.204999598108429
 20
8.499999751846956
 30
0.0
 11
1.204999598108429
 21
11.49999975184695
 31
0.0
  0
CIRCLE
  5
22B6
330
22A7
100
AcDbEntity
  8
REVERSE-ANGLE
 62
     7
100
AcDbCircle
 10
0.7749995981083658
 20
9.249999751846956
 30
0.0
 40
0.1325
  0
CIRCLE
  5
22B7
330
22A7
100
AcDbEntity
  8
REVERSE-ANGLE
 62
     7
100
AcDbCircle
 10
0.7749995981083658
 20
34.74999975184696
 30
0.0
 40
0.1325
  0
CIRCLE
  5
22B8
330
22A7
100
AcDbEntity
  8
REVERSE-ANGLE
 62
     7
100
AcDbCircle
 10
0.7749995981083658
 20
33.24999975184696
 30
0.0
 40
0.1325
  0
LINE
  5
22B9
330
22A7
100
AcDbEntity
  8
REVERSE-ANGLE
 62
     7
100
AcDbLine
 10
1.204999598108429
 20
32.49999975184696
 30
0.0
 11
1.204999598108429
 21
35.49999975184696
 31
0.0
  0
LINE
  5
22BA
330
22A7
100
AcDbEntity
  8
REVERSE-ANGLE
 62
     7
100
AcDbLine
 10
1.204999598108429
 20
32.49999975184696
 30
0.0
 11
1.624999598108388
 21
32.49999975184696
 31
0.0
  0
LINE
  5
22BB
330
22A7
100
AcDbEntity
  8
REVERSE-ANGLE
 62
     7
100
AcDbLine
 10
1.204999598108429
 20
35.49999975184696
 30
0.0
 11
1.624999598108388
 21
35.49999975184696
 31
0.0
  0
LINE
  5
22BC
330
22A7
100
AcDbEntity
  8
REVERSE-ANGLE
 62
     7
100
AcDbLine
 10
-0.0000004018916115
 20
34.19249975184695
 30
0.0
 11
0.0999995981084112
 21
34.19249975184695
 31
0.0
  0
LINE
  5
22BD
330
22A7
100
AcDbEntity
  8
REVERSE-ANGLE
 62
     7
100
AcDbLine
 10
-0.0000004018916115
 20
33.80749975184696
 30
0.0
 11
0.0999995981084112
 21
33.80749975184696
 31
0.0
  0
LINE
  5
22BE
330
22A7
100
AcDbEntity
  8
REVERSE-ANGLE
 62
     7
100
AcDbLine
 10
1.624999598108388
 20
59.49999975184699
 30
0.0
 11
1.624999598108388
 21
80.49999975184698
 31
0.0
  0
LINE
  5
22BF
330
22A7
100
AcDbEntity
  8
REVERSE-ANGLE
 62
     7
100
AcDbLine
 10
1.204999598108429
 20
56.49999975184695
 30
0.0
 11
1.204999598108429
 21
59.49999975184699
 31
0.0
  0
CIRCLE
  5
22C0
330
22A7
100
AcDbEntity
  8
REVERSE-ANGLE
 62
     7
100
AcDbCircle
 10
0.7749995981083658
 20
58.74999975184699
 30
0.0
 40
0.1325
  0
LINE
  5
22C1
330
22A7
100
AcDbEntity
  8
REVERSE-ANGLE
 62
     7
100
AcDbLine
 10
1.204999598108429
 20
56.49999975184695
 30
0.0
 11
1.624999598108388
 21
56.49999975184695
 31
0.0
  0
LINE
  5
22C2
330
22A7
100
AcDbEntity
  8
REVERSE-ANGLE
 62
     7
100
AcDbLine
 10
-0.0000004018916115
 20
57.80749975184699
 30
0.0
 11
0.0999995981084112
 21
57.80749975184699
 31
0.0
  0
LINE
  5
22C3
330
22A7
100
AcDbEntity
  8
REVERSE-ANGLE
 62
     7
100
AcDbLine
 10
-0.0000004018916115
 20
58.19249975184698
 30
0.0
 11
0.0999995981084112
 21
58.19249975184698
 31
0.0
  0
CIRCLE
  5
22C4
330
22A7
100
AcDbEntity
  8
REVERSE-ANGLE
 62
     7
100
AcDbCircle
 10
0.7749995981083658
 20
57.24999975184698
 30
0.0
 40
0.1325
  0
LINE
  5
22C5
330
22A7
100
AcDbEntity
  8
REVERSE-ANGLE
 62
     7
100
AcDbLine
 10
1.204999598108429
 20
59.49999975184699
 30
0.0
 11
1.624999598108388
 21
59.49999975184699
 31
0.0
  0
LINE
  5
22C6
330
22A7
100
AcDbEntity
  8
REVERSE-ANGLE
 62
     7
100
AcDbLine
 10
1.204999598108429
 20
83.49999975184699
 30
0.0
 11
1.624999598108388
 21
83.49999975184699
 31
0.0
  0
LINE
  5
22C7
330
22A7
100
AcDbEntity
  8
REVERSE-ANGLE
 62
     7
100
AcDbLine
 10
1.204999598108429
 20
80.49999975184698
 30
0.0
 11
1.624999598108388
 21
80.49999975184698
 31
0.0
  0
LINE
  5
22C8
330
22A7
100
AcDbEntity
  8
REVERSE-ANGLE
 62
     7
100
AcDbLine
 10
-0.0000004018916115
 20
82.19249975184698
 30
0.0
 11
0.0999995981084112
 21
82.19249975184698
 31
0.0
  0
LINE
  5
22C9
330
22A7
100
AcDbEntity
  8
REVERSE-ANGLE
 62
     7
100
AcDbLine
 10
-0.0000004018916115
 20
81.80749975184699
 30
0.0
 11
0.0999995981084112
 21
81.80749975184699
 31
0.0
  0
CIRCLE
  5
22CA
330
22A7
100
AcDbEntity
  8
REVERSE-ANGLE
 62
     7
100
AcDbCircle
 10
0.7749995981083658
 20
82.74999975184698
 30
0.0
 40
0.1325
  0
CIRCLE
  5
22CB
330
22A7
100
AcDbEntity
  8
REVERSE-ANGLE
 62
     7
100
AcDbCircle
 10
0.7749995981083658
 20
81.24999975184698
 30
0.0
 40
0.1325
  0
LINE
  5
22CC
330
22A7
100
AcDbEntity
  8
REVERSE-ANGLE
 62
     7
100
AcDbLine
 10
1.204999598108429
 20
80.49999975184698
 30
0.0
 11
1.204999598108429
 21
83.49999975184699
 31
0.0
  0
LINE
  5
22CD
330
22A7
100
AcDbEntity
  8
REVERSE-ANGLE
 62
     7
100
AcDbLine
 10
1.624999598108445
 20
113.499999751847
 30
0.0
 11
1.624999598108445
 21
122.999999751847
 31
0.0
  0
LINE
  5
22CE
330
22A7
100
AcDbEntity
  8
REVERSE-ANGLE
 62
     7
100
AcDbLine
 10
-0.0000004018916115
 20
105.807499751847
 30
0.0
 11
0.0999995981084112
 21
105.807499751847
 31
0.0
  0
LINE
  5
22CF
330
22A7
100
AcDbEntity
  8
REVERSE-ANGLE
 62
     7
100
AcDbLine
 10
-0.0000004018916115
 20
106.192499751847
 30
0.0
 11
0.0999995981084112
 21
106.192499751847
 31
0.0
  0
LINE
  5
22D0
330
22A7
100
AcDbEntity
  8
REVERSE-ANGLE
 62
     7
100
AcDbLine
 10
1.204999598108429
 20
113.499999751847
 30
0.0
 11
1.624999598108388
 21
113.499999751847
 31
0.0
  0
LINE
  5
22D1
330
22A7
100
AcDbEntity
  8
REVERSE-ANGLE
 62
     7
100
AcDbLine
 10
1.204999598108429
 20
110.499999751847
 30
0.0
 11
1.624999598108388
 21
110.499999751847
 31
0.0
  0
LINE
  5
22D2
330
22A7
100
AcDbEntity
  8
REVERSE-ANGLE
 62
     7
100
AcDbLine
 10
1.204999598108429
 20
110.499999751847
 30
0.0
 11
1.204999598108429
 21
113.499999751847
 31
0.0
  0
CIRCLE
  5
22D3
330
22A7
100
AcDbEntity
  8
REVERSE-ANGLE
 62
     7
100
AcDbCircle
 10
0.7749995981083658
 20
111.249999751847
 30
0.0
 40
0.1325
  0
CIRCLE
  5
22D4
330
22A7
100
AcDbEntity
  8
REVERSE-ANGLE
 62
     7
100
AcDbCircle
 10
0.7749995981083658
 20
112.749999751847
 30
0.0
 40
0.1325
  0
LINE
  5
22D5
330
22A7
100
AcDbEntity
  8
UPPER-ANGLE
100
AcDbLine
 10
-0.0000004018915547
 20
122.999999751847
 30
0.0
 11
1.624999598108445
 21
122.999999751847
 31
0.0
  0
ENDBLK
  5
22D7
330
22A7
100
AcDbEntity
  8
0
100
AcDbBlockEnd
  0
BLOCK
  5
23FE
330
23A9
100
AcDbEntity
  8
0
100
AcDbBlockBegin
  2
A$C564A1EE0
 70
     0
 10
0.0
 20
0.0
 30
0.0
  3
A$C564A1EE0
  1

  0
LINE
  5
23AA
330
23A9
100
AcDbEntity
  8
HIDDEN
 62
     7
100
AcDbLine
 10
3.428980767249015
 20
151.995034772463
 30
0.0
 11
1.687389722113323
 21
0.0050125320820484
 31
0.0
  0
LINE
  5
23AB
330
23A9
100
AcDbEntity
  8
5
 62
     7
100
AcDbLine
 10
3.866452048368557
 20
151.9900219692903
 30
0.0
 11
2.124861003232865
 21
-0.0000002710906415
 31
0.0
  0
LINE
  5
23AC
330
23A9
100
AcDbEntity
  8
5
 62
     7
100
AcDbLine
 10
0.0000004949380354
 20
0.0243476300337875
 30
0.0
 11
1.741591540073727
 21
152.0143698704147
 31
0.0
  0
LINE
  5
23AD
330
23A9
100
AcDbEntity
  8
5
 62
     7
100
AcDbLine
 10
1.533904895778164
 20
22.0707195986613
 30
0.0
 11
1.521014830476985
 21
20.94579344721115
 31
0.0
  0
LINE
  5
23AE
330
23A9
100
AcDbEntity
  8
5
 62
     7
100
AcDbLine
 10
0.533970538933545
 20
22.08217743448461
 30
0.0
 11
0.5210804736324235
 21
20.95725128303445
 31
0.0
  0
LINE
  5
23AF
330
23A9
100
AcDbEntity
  8
0
100
AcDbLine
 10
2.124861003232865
 20
-0.0000002710906415
 30
0.0
 11
0.0000004949380923
 21
0.0243476300337875
 31
0.0
  0
CIRCLE
  5
23B0
330
23A9
100
AcDbEntity
  8
5
 62
     7
100
AcDbCircle
 10
0.8007297520949805
 20
2.26532011017116
 30
0.0
 40
0.1405
  0
LINE
  5
23B1
330
23A9
100
AcDbEntity
  8
5
 62
     7
100
AcDbLine
 10
0.6707298145608434
 20
2.746091187442971
 30
0.0
 11
0.6769342326591641
 21
3.28755564167443
 31
0.0
  0
LINE
  5
23B2
330
23A9
100
AcDbEntity
  8
5
 62
     7
100
AcDbLine
 10
0.9479164433639652
 20
3.284450568166334
 30
0.0
 11
0.9417120252657014
 21
2.742986113934875
 31
0.0
  0
ARC
  5
23B3
330
23A9
100
AcDbEntity
  8
5
 62
     7
100
AcDbCircle
 10
0.8062209199132439
 20
2.744538650688923
 30
0.0
 40
0.1355
100
AcDbArc
 50
179.3434999999973
 51
359.3434999999973
  0
ARC
  5
23B4
330
23A9
100
AcDbEntity
  8
5
 62
     7
100
AcDbCircle
 10
0.8124253380115078
 20
3.286003104920382
 30
0.0
 40
0.1355
100
AcDbArc
 50
359.3434999999973
 51
179.3434999999973
  0
CIRCLE
  5
23B5
330
23A9
100
AcDbEntity
  8
5
 62
     7
100
AcDbCircle
 10
0.8179165058298849
 20
3.765221645438145
 30
0.0
 40
0.1405
  0
LINE
  5
23B6
330
23A9
100
AcDbEntity
  8
5
 62
     7
100
AcDbLine
 10
1.457802818435254
 20
20.88401366464734
 30
0.0
 11
0.5828602561962839
 21
20.89403927099261
 31
0.0
  0
CIRCLE
  5
23B7
330
23A9
100
AcDbEntity
  8
5
 62
     7
100
AcDbCircle
 10
1.017109593882253
 20
20.60784492667528
 30
0.0
 40
0.1325
  0
ARC
  5
23B8
330
23A9
100
AcDbEntity
  8
5
 62
     7
100
AcDbCircle
 10
0.5835763709351909
 20
20.95653516829543
 30
0.0
 40
0.0625
100
AcDbArc
 50
179.3434999999973
 51
269.3435000000006
  0
ARC
  5
23B9
330
23A9
100
AcDbEntity
  8
5
 62
     7
100
AcDbCircle
 10
1.458518933174218
 20
20.94650956195005
 30
0.0
 40
0.0625
100
AcDbArc
 50
269.3435000000006
 51
359.3434999999973
  0
CIRCLE
  5
23BA
330
23A9
100
AcDbEntity
  8
5
 62
     7
100
AcDbCircle
 10
1.075717811853223
 20
26.2637446744418
 30
0.0
 40
0.1405
  0
LINE
  5
23BB
330
23A9
100
AcDbEntity
  8
5
 62
     7
100
AcDbLine
 10
1.492176325905006
 20
23.88381673518109
 30
0.0
 11
0.6172337636660359
 21
23.89384234152647
 31
0.0
  0
LINE
  5
23BC
330
23A9
100
AcDbEntity
  8
5
 62
     7
100
AcDbLine
 10
1.506498620684112
 20
25.13373468123689
 30
0.0
 11
0.6315560584451419
 21
25.14376028758227
 31
0.0
  0
CIRCLE
  5
23BD
330
23A9
100
AcDbEntity
  8
5
 62
     7
100
AcDbCircle
 10
1.072249282998086
 20
25.41992902555433
 30
0.0
 40
0.1325
  0
ARC
  5
23BE
330
23A9
100
AcDbEntity
  8
5
 62
     7
100
AcDbCircle
 10
1.081208979671487
 20
26.74296321495956
 30
0.0
 40
0.1355
100
AcDbArc
 50
179.3434999999973
 51
359.3434999999973
  0
ARC
  5
23BF
330
23A9
100
AcDbEntity
  8
5
 62
     7
100
AcDbCircle
 10
1.087413397769864
 20
27.28442766919091
 30
0.0
 40
0.1355
100
AcDbArc
 50
359.3434999999973
 51
179.3434999999973
  0
CIRCLE
  5
23C0
330
23A9
100
AcDbEntity
  8
5
 62
     7
100
AcDbCircle
 10
1.092904565588128
 20
27.76364620970867
 30
0.0
 40
0.1405
  0
CIRCLE
  5
23C1
330
23A9
100
AcDbEntity
  8
5
 62
     7
100
AcDbCircle
 10
1.037875775528334
 20
22.42012595502047
 30
0.0
 40
0.1325
  0
LINE
  5
23C2
330
23A9
100
AcDbEntity
  8
5
 62
     7
100
AcDbLine
 10
1.472125113214303
 20
22.13393161070303
 30
0.0
 11
0.5971825509753899
 21
22.14395721704841
 31
0.0
  0
CIRCLE
  5
23C3
330
23A9
100
AcDbEntity
  8
5
 62
     7
100
AcDbCircle
 10
1.051483101352005
 20
23.60764799720914
 30
0.0
 40
0.1325
  0
LINE
  5
23C4
330
23A9
100
AcDbEntity
  8
5
 62
     7
100
AcDbLine
 10
0.9519222924174073
 20
27.28598020594495
 30
0.0
 11
0.9457178743191434
 21
26.74451575171361
 31
0.0
  0
ARC
  5
23C5
330
23A9
100
AcDbEntity
  8
5
 62
     7
100
AcDbCircle
 10
0.6179498784049997
 20
23.95633823882929
 30
0.0
 40
0.0625
100
AcDbArc
 50
179.3434999999973
 51
269.3435000000006
  0
ARC
  5
23C6
330
23A9
100
AcDbEntity
  8
5
 62
     7
100
AcDbCircle
 10
0.6308399437061781
 20
25.08126439027944
 30
0.0
 40
0.0625
100
AcDbArc
 50
89.34350000000057
 51
179.3434999999973
  0
LINE
  5
23C7
330
23A9
100
AcDbEntity
  8
5
 62
     7
100
AcDbLine
 10
0.5683440464033538
 20
25.08198050501846
 30
0.0
 11
0.5554539811021187
 21
23.9570543535682
 31
0.0
  0
ARC
  5
23C8
330
23A9
100
AcDbEntity
  8
5
 62
     7
100
AcDbCircle
 10
0.5964664362363692
 20
22.0814613197457
 30
0.0
 40
0.0625
100
AcDbArc
 50
89.34350000000057
 51
179.3434999999973
  0
LINE
  5
23C9
330
23A9
100
AcDbEntity
  8
5
 62
     7
100
AcDbLine
 10
1.216700085023944
 20
26.74141067820551
 30
0.0
 11
1.222904503122265
 21
27.28287513243686
 31
0.0
  0
ARC
  5
23CA
330
23A9
100
AcDbEntity
  8
5
 62
     7
100
AcDbCircle
 10
1.492892440644027
 20
23.94631263248391
 30
0.0
 40
0.0625
100
AcDbArc
 50
269.3435000000006
 51
359.3434999999973
  0
LINE
  5
23CB
330
23A9
100
AcDbEntity
  8
5
 62
     7
100
AcDbLine
 10
1.568278403247973
 20
25.07052266919516
 30
0.0
 11
1.555388337946794
 21
23.945596517745
 31
0.0
  0
ARC
  5
23CC
330
23A9
100
AcDbEntity
  8
5
 62
     7
100
AcDbCircle
 10
1.505782505945148
 20
25.07123878393418
 30
0.0
 40
0.0625
100
AcDbArc
 50
359.3434999999973
 51
89.34350000000057
  0
ARC
  5
23CD
330
23A9
100
AcDbEntity
  8
5
 62
     7
100
AcDbCircle
 10
1.471408998475396
 20
22.07143571340032
 30
0.0
 40
0.0625
100
AcDbArc
 50
359.3434999999973
 51
89.34350000000057
  0
CIRCLE
  5
23CE
330
23A9
100
AcDbEntity
  8
5
 62
     7
100
AcDbCircle
 10
1.129538462114396
 20
30.41960080977731
 30
0.0
 40
0.1325
  0
LINE
  5
23CF
330
23A9
100
AcDbEntity
  8
5
 62
     7
100
AcDbLine
 10
1.549465505021316
 20
28.88348851940418
 30
0.0
 11
0.6745229427823461
 21
28.89351412574956
 31
0.0
  0
LINE
  5
23D0
330
23A9
100
AcDbEntity
  8
5
 62
     7
100
AcDbLine
 10
1.563787799800422
 20
30.13340646545998
 30
0.0
 11
0.6888452375613952
 21
30.14343207180525
 31
0.0
  0
CIRCLE
  5
23D1
330
23A9
100
AcDbEntity
  8
5
 62
     7
100
AcDbCircle
 10
1.108772280468315
 20
28.60731978143213
 30
0.0
 40
0.1325
  0
ARC
  5
23D2
330
23A9
100
AcDbEntity
  8
5
 62
     7
100
AcDbCircle
 10
0.6752390575213099
 20
28.95601002305239
 30
0.0
 40
0.0625
100
AcDbArc
 50
179.3434999999973
 51
269.3435000000006
  0
ARC
  5
23D3
330
23A9
100
AcDbEntity
  8
5
 62
     7
100
AcDbCircle
 10
0.6881291228224882
 20
30.08093617450254
 30
0.0
 40
0.0625
100
AcDbArc
 50
89.34350000000057
 51
179.3434999999973
  0
LINE
  5
23D4
330
23A9
100
AcDbEntity
  8
5
 62
     7
100
AcDbLine
 10
0.6127431602184857
 20
28.95672613779129
 30
0.0
 11
0.625633225519664
 21
30.08165228924145
 31
0.0
  0
ARC
  5
23D5
330
23A9
100
AcDbEntity
  8
5
 62
     7
100
AcDbCircle
 10
1.550181619760337
 20
28.94598441670701
 30
0.0
 40
0.0625
100
AcDbArc
 50
269.3435000000006
 51
359.3434999999973
  0
ARC
  5
23D6
330
23A9
100
AcDbEntity
  8
5
 62
     7
100
AcDbCircle
 10
1.563071685061458
 20
30.07091056815716
 30
0.0
 40
0.0625
100
AcDbArc
 50
359.3434999999973
 51
89.34350000000057
  0
LINE
  5
23D7
330
23A9
100
AcDbEntity
  8
5
 62
     7
100
AcDbLine
 10
1.612677517063048
 20
28.94526830196799
 30
0.0
 11
1.625567582364283
 21
30.07019445341825
 31
0.0
  0
LINE
  5
23D8
330
23A9
100
AcDbEntity
  8
5
 62
     7
100
AcDbLine
 10
1.66404386325388
 20
38.88283208785026
 30
0.0
 11
0.7891013010149095
 21
38.89285769419553
 31
0.0
  0
LINE
  5
23D9
330
23A9
100
AcDbEntity
  8
5
 62
     7
100
AcDbLine
 10
1.678366158032986
 20
40.13275003390595
 30
0.0
 11
0.8034235957940154
 21
40.14277564025133
 31
0.0
  0
ARC
  5
23DA
330
23A9
100
AcDbEntity
  8
5
 62
     7
100
AcDbCircle
 10
0.7898174157538734
 20
38.95535359149835
 30
0.0
 40
0.0625
100
AcDbArc
 50
179.3434999999973
 51
269.3435000000006
  0
ARC
  5
23DB
330
23A9
100
AcDbEntity
  8
5
 62
     7
100
AcDbCircle
 10
0.8027074810550516
 20
40.0802797429485
 30
0.0
 40
0.0625
100
AcDbArc
 50
89.34350000000057
 51
179.3434999999973
  0
LINE
  5
23DC
330
23A9
100
AcDbEntity
  8
5
 62
     7
100
AcDbLine
 10
0.7273215184510491
 20
38.95606970623737
 30
0.0
 11
0.7402115837522274
 21
40.08099585768753
 31
0.0
  0
CIRCLE
  5
23DD
330
23A9
100
AcDbEntity
  8
5
 62
     7
100
AcDbCircle
 10
1.24411682034696
 20
40.41894437822338
 30
0.0
 40
0.1325
  0
CIRCLE
  5
23DE
330
23A9
100
AcDbEntity
  8
5
 62
     7
100
AcDbCircle
 10
1.223350638700878
 20
38.60666334987821
 30
0.0
 40
0.1325
  0
LINE
  5
23DF
330
23A9
100
AcDbEntity
  8
5
 62
     7
100
AcDbLine
 10
1.727255875295668
 20
38.94461187041406
 30
0.0
 11
1.740145940596789
 21
40.06953802186422
 31
0.0
  0
ARC
  5
23E0
330
23A9
100
AcDbEntity
  8
5
 62
     7
100
AcDbCircle
 10
1.664759977992844
 20
38.94532798515297
 30
0.0
 40
0.0625
100
AcDbArc
 50
269.3435000000006
 51
359.3434999999973
  0
ARC
  5
23E1
330
23A9
100
AcDbEntity
  8
5
 62
     7
100
AcDbCircle
 10
1.677650043294022
 20
40.07025413660324
 30
0.0
 40
0.0625
100
AcDbArc
 50
359.3434999999973
 51
89.34350000000057
  0
ARC
  5
23E2
330
23A9
100
AcDbEntity
  8
5
 62
     7
100
AcDbCircle
 10
1.356197039429787
 20
50.74138777923031
 30
0.0
 40
0.1355
100
AcDbArc
 50
179.3434999999973
 51
359.3434999999973
  0
CIRCLE
  5
23E3
330
23A9
100
AcDbEntity
  8
5
 62
     7
100
AcDbCircle
 10
1.350705871611467
 20
50.26216923871254
 30
0.0
 40
0.1405
  0
LINE
  5
23E4
330
23A9
100
AcDbEntity
  8
5
 62
     7
100
AcDbLine
 10
1.22691035217565
 20
51.28440477021581
 30
0.0
 11
1.220705934077386
 21
50.74294031598435
 31
0.0
  0
LINE
  5
23E5
330
23A9
100
AcDbEntity
  8
5
 62
     7
100
AcDbLine
 10
1.491688144782187
 20
50.73983524247626
 30
0.0
 11
1.497892562880508
 21
51.28129969670772
 31
0.0
  0
CIRCLE
  5
23E6
330
23A9
100
AcDbEntity
  8
5
 62
     7
100
AcDbCircle
 10
1.367892625346371
 20
51.76207077397953
 30
0.0
 40
0.1405
  0
ARC
  5
23E7
330
23A9
100
AcDbEntity
  8
5
 62
     7
100
AcDbCircle
 10
1.362401457528108
 20
51.28285223346177
 30
0.0
 40
0.1355
100
AcDbArc
 50
359.3434999999973
 51
179.3434999999973
  0
ARC
  5
23E8
330
23A9
100
AcDbEntity
  8
5
 62
     7
100
AcDbCircle
 10
1.637389517286237
 20
75.28127679773229
 30
0.0
 40
0.1355
100
AcDbArc
 50
359.3434999999973
 51
179.3434999999973
  0
LINE
  5
23E9
330
23A9
100
AcDbEntity
  8
5
 62
     7
100
AcDbLine
 10
1.501898411933893
 20
75.28282933448633
 30
0.0
 11
1.495693993835573
 21
74.74136488025499
 31
0.0
  0
LINE
  5
23EA
330
23A9
100
AcDbEntity
  8
5
 62
     7
100
AcDbLine
 10
1.766676204540431
 20
74.73825980674689
 30
0.0
 11
1.772880622638695
 21
75.27972426097824
 31
0.0
  0
CIRCLE
  5
23EB
330
23A9
100
AcDbEntity
  8
5
 62
     7
100
AcDbCircle
 10
1.62569393136971
 20
74.26059380298318
 30
0.0
 40
0.1405
  0
ARC
  5
23EC
330
23A9
100
AcDbEntity
  8
5
 62
     7
100
AcDbCircle
 10
1.631185099187973
 20
74.73981234350095
 30
0.0
 40
0.1355
100
AcDbArc
 50
179.3434999999973
 51
359.3434999999973
  0
CIRCLE
  5
23ED
330
23A9
100
AcDbEntity
  8
5
 62
     7
100
AcDbCircle
 10
1.642880685104557
 20
75.76049533825005
 30
0.0
 40
0.1405
  0
LINE
  5
23EE
330
23A9
100
AcDbEntity
  8
5
 62
     7
100
AcDbLine
 10
1.776886471692193
 20
99.2812538987571
 30
0.0
 11
1.770682053593873
 21
98.73978944452574
 31
0.0
  0
LINE
  5
23EF
330
23A9
100
AcDbEntity
  8
5
 62
     7
100
AcDbLine
 10
2.041664264298731
 20
98.73668437101764
 30
0.0
 11
2.047868682397051
 21
99.27814882524899
 31
0.0
  0
ARC
  5
23F0
330
23A9
100
AcDbEntity
  8
5
 62
     7
100
AcDbCircle
 10
1.90617315894633
 20
98.7382369077717
 30
0.0
 40
0.1355
100
AcDbArc
 50
179.3434999999973
 51
359.3434999999973
  0
CIRCLE
  5
23F1
330
23A9
100
AcDbEntity
  8
5
 62
     7
100
AcDbCircle
 10
1.900681991127953
 20
98.25901836725392
 30
0.0
 40
0.1405
  0
ARC
  5
23F2
330
23A9
100
AcDbEntity
  8
5
 62
     7
100
AcDbCircle
 10
1.912377577044594
 20
99.27970136200304
 30
0.0
 40
0.1355
100
AcDbArc
 50
359.3434999999973
 51
179.3434999999973
  0
CIRCLE
  5
23F3
330
23A9
100
AcDbEntity
  8
5
 62
     7
100
AcDbCircle
 10
1.917868744862857
 20
99.7589199025208
 30
0.0
 40
0.1405
  0
CIRCLE
  5
23F4
330
23A9
100
AcDbEntity
  8
5
 62
     7
100
AcDbCircle
 10
2.175670050886196
 20
122.2574429315244
 30
0.0
 40
0.1405
  0
LINE
  5
23F5
330
23A9
100
AcDbEntity
  8
5
 62
     7
100
AcDbLine
 10
2.05187453145038
 20
123.2796784630277
 30
0.0
 11
2.045670113352116
 21
122.7382140087964
 31
0.0
  0
LINE
  5
23F6
330
23A9
100
AcDbEntity
  8
5
 62
     7
100
AcDbLine
 10
2.316652324056917
 20
122.7351089352882
 30
0.0
 11
2.322856742155295
 21
123.2765733895196
 31
0.0
  0
CIRCLE
  5
23F7
330
23A9
100
AcDbEntity
  8
5
 62
     7
100
AcDbCircle
 10
2.192856804621101
 20
123.7573444667914
 30
0.0
 40
0.1405
  0
ARC
  5
23F8
330
23A9
100
AcDbEntity
  8
5
 62
     7
100
AcDbCircle
 10
2.187365636802837
 20
123.2781259262736
 30
0.0
 40
0.1355
100
AcDbArc
 50
359.3434999999973
 51
179.3434999999973
  0
ARC
  5
23F9
330
23A9
100
AcDbEntity
  8
5
 62
     7
100
AcDbCircle
 10
2.181161218704517
 20
122.7366614720423
 30
0.0
 40
0.1355
100
AcDbArc
 50
179.3434999999973
 51
359.3434999999973
  0
CIRCLE
  5
23FA
330
23A9
100
AcDbEntity
  8
5
 62
     7
100
AcDbCircle
 10
2.172259158281406
 20
151.4155960461477
 30
0.0
 40
0.1405
  0
CIRCLE
  5
23FB
330
23A9
100
AcDbEntity
  8
5
 62
     7
100
AcDbCircle
 10
2.922209925914842
 20
151.4070026692802
 30
0.0
 40
0.1405
  0
CIRCLE
  5
23FC
330
23A9
100
AcDbEntity
  8
5
 62
     7
100
AcDbCircle
 10
2.539715910230881
 20
150.7551424327525
 30
0.0
 40
0.203
  0
LINE
  5
23FD
330
23A9
100
AcDbEntity
  8
5
 62
     7
100
AcDbLine
 10
1.741591540073727
 20
152.0143698704147
 30
0.0
 11
3.866452048368557
 21
151.9900219692903
 31
0.0
  0
ENDBLK
  5
23FF
330
23A9
100
AcDbEntity
  8
0
100
AcDbBlockEnd
  0
BLOCK
  5
259D
330
257D
100
AcDbEntity
  8
0
100
AcDbBlockBegin
  2
A$C65C916B7
 70
     0
 10
0.0
 20
0.0
 30
0.0
  3
A$C65C916B7
  1

  0
LINE
  5
257E
330
257D
100
AcDbEntity
  8
SPLICE-PLATE
 62
     7
100
AcDbLine
 10
5.000000008773017
 20
2.499999998094613
 30
0.0
 11
0.0000000087730179
 21
2.499999998094613
 31
0.0
  0
LINE
  5
257F
330
257D
100
AcDbEntity
  8
SPLICE-PLATE
 62
     7
100
AcDbLine
 10
5.000000008773017
 20
-0.0000000019053856
 30
0.0
 11
0.0000000087730179
 21
-0.0000000019053861
 31
0.0
  0
LINE
  5
2580
330
257D
100
AcDbEntity
  8
SPLICE-PLATE
 62
     7
100
AcDbLine
 10
0.0000000087730179
 20
2.499999998094613
 30
0.0
 11
0.0000000087730179
 21
-0.0000000019054429
 31
0.0
  0
LINE
  5
2581
330
257D
100
AcDbEntity
  8
UPPER-ANGLE
100
AcDbLine
 10
0.5937500087730179
 20
0.3749999980945002
 30
0.0
 11
1.031250008773017
 21
0.3749999980945002
 31
0.0
  0
LINE
  5
2582
330
257D
100
AcDbEntity
  8
UPPER-ANGLE
100
AcDbLine
 10
0.5937500087730179
 20
0.6874999980945003
 30
0.0
 11
1.031250008773017
 21
0.6874999980945003
 31
0.0
  0
ARC
  5
2583
330
257D
100
AcDbEntity
  8
UPPER-ANGLE
100
AcDbCircle
 10
0.5937500087730179
 20
0.5312499980945003
 30
0.0
 40
0.1562500000000343
100
AcDbArc
 50
90.0
 51
270.0
  0
ARC
  5
2584
330
257D
100
AcDbEntity
  8
UPPER-ANGLE
100
AcDbCircle
 10
1.031250008773017
 20
0.5312499980945003
 30
0.0
 40
0.1562500000000379
100
AcDbArc
 50
270.0
 51
90.0
  0
LINE
  5
2585
330
257D
100
AcDbEntity
  8
UPPER-ANGLE
100
AcDbLine
 10
0.5937500087730179
 20
1.406249998094613
 30
0.0
 11
1.031250008773017
 21
1.406249998094613
 31
0.0
  0
LINE
  5
2586
330
257D
100
AcDbEntity
  8
UPPER-ANGLE
100
AcDbLine
 10
0.5937500087730179
 20
1.093749998094613
 30
0.0
 11
1.031250008773017
 21
1.093749998094613
 31
0.0
  0
LINE
  5
2587
330
257D
100
AcDbEntity
  8
UPPER-ANGLE
100
AcDbLine
 10
0.5937500087730179
 20
1.81249999809467
 30
0.0
 11
1.031250008773017
 21
1.81249999809467
 31
0.0
  0
LINE
  5
2588
330
257D
100
AcDbEntity
  8
UPPER-ANGLE
100
AcDbLine
 10
0.5937500087730179
 20
2.12499999809467
 30
0.0
 11
1.031250008773017
 21
2.12499999809467
 31
0.0
  0
ARC
  5
2589
330
257D
100
AcDbEntity
  8
UPPER-ANGLE
100
AcDbCircle
 10
0.5937500087730179
 20
1.249999998094613
 30
0.0
 40
0.1562500000000343
100
AcDbArc
 50
90.0
 51
270.0
  0
ARC
  5
258A
330
257D
100
AcDbEntity
  8
UPPER-ANGLE
100
AcDbCircle
 10
0.5937500087730179
 20
1.968749998094727
 30
0.0
 40
0.1562500000000343
100
AcDbArc
 50
89.99999999999998
 51
270.0
  0
ARC
  5
258B
330
257D
100
AcDbEntity
  8
UPPER-ANGLE
100
AcDbCircle
 10
1.031250008773017
 20
1.249999998094613
 30
0.0
 40
0.1562500000000379
100
AcDbArc
 50
270.0
 51
90.0
  0
ARC
  5
258C
330
257D
100
AcDbEntity
  8
UPPER-ANGLE
100
AcDbCircle
 10
1.031250008773017
 20
1.968749998094613
 30
0.0
 40
0.1562500000000379
100
AcDbArc
 50
270.0
 51
89.99999999999998
  0
ARC
  5
258D
330
257D
100
AcDbEntity
  8
UPPER-ANGLE
100
AcDbCircle
 10
4.500000008773017
 20
0.8124999980946142
 30
0.0
 40
0.125
100
AcDbArc
 50
0.0000000000000064
 51
180.0
  0
ARC
  5
258E
330
257D
100
AcDbEntity
  8
UPPER-ANGLE
100
AcDbCircle
 10
3.750000008773017
 20
0.8124999980946142
 30
0.0
 40
0.125
100
AcDbArc
 50
0.0000000000000064
 51
180.0
  0
LINE
  5
258F
330
257D
100
AcDbEntity
  8
SPLICE-PLATE
 62
     7
100
AcDbLine
 10
5.000000008773017
 20
2.499999998094613
 30
0.0
 11
5.000000008773017
 21
-0.0000000019053856
 31
0.0
  0
ARC
  5
2590
330
257D
100
AcDbEntity
  8
UPPER-ANGLE
100
AcDbCircle
 10
3.750000008773017
 20
0.5624999980946144
 30
0.0
 40
0.125
100
AcDbArc
 50
180.0
 51
0.0000000000000064
  0
LINE
  5
2591
330
257D
100
AcDbEntity
  8
UPPER-ANGLE
100
AcDbLine
 10
3.625000008773017
 20
0.8124999980946142
 30
0.0
 11
3.625000008773017
 21
0.5624999980946144
 31
0.0
  0
LINE
  5
2592
330
257D
100
AcDbEntity
  8
UPPER-ANGLE
100
AcDbLine
 10
3.875000008773017
 20
0.8124999980946142
 30
0.0
 11
3.875000008773017
 21
0.5624999980946144
 31
0.0
  0
ARC
  5
2593
330
257D
100
AcDbEntity
  8
UPPER-ANGLE
100
AcDbCircle
 10
4.500000008773017
 20
0.5624999980946144
 30
0.0
 40
0.125
100
AcDbArc
 50
180.0
 51
0.0000000000000064
  0
LINE
  5
2594
330
257D
100
AcDbEntity
  8
UPPER-ANGLE
100
AcDbLine
 10
4.375000008773017
 20
0.8124999980946142
 30
0.0
 11
4.375000008773017
 21
0.5624999980946144
 31
0.0
  0
LINE
  5
2595
330
257D
100
AcDbEntity
  8
UPPER-ANGLE
100
AcDbLine
 10
4.625000008773017
 20
0.8124999980946142
 30
0.0
 11
4.625000008773017
 21
0.5624999980946144
 31
0.0
  0
LINE
  5
2596
330
257D
100
AcDbEntity
  8
UPPER-ANGLE
100
AcDbLine
 10
3.156250008773053
 20
1.093749998094614
 30
0.0
 11
4.593750008772982
 21
1.093749998094557
 31
0.0
  0
LINE
  5
2597
330
257D
100
AcDbEntity
  8
UPPER-ANGLE
100
AcDbLine
 10
3.156250008773053
 20
1.406249998094613
 30
0.0
 11
4.593750008772982
 21
1.406249998094557
 31
0.0
  0
TEXT
  5
2598
330
257D
100
AcDbEntity
  8
SPLICE-PLATE
 62
     7
100
AcDbText
 10
2.176615682921369
 20
1.162239745643665
 30
0.0
 40
0.3
  1
5
 50
90.0
100
AcDbText
  0
ARC
  5
2599
330
257D
100
AcDbEntity
  8
UPPER-ANGLE
100
AcDbCircle
 10
3.156250008773053
 20
1.249999998094613
 30
0.0
 40
0.1562500000000343
100
AcDbArc
 50
90.0
 51
270.0
  0
CIRCLE
  5
259A
330
257D
100
AcDbEntity
  8
UPPER-ANGLE
100
AcDbCircle
 10
3.750000008773017
 20
1.906199998094626
 30
0.0
 40
0.125
  0
ARC
  5
259B
330
257D
100
AcDbEntity
  8
UPPER-ANGLE
100
AcDbCircle
 10
4.593750008772982
 20
1.249999998094613
 30
0.0
 40
0.1562500000000379
100
AcDbArc
 50
270.0
 51
90.0
  0
CIRCLE
  5
259C
330
257D
100
AcDbEntity
  8
UPPER-ANGLE
100
AcDbCircle
 10
4.500000008773017
 20
1.906199998094626
 30
0.0
 40
0.125
  0
ENDBLK
  5
259E
330
257D
100
AcDbEntity
  8
0
100
AcDbBlockEnd
  0
BLOCK
  5
5553
330
5548
100
AcDbEntity
  8
0
100
AcDbBlockBegin
  2
*D201
 70
     1
 10
0.0
 20
0.0
 30
0.0
  3
*D201
  1

  0
LINE
  5
5614
330
5548
100
AcDbEntity
  8
0
 62
     0
370
    -2
100
AcDbLine
 10
-129.5178042897821
 20
88.0307783698945
 30
0.0
 11
-237.3699549193212
 21
88.03077836989453
 31
0.0
  0
LINE
  5
5615
330
5548
100
AcDbEntity
  8
0
 62
     0
370
    -2
100
AcDbLine
 10
-217.892804289782
 20
205.0307783698945
 30
0.0
 11
-237.3699549193211
 21
205.0307783698945
 31
0.0
  0
LINE
  5
5616
330
5548
100
AcDbEntity
  8
0
 62
     0
370
    -2
100
AcDbLine
 10
-236.3699549193211
 20
91.03077836989454
 30
0.0
 11
-236.3699549193211
 21
154.5528740602383
 31
0.0
  0
LINE
  5
5617
330
5548
100
AcDbEntity
  8
0
 62
     0
370
    -2
100
AcDbLine
 10
-236.3699549193211
 20
202.0307783698945
 30
0.0
 11
-236.3699549193211
 21
164.7329990301975
 31
0.0
  0
SOLID
  5
5618
330
5548
100
AcDbEntity
  8
0
 62
     0
100
AcDbTrace
 10
-236.8699549193212
 20
91.03077836989454
 30
0.0
 11
-235.8699549193211
 21
91.03077836989454
 31
0.0
 12
-236.3699549193211
 22
88.03077836989453
 32
0.0
 13
-236.3699549193211
 23
88.03077836989453
 33
0.0
  0
SOLID
  5
5619
330
5548
100
AcDbEntity
  8
0
 62
     0
100
AcDbTrace
 10
-236.8699549193211
 20
202.0307783698945
 30
0.0
 11
-235.8699549193211
 21
202.0307783698945
 31
0.0
 12
-236.3699549193211
 22
205.0307783698945
 32
0.0
 13
-236.3699549193211
 23
205.0307783698945
 33
0.0
  0
MTEXT
  5
561A
330
5548
100
AcDbEntity
  8
0
 62
     0
100
AcDbMText
 10
-236.3699549193212
 20
159.6429365452179
 30
0.0
 40
1.75
 41
0.0
 46
0.0
 71
     5
 72
     1
  1
\A1;LOWER REVERSE\PANGLE\P(DOOR HEIGHT + 9")
  7
WEB PAGE
 73
     1
 44
1.0
  0
POINT
  5
561B
330
5548
100
AcDbEntity
  8
DEFPOINTS
 62
     0
100
AcDbPoint
 10
-127.5178042897821
 20
88.0307783698945
 30
0.0
  0
POINT
  5
561C
330
5548
100
AcDbEntity
  8
DEFPOINTS
 62
     0
100
AcDbPoint
 10
-215.892804289782
 20
205.0307783698945
 30
0.0
  0
POINT
  5
561D
330
5548
100
AcDbEntity
  8
DEFPOINTS
 62
     0
100
AcDbPoint
 10
-236.3699549193211
 20
205.0307783698945
 30
0.0
  0
ENDBLK
  5
5554
330
5548
100
AcDbEntity
  8
0
100
AcDbBlockEnd
  0
BLOCK
  5
5560
330
5555
100
AcDbEntity
  8
0
100
AcDbBlockBegin
  2
*D202
 70
     1
 10
0.0
 20
0.0
 30
0.0
  3
*D202
  1

  0
LINE
  5
55BA
330
5555
100
AcDbEntity
  8
0
 62
     0
370
    -2
100
AcDbLine
 10
-214.5178042897821
 20
333.2432783698945
 30
0.0
 11
-274.5304667224335
 21
333.2432783698945
 31
0.0
  0
LINE
  5
55BB
330
5555
100
AcDbEntity
  8
0
 62
     0
370
    -2
100
AcDbLine
 10
-255.9567138814061
 20
88.0307783698945
 30
0.0
 11
-274.5304667224336
 21
88.0307783698945
 31
0.0
  0
LINE
  5
55BC
330
5555
100
AcDbEntity
  8
0
 62
     0
370
    -2
100
AcDbLine
 10
-273.5304667224335
 20
330.2432783698945
 30
0.0
 11
-273.5304667224335
 21
213.9899183001997
 31
0.0
  0
LINE
  5
55BD
330
5555
100
AcDbEntity
  8
0
 62
     0
370
    -2
100
AcDbLine
 10
-273.5304667224336
 20
91.0307783698945
 30
0.0
 11
-273.5304667224335
 21
207.2841384395893
 31
0.0
  0
SOLID
  5
55BE
330
5555
100
AcDbEntity
  8
0
 62
     0
100
AcDbTrace
 10
-274.0304667224335
 20
330.2432783698945
 30
0.0
 11
-273.0304667224335
 21
330.2432783698945
 31
0.0
 12
-273.5304667224335
 22
333.2432783698945
 32
0.0
 13
-273.5304667224335
 23
333.2432783698945
 33
0.0
  0
SOLID
  5
55BF
330
5555
100
AcDbEntity
  8
0
 62
     0
100
AcDbTrace
 10
-274.0304667224336
 20
91.0307783698945
 30
0.0
 11
-273.0304667224336
 21
91.0307783698945
 31
0.0
 12
-273.5304667224336
 22
88.0307783698945
 32
0.0
 13
-273.5304667224336
 23
88.0307783698945
 33
0.0
  0
MTEXT
  5
55C0
330
5555
100
AcDbEntity
  8
0
 62
     0
100
AcDbMText
 10
-273.5304667224336
 20
210.6370283698945
 30
0.0
 40
1.75
 41
0.0
 46
0.0
 71
     5
 72
     1
  1
\A1;FLOOR TO\PSHAFT CENTER
  7
WEB PAGE
 73
     1
 44
1.0
  0
POINT
  5
55C1
330
5555
100
AcDbEntity
  8
DEFPOINTS
 62
     0
100
AcDbPoint
 10
-212.5178042897821
 20
333.2432783698945
 30
0.0
  0
POINT
  5
55C2
330
5555
100
AcDbEntity
  8
DEFPOINTS
 62
     0
100
AcDbPoint
 10
-253.9567138814061
 20
88.0307783698945
 30
0.0
  0
POINT
  5
55C3
330
5555
100
AcDbEntity
  8
DEFPOINTS
 62
     0
100
AcDbPoint
 10
-273.5304667224336
 20
88.0307783698945
 30
0.0
  0
ENDBLK
  5
5561
330
5555
100
AcDbEntity
  8
0
100
AcDbBlockEnd
  0
BLOCK
  5
556D
330
5562
100
AcDbEntity
  8
0
100
AcDbBlockBegin
  2
*D203
 70
     1
 10
0.0
 20
0.0
 30
0.0
  3
*D203
  1

  0
LINE
  5
563C
330
5562
100
AcDbEntity
  8
0
 62
     0
370
    -2
100
AcDbLine
 10
-219.5178042897821
 20
340.0307783698945
 30
0.0
 11
-254.956713881406
 21
340.0307783698945
 31
0.0
  0
LINE
  5
563D
330
5562
100
AcDbEntity
  8
0
 62
     0
370
    -2
100
AcDbLine
 10
-255.9567138814061
 20
208.0307783698945
 30
0.0
 11
-254.9567138814061
 21
208.0307783698945
 31
0.0
  0
LINE
  5
563E
330
5562
100
AcDbEntity
  8
0
 62
     0
370
    -2
100
AcDbLine
 10
-253.9567138814061
 20
337.0307783698945
 30
0.0
 11
-253.9567138814061
 21
288.4643663983469
 31
0.0
  0
LINE
  5
563F
330
5562
100
AcDbEntity
  8
0
 62
     0
370
    -2
100
AcDbLine
 10
-253.9567138814061
 20
211.0307783698945
 30
0.0
 11
-253.9567138814061
 21
281.7585865377365
 31
0.0
  0
SOLID
  5
5640
330
5562
100
AcDbEntity
  8
0
 62
     0
100
AcDbTrace
 10
-254.456713881406
 20
337.0307783698945
 30
0.0
 11
-253.4567138814061
 21
337.0307783698945
 31
0.0
 12
-253.9567138814061
 22
340.0307783698945
 32
0.0
 13
-253.9567138814061
 23
340.0307783698945
 33
0.0
  0
SOLID
  5
5641
330
5562
100
AcDbEntity
  8
0
 62
     0
100
AcDbTrace
 10
-254.4567138814061
 20
211.0307783698945
 30
0.0
 11
-253.4567138814061
 21
211.0307783698945
 31
0.0
 12
-253.9567138814061
 22
208.0307783698945
 32
0.0
 13
-253.9567138814061
 23
208.0307783698945
 33
0.0
  0
MTEXT
  5
5642
330
5562
100
AcDbEntity
  8
0
 62
     0
100
AcDbMText
 10
-253.9567138814061
 20
285.1114764680417
 30
0.0
 40
1.75
 41
0.0
 46
0.0
 71
     5
 72
     1
  1
\A1;MINIMUM\PHEADROOM
  7
WEB PAGE
 73
     1
 44
1.0
  0
POINT
  5
5643
330
5562
100
AcDbEntity
  8
DEFPOINTS
 62
     0
100
AcDbPoint
 10
-217.5178042897821
 20
340.0307783698945
 30
0.0
  0
POINT
  5
5644
330
5562
100
AcDbEntity
  8
DEFPOINTS
 62
     0
100
AcDbPoint
 10
-253.9567138814061
 20
208.0307783698945
 30
0.0
  0
POINT
  5
5645
330
5562
100
AcDbEntity
  8
DEFPOINTS
 62
     0
100
AcDbPoint
 10
-253.9567138814061
 20
208.0307783698945
 30
0.0
  0
ENDBLK
  5
556E
330
5562
100
AcDbEntity
  8
0
100
AcDbBlockEnd
  0
BLOCK
  5
557A
330
556F
100
AcDbEntity
  8
0
100
AcDbBlockBegin
  2
*D204
 70
     1
 10
0.0
 20
0.0
 30
0.0
  3
*D204
  1

  0
LINE
  5
55CE
330
556F
100
AcDbEntity
  8
0
 62
     0
370
    -2
100
AcDbLine
 10
-255.9567138814061
 20
340.0307783698945
 30
0.0
 11
-300.3100474507754
 21
340.0307783698945
 31
0.0
  0
LINE
  5
55CF
330
556F
100
AcDbEntity
  8
0
 62
     0
370
    -2
100
AcDbLine
 10
-225.5178042897821
 20
88.03077836989452
 30
0.0
 11
-300.3100474507755
 21
88.03077836989453
 31
0.0
  0
LINE
  5
55D0
330
556F
100
AcDbEntity
  8
0
 62
     0
370
    -2
100
AcDbLine
 10
-299.3100474507754
 20
337.0307783698945
 30
0.0
 11
-299.3100474507754
 21
227.8538034435018
 31
0.0
  0
LINE
  5
55D1
330
556F
100
AcDbEntity
  8
0
 62
     0
370
    -2
100
AcDbLine
 10
-299.3100474507755
 20
91.03077836989454
 30
0.0
 11
-299.3100474507754
 21
221.1480235828914
 31
0.0
  0
SOLID
  5
55D2
330
556F
100
AcDbEntity
  8
0
 62
     0
100
AcDbTrace
 10
-299.8100474507754
 20
337.0307783698945
 30
0.0
 11
-298.8100474507754
 21
337.0307783698945
 31
0.0
 12
-299.3100474507754
 22
340.0307783698945
 32
0.0
 13
-299.3100474507754
 23
340.0307783698945
 33
0.0
  0
SOLID
  5
55D3
330
556F
100
AcDbEntity
  8
0
 62
     0
100
AcDbTrace
 10
-299.8100474507755
 20
91.03077836989454
 30
0.0
 11
-298.8100474507755
 21
91.03077836989454
 31
0.0
 12
-299.3100474507755
 22
88.03077836989453
 32
0.0
 13
-299.3100474507755
 23
88.03077836989453
 33
0.0
  0
MTEXT
  5
55D4
330
556F
100
AcDbEntity
  8
0
 62
     0
100
AcDbMText
 10
-299.3100474507755
 20
224.5009135131966
 30
0.0
 40
1.75
 41
0.0
 46
0.0
 71
     5
 72
     1
  1
\A1;MINIMUM CEILING\PHEIGHT
  7
WEB PAGE
 73
     1
 44
1.0
  0
POINT
  5
55D5
330
556F
100
AcDbEntity
  8
DEFPOINTS
 62
     0
100
AcDbPoint
 10
-253.9567138814061
 20
340.0307783698945
 30
0.0
  0
POINT
  5
55D6
330
556F
100
AcDbEntity
  8
DEFPOINTS
 62
     0
100
AcDbPoint
 10
-223.5178042897821
 20
88.0307783698945
 30
0.0
  0
POINT
  5
55D7
330
556F
100
AcDbEntity
  8
DEFPOINTS
 62
     0
100
AcDbPoint
 10
-299.3100474507755
 20
88.03077836989453
 30
0.0
  0
ENDBLK
  5
557B
330
556F
100
AcDbEntity
  8
0
100
AcDbBlockEnd
  0
BLOCK
  5
5587
330
557C
100
AcDbEntity
  8
0
100
AcDbBlockBegin
  2
*D205
 70
     1
 10
0.0
 20
0.0
 30
0.0
  3
*D205
  1

  0
LINE
  5
55D8
330
557C
100
AcDbEntity
  8
0
 62
     0
370
    -2
100
AcDbLine
 10
-225.5178042897821
 20
88.03077836989452
 30
0.0
 11
-254.9567138814061
 21
88.03077836989452
 31
0.0
  0
LINE
  5
55D9
330
557C
100
AcDbEntity
  8
0
 62
     0
370
    -2
100
AcDbLine
 10
-225.5178042897821
 20
208.0307783698945
 30
0.0
 11
-254.9567138814061
 21
208.0307783698945
 31
0.0
  0
LINE
  5
55DA
330
557C
100
AcDbEntity
  8
0
 62
     0
370
    -2
100
AcDbLine
 10
-253.9567138814061
 20
91.03077836989452
 30
0.0
 11
-253.9567138814061
 21
144.6778884395893
 31
0.0
  0
LINE
  5
55DB
330
557C
100
AcDbEntity
  8
0
 62
     0
370
    -2
100
AcDbLine
 10
-253.9567138814061
 20
205.0307783698945
 30
0.0
 11
-253.9567138814061
 21
151.3836683001997
 31
0.0
  0
SOLID
  5
55DC
330
557C
100
AcDbEntity
  8
0
 62
     0
100
AcDbTrace
 10
-254.4567138814061
 20
91.03077836989452
 30
0.0
 11
-253.4567138814061
 21
91.03077836989452
 31
0.0
 12
-253.9567138814061
 22
88.03077836989452
 32
0.0
 13
-253.9567138814061
 23
88.03077836989452
 33
0.0
  0
SOLID
  5
55DD
330
557C
100
AcDbEntity
  8
0
 62
     0
100
AcDbTrace
 10
-254.4567138814061
 20
205.0307783698945
 30
0.0
 11
-253.4567138814061
 21
205.0307783698945
 31
0.0
 12
-253.9567138814061
 22
208.0307783698945
 32
0.0
 13
-253.9567138814061
 23
208.0307783698945
 33
0.0
  0
MTEXT
  5
55DE
330
557C
100
AcDbEntity
  8
0
 62
     0
100
AcDbMText
 10
-253.9567138814061
 20
148.0307783698945
 30
0.0
 40
1.75
 41
0.0
 46
0.0
 71
     5
 72
     1
  1
\A1;OPENING\PHEIGHT
  7
WEB PAGE
 73
     1
 44
1.0
  0
POINT
  5
55DF
330
557C
100
AcDbEntity
  8
DEFPOINTS
 62
     0
100
AcDbPoint
 10
-223.5178042897821
 20
88.0307783698945
 30
0.0
  0
POINT
  5
55E0
330
557C
100
AcDbEntity
  8
DEFPOINTS
 62
     0
100
AcDbPoint
 10
-223.5178042897821
 20
208.0307783698945
 30
0.0
  0
POINT
  5
55E1
330
557C
100
AcDbEntity
  8
DEFPOINTS
 62
     0
100
AcDbPoint
 10
-253.9567138814061
 20
208.0307783698945
 30
0.0
  0
ENDBLK
  5
5588
330
557C
100
AcDbEntity
  8
0
100
AcDbBlockEnd
  0
BLOCK
  5
5594
330
5589
100
AcDbEntity
  8
0
100
AcDbBlockBegin
  2
*D206
 70
     1
 10
0.0
 20
0.0
 30
0.0
  3
*D206
  1

  0
LINE
  5
561E
330
5589
100
AcDbEntity
  8
0
 62
     0
370
    -2
100
AcDbLine
 10
-210.9060085526931
 20
188.0069881979437
 30
0.0
 11
-174.8590764418841
 21
188.0069881979437
 31
0.0
  0
LINE
  5
561F
330
5589
100
AcDbEntity
  8
0
 62
     0
370
    -2
100
AcDbLine
 10
-170.8807220192752
 20
88.0307783698945
 30
0.0
 11
-176.8590764418841
 21
88.0307783698945
 31
0.0
  0
LINE
  5
5620
330
5589
100
AcDbEntity
  8
0
 62
     0
370
    -2
100
AcDbLine
 10
-175.8590764418841
 20
185.0069881979437
 30
0.0
 11
-175.8590764418841
 21
143.1089457688987
 31
0.0
  0
LINE
  5
5621
330
5589
100
AcDbEntity
  8
0
 62
     0
370
    -2
100
AcDbLine
 10
-175.8590764418841
 20
91.0307783698945
 30
0.0
 11
-175.8590764418841
 21
132.9288207989395
 31
0.0
  0
SOLID
  5
5622
330
5589
100
AcDbEntity
  8
0
 62
     0
100
AcDbTrace
 10
-176.3590764418841
 20
185.0069881979437
 30
0.0
 11
-175.3590764418841
 21
185.0069881979437
 31
0.0
 12
-175.8590764418841
 22
188.0069881979437
 32
0.0
 13
-175.8590764418841
 23
188.0069881979437
 33
0.0
  0
SOLID
  5
5623
330
5589
100
AcDbEntity
  8
0
 62
     0
100
AcDbTrace
 10
-176.3590764418841
 20
91.0307783698945
 30
0.0
 11
-175.3590764418841
 21
91.0307783698945
 31
0.0
 12
-175.8590764418841
 22
88.0307783698945
 32
0.0
 13
-175.8590764418841
 23
88.0307783698945
 33
0.0
  0
MTEXT
  5
5624
330
5589
100
AcDbEntity
  8
0
 62
     0
100
AcDbMText
 10
-175.8590764418841
 20
138.0188832839191
 30
0.0
 40
1.75
 41
0.0
 46
0.0
 71
     5
 72
     1
  1
\A1;LOWER VERTICAL\PTRACK\P(DOOR HEIGHT - 8")
  7
WEB PAGE
 73
     1
 44
1.0
  0
POINT
  5
5625
330
5589
100
AcDbEntity
  8
DEFPOINTS
 62
     0
100
AcDbPoint
 10
-212.9060085526931
 20
188.0069881979437
 30
0.0
  0
POINT
  5
5626
330
5589
100
AcDbEntity
  8
DEFPOINTS
 62
     0
100
AcDbPoint
 10
-168.8807220192752
 20
88.0307783698945
 30
0.0
  0
POINT
  5
5627
330
5589
100
AcDbEntity
  8
DEFPOINTS
 62
     0
100
AcDbPoint
 10
-175.8590764418841
 20
88.0307783698945
 30
0.0
  0
ENDBLK
  5
5595
330
5589
100
AcDbEntity
  8
0
100
AcDbBlockEnd
  0
BLOCK
  5
55A1
330
5596
100
AcDbEntity
  8
0
100
AcDbBlockBegin
  2
*D207
 70
     1
 10
0.0
 20
0.0
 30
0.0
  3
*D207
  1

  0
LINE
  5
5628
330
5596
100
AcDbEntity
  8
0
 62
     0
370
    -2
100
AcDbLine
 10
-219.5178046916737
 20
205.0307783698945
 30
0.0
 11
-237.3699549193211
 21
205.0307783698945
 31
0.0
  0
LINE
  5
5629
330
5596
100
AcDbEntity
  8
0
 62
     0
370
    -2
100
AcDbLine
 10
-219.5178042897821
 20
328.0307783698945
 30
0.0
 11
-237.3699549193211
 21
328.0307783698945
 31
0.0
  0
LINE
  5
562A
330
5596
100
AcDbEntity
  8
0
 62
     0
370
    -2
100
AcDbLine
 10
-236.3699549193211
 20
208.0307783698945
 30
0.0
 11
-236.3699549193211
 21
261.4407158849149
 31
0.0
  0
LINE
  5
562B
330
5596
100
AcDbEntity
  8
0
 62
     0
370
    -2
100
AcDbLine
 10
-236.3699549193211
 20
325.0307783698945
 30
0.0
 11
-236.3699549193211
 21
271.6208408548741
 31
0.0
  0
SOLID
  5
562C
330
5596
100
AcDbEntity
  8
0
 62
     0
100
AcDbTrace
 10
-236.8699549193211
 20
208.0307783698945
 30
0.0
 11
-235.8699549193211
 21
208.0307783698945
 31
0.0
 12
-236.3699549193211
 22
205.0307783698945
 32
0.0
 13
-236.3699549193211
 23
205.0307783698945
 33
0.0
  0
SOLID
  5
562D
330
5596
100
AcDbEntity
  8
0
 62
     0
100
AcDbTrace
 10
-236.8699549193211
 20
325.0307783698945
 30
0.0
 11
-235.8699549193211
 21
325.0307783698945
 31
0.0
 12
-236.3699549193211
 22
328.0307783698945
 32
0.0
 13
-236.3699549193211
 23
328.0307783698945
 33
0.0
  0
MTEXT
  5
562E
330
5596
100
AcDbEntity
  8
0
 62
     0
100
AcDbMText
 10
-236.3699549193211
 20
266.5307783698945
 30
0.0
 40
1.75
 41
0.0
 46
0.0
 71
     5
 72
     1
  1
\A1;UPPER VERTICAL \PANGLE\P(DOOR HEIGHT - 9")
  7
WEB PAGE
 73
     1
 44
1.0
  0
POINT
  5
562F
330
5596
100
AcDbEntity
  8
DEFPOINTS
 62
     0
100
AcDbPoint
 10
-217.5178046916737
 20
205.0307783698945
 30
0.0
  0
POINT
  5
5630
330
5596
100
AcDbEntity
  8
DEFPOINTS
 62
     0
100
AcDbPoint
 10
-217.5178042897821
 20
328.0307783698945
 30
0.0
  0
POINT
  5
5631
330
5596
100
AcDbEntity
  8
DEFPOINTS
 62
     0
100
AcDbPoint
 10
-236.3699549193211
 20
328.0307783698945
 30
0.0
  0
ENDBLK
  5
55A2
330
5596
100
AcDbEntity
  8
0
100
AcDbBlockEnd
  0
BLOCK
  5
55AE
330
55A3
100
AcDbEntity
  8
0
100
AcDbBlockBegin
  2
*D208
 70
     1
 10
0.0
 20
0.0
 30
0.0
  3
*D208
  1

  0
LINE
  5
570E
330
55A3
100
AcDbEntity
  8
0
 62
     0
370
    -2
100
AcDbLine
 10
-210.7423849581566
 20
188.0255356926606
 30
0.0
 11
-153.768796610769
 21
188.0255356926606
 31
0.0
  0
LINE
  5
570F
330
55A3
100
AcDbEntity
  8
0
 62
     0
370
    -2
100
AcDbLine
 10
-201.0218956856143
 20
339.7292855253605
 30
0.0
 11
-153.7687966107689
 21
339.7292855253605
 31
0.0
  0
LINE
  5
5710
330
55A3
100
AcDbEntity
  8
0
 62
     0
370
    -2
100
AcDbLine
 10
-154.768796610769
 20
191.0255356926606
 30
0.0
 11
-154.768796610769
 21
258.787348124031
 31
0.0
  0
LINE
  5
5711
330
55A3
100
AcDbEntity
  8
0
 62
     0
370
    -2
100
AcDbLine
 10
-154.7687966107689
 20
336.7292855253605
 30
0.0
 11
-154.768796610769
 21
268.9674730939901
 31
0.0
  0
SOLID
  5
5712
330
55A3
100
AcDbEntity
  8
0
 62
     0
100
AcDbTrace
 10
-155.268796610769
 20
191.0255356926606
 30
0.0
 11
-154.268796610769
 21
191.0255356926606
 31
0.0
 12
-154.768796610769
 22
188.0255356926606
 32
0.0
 13
-154.768796610769
 23
188.0255356926606
 33
0.0
  0
SOLID
  5
5713
330
55A3
100
AcDbEntity
  8
0
 62
     0
100
AcDbTrace
 10
-155.2687966107689
 20
336.7292855253605
 30
0.0
 11
-154.2687966107689
 21
336.7292855253605
 31
0.0
 12
-154.7687966107689
 22
339.7292855253605
 32
0.0
 13
-154.7687966107689
 23
339.7292855253605
 33
0.0
  0
MTEXT
  5
5714
330
55A3
100
AcDbEntity
  8
0
 62
     0
100
AcDbMText
 10
-154.768796610769
 20
263.8774106090105
 30
0.0
 40
1.75
 41
0.0
 46
0.0
 71
     5
 72
     1
  1
\A1;UPPER VERTICAL \PTRACK\P(DOOR HEIGHT + 21")
  7
WEB PAGE
 73
     1
 44
1.0
  0
POINT
  5
5715
330
55A3
100
AcDbEntity
  8
DEFPOINTS
 62
     0
100
AcDbPoint
 10
-212.7423849581566
 20
188.0255356926606
 30
0.0
  0
POINT
  5
5716
330
55A3
100
AcDbEntity
  8
DEFPOINTS
 62
     0
100
AcDbPoint
 10
-203.0218956856143
 20
339.7292855253605
 30
0.0
  0
POINT
  5
5717
330
55A3
100
AcDbEntity
  8
DEFPOINTS
 62
     0
100
AcDbPoint
 10
-154.7687966107689
 20
339.7292855253605
 30
0.0
  0
ENDBLK
  5
55AF
330
55A3
100
AcDbEntity
  8
0
100
AcDbBlockEnd
  0
ENDSEC
  0
SECTION
  2
ENTITIES
  0
LINE
  5
5371
330
2
100
AcDbEntity
  8
TEXT
100
AcDbLine
 10
-102.3694197424172
 20
107.1025202955264
 30
0.0
 11
-159.2425810010686
 21
107.1025202955263
 31
0.0
  0
LINE
  5
5372
330
2
100
AcDbEntity
  8
TEXT
100
AcDbLine
 10
-159.2425810010686
 20
135.1254839630835
 30
0.0
 11
-102.3694197424173
 21
135.1254839630834
 31
0.0
  0
LINE
  5
5373
330
2
100
AcDbEntity
  8
TEXT
100
AcDbLine
 10
-102.3694197424172
 20
110.7361300964945
 30
0.0
 11
-159.2425810010686
 21
110.7361300964944
 31
0.0
  0
LINE
  5
5374
330
2
100
AcDbEntity
  8
TEXT
100
AcDbLine
 10
-102.3694197424172
 20
114.3697398974626
 30
0.0
 11
-159.2425810010686
 21
114.3697398974626
 31
0.0
  0
LINE
  5
5375
330
2
100
AcDbEntity
  8
TEXT
100
AcDbLine
 10
-159.2425810010686
 20
124.886959499399
 30
0.0
 11
-102.3694197424173
 21
124.886959499399
 31
0.0
  0
LINE
  5
5376
330
2
100
AcDbEntity
  8
TEXT
100
AcDbLine
 10
-159.2425810010686
 20
118.0033496984307
 30
0.0
 11
-102.3694197424173
 21
118.0033496984307
 31
0.0
  0
TEXT
  5
5377
330
2
100
AcDbEntity
  8
TEXT
100
AcDbText
 10
-137.3079594271058
 20
120.3791327469746
 30
0.0
 40
1.75
  1
FLOOR TO SHAFT CENTER
  7
WEB PAGE
 72
     1
 11
-121.2532550291246
 21
120.3791327469746
 31
0.0
100
AcDbText
  0
TEXT
  5
5378
330
2
100
AcDbEntity
  8
TEXT
100
AcDbText
 10
-132.078165502217
 20
115.3137095457481
 30
0.0
 40
1.75
  1
2 x DH + 5-3/16"
  7
WEB PAGE
 72
     1
 11
-122.9988576435291
 21
115.3137095457481
 31
0.0
100
AcDbText
  0
TEXT
  5
5379
330
2
100
AcDbEntity
  8
TEXT
100
AcDbText
 10
-132.078165502217
 20
111.7874711829478
 30
0.0
 40
1.75
  1
2 x DH + 5-3/16"
  7
WEB PAGE
 72
     1
 11
-122.9988576435291
 21
111.7874711829478
 31
0.0
100
AcDbText
  0
TEXT
  5
537A
330
2
100
AcDbEntity
  8
TEXT
100
AcDbText
 10
-132.078165502217
 20
108.1178095144543
 30
0.0
 40
1.75
  1
2 x DH + 5-3/16"
  7
WEB PAGE
 72
     1
 11
-122.9988576435291
 21
108.1178095144543
 31
0.0
100
AcDbText
  0
MTEXT
  5
537B
330
2
100
AcDbEntity
  8
TEXT
100
AcDbMText
 10
-130.6376673867985
 20
133.8959849558055
 30
0.0
 40
2.6
 41
50.923
 46
0.0
 71
     2
 72
     5
  1
FLOOR TO SHAFT CENTER\PREQUIREMENTS
  7
WEB PAGE
 73
     1
 44
1.0
  0
LINE
  5
537C
330
2
100
AcDbEntity
  8
TEXT
100
AcDbLine
 10
-139.7957970225955
 20
124.886959499399
 30
0.0
 11
-139.7957970225955
 21
107.1025202955263
 31
0.0
  0
LINE
  5
537D
330
2
100
AcDbEntity
  8
TEXT
100
AcDbLine
 10
-159.2425810010686
 20
124.886959499399
 30
0.0
 11
-159.2425810010686
 21
107.1025202955263
 31
0.0
  0
TEXT
  5
537E
330
2
100
AcDbEntity
  8
TEXT
100
AcDbText
 10
-153.2767396617242
 20
120.3791327469746
 30
0.0
 40
1.75
  1
DRUM
  7
WEB PAGE
 72
     1
 11
-149.4001174555237
 21
120.3791327469746
 31
0.0
100
AcDbText
  0
TEXT
  5
537F
330
2
100
AcDbEntity
  8
TEXT
100
AcDbText
 10
-154.5252821145512
 20
115.3137095457481
 30
0.0
 40
1.75
  1
D850-132
  7
WEB PAGE
 72
     1
 11
-149.2860066999874
 21
115.3137095457481
 31
0.0
100
AcDbText
  0
TEXT
  5
5380
330
2
100
AcDbEntity
  8
TEXT
100
AcDbText
 10
-155.6645595040915
 20
111.5299671883176
 30
0.0
 40
1.75
  1
D1100-216
  7
WEB PAGE
 72
     1
 11
-149.7792855314887
 21
111.5299671883176
 31
0.0
100
AcDbText
  0
TEXT
  5
5381
330
2
100
AcDbEntity
  8
TEXT
100
AcDbText
 10
-155.4777010826287
 20
108.0241340100863
 30
0.0
 40
1.75
  1
D1350-336
  7
WEB PAGE
 72
     1
 11
-149.5924271100259
 21
108.0241340100863
 31
0.0
100
AcDbText
  0
LINE
  5
5382
330
2
100
AcDbEntity
  8
TEXT
100
AcDbLine
 10
-159.2425810010686
 20
124.886959499399
 30
0.0
 11
-159.2425810010686
 21
135.1254839630835
 31
0.0
  0
LINE
  5
5383
330
2
100
AcDbEntity
  8
TEXT
100
AcDbLine
 10
-102.3694197424173
 20
124.886959499399
 30
0.0
 11
-102.3694197424173
 21
107.1025202955264
 31
0.0
  0
LINE
  5
5384
330
2
100
AcDbEntity
  8
TEXT
100
AcDbLine
 10
-102.3694197424173
 20
124.886959499399
 30
0.0
 11
-102.3694197424173
 21
135.1254839630834
 31
0.0
  0
TEXT
  5
53A7
330
2
100
AcDbEntity
  8
TEXT
100
AcDbText
 10
-156.7470316688354
 20
103.5408478374238
 30
0.0
 40
1.75
  1
DH = DOOR HEIGHT
  7
WEB PAGE
 72
     1
 11
-144.7146776673934
 21
103.5408478374238
 31
0.0
100
AcDbText
  0
DIMENSION
  5
5498
330
2
100
AcDbEntity
  8
0
100
AcDbDimension
  2
*D202
 10
-273.5304667224336
 20
88.0307783698945
 30
0.0
 11
-273.5304667224336
 21
210.6370283698945
 31
0.0
 70
    32
  1
FLOOR TO\PSHAFT CENTER
 71
     5
 42
245.2125
 73
     0
 74
     0
 75
     0
  3
STANDARD
100
AcDbAlignedDimension
 13
-212.5178042897821
 23
333.2432783698945
 33
0.0
 14
-253.9567138814061
 24
88.0307783698945
 34
0.0
 50
90.0
100
AcDbRotatedDimension
  0
DIMENSION
  5
5499
330
2
100
AcDbEntity
  8
0
100
AcDbDimension
  2
*D203
 10
-253.9567138814061
 20
208.0307783698945
 30
0.0
 11
-253.9567138814061
 21
285.1114764680417
 31
0.0
 70
   160
  1
MINIMUM\PHEADROOM
 71
     5
 42
132.0
 73
     0
 74
     0
 75
     0
  3
STANDARD
100
AcDbAlignedDimension
 13
-217.5178042897821
 23
340.0307783698945
 33
0.0
 14
-253.9567138814061
 24
208.0307783698945
 34
0.0
 50
90.0
100
AcDbRotatedDimension
  0
LWPOLYLINE
  5
549A
330
2
100
AcDbEntity
  8
0
100
AcDbPolyline
 90
        6
 70
     1
 43
0.0
 10
-217.5178042897821
 20
208.0307783698945
 10
-217.5178042897821
 20
340.0307783698945
 10
-121.5178042897821
 20
340.0307783698945
 10
-121.5178042897821
 20
346.0307783698945
 10
-223.5178042897821
 20
346.0307783698945
 10
-223.5178042897821
 20
208.0307783698945
  0
LWPOLYLINE
  5
549B
330
2
100
AcDbEntity
  8
0
100
AcDbPolyline
 90
        4
 70
     1
 43
0.0
 10
-217.5178042897821
 20
88.0307783698945
 10
-217.5178042897821
 20
208.0307783698945
 10
-223.5178042897821
 20
208.0307783698945
 10
-223.5178042897821
 20
88.0307783698945
  0
DIMENSION
  5
549C
330
2
100
AcDbEntity
  8
0
100
AcDbDimension
  2
*D204
 10
-299.3100474507755
 20
88.03077836989453
 30
0.0
 11
-299.3100474507755
 21
224.5009135131966
 31
0.0
 70
   160
  1
MINIMUM CEILING\PHEIGHT
 71
     5
 42
252.0
 73
     0
 74
     0
 75
     0
  3
STANDARD
100
AcDbAlignedDimension
 13
-253.9567138814061
 23
340.0307783698945
 33
0.0
 14
-223.5178042897821
 24
88.0307783698945
 34
0.0
 50
90.0
100
AcDbRotatedDimension
  0
DIMENSION
  5
549D
330
2
100
AcDbEntity
  8
0
100
AcDbDimension
  2
*D205
 10
-253.9567138814061
 20
208.0307783698945
 30
0.0
 11
-253.9567138814061
 21
148.0307783698945
 31
0.0
 70
    32
  1
OPENING\PHEIGHT
 71
     5
 42
120.0
 73
     0
 74
     0
 75
     0
  3
STANDARD
100
AcDbAlignedDimension
 13
-223.5178042897821
 23
88.0307783698945
 33
0.0
 14
-223.5178042897821
 24
208.0307783698945
 34
0.0
 50
90.0
100
AcDbRotatedDimension
  0
DIMENSION
  5
549E
330
2
100
AcDbEntity
  8
0
100
AcDbDimension
  2
*D206
 10
-175.8590764418841
 20
88.0307783698945
 30
0.0
 11
-175.8590764418841
 21
138.0188832839191
 31
0.0
 70
    32
  1
LOWER VERTICAL\PTRACK\P(DOOR HEIGHT - 8")
 71
     5
 42
99.97620982804923
 73
     0
 74
     0
 75
     0
  3
STANDARD
100
AcDbAlignedDimension
 13
-212.9060085526931
 23
188.0069881979437
 33
0.0
 14
-168.8807220192752
 24
88.0307783698945
 34
0.0
 50
90.0
100
AcDbRotatedDimension
1001
ACAD
1000
DSTYLE
1002
{
1070
   340
1005
2A5E
1002
}
  0
MTEXT
  5
549F
330
2
100
AcDbEntity
  8
0
100
AcDbMText
 10
-198.7069902158342
 20
102.4710946072657
 30
0.0
 40
1.75
 41
0.0
 46
0.0
 71
     4
 72
     1
  1
TRACK CLIPS\PTYPICAL
  7
WEB PAGE
 73
     1
 44
1.0
  0
LINE
  5
54A0
330
2
100
AcDbEntity
  8
0
100
AcDbLine
 10
-204.1069902158342
 20
102.4710946072657
 30
0.0
 11
-200.5069902158342
 21
102.4710946072657
 31
0.0
  0
LINE
  5
54A1
330
2
100
AcDbEntity
  8
0
100
AcDbLine
 10
-210.5066419245001
 20
99.48696963076656
 30
0.0
 11
-204.1069902158342
 21
102.4710946072657
 31
0.0
  0
SOLID
  5
54A2
330
2
100
AcDbEntity
  8
0
100
AcDbTrace
 10
-210.253076664469
 20
98.94318230201998
 30
0.0
 11
-210.7602071845312
 21
100.0307569595131
 31
0.0
 12
-213.7693658969797
 22
97.96557807057991
 32
0.0
 13
-213.7693658969797
 23
97.96557807057991
 33
0.0
  0
MTEXT
  5
54A3
330
2
100
AcDbEntity
  8
0
100
AcDbMText
 10
-197.8007641904376
 20
195.4891935868202
 30
0.0
 40
1.75
 41
0.0
 46
0.0
 71
     4
 72
     1
  1
OFFSET SPLICE\PPLATE
  7
WEB PAGE
 73
     1
 44
1.0
  0
LINE
  5
54A4
330
2
100
AcDbEntity
  8
0
100
AcDbLine
 10
-203.2007641904376
 20
195.4891935868202
 30
0.0
 11
-199.6007641904376
 21
195.4891935868202
 31
0.0
  0
LINE
  5
54A5
330
2
100
AcDbEntity
  8
0
100
AcDbLine
 10
-203.2007641904376
 20
195.4891935868202
 30
0.0
 11
-199.6007641904376
 21
195.4891935868202
 31
0.0
  0
SOLID
  5
54A6
330
2
100
AcDbEntity
  8
0
100
AcDbTrace
 10
-209.2915821942957
 20
190.5822188309375
 30
0.0
 11
-209.9705199249704
 21
191.5716851304477
 31
0.0
 12
-212.5994499581633
 22
189.0401387886683
 32
0.0
 13
-212.5994499581633
 23
189.0401387886683
 33
0.0
  0
SOLID
  5
54A7
330
2
100
AcDbEntity
  8
0
100
AcDbTrace
 10
-209.2915821942957
 20
190.5822188309375
 30
0.0
 11
-209.9705199249704
 21
191.5716851304477
 31
0.0
 12
-212.5994499581633
 22
189.0401387886683
 32
0.0
 13
-212.5994499581633
 23
189.0401387886683
 33
0.0
  0
LINE
  5
54A8
330
2
100
AcDbEntity
  8
0
100
AcDbLine
 10
-209.6310510596331
 20
191.0769519806926
 30
0.0
 11
-203.2007641904376
 21
195.4891935868202
 31
0.0
  0
LINE
  5
54A9
330
2
100
AcDbEntity
  8
0
100
AcDbLine
 10
-209.6310510596331
 20
191.0769519806926
 30
0.0
 11
-203.2007641904376
 21
195.4891935868202
 31
0.0
  0
MTEXT
  5
54AA
330
2
100
AcDbEntity
  8
0
100
AcDbMText
 10
-182.9637895071187
 20
335.298752371688
 30
0.0
 40
1.75
 41
0.0
 46
0.0
 71
     4
 72
     1
  1
SPRING BUMPER
  7
WEB PAGE
 73
     1
 44
1.0
  0
MTEXT
  5
54AC
330
2
100
AcDbEntity
  8
0
100
AcDbMText
 10
-192.7951255017828
 20
322.6417026045269
 30
0.0
 40
1.75
 41
0.0
 46
0.0
 71
     4
 72
     1
  1
HI-LIFT ANGLE
  7
WEB PAGE
 73
     1
 44
1.0
  0
LINE
  5
54AF
330
2
100
AcDbEntity
  8
0
100
AcDbLine
 10
-195.4077679022725
 20
333.1410043062073
 30
0.0
 11
-188.3637895071187
 21
335.298752371688
 31
0.0
  0
CIRCLE
  5
54B0
330
2
100
AcDbEntity
  8
0
100
AcDbCircle
 10
-212.5178042897821
 20
333.2432783698945
 30
0.0
 40
4.25
  0
INSERT
  5
54B1
330
2
100
AcDbEntity
  8
0
100
AcDbBlockReference
  2
EBP5
 10
-211.5803042897821
 20
327.2432783698945
 30
0.0
  0
INSERT
  5
54B2
330
2
100
AcDbEntity
  8
0
100
AcDbBlockReference
  2
SPRING-BUMPER
 10
-202.0709016127161
 20
331.8470410494171
 30
0.0
 41
-1.0
 50
180.0
  0
SOLID
  5
54B3
330
2
100
AcDbEntity
  8
0
100
AcDbTrace
 10
-199.7510921822985
 20
324.5725365533315
 30
0.0
 11
-199.2811405183442
 21
325.6766857432269
 31
0.0
 12
-202.8285639200075
 22
326.534466140142
 32
0.0
 13
-202.8285639200075
 23
326.534466140142
 33
0.0
  0
LINE
  5
54B5
330
2
100
AcDbEntity
  8
0
100
AcDbLine
 10
-217.5178042897821
 20
328.0307783698945
 30
0.0
 11
-202.5178042897821
 21
328.0307783698945
 31
0.0
  0
LINE
  5
54B6
330
2
100
AcDbEntity
  8
0
100
AcDbLine
 10
-202.5178042897821
 20
326.3807783698945
 30
0.0
 11
-217.5178042897821
 21
326.3807783698945
 31
0.0
  0
LINE
  5
54B7
330
2
100
AcDbEntity
  8
0
100
AcDbLine
 10
-217.5178042897821
 20
327.9307783698946
 30
0.0
 11
-202.5178042897821
 21
327.9307783698946
 31
0.0
  0
LINE
  5
54B8
330
2
100
AcDbEntity
  8
0
100
AcDbLine
 10
-208.9553042897821
 20
327.0557783698946
 30
0.0
 11
-211.0803042897821
 21
327.0557783698946
 31
0.0
  0
LINE
  5
54B9
330
2
100
AcDbEntity
  8
0
100
AcDbLine
 10
-208.9553042897821
 20
327.4307783698946
 30
0.0
 11
-211.0803042897821
 21
327.4307783698946
 31
0.0
  0
LINE
  5
54BA
330
2
100
AcDbEntity
  8
0
100
AcDbLine
 10
-211.9553042897821
 20
327.4307783698946
 30
0.0
 11
-214.0803042897821
 21
327.4307783698946
 31
0.0
  0
LINE
  5
54BB
330
2
100
AcDbEntity
  8
0
100
AcDbLine
 10
-211.9553042897821
 20
327.0557783698946
 30
0.0
 11
-214.0803042897821
 21
327.0557783698946
 31
0.0
  0
ARC
  5
54BC
330
2
100
AcDbEntity
  8
0
100
AcDbCircle
 10
-214.0803042897821
 20
327.2432783698946
 30
0.0
 40
0.1874999999999933
100
AcDbArc
 50
90.0
 51
270.0
  0
ARC
  5
54BD
330
2
100
AcDbEntity
  8
0
100
AcDbCircle
 10
-214.9553042897821
 20
327.2432783698946
 30
0.0
 40
0.1874999999999933
100
AcDbArc
 50
270.0
 51
90.0
  0
ARC
  5
54BE
330
2
100
AcDbEntity
  8
0
100
AcDbCircle
 10
-217.0803042897821
 20
327.2432783698946
 30
0.0
 40
0.1874999999999933
100
AcDbArc
 50
90.0
 51
270.0
  0
LINE
  5
54BF
330
2
100
AcDbEntity
  8
0
100
AcDbLine
 10
-214.9553042897821
 20
327.0557783698946
 30
0.0
 11
-217.0803042897821
 21
327.0557783698946
 31
0.0
  0
LINE
  5
54C0
330
2
100
AcDbEntity
  8
0
100
AcDbLine
 10
-214.9553042897821
 20
327.4307783698946
 30
0.0
 11
-217.0803042897821
 21
327.4307783698946
 31
0.0
  0
ARC
  5
54C1
330
2
100
AcDbEntity
  8
0
100
AcDbCircle
 10
-211.0803042897821
 20
327.2432783698945
 30
0.0
 40
0.1874999999999933
100
AcDbArc
 50
90.0
 51
270.0
  0
ARC
  5
54C2
330
2
100
AcDbEntity
  8
0
100
AcDbCircle
 10
-211.9553042897821
 20
327.2432783698945
 30
0.0
 40
0.1874999999999933
100
AcDbArc
 50
270.0
 51
90.0
  0
LINE
  5
54C3
330
2
100
AcDbEntity
  8
0
100
AcDbLine
 10
-217.5178042897821
 20
326.3807783698945
 30
0.0
 11
-217.5178042897821
 21
328.0307783698945
 31
0.0
  0
LINE
  5
54C4
330
2
100
AcDbEntity
  8
0
100
AcDbLine
 10
-202.9553042897821
 20
327.4307783698946
 30
0.0
 11
-205.0803042897821
 21
327.4307783698946
 31
0.0
  0
LINE
  5
54C5
330
2
100
AcDbEntity
  8
0
100
AcDbLine
 10
-202.9553042897821
 20
327.0557783698946
 30
0.0
 11
-205.0803042897821
 21
327.0557783698946
 31
0.0
  0
LINE
  5
54C6
330
2
100
AcDbEntity
  8
0
100
AcDbLine
 10
-205.9553042897821
 20
327.0557783698946
 30
0.0
 11
-208.0803042897821
 21
327.0557783698946
 31
0.0
  0
LINE
  5
54C7
330
2
100
AcDbEntity
  8
0
100
AcDbLine
 10
-205.9553042897821
 20
327.4307783698946
 30
0.0
 11
-208.0803042897821
 21
327.4307783698946
 31
0.0
  0
ARC
  5
54C8
330
2
100
AcDbEntity
  8
0
100
AcDbCircle
 10
-208.0803042897821
 20
327.2432783698945
 30
0.0
 40
0.1874999999999933
100
AcDbArc
 50
90.0
 51
270.0
  0
ARC
  5
54C9
330
2
100
AcDbEntity
  8
0
100
AcDbCircle
 10
-205.0803042897821
 20
327.2432783698945
 30
0.0
 40
0.1874999999999933
100
AcDbArc
 50
90.0
 51
270.0
  0
ARC
  5
54CA
330
2
100
AcDbEntity
  8
0
100
AcDbCircle
 10
-205.9553042897821
 20
327.2432783698945
 30
0.0
 40
0.1874999999999933
100
AcDbArc
 50
270.0
 51
90.0
  0
ARC
  5
54CB
330
2
100
AcDbEntity
  8
0
100
AcDbCircle
 10
-208.9553042897821
 20
327.2432783698945
 30
0.0
 40
0.1874999999999933
100
AcDbArc
 50
270.0
 51
90.0
  0
ARC
  5
54CC
330
2
100
AcDbEntity
  8
0
100
AcDbCircle
 10
-202.9553042897821
 20
327.2432783698945
 30
0.0
 40
0.1874999999999933
100
AcDbArc
 50
270.0
 51
90.0
  0
LINE
  5
54CD
330
2
100
AcDbEntity
  8
0
100
AcDbLine
 10
-202.5178042897821
 20
328.0307783698945
 30
0.0
 11
-202.5178042897821
 21
326.3807783698945
 31
0.0
  0
SOLID
  5
54CE
330
2
100
AcDbEntity
  8
0
100
AcDbTrace
 10
-195.2320329943244
 20
332.5673168981806
 30
0.0
 11
-195.5835028102206
 21
333.7146917142342
 31
0.0
 12
-198.8498923504332
 22
332.0865948585191
 32
0.0
 13
-198.8498923504332
 23
332.0865948585191
 33
0.0
  0
LINE
  5
54CF
330
2
100
AcDbEntity
  8
0
100
AcDbLine
 10
-199.5161163503214
 20
325.1246111482792
 30
0.0
 11
-193.5571634228238
 21
322.5883417117476
 31
0.0
  0
LINE
  5
54D0
330
2
100
AcDbEntity
  8
0
100
AcDbLine
 10
-188.3637895071187
 20
335.298752371688
 30
0.0
 11
-184.7637895071187
 21
335.298752371688
 31
0.0
  0
HATCH
  5
54D1
330
2
100
AcDbEntity
  8
0
100
AcDbHatch
 10
0.0
 20
0.0
 30
0.0
210
0.0
220
0.0
230
1.0
  2
ANSI31
 70
     0
 71
     0
 91
        1
 92
        1
 93
        6
 72
     1
 10
-217.5178042897821
 20
208.0307783698945
 11
-217.5178042897821
 21
340.0307783698945
 72
     1
 10
-217.5178042897821
 20
340.0307783698945
 11
-121.5178042897821
 21
340.0307783698945
 72
     1
 10
-121.5178042897821
 20
340.0307783698945
 11
-121.5178042897821
 21
346.0307783698945
 72
     1
 10
-121.5178042897821
 20
346.0307783698945
 11
-223.5178042897821
 21
346.0307783698945
 72
     1
 10
-223.5178042897821
 20
346.0307783698945
 11
-223.5178042897821
 21
208.0307783698945
 72
     1
 10
-223.5178042897821
 20
208.0307783698945
 11
-217.5178042897821
 21
208.0307783698945
 97
        0
 75
     0
 76
     1
 52
90.0
 41
10.0
 77
     0
 78
     1
 53
135.0
 43
-402.2184546007988
 44
0.0
 45
-0.8838834764831844
 46
-0.8838834764831842
 79
     0
 98
        1
 10
-402.2184546007988
 20
0.0
  0
LINE
  5
54D2
330
2
100
AcDbEntity
  8
0
 62
     7
100
AcDbLine
 10
-214.5553042897821
 20
96.78077836989452
 30
0.0
 11
-214.5553042897821
 21
99.2182783698945
 31
0.0
  0
CIRCLE
  5
54D3
330
2
100
AcDbEntity
  8
0
 62
     7
100
AcDbCircle
 10
-216.7428042897821
 20
98.78077836989451
 30
0.0
 40
0.1325
  0
LINE
  5
54D4
330
2
100
AcDbEntity
  8
0
 62
     7
100
AcDbLine
 10
-216.3053042897821
 20
96.78077836989452
 30
0.0
 11
-216.3053042897821
 21
99.2182783698945
 31
0.0
  0
LINE
  5
54D5
330
2
100
AcDbEntity
  8
0
 62
     7
100
AcDbLine
 10
-217.1803042897821
 20
96.78077836989452
 30
0.0
 11
-217.1803042897821
 21
99.2182783698945
 31
0.0
  0
CIRCLE
  5
54D6
330
2
100
AcDbEntity
  8
0
 62
     7
100
AcDbCircle
 10
-216.7428042897821
 20
98.78077836989451
 30
0.0
 40
0.15625
  0
CIRCLE
  5
54D7
330
2
100
AcDbEntity
  8
0
 62
     7
100
AcDbCircle
 10
-216.7428042897821
 20
97.2807783698945
 30
0.0
 40
0.1325
  0
CIRCLE
  5
54D8
330
2
100
AcDbEntity
  8
0
 62
     7
100
AcDbCircle
 10
-216.7428042897821
 20
97.2807783698945
 30
0.0
 40
0.15625
  0
TEXT
  5
54D9
330
2
100
AcDbEntity
  8
0
 62
     7
100
AcDbText
 10
-216.5424619593629
 20
97.8580509403107
 30
0.0
 40
0.4
  1
3
 50
90.0
100
AcDbText
  0
LINE
  5
54DA
330
2
100
AcDbEntity
  8
0
 62
     7
100
AcDbLine
 10
-216.1021792897821
 20
97.8901533698945
 30
0.0
 11
-215.0084292897821
 21
97.8901533698945
 31
0.0
  0
LINE
  5
54DB
330
2
100
AcDbEntity
  8
0
 62
     7
100
AcDbLine
 10
-216.1021792897821
 20
98.17140336989451
 30
0.0
 11
-215.0084292897821
 21
98.17140336989449
 31
0.0
  0
ARC
  5
54DC
330
2
100
AcDbEntity
  8
0
 62
     7
100
AcDbCircle
 10
-216.1021792897821
 20
98.03077836989452
 30
0.0
 40
0.1406249999999987
100
AcDbArc
 50
90.0
 51
270.0
  0
LINE
  5
54DD
330
2
100
AcDbEntity
  8
0
 62
     7
100
AcDbLine
 10
-217.1803042897821
 20
96.78077836989452
 30
0.0
 11
-214.5553042897821
 21
96.78077836989452
 31
0.0
  0
ARC
  5
54DE
330
2
100
AcDbEntity
  8
0
 62
     7
100
AcDbCircle
 10
-215.0084292897821
 20
98.03077836989452
 30
0.0
 40
0.1406249999999987
100
AcDbArc
 50
270.0
 51
90.0
  0
LINE
  5
54DF
330
2
100
AcDbEntity
  8
0
 62
     7
100
AcDbLine
 10
-217.1803042897821
 20
99.2182783698945
 30
0.0
 11
-214.5553042897821
 21
99.2182783698945
 31
0.0
  0
LINE
  5
54E0
330
2
100
AcDbEntity
  8
0
 62
     7
100
AcDbLine
 10
-217.1803042897821
 20
123.2182783698945
 30
0.0
 11
-214.3053042897821
 21
123.2182783698945
 31
0.0
  0
CIRCLE
  5
54E1
330
2
100
AcDbEntity
  8
0
 62
     7
100
AcDbCircle
 10
-216.7428042897821
 20
121.2807783698945
 30
0.0
 40
0.1325
  0
CIRCLE
  5
54E2
330
2
100
AcDbEntity
  8
0
 62
     7
100
AcDbCircle
 10
-216.7428042897821
 20
122.7807783698945
 30
0.0
 40
0.1325
  0
CIRCLE
  5
54E3
330
2
100
AcDbEntity
  8
0
 62
     7
100
AcDbCircle
 10
-216.7428042897821
 20
121.2807783698945
 30
0.0
 40
0.15625
  0
CIRCLE
  5
54E4
330
2
100
AcDbEntity
  8
0
 62
     7
100
AcDbCircle
 10
-216.7428042897821
 20
122.7807783698945
 30
0.0
 40
0.15625
  0
TEXT
  5
54E5
330
2
100
AcDbEntity
  8
0
 62
     7
100
AcDbText
 10
-216.5424619593629
 20
121.8580509403107
 30
0.0
 40
0.4
  1
4
 50
90.0
100
AcDbText
  0
LINE
  5
54E6
330
2
100
AcDbEntity
  8
0
 62
     7
100
AcDbLine
 10
-215.8521792897821
 20
121.8901533698945
 30
0.0
 11
-214.7584292897821
 21
121.8901533698945
 31
0.0
  0
LINE
  5
54E7
330
2
100
AcDbEntity
  8
0
 62
     7
100
AcDbLine
 10
-215.8521792897821
 20
122.1714033698945
 30
0.0
 11
-214.7584292897821
 21
122.1714033698945
 31
0.0
  0
ARC
  5
54E8
330
2
100
AcDbEntity
  8
0
 62
     7
100
AcDbCircle
 10
-215.8521792897821
 20
122.0307783698945
 30
0.0
 40
0.1406249999999987
100
AcDbArc
 50
90.0
 51
270.0
  0
LINE
  5
54E9
330
2
100
AcDbEntity
  8
0
 62
     7
100
AcDbLine
 10
-217.1803042897821
 20
120.7807783698945
 30
0.0
 11
-214.3053042897821
 21
120.7807783698945
 31
0.0
  0
ARC
  5
54EA
330
2
100
AcDbEntity
  8
0
 62
     7
100
AcDbCircle
 10
-214.7584292897821
 20
122.0307783698945
 30
0.0
 40
0.1406249999999987
100
AcDbArc
 50
270.0
 51
90.0
  0
LINE
  5
54EB
330
2
100
AcDbEntity
  8
0
 62
     7
100
AcDbLine
 10
-217.1803042897821
 20
120.7807783698945
 30
0.0
 11
-217.1803042897821
 21
123.2182783698945
 31
0.0
  0
LINE
  5
54EC
330
2
100
AcDbEntity
  8
0
 62
     7
100
AcDbLine
 10
-216.3053042897821
 20
120.7807783698945
 30
0.0
 11
-216.3053042897821
 21
123.2182783698945
 31
0.0
  0
LINE
  5
54ED
330
2
100
AcDbEntity
  8
0
 62
     7
100
AcDbLine
 10
-214.3053042897821
 20
120.7807783698945
 30
0.0
 11
-214.3053042897821
 21
123.2182783698945
 31
0.0
  0
LINE
  5
54EE
330
2
100
AcDbEntity
  8
0
 62
     7
100
AcDbLine
 10
-216.3053042897821
 20
144.7807783698945
 30
0.0
 11
-216.3053042897821
 21
147.2182783698945
 31
0.0
  0
ARC
  5
54EF
330
2
100
AcDbEntity
  8
0
 62
     7
100
AcDbCircle
 10
-214.5084292897821
 20
146.0307783698945
 30
0.0
 40
0.1406249999999987
100
AcDbArc
 50
270.0
 51
90.0
  0
LINE
  5
54F0
330
2
100
AcDbEntity
  8
0
 62
     7
100
AcDbLine
 10
-214.0553042897821
 20
144.7807783698945
 30
0.0
 11
-214.0553042897821
 21
147.2182783698945
 31
0.0
  0
CIRCLE
  5
54F1
330
2
100
AcDbEntity
  8
0
 62
     7
100
AcDbCircle
 10
-216.7428042897821
 20
146.7807783698945
 30
0.0
 40
0.1325
  0
CIRCLE
  5
54F2
330
2
100
AcDbEntity
  8
0
 62
     7
100
AcDbCircle
 10
-216.7428042897821
 20
145.2807783698945
 30
0.0
 40
0.1325
  0
LINE
  5
54F3
330
2
100
AcDbEntity
  8
0
 62
     7
100
AcDbLine
 10
-217.1803042897821
 20
144.7807783698945
 30
0.0
 11
-217.1803042897821
 21
147.2182783698945
 31
0.0
  0
TEXT
  5
54F4
330
2
100
AcDbEntity
  8
0
 62
     7
100
AcDbText
 10
-216.5424619593629
 20
145.8580509403107
 30
0.0
 40
0.4
  1
5
 50
90.0
100
AcDbText
  0
CIRCLE
  5
54F5
330
2
100
AcDbEntity
  8
0
 62
     7
100
AcDbCircle
 10
-216.7428042897821
 20
146.7807783698945
 30
0.0
 40
0.15625
  0
CIRCLE
  5
54F6
330
2
100
AcDbEntity
  8
0
 62
     7
100
AcDbCircle
 10
-216.7428042897821
 20
145.2807783698945
 30
0.0
 40
0.15625
  0
ARC
  5
54F7
330
2
100
AcDbEntity
  8
0
 62
     7
100
AcDbCircle
 10
-215.6021792897821
 20
146.0307783698945
 30
0.0
 40
0.1406249999999987
100
AcDbArc
 50
90.0
 51
270.0
  0
LINE
  5
54F8
330
2
100
AcDbEntity
  8
0
 62
     7
100
AcDbLine
 10
-217.1803042897821
 20
144.7807783698945
 30
0.0
 11
-214.0553042897821
 21
144.7807783698945
 31
0.0
  0
LINE
  5
54F9
330
2
100
AcDbEntity
  8
0
 62
     7
100
AcDbLine
 10
-217.1803042897821
 20
147.2182783698945
 30
0.0
 11
-214.0553042897821
 21
147.2182783698945
 31
0.0
  0
LINE
  5
54FA
330
2
100
AcDbEntity
  8
0
 62
     7
100
AcDbLine
 10
-215.6021792897821
 20
146.1714033698945
 30
0.0
 11
-214.5084292897821
 21
146.1714033698945
 31
0.0
  0
LINE
  5
54FB
330
2
100
AcDbEntity
  8
0
 62
     7
100
AcDbLine
 10
-215.6021792897821
 20
145.8901533698945
 30
0.0
 11
-214.5084292897821
 21
145.8901533698945
 31
0.0
  0
LINE
  5
54FC
330
2
100
AcDbEntity
  8
0
 62
     7
100
AcDbLine
 10
-217.1803042897821
 20
171.2182783698945
 30
0.0
 11
-213.8053042897821
 21
171.2182783698945
 31
0.0
  0
LINE
  5
54FD
330
2
100
AcDbEntity
  8
0
 62
     7
100
AcDbLine
 10
-217.1803042897821
 20
168.7807783698945
 30
0.0
 11
-213.8053042897821
 21
168.7807783698945
 31
0.0
  0
ARC
  5
54FE
330
2
100
AcDbEntity
  8
0
 62
     7
100
AcDbCircle
 10
-215.3521792897821
 20
170.0307783698945
 30
0.0
 40
0.1406249999999987
100
AcDbArc
 50
90.0
 51
270.0
  0
CIRCLE
  5
54FF
330
2
100
AcDbEntity
  8
0
 62
     7
100
AcDbCircle
 10
-216.7428042897821
 20
169.2807783698945
 30
0.0
 40
0.15625
  0
CIRCLE
  5
5500
330
2
100
AcDbEntity
  8
0
 62
     7
100
AcDbCircle
 10
-216.7428042897821
 20
170.7807783698945
 30
0.0
 40
0.15625
  0
TEXT
  5
5501
330
2
100
AcDbEntity
  8
0
 62
     7
100
AcDbText
 10
-216.5424619593629
 20
169.8580509403107
 30
0.0
 40
0.4
  1
6
 50
90.0
100
AcDbText
  0
LINE
  5
5502
330
2
100
AcDbEntity
  8
0
 62
     7
100
AcDbLine
 10
-217.1803042897821
 20
168.7807783698945
 30
0.0
 11
-217.1803042897821
 21
171.2182783698945
 31
0.0
  0
CIRCLE
  5
5503
330
2
100
AcDbEntity
  8
0
 62
     7
100
AcDbCircle
 10
-216.7428042897821
 20
169.2807783698945
 30
0.0
 40
0.1325
  0
CIRCLE
  5
5504
330
2
100
AcDbEntity
  8
0
 62
     7
100
AcDbCircle
 10
-216.7428042897821
 20
170.7807783698945
 30
0.0
 40
0.1325
  0
LINE
  5
5505
330
2
100
AcDbEntity
  8
0
 62
     7
100
AcDbLine
 10
-216.3053042897821
 20
168.7807783698945
 30
0.0
 11
-216.3053042897821
 21
171.2182783698945
 31
0.0
  0
LINE
  5
5506
330
2
100
AcDbEntity
  8
0
 62
     7
100
AcDbLine
 10
-215.3521792897821
 20
169.8901533698945
 30
0.0
 11
-214.2584292897821
 21
169.8901533698945
 31
0.0
  0
LINE
  5
5507
330
2
100
AcDbEntity
  8
0
 62
     7
100
AcDbLine
 10
-215.3521792897821
 20
170.1714033698945
 30
0.0
 11
-214.2584292897821
 21
170.1714033698945
 31
0.0
  0
LINE
  5
5508
330
2
100
AcDbEntity
  8
0
 62
     7
100
AcDbLine
 10
-213.8053042897821
 20
168.7807783698945
 30
0.0
 11
-213.8053042897821
 21
171.2182783698945
 31
0.0
  0
ARC
  5
5509
330
2
100
AcDbEntity
  8
0
 62
     7
100
AcDbCircle
 10
-214.2584292897821
 20
170.0307783698945
 30
0.0
 40
0.1406249999999987
100
AcDbArc
 50
270.0
 51
90.0
  0
DIMENSION
  5
550A
330
2
100
AcDbEntity
  8
0
100
AcDbDimension
  2
*D201
 10
-236.3699549193211
 20
205.0307783698945
 30
0.0
 11
-236.3699549193212
 21
159.6429365452179
 31
0.0
 70
   160
  1
LOWER REVERSE\PANGLE\P(DOOR HEIGHT + 9")
 71
     5
 42
116.9999999999999
 73
     0
 74
     0
 75
     0
  3
STANDARD
100
AcDbAlignedDimension
 13
-127.5178042897821
 23
88.0307783698945
 33
0.0
 14
-215.892804289782
 24
205.0307783698945
 34
0.0
 50
90.0
100
AcDbRotatedDimension
  0
INSERT
  5
550B
330
2
100
AcDbEntity
  8
0
100
AcDbBlockReference
  2
2RA-117
 10
-212.3006787368829
 20
128.2879818641215
 30
0.0
  0
INSERT
  5
550C
330
2
100
AcDbEntity
  8
0
100
AcDbBlockReference
  2
A$C6D1F65B0
 10
-215.891239932579
 20
88.03077749001761
 30
0.0
  0
INSERT
  5
550D
330
2
100
AcDbEntity
  8
0
100
AcDbBlockReference
  2
OTC-6
 10
-216.7428042897821
 20
215.7807783698945
 30
0.0
  0
INSERT
  5
550E
330
2
100
AcDbEntity
  8
0
100
AcDbBlockReference
  2
OTC-8
 10
-216.7428042897821
 20
239.7807783698945
 30
0.0
  0
INSERT
  5
550F
330
2
100
AcDbEntity
  8
0
100
AcDbBlockReference
  2
OTC-10
 10
-216.7428042897821
 20
263.7807783698945
 30
0.0
  0
INSERT
  5
5510
330
2
100
AcDbEntity
  8
0
100
AcDbBlockReference
  2
OTC-12
 10
-216.7428042897821
 20
287.7807783698945
 30
0.0
  0
INSERT
  5
5511
330
2
100
AcDbEntity
  8
0
100
AcDbBlockReference
  2
OTC-14
 10
-216.7428042897821
 20
317.7807783698945
 30
0.0
  0
MTEXT
  5
5512
330
2
100
AcDbEntity
  8
0
100
AcDbMText
 10
-193.4129740867935
 20
297.6282487312195
 30
0.0
 40
1.75
 41
0.0
 46
0.0
 71
     4
 72
     1
  1
OVERALL OFFSET\PTRACK CLIPS (TYP.)
  7
WEB PAGE
 73
     1
 44
1.0
  0
LEADER
  5
5513
330
2
100
AcDbEntity
  8
0
100
AcDbLeader
  3
STANDARD
 76
     3
 10
-211.2428042897821
 20
288.0585385119434
 30
0.0
 10
-198.3206619328941
 20
299.8657612779782
 30
0.0
 10
-194.5420070452266
 20
299.8657612779782
 30
0.0
1001
ACAD
1000
DSTYLE
1002
{
1070
   270
1070
     4
1070
   140
1040
3.6
1070
   147
1040
1.8
1070
    42
1040
1.25
1070
    44
1040
3.6
1070
    43
1040
7.599999999999999
1070
   141
1040
0.36
1070
    41
1040
3.6
1002
}
  0
INSERT
  5
5514
330
2
100
AcDbEntity
  8
0
100
AcDbBlockReference
  2
RASPLT-10
 10
-216.7428042897821
 20
187.2807783698945
 30
0.0
  0
INSERT
  5
5515
330
2
100
AcDbEntity
  8
0
100
AcDbBlockReference
  2
A$C69AB59AC
 10
-217.5178042897821
 20
205.0307783698945
 30
0.0
  0
INSERT
  5
5516
330
2
100
AcDbEntity
  8
0
100
AcDbBlockReference
  2
A$C564A1EE0
 10
-214.8625480334155
 20
188.1667547330495
 30
0.0
 50
356.1892999999999
  0
MTEXT
  5
5517
102
{ACAD_REACTORS
330
5518
102
}
330
2
100
AcDbEntity
  8
0
100
AcDbMText
 10
-197.5498230817677
 20
215.0913043529542
 30
0.0
 40
1.75
 41
0.0
 46
0.0
 71
     1
 72
     1
  1
HIGH LIFT SPLICE PLATE
  7
WEB PAGE
 73
     1
 44
1.0
  0
LEADER
  5
5518
330
2
100
AcDbEntity
  8
0
100
AcDbLeader
  3
STANDARD
 73
     0
 74
     0
 75
     1
 40
1.789113193943763
 41
30.40104542177361
 76
     3
 10
-212.17748761351
 20
206.3269344275316
 30
0.0
 10
-201.5498230817677
 20
213.8413043529542
 30
0.0
 10
-198.5498230817677
 20
213.8413043529542
 30
0.0
340
5517
213
0.0
223
-1.25
233
0.0
1001
ACAD
1000
DSTYLE
1002
{
1070
   147
1040
1.0
1070
    77
1070
     0
1002
}
  0
INSERT
  5
5519
330
2
100
AcDbEntity
  8
0
100
AcDbBlockReference
  2
A$C65C916B7
 10
-217.177487622283
 20
203.826934429437
 30
0.0
  0
MTEXT
  5
551C
330
2
100
AcDbEntity
  8
0
100
AcDbMText
 10
-285.7738294584293
 20
82.46353880537702
 30
0.0
 40
3.0
 41
0.0
 46
0.0
 71
     4
 72
     1
  1
{\LVERTICAL LIFT STANDARD 2" ANGLE MOUNT TRACK SET DETAIL}
  7
WEB PAGE
 73
     1
 44
1.0
  0
TEXT
  5
551D
330
2
100
AcDbEntity
  8
TEXT
100
AcDbText
 10
-151.7373737178527
 20
153.3392577179778
 30
0.0
 40
1.75
  1
DOOR
  7
WEB PAGE
 72
     1
 11
-148.0651494929068
 21
153.3392577179778
 31
0.0
100
AcDbText
  0
TEXT
  5
551E
330
2
100
AcDbEntity
  8
TEXT
100
AcDbText
 10
-152.8729180581555
 20
150.2934187556059
 30
0.0
 40
1.75
  1
HEIGHT
  7
WEB PAGE
 72
     1
 11
-148.0651494929068
 21
150.2934187556059
 31
0.0
100
AcDbText
  0
TEXT
  5
5520
330
2
100
AcDbEntity
  8
TEXT
100
AcDbText
 10
-151.4308512824318
 20
146.4508637864138
 30
0.0
 40
1.75
  1
7' - 18'
  7
WEB PAGE
 72
     1
 11
-147.9510387373704
 21
146.4508637864138
 31
0.0
100
AcDbText
  0
LINE
  5
5521
330
2
100
AcDbEntity
  8
TEXT
100
AcDbLine
 10
-157.9076130384517
 20
149.1405039390963
 30
0.0
 11
-104.991668121607
 21
149.1405039390963
 31
0.0
  0
LINE
  5
5522
330
2
100
AcDbEntity
  8
TEXT
100
AcDbLine
 10
-157.9076130384517
 20
156.0241137400646
 30
0.0
 11
-104.991668121607
 21
156.0241137400646
 31
0.0
  0
LINE
  5
5523
330
2
100
AcDbEntity
  8
TEXT
100
AcDbLine
 10
-104.9916681216069
 20
145.5068941381282
 30
0.0
 11
-157.9076130384517
 21
145.5068941381282
 31
0.0
  0
LINE
  5
5525
330
2
100
AcDbEntity
  8
TEXT
100
AcDbLine
 10
-157.9076130384517
 20
166.2626382037491
 30
0.0
 11
-104.991668121607
 21
166.262638203749
 31
0.0
  0
LINE
  5
5526
330
2
100
AcDbEntity
  8
TEXT
100
AcDbLine
 10
-157.9076130384517
 20
156.0241137400646
 30
0.0
 11
-157.9076130384517
 21
145.5068941381282
 31
0.0
  0
LINE
  5
5527
330
2
100
AcDbEntity
  8
TEXT
100
AcDbLine
 10
-157.9076130384517
 20
156.0241137400646
 30
0.0
 11
-157.9076130384517
 21
166.2626382037491
 31
0.0
  0
TEXT
  5
5528
330
2
100
AcDbEntity
  8
TEXT
100
AcDbText
 10
-129.9983160153871
 20
150.2934187556059
 30
0.0
 40
1.75
  1
HEADROOM
  7
WEB PAGE
 72
     1
 11
-122.5333736938298
 21
150.2934187556059
 31
0.0
100
AcDbText
  0
LINE
  5
5529
330
2
100
AcDbEntity
  8
TEXT
100
AcDbLine
 10
-104.991668121607
 20
156.0241137400646
 30
0.0
 11
-104.9916681216069
 21
145.5068941381282
 31
0.0
  0
LINE
  5
552A
330
2
100
AcDbEntity
  8
TEXT
100
AcDbLine
 10
-138.4608290599786
 20
156.0241137400646
 30
0.0
 11
-138.4608290599786
 21
145.5068941381282
 31
0.0
  0
TEXT
  5
552B
330
2
100
AcDbEntity
  8
TEXT
100
AcDbText
 10
-131.7834823269109
 20
146.4508637864138
 30
0.0
 40
1.75
  1
DR HEIGHT + 13"
  7
WEB PAGE
 72
     1
 11
-121.6638896809123
 21
146.4508637864138
 31
0.0
100
AcDbText
  0
TEXT
  5
552D
330
2
100
AcDbEntity
  8
TEXT
100
AcDbText
 10
-128.7063188993093
 20
153.3392577179778
 30
0.0
 40
1.75
  1
MINIMUM
  7
WEB PAGE
 72
     1
 11
-122.5333736938298
 21
153.3392577179778
 31
0.0
100
AcDbText
  0
MTEXT
  5
552E
330
2
100
AcDbEntity
  8
TEXT
100
AcDbMText
 10
-131.8206046307857
 20
165.0331391964711
 30
0.0
 40
2.6
 41
50.923
 46
0.0
 71
     2
 72
     5
  1
HEADROOM\PREQUIREMENTS
  7
WEB PAGE
 73
     1
 44
1.0
  0
LINE
  5
552F
330
2
100
AcDbEntity
  8
TEXT
100
AcDbLine
 10
-104.991668121607
 20
156.0241137400646
 30
0.0
 11
-104.991668121607
 21
166.262638203749
 31
0.0
  0
LINE
  5
5544
330
2
100
AcDbEntity
  8
0
100
AcDbLine
 10
-223.5178042897821
 20
88.0307783698945
 30
0.0
 11
-127.5178042897821
 21
88.0307783698945
 31
0.0
  0
DIMENSION
  5
5546
330
2
100
AcDbEntity
  8
0
100
AcDbDimension
  2
*D207
 10
-236.3699549193211
 20
328.0307783698945
 30
0.0
 11
-236.3699549193211
 21
266.5307783698945
 31
0.0
 70
    32
  1
UPPER VERTICAL \PANGLE\P(DOOR HEIGHT - 9")
 71
     5
 42
123.0
 73
     0
 74
     0
 75
     0
  3
STANDARD
100
AcDbAlignedDimension
 13
-217.5178046916737
 23
205.0307783698945
 33
0.0
 14
-217.5178042897821
 24
328.0307783698945
 34
0.0
 50
90.0
100
AcDbRotatedDimension
  0
DIMENSION
  5
5547
330
2
100
AcDbEntity
  8
0
100
AcDbDimension
  2
*D208
 10
-154.7687966107689
 20
339.7292855253605
 30
0.0
 11
-154.768796610769
 21
263.8774106090105
 31
0.0
 70
    32
  1
UPPER VERTICAL \PTRACK\P(DOOR HEIGHT + 21")
 71
     5
 42
151.7037498326998
 73
     0
 74
     0
 75
     0
  3
STANDARD
100
AcDbAlignedDimension
 13
-212.7423849581566
 23
188.0255356926606
 33
0.0
 14
-203.0218956856143
 24
339.7292855253605
 34
0.0
 50
90.0
100
AcDbRotatedDimension
  0
VIEWPORT
  5
AA7
330
7
100
AcDbEntity
 67
     1
  8
0
100
AcDbViewport
 10
-440.6170510565934
 20
-341.6569885759837
 30
0.0
 40
20.13386261662231
 41
13.05252914828648
 68
     1
 69
     1
 12
-440.6170510565934
 22
-341.6569885759837
 13
0.0
 23
0.0
 14
0.5
 24
0.5
 15
0.5
 25
0.5
 16
0.0
 26
0.0
 36
1.0
 17
0.0
 27
0.0
 37
0.0
 42
50.0
 43
0.0
 44
0.0
 45
13.05252914828648
 50
0.0
 51
0.0
 72
   100
 90
    32800
  1

281
     0
 71
     1
 74
     0
110
0.0
120
0.0
130
0.0
111
1.0
121
0.0
131
0.0
112
0.0
122
1.0
132
0.0
 79
     0
146
0.0
170
     0
 61
     5
348
5480
292
     1
282
     1
141
0.0
142
0.0
 63
   250
421
  3355443
  0
VIEWPORT
  5
11F7
330
7
100
AcDbEntity
 67
     1
  8
DEFPOINTS
100
AcDbViewport
 10
-440.6759605029193
 20
-342.1731476928453
 30
0.0
 40
7.467209654991847
 41
8.925004076907725
 68
     2
 69
     2
 12
-206.6724286275128
 22
213.1698728154889
 13
0.0
 23
0.0
 14
0.5
 24
0.5
 15
0.5
 25
0.5
 16
0.0
 26
0.0
 36
1.0
 17
0.0
 27
0.0
 37
0.0
 42
50.0
 43
0.0
 44
0.0
 45
268.1298510229815
 50
0.0
 51
0.0
 72
   100
 90
    32768
  1

281
     0
 71
     1
 74
     0
110
0.0
120
0.0
130
0.0
111
1.0
121
0.0
131
0.0
112
0.0
122
1.0
132
0.0
 79
     0
146
0.0
170
     0
 61
     5
348
5480
292
     1
282
     1
141
0.0
142
0.0
 63
   250
421
  3355443
  0
ENDSEC
  0
SECTION
  2
OBJECTS
  0
DICTIONARY
  5
1A
330
0
100
AcDbDictionary
281
     1
  3
ACAD_COLOR
350
540A
  3
ACAD_GROUP
350
18
  3
ACAD_LAYOUT
350
18F6
  3
ACAD_MATERIAL
350
5409
  3
ACAD_MLINESTYLE
350
19
  3
ACAD_PLOTSETTINGS
350
18F7
  3
ACAD_PLOTSTYLENAME
350
18F4
  3
ACAD_TABLESTYLE
350
548B
  3
ACAD_VISUALSTYLE
350
547A
  3
AcadDim
350
2A5B
  3
AcDbVariableDictionary
350
5406
  3
ASE_INDEX_DICTIONARY
350
5386
  0
DICTIONARY
  5
5649
330
13
100
AcDbDictionary
280
     1
281
     1
  0
DICTIONARY
  5
57AF
330
A
100
AcDbDictionary
280
     1
281
     1
  3
ACAD_LAYERSTATES
360
57B0
  0
DICTIONARY
  5
540A
102
{ACAD_REACTORS
330
1A
102
}
330
1A
100
AcDbDictionary
281
     1
  0
DICTIONARY
  5
18
102
{ACAD_REACTORS
330
1A
102
}
330
1A
100
AcDbDictionary
281
     1
  0
DICTIONARY
  5
18F6
102
{ACAD_REACTORS
330
1A
102
}
330
1A
100
AcDbDictionary
281
     1
  3
Layout1
350
18F9
  3
Model
350
18F8
  0
DICTIONARY
  5
5409
102
{ACAD_REACTORS
330
1A
102
}
330
1A
100
AcDbDictionary
281
     1
  3
ByBlock
350
5478
  3
ByLayer
350
5477
  3
Global
350
5479
  0
DICTIONARY
  5
19
102
{ACAD_REACTORS
330
1A
102
}
330
1A
100
AcDbDictionary
281
     1
  3
STANDARD
350
1B
  0
DICTIONARY
  5
18F7
102
{ACAD_REACTORS
330
1A
102
}
330
1A
100
AcDbDictionary
281
     1
  0
ACDBDICTIONARYWDFLT
  5
18F4
102
{ACAD_REACTORS
330
1A
102
}
330
1A
100
AcDbDictionary
281
     1
  3
Normal
350
18F5
100
AcDbDictionaryWithDefault
340
18F5
  0
DICTIONARY
  5
548B
102
{ACAD_REACTORS
330
1A
102
}
330
1A
100
AcDbDictionary
281
     1
  3
Standard
350
548C
  0
DICTIONARY
  5
547A
102
{ACAD_REACTORS
330
1A
102
}
330
1A
100
AcDbDictionary
281
     1
  3
2dWireframe
350
5480
  3
3D Hidden
350
5482
  3
3dWireframe
350
5481
  3
Basic
350
547F
  3
Brighten
350
5486
  3
ColorChange
350
548A
  3
Conceptual
350
5483
  3
Dim
350
5485
  3
Facepattern
350
5489
  3
Flat
350
547B
  3
FlatWithEdges
350
547C
  3
Gouraud
350
547D
  3
GouraudWithEdges
350
547E
  3
Linepattern
350
5488
  3
Realistic
350
5484
  3
Thicken
350
5487
  0
XRECORD
  5
2A5B
102
{ACAD_REACTORS
330
1A
102
}
330
1A
100
AcDbXrecord
280
     1
 90
   990106
  3

 60
     0
 61
     0
 62
     1
 63
     3
 64
     0
 65
     0
 66
     0
 67
     3
 68
     1
 69
     0
 70
     0
 71
     0
 72
     0
 40
0.0
170
     0
  0
DICTIONARY
  5
5406
102
{ACAD_REACTORS
330
1A
102
}
330
1A
100
AcDbDictionary
281
     1
  3
CTABLESTYLE
350
5646
  3
DIMASSOC
350
5407
  0
DICTIONARY
  5
5386
102
{ACAD_REACTORS
330
1A
102
}
330
1A
100
AcDbDictionary
281
     1
  3
ASEBlockHierarchyIndexRecord
350
5387
1001
DCO15
1040
1451125791.951
  0
DICTIONARY
  5
57B0
102
{ACAD_REACTORS
330
57AF
102
}
330
57AF
100
AcDbDictionary
281
     1
  0
LAYOUT
  5
18F9
102
{ACAD_XDICTIONARY
360
57C8
102
}
102
{ACAD_REACTORS
330
18F6
102
}
330
18F6
100
AcDbPlotSettings
  1

  2
Acrobat PDFWriter
  4
Letter
  6

 40
7.143749713897705
 41
7.143756389617919
 42
7.14373779296875
 43
7.14373779296875
 44
215.8999938964844
 45
279.3999938964844
 46
0.254
 47
0.508
 48
0.0
 49
0.0
140
0.0
141
0.0
142
1.0
143
1.0
 70
   692
 72
     0
 73
     0
 74
     1
  7
Default R14 pen assignments.ctb
 75
    16
147
1.0
 76
     0
 77
     2
 78
   300
148
11291.65730068246
149
8808.214253801244
100
AcDbLayout
  1
Layout1
 70
     1
 71
     1
 10
-444.8450019880361
 20
-347.0810378483997
 11
-436.345002228332
 21
-336.0810380886956
 12
0.0
 22
0.0
 32
0.0
 14
-444.5160631156421
 24
-346.7962471910192
 34
0.0
 15
-436.7182151818284
 25
-336.5177089815028
 35
0.0
146
0.0
 13
0.0
 23
0.0
 33
0.0
 16
1.0
 26
0.0
 36
0.0
 17
0.0
 27
1.0
 37
0.0
 76
     0
330
7
331
AA7
  0
LAYOUT
  5
18F8
102
{ACAD_REACTORS
330
18F6
102
}
330
18F6
100
AcDbPlotSettings
  1

  2
PMKT1 Marketing HP-8100DN Laser
  4
Letter
  6

 40
4.233333110809326
 41
4.233341693878173
 42
4.233322143554687
 43
4.23333740234375
 44
215.8999938964844
 45
279.3999938964844
 46
0.0
 47
13.716
 48
-260.722730347368
 49
72.43960281312968
140
12.44842513748244
141
403.8398966145748
142
1.0
143
28.68205599906946
 70
 11956
 72
     0
 73
     0
 74
     1
  7
Default R14 pen assignments.ctb
 75
     0
147
0.034865004099861
 76
     0
 77
     2
 78
   300
148
-2640.956176131201
149
-1802.941788799309
100
AcDbLayout
  1
Model
 70
     1
 71
     0
 10
0.0
 20
0.0
 11
12.0
 21
9.0
 12
0.0
 22
0.0
 32
0.0
 14
0.0
 24
0.0
 34
0.0
 15
0.0
 25
0.0
 35
0.0
146
0.0
 13
0.0
 23
0.0
 33
0.0
 16
1.0
 26
0.0
 36
0.0
 17
0.0
 27
1.0
 37
0.0
 76
     0
330
2
331
5475
  0
MATERIAL
  5
5478
102
{ACAD_REACTORS
330
5409
102
}
330
5409
100
AcDbMaterial
  1
ByBlock
  0
MATERIAL
  5
5477
102
{ACAD_REACTORS
330
5409
102
}
330
5409
100
AcDbMaterial
  1
ByLayer
  0
MATERIAL
  5
5479
102
{ACAD_REACTORS
330
5409
102
}
330
5409
100
AcDbMaterial
  1
Global
  0
MLINESTYLE
  5
1B
102
{ACAD_REACTORS
330
19
102
}
330
19
100
AcDbMlineStyle
  2
STANDARD
 70
     0
  3

 62
     0
 51
90.0
 52
90.0
 71
     2
 49
0.5
 62
   256
  6
BYLAYER
 49
-0.5
 62
   256
  6
BYLAYER
  0
ACDBPLACEHOLDER
  5
18F5
102
{ACAD_REACTORS
330
18F4
102
}
330
18F4
  0
TABLESTYLE
  5
548C
102
{ACAD_REACTORS
330
548B
102
}
330
548B
100
AcDbTableStyle
  3
Standard
 70
     0
 71
     0
 40
0.06
 41
0.06
280
     0
281
     0
  7
STANDARD
140
0.18
170
     2
 62
     0
 63
     7
283
     0
 90
      512
 91
        0
  1

274
    -2
284
     1
 64
     0
275
    -2
285
     1
 65
     0
276
    -2
286
     1
 66
     0
277
    -2
287
     1
 67
     0
278
    -2
288
     1
 68
     0
279
    -2
289
     1
 69
     0
  7
STANDARD
140
0.25
170
     5
 62
     0
 63
     7
283
     0
 90
      512
 91
        0
  1

274
    -2
284
     1
 64
     0
275
    -2
285
     1
 65
     0
276
    -2
286
     1
 66
     0
277
    -2
287
     1
 67
     0
278
    -2
288
     1
 68
     0
279
    -2
289
     1
 69
     0
  7
STANDARD
140
0.18
170
     5
 62
     0
 63
     7
283
     0
 90
      512
 91
        0
  1

274
    -2
284
     1
 64
     0
275
    -2
285
     1
 65
     0
276
    -2
286
     1
 66
     0
277
    -2
287
     1
 67
     0
278
    -2
288
     1
 68
     0
279
    -2
289
     1
 69
     0
  0
VISUALSTYLE
  5
5480
102
{ACAD_REACTORS
330
547A
102
}
330
547A
100
AcDbVisualStyle
  2
2dWireframe
 70
     4
 71
     0
 72
     2
 73
     0
 90
        0
 40
-0.6
 41
-30.0
 62
     5
 63
     7
421
 16777215
 74
     1
 91
        4
 64
     7
 65
   257
 75
     1
175
     1
 42
1.0
 92
        0
 66
   257
 43
1.0
 76
     1
 77
     6
 78
     2
 67
     7
 79
     5
170
     0
171
     0
290
     0
174
     0
 93
        1
 44
0.0
173
     0
291
     0
 45
0.0
  0
VISUALSTYLE
  5
5482
102
{ACAD_REACTORS
330
547A
102
}
330
547A
100
AcDbVisualStyle
  2
3D Hidden
 70
     6
 71
     1
 72
     2
 73
     2
 90
        0
 40
-0.6
 41
-30.0
 62
     5
 63
     7
421
 16777215
 74
     2
 91
        2
 64
     7
 65
   257
 75
     2
175
     1
 42
40.0
 92
        0
 66
   257
 43
1.0
 76
     1
 77
     6
 78
     2
 67
     7
 79
     3
170
     0
171
     0
290
     0
174
     0
 93
        1
 44
0.0
173
     0
291
     0
 45
0.0
  0
VISUALSTYLE
  5
5481
102
{ACAD_REACTORS
330
547A
102
}
330
547A
100
AcDbVisualStyle
  2
3dWireframe
 70
     5
 71
     0
 72
     2
 73
     0
 90
        0
 40
-0.6
 41
-30.0
 62
     5
 63
     7
421
 16777215
 74
     1
 91
        4
 64
     7
 65
   257
 75
     1
175
     1
 42
1.0
 92
        0
 66
   257
 43
1.0
 76
     1
 77
     6
 78
     2
 67
     7
 79
     5
170
     0
171
     0
290
     0
174
     0
 93
        1
 44
0.0
173
     0
291
     0
 45
0.0
  0
VISUALSTYLE
  5
547F
102
{ACAD_REACTORS
330
547A
102
}
330
547A
100
AcDbVisualStyle
  2
Basic
 70
     7
 71
     1
 72
     0
 73
     1
 90
        0
 40
-0.6
 41
-30.0
 62
     5
 63
     7
421
 16777215
 74
     0
 91
        4
 64
     7
 65
   257
 75
     1
175
     1
 42
1.0
 92
        8
 66
     7
 43
1.0
 76
     1
 77
     6
 78
     2
 67
     7
 79
     5
170
     0
171
     0
290
     0
174
     0
 93
        1
 44
0.0
173
     0
291
     1
 45
0.0
  0
VISUALSTYLE
  5
5486
102
{ACAD_REACTORS
330
547A
102
}
330
547A
100
AcDbVisualStyle
  2
Brighten
 70
    12
 71
     2
 72
     2
 73
     0
 90
        0
 40
-0.6
 41
-30.0
 62
     5
 63
     7
421
 16777215
 74
     1
 91
        4
 64
     7
 65
   257
 75
     1
175
     1
 42
1.0
 92
        8
 66
     7
 43
1.0
 76
     1
 77
     6
 78
     2
 67
     7
 79
     5
170
     0
171
     0
290
     0
174
     0
 93
        1
 44
50.0
173
     0
291
     1
 45
0.0
  0
VISUALSTYLE
  5
548A
102
{ACAD_REACTORS
330
547A
102
}
330
547A
100
AcDbVisualStyle
  2
ColorChange
 70
    16
 71
     2
 72
     2
 73
     3
 90
        0
 40
-0.6
 41
-30.0
 62
     5
 63
     8
421
  8421504
 74
     1
 91
        4
 64
     7
 65
   257
 75
     1
175
     1
 42
1.0
 92
        8
 66
     8
424
  8421504
 43
1.0
 76
     1
 77
     6
 78
     2
 67
     7
 79
     5
170
     0
171
     0
290
     0
174
     0
 93
        1
 44
0.0
173
     0
291
     1
 45
0.0
  0
VISUALSTYLE
  5
5483
102
{ACAD_REACTORS
330
547A
102
}
330
547A
100
AcDbVisualStyle
  2
Conceptual
 70
     9
 71
     3
 72
     2
 73
     0
 90
        0
 40
-0.6
 41
-30.0
 62
     5
 63
     7
421
 16777215
 74
     2
 91
        2
 64
     7
 65
   257
 75
     1
175
     1
 42
40.0
 92
        8
 66
     7
 43
1.0
 76
     1
 77
     6
 78
     2
 67
     7
 79
     3
170
     0
171
     0
290
     0
174
     0
 93
        1
 44
0.0
173
     0
291
     0
 45
0.0
  0
VISUALSTYLE
  5
5485
102
{ACAD_REACTORS
330
547A
102
}
330
547A
100
AcDbVisualStyle
  2
Dim
 70
    11
 71
     2
 72
     2
 73
     0
 90
        0
 40
-0.6
 41
-30.0
 62
     5
 63
     7
421
 16777215
 74
     1
 91
        4
 64
     7
 65
   257
 75
     1
175
     1
 42
1.0
 92
        8
 66
     7
 43
1.0
 76
     1
 77
     6
 78
     2
 67
     7
 79
     5
170
     0
171
     0
290
     0
174
     0
 93
        1
 44
-50.0
173
     0
291
     1
 45
0.0
  0
VISUALSTYLE
  5
5489
102
{ACAD_REACTORS
330
547A
102
}
330
547A
100
AcDbVisualStyle
  2
Facepattern
 70
    15
 71
     2
 72
     2
 73
     0
 90
        0
 40
-0.6
 41
-30.0
 62
     5
 63
     7
421
 16777215
 74
     1
 91
        4
 64
     7
 65
   257
 75
     1
175
     1
 42
1.0
 92
        8
 66
     7
 43
1.0
 76
     1
 77
     6
 78
     2
 67
     7
 79
     5
170
     0
171
     0
290
     0
174
     0
 93
        1
 44
0.0
173
     0
291
     1
 45
0.0
  0
VISUALSTYLE
  5
547B
102
{ACAD_REACTORS
330
547A
102
}
330
547A
100
AcDbVisualStyle
  2
Flat
 70
     0
 71
     2
 72
     1
 73
     1
 90
        2
 40
-0.6
 41
30.0
 62
     5
 63
     7
421
 16777215
 74
     0
 91
        4
 64
     7
 65
   257
 75
     1
175
     1
 42
1.0
 92
        8
 66
     7
 43
1.0
 76
     1
 77
     6
 78
     2
 67
     7
 79
     5
170
     0
171
     0
290
     0
174
     0
 93
       13
 44
0.0
173
     0
291
     1
 45
0.0
  0
VISUALSTYLE
  5
547C
102
{ACAD_REACTORS
330
547A
102
}
330
547A
100
AcDbVisualStyle
  2
FlatWithEdges
 70
     1
 71
     2
 72
     1
 73
     1
 90
        2
 40
-0.6
 41
30.0
 62
     5
 63
     7
421
 16777215
 74
     1
 91
        4
 64
     7
 65
   257
 75
     1
175
     1
 42
1.0
 92
        0
 66
   257
 43
1.0
 76
     1
 77
     6
 78
     2
 67
     7
 79
     5
170
     0
171
     0
290
     0
174
     0
 93
       13
 44
0.0
173
     0
291
     1
 45
0.0
  0
VISUALSTYLE
  5
547D
102
{ACAD_REACTORS
330
547A
102
}
330
547A
100
AcDbVisualStyle
  2
Gouraud
 70
     2
 71
     2
 72
     2
 73
     1
 90
        2
 40
-0.6
 41
30.0
 62
     5
 63
     7
421
 16777215
 74
     0
 91
        4
 64
     7
 65
   257
 75
     1
175
     1
 42
1.0
 92
        0
 66
     7
 43
1.0
 76
     1
 77
     6
 78
     2
 67
     7
 79
     5
170
     0
171
     0
290
     0
174
     0
 93
       13
 44
0.0
173
     0
291
     1
 45
0.0
  0
VISUALSTYLE
  5
547E
102
{ACAD_REACTORS
330
547A
102
}
330
547A
100
AcDbVisualStyle
  2
GouraudWithEdges
 70
     3
 71
     2
 72
     2
 73
     1
 90
        2
 40
-0.6
 41
30.0
 62
     5
 63
     7
421
 16777215
 74
     1
 91
        4
 64
     7
 65
   257
 75
     1
175
     1
 42
1.0
 92
        0
 66
   257
 43
1.0
 76
     1
 77
     6
 78
     2
 67
     7
 79
     5
170
     0
171
     0
290
     0
174
     0
 93
       13
 44
0.0
173
     0
291
     1
 45
0.0
  0
VISUALSTYLE
  5
5488
102
{ACAD_REACTORS
330
547A
102
}
330
547A
100
AcDbVisualStyle
  2
Linepattern
 70
    14
 71
     2
 72
     2
 73
     0
 90
        0
 40
-0.6
 41
-30.0
 62
     5
 63
     7
421
 16777215
 74
     1
 91
        4
 64
     7
 65
   257
 75
     7
175
     7
 42
1.0
 92
        8
 66
     7
 43
1.0
 76
     1
 77
     6
 78
     2
 67
     7
 79
     5
170
     0
171
     0
290
     0
174
     0
 93
        1
 44
0.0
173
     0
291
     1
 45
0.0
  0
VISUALSTYLE
  5
5484
102
{ACAD_REACTORS
330
547A
102
}
330
547A
100
AcDbVisualStyle
  2
Realistic
 70
     8
 71
     2
 72
     2
 73
     0
 90
        0
 40
-0.6
 41
-30.0
 62
     5
 63
     7
421
 16777215
 74
     1
 91
        0
 64
     7
 65
   257
 75
     1
175
     1
 42
1.0
 92
        8
 66
     8
424
  7895160
 43
1.0
 76
     1
 77
     6
 78
     2
 67
     7
 79
     5
170
     0
171
     0
290
     0
174
     0
 93
       13
 44
0.0
173
     0
291
     0
 45
0.0
  0
VISUALSTYLE
  5
5487
102
{ACAD_REACTORS
330
547A
102
}
330
547A
100
AcDbVisualStyle
  2
Thicken
 70
    13
 71
     2
 72
     2
 73
     0
 90
        0
 40
-0.6
 41
-30.0
 62
     5
 63
     7
421
 16777215
 74
     1
 91
        4
 64
     7
 65
   257
 75
     1
175
     1
 42
1.0
 92
       12
 66
     7
 43
1.0
 76
     1
 77
     6
 78
     2
 67
     7
 79
     5
170
     0
171
     0
290
     0
174
     0
 93
        1
 44
0.0
173
     0
291
     1
 45
0.0
  0
DICTIONARYVAR
  5
5646
102
{ACAD_REACTORS
330
5406
102
}
330
5406
100
DictionaryVariables
280
     0
  1
STANDARD
  0
DICTIONARYVAR
  5
5407
102
{ACAD_REACTORS
330
5406
102
}
330
5406
100
DictionaryVariables
280
     0
  1
1
  0
XRECORD
  5
5387
102
{ACAD_REACTORS
330
5386
102
}
330
5386
100
AcDbXrecord
280
     1
330
0
330
0
330
0
330
0
330
0
330
0
330
0
330
0
330
0
330
0
330
0
330
0
330
0
330
0
330
0
330
0
330
1B5
330
1B6
330
1B7
330
1B8
330
1B9
330
1BA
330
1BB
330
1BC
330
1BD
330
328
330
84A
330
8DC
330
18F0
330
18AB
330
18C7
330
18C9
330
2ACA
330
2AD0
330
2AD1
330
2AE6
330
2E00
330
2E8E
330
2F62
330
2F63
330
2F64
330
2F7A
330
2F7B
330
2F7C
330
3246
330
3752
330
3753
330
375C
330
3B1A
330
3B1B
330
3B1C
330
3B1D
330
3B1F
330
3B20
330
3B22
330
3B23
330
3B24
330
3B25
330
3B26
330
3B28
330
3B29
330
3B2A
330
3B4C
330
3B62
330
3B65
330
3B66
330
3B67
330
3B69
330
3B6A
330
3B6C
330
3B6D
330
3B6E
330
3B6F
330
3B71
330
3B72
330
3B73
330
3BE3
330
3BE4
330
3BE5
330
3C12
330
3C20
330
3F6C
330
3F6D
330
3F6E
330
3F6F
330
3F70
330
3F71
330
3F72
330
3F73
330
3F74
330
3F75
330
3FAA
330
3FE5
330
3FE6
330
3FE7
330
4522
330
4533
330
4537
330
4672
330
467C
330
469B
330
469C
330
46B0
330
4786
330
478A
330
478B
330
478C
330
478D
330
478E
330
478F
330
4790
330
4791
330
4792
330
4793
330
47A2
330
47AC
330
47C2
330
47C6
330
47CA
330
47CB
330
47CC
330
47CD
330
47D0
330
47E8
330
47F0
330
47F5
330
47F6
330
4805
330
4806
330
4807
330
4808
330
4809
330
480A
330
480B
330
480C
330
480D
  0
DICTIONARY
  5
57C8
330
18F9
100
AcDbDictionary
280
     1
281
     1
  3
ADSK_XREC_LAYOUTTHUMBNAIL
360
57C9
  0
XRECORD
  5
57C9
102
{ACAD_REACTORS
330
57C8
102
}
330
57C8
100
AcDbXrecord
280
     1
310
280000006C0000008C0000000100080000000000103B0000000000000000000000010000000000000000000000000000FFFFFF000000000000000000000000000000000000000000000000000000000000000000330000006600000099000000CC000000FF00000000330000333300006633000099330000CC330000FF3300
310
0000660000336600006666000099660000CC660000FF66000000990000339900006699000099990000CC990000FF99000000CC000033CC000066CC000099CC0000CCCC0000FFCC000000FF000033FF000066FF000099FF0000CCFF0000FFFF000000003300330033006600330099003300CC003300FF003300003333003333
310
33006633330099333300CC333300FF33330000663300336633006666330099663300CC663300FF66330000993300339933006699330099993300CC993300FF99330000CC330033CC330066CC330099CC3300CCCC3300FFCC330000FF330033FF330066FF330099FF3300CCFF3300FFFF330000006600330066006600660099
310
006600CC006600FF00660000336600333366006633660099336600CC336600FF33660000666600336666006666660099666600CC666600FF66660000996600339966006699660099996600CC996600FF99660000CC660033CC660066CC660099CC6600CCCC6600FFCC660000FF660033FF660066FF660099FF6600CCFF6600
310
FFFF660000009900330099006600990099009900CC009900FF00990000339900333399006633990099339900CC339900FF33990000669900336699006666990099669900CC669900FF66990000999900339999006699990099999900CC999900FF99990000CC990033CC990066CC990099CC9900CCCC9900FFCC990000FF99
310
0033FF990066FF990099FF9900CCFF9900FFFF99000000CC003300CC006600CC009900CC00CC00CC00FF00CC000033CC003333CC006633CC009933CC00CC33CC00FF33CC000066CC003366CC006666CC009966CC00CC66CC00FF66CC000099CC003399CC006699CC009999CC00CC99CC00FF99CC0000CCCC0033CCCC0066CC
310
CC0099CCCC00CCCCCC00FFCCCC0000FFCC0033FFCC0066FFCC0099FFCC00CCFFCC00FFFFCC000000FF003300FF006600FF009900FF00CC00FF00FF00FF000033FF003333FF006633FF009933FF00CC33FF00FF33FF000066FF003366FF006666FF009966FF00CC66FF00FF66FF000099FF003399FF006699FF009999FF00CC
310
99FF00FF99FF0000CCFF0033CCFF0066CCFF0099CCFF00CCCCFF00FFCCFF0000FFFF0033FFFF0066FFFF0099FFFF00CCFFFF00FFFFFF00000000000D0D0D001A1A1A00282828003535350043434300505050005D5D5D006B6B6B00787878008686860093939300A1A1A100AEAEAE00BBBBBB00C9C9C900D6D6D600E4E4E400
310
F1F1F100FFFFFF0000000000000000000000000000000000000000000000000000000000000000000000000000000000F5F5F5F5F5F5F5F5F5F5F5F5F5F5F5F5F5F5F5F5F5F5F5F5F5F5F5F5F5F5F5F5F5F5F5F5F5F5F5F5F5F5F5F5F5F5F5F5F5F5F5F5F5F5F5F5F5F5F5F5F5F5F5F5F5F5F5F5F5F5F5F5F5F5F5F5F5F5F5
310
F5F5F5F5F5F5F5F5F5F5F5F5F5F5F5F5F5F5F5F5F5F5F5F5F5F5F5F5F5F5E2E2E2E2E2E2E2E2E2E2E2E2E2E2E2E2E2E2E2E2E2E2E2E2E2E2E2E2E2E2E2E2E2E2E2E2E2E2E2E2E2E2E2E2E2E2E2E2E2E2E2E2E2E2E2E2E2E2E2E2E2E2E2E2E2E2E2E2E2E2E2E2E2E2E2E2E2E2E2E2E2E2E2E2E2E2E2E2E2E2E2E2E2E2E2E2E2
310
E2E2E2E2E2E2E2E2E2F5F5E2E2E2E2E2E2E2E2E2E2E2E2E2E2E2E2E2E2E2E2E2E2E2E2E2E2E2E2E2E2E2E2E2E2E2E2E2E2E2E2E2E2E2E2E2E2E2E2E2E2E2E2E2E2E2E2E2E2E2E2E2E2E2E2E2E2E2E2E2E2E2E2E2E2E2E2E2E2E2E2E2E2E2E2E2E2E2E2E2E2E2E2E2E2E2E2E2E2E2E2E2E2E2E2E2E2F5F5E2E2E2E2E2E2E2E2
310
E2E2E2E2E2E2E2E2E2E2E2E2E2E2E2E2E2E2E2E2E2E2E2E2E2E2E2E2E2E2E2E2E2E2E2E2E2E2E2E2E2E2E2E2E2E2E2E2E2E2E2E2E2E2E2E2E2E2E2E2E2E2E2E2E2E2E2E2E2E2E2E2E2E2E2E2E2E2E2E2E2E2E2E2E2E2E2E2E2E2E2E2E2E2E2E2E2E2F5F5E2E2F5F5F5F5F5F5F5F5F5E2E2E2E2E2E2E2E2E2F5F5F5F5F5F5F5
310
F5F5F5F5F5F5F5F5F5E2E2E2E2E2E2E2E2E2F5F5F5F5F5F5F5F5F5F5F5F5F5F5F5F5E2E2E2E2E2E2E2E2E2F5F5F5F5F5F5F5F5F5F5F5F5F5F5F5F5E2E2E2E2E2E2E2E2E2F5F5F5F5F5F5F5F5F5E2E2F5F5E2E2F5E2E2E2E2E2E2E2E2E2E2E2E2E2E2E2E2E2E2E2E2E2E2E2E2E2E2E2E2E2E2E2E2E2E2E2E2E2E2E2E2E2E2E2
310
E2E2E2E2E2E2E2E2E2E2E2E2E2E2E2E2E2E2E2E2E2E2E2E2E2E2E2E2E2E2E2E2E2E2E2E2E2E2E2E2E2E2E2E2E2E2E2E2E2E2E2E2E2E2E2E2E2F5E2E2F5F5E2E2F5E2F5F5F5F5F5F5F5F5F5F5F5F5F5F5F5F5F5F5F5F5F5F5F5F5F5F5F5F5F5F5F5F5F5F5F5F5F5F5F5F5F5F5F5F5F5F5F5F5F5F5F5F5F5F5F5F5F5F5F5F5F5
310
F5F5F5F5F5F5F5F5F5F5F5F5F5F5F5F5F5F5F5F5F5F5F5F5F5F5F5F5F5F5F5F5F5F5F5E2E2E2F5E2E2F5F5E2E2F5E2F5E2E2E2E2E2E2E2E2E2E2E2E2E2F5F5F5F5F5F5F5F5F5F5F5F5F5F5F5F5F5F5F5F5F5F5F5F5F5F5F5F5F5F5F5F5F5F5F5F5F5F5F5F5F5F5F5F5F5F5F5F5F5F5F5F5F5F5F5F5F5F5E2E2E2E2E2E2E2E2
310
E2E2E2E2E2E2E2E2E2E2E2E2E2E2E2F5E2E2E2F5E2E2F5F5E2E2F5E2F5E2E2E2E2E2E2E2E2E2E2E2E2E2E2E2E2E2E2E2E2E2E2E2E2E2E2E2E2E2E2E2E2E2E2E2E2E2E2E2E2E2E2E2E2E2E2E2E2E2E2E2E2E2E2E2E2E2E2E2E2E2E2E2E2E2E2E2E2E2E2E2E2E2E2E2E2E2E2E2E2E2E2E2E2E2E2E2E2E2E2E2E2E2E2F5E2E2E2
310
F5E2E2F5F5E2E2F5E2F5E2E2E2E2E2E2E2E2E2E2E2E2E2E2E2E2E2E2E2E2E2E2E2E2E2E2E2E2E2E2E2E2E2E2E2E2E2E2E2E2E2E2E2E2E2E2E2E2E2E2E2E2E2E2E2E2E2E2E2E2E2E2E2E2E2E2E2E2E2E2E2E2E2E2E2E2E2E2E2E2E2E2E2E2E2E2E2E2E2E2E2E2E2E2F5E2E2E2F5E2E2F5F5E2E2F5E2F5E2E2E2E2E2E2E2F5F5
310
F5F5F5F5F5F5F5F5F5F5F5F5F5F5F5F5F5F5F5F5F5F5F5F5F5F5F5F5F5F5F5F5F5F5F5F5F5F5F5F5F5F5F5F5F5F5F5F5F5F5F5F5F5F5F5F5F5F5F5F5F5F5F5F5F5F5F5F5F5F5F5E2E2E2E2E2E2E2E2E2E2E2E2E2E2F5E2E2E2F5E2E2F5F5E2E2F5E2F5E2E2E2E2E2E2E2F5E2E2E2E2E2E2E2E2E2E2F5E2E2E2E2E2E2E2F5E2
310
E2E2E2E2E2F5F5E2E2E2E2F5E2F5F5F5E2E2E2E2E2E2E2E2E2E2E2E2E2E2E2F5E2E2E2E2E2E2E2E2E2E2E2E2E2E2E2E2E2E2E2E2E2E2E2E2E2E2E2E2E2E2E2E2E2E2F5E2E2E2F5E2E2F5F5E2E2F5E2F5E2E2E2E2E2E2E2F5E2E2E2E2E2E2E2E2E2E2F5E2E2E2E2E2E2E2F5E2E2E2E2E2E2E2F5E2E2E2E2F5E2F5F5F5E2E2E2
310
E2E2E2E2E2E2E2E2E2E2E2E2F5E2E2E2E2E2E2E2E2E2E2E2E2E2E2E2E2E2E2E2E2E2E2E2E2E2E2E2E2E2E2E2E2E2E2F5E2E2E2F5E2E2F5F5E2E2E2E2F5E2E2E2E2E2E2E2F5E2E2E2E2E2E2E2E2E2E2F5E2E2E2E2E2E2E2F5E2E2E2E2E2E2E2F5E2E2E2E2F5E2F5F5F5E2E2E2E2E2E2E2E2E2E2E2E2E2E2E2F5E2E2E2E2E2E2
310
E2E2E2E2E2E2E2E2E2E2E2E2E2E2E2E2E2E2E2E2E2E2E2E2E2E2E2E2F5E2E2E2E2E2E2F5F5E2E2E2E2F5E2E2E2E2E2E2E2F5E2E2E2E2E2E2E2E2E2E2F5E2E2E2E2E2E2E2F5E2E2E2E2E2E2E2F5E2E2E2E2F5E2F5F5F5F5E2E2E2E2F5F5F5F5F5E2E2E2E2E2F5E2E2E2E2E2E2E2E2E2E2E2E2E2E2E2E2E2E2E2E2E2E2E2E2E2
310
E2E2E2E2E2E2E2E2E2F5E2E2E2E2E2E2F5F5E2E2E2E2F5E2E2E2E2E2E2E2F5E2E2E2E2E2E2E2E2E2E2F5E2E2E2E2E2E2E2F5E2E2E2E2E2E2E2F5E2E2E2E2F5E2F5F5F5F5F5F5E2E2F5F5F5F5F5E2E2E2E2E2F5E2E2E2E2E2E2E2E2E2E2E2E2E2E2E2E2E2E2E2E2E2E2E2E2E2E2E2E2E2E2E2E2E2E2F5E2E2E2E2E2E2F5F5E2
310
E2E2E2F5E2E2E2E2E2E2E2F5E2E2E2E2E2E2E2E2E2E2F5E2E2E2E2E2E2E2F5E2E2E2E2E2E2E2F5E2E2E2E2F5E2F5F5F5E2E2E2F5F5F5F5F5F5F5F5F5E2E2E2F5E2E2E2E2E2E2E2F5F5F5F5F5F5F5F5F5F5E2E2E2E2E2E2E2E2E2E2E2E2E2E2E2E2E2F5E2E2E2E2E2E2F5F5E2E2E2E2F5E2E2E2E2E2E2E2F5E2E2E2E2E2E2E2
310
E2E2E2F5E2E2E2E2E2E2E2F5E2E2E2E2E2E2E2F5E2E2E2E2F5E2F5F5F5E2E2E2E2E2E2E2E2E2E2E2E2E2E2E2F5E2E2E2E2E2E2E2E2E2E2E2E2E2E2E2E2E2E2E2E2E2E2E2E2E2E2E2E2E2E2E2E2E2E2F5E2E2E2E2E2E2F5F5E2E2E2E2F5E2E2E2E2E2E2E2F5E2E2E2E2E2E2E2E2E2E2F5E2E2E2E2E2E2E2F5E2E2E2E2E2E2E2
310
F5E2E2E2E2F5E2F5F5F5E2E2E2E2E2E2E2E2E2E2E2E2E2E2E2F5E2E2E2E2E2E2F5F5F5F5F5F5F5F5F5F5F5F5F5F5F5F5F5F5F5F5F5F5F5F5F5E2E2E2F5E2E2E2E2E2E2F5F5E2E2E2E2F5E2E2E2E2E2E2E2F5E2E2E2E2E2E2E2E2E2E2F5E2E2E2E2E2E2E2F5E2E2E2E2E2E2E2F5E2E2E2E2F5E2F5F5F5E2E2E2E2E2E2E2E2E2
310
E2E2E2E2E2E2F5E2E2E2E2E2E2F5F5F5F5F5F5F5F5F5F5F5F5F5F5F5F5F5F5F5F5F5F5F5F5F5E2E2E2F5E2E2E2E2E2E2F5F5E2E2E2E2F5E2E2E2E2E2E2E2F5E2E2E2E2E2E2E2E2E2E2F5E2E2E2E2E2E2E2F5E2E2E2E2E2E2E2F5E2E2E2E2F5E2F5F5F5E2E2E2E2E2E2E2E2E2E2E2E2E2E2E2F5E2E2E2E2E2E2F5E2E2E2E2E2
310
E2E2F5E2E2E2E2E2E2E2E2E2E2E2E2E2E2E2F5E2E2E2F5E2E2E2E2E2E2F5F5E2E2E2E2F5E2E2E2E2E2E2E2F5E2E2E2E2E2E2E2E2E2E2F5E2E2E2E2E2E2E2F5E2E2E2E2E2E2E2F5E2E2E2E2F5E2F5F5F5E2E2E2E2E2E2E2E2E2E2E2E2E2E2E2F5E2E2E2E2E2E2F5F5F5F5F5F5F5F5F5F5F5F5F5F5F5F5F5F5F5F5F5F5F5F5F5
310
E2E2E2F5E2E2E2E2E2E2F5F5E2E2F5E2F5E2E2E2E2E2E2E2F5E2E2E2E2E2E2E2E2E2E2F5E2E2E2E2E2E2E2F5E2E2E2E2E2E2E2F5E2E2E2E2F5E2F5F5F5E2E2E2E2E2E2E2E2E2E2E2E2E2E2E2F5E2E2E2E2E2E2F5F5F5F5F5F5F5F5F5F5F5F5F5F5F5F5F5F5F5F5F5F5F5F5F5E2E2E2F5E2E2E2F5E2E2F5F5E2E2F5E2F5E2E2
310
E2E2E2E2E2F5E2E2E2E2E2E2E2E2E2E2F5E2E2E2E2E2E2E2F5E2E2E2E2E2E2E2F5E2E2E2E2F5E2F5F5F5E2E2E2E2E2E2E2E2E2E2E2E2E2E2E2F5E2E2E2E2E2E2F5E2F5F5F5F5E2E2F5F5F5F5F5F5F5F5F5F5F5F5F5F5F5E2F5E2E2E2F5E2E2E2F5E2E2F5F5E2E2F5E2F5E2E2E2E2E2E2E2F5E2E2E2E2E2E2E2E2E2E2F5E2E2
310
E2E2E2E2E2F5E2E2E2E2E2E2E2F5E2E2E2E2F5E2F5F5F5E2E2E2E2E2E2E2E2E2E2E2E2E2E2E2F5E2E2E2E2E2E2F5E2E2E2E2E2E2E2F5E2E2E2E2E2E2E2E2E2E2E2E2E2E2E2F5E2E2E2F5E2E2E2F5E2E2F5F5E2E2F5E2F5E2E2E2E2E2E2E2F5E2E2E2E2E2E2E2E2E2E2F5E2E2E2E2E2E2E2F5E2E2E2E2E2E2E2F5E2E2E2E2F5
310
E2F5F5F5E2E2E2E2E2E2E2E2E2E2E2E2E2E2E2F5E2E2E2E2E2E2F5F5F5F5F5F5F5F5F5F5F5F5F5F5F5F5F5F5F5F5F5F5F5F5F5E2E2E2F5E2E2E2F5E2E2F5F5E2E2F5E2F5E2E2E2E2E2E2E2F5E2E2E2E2E2E2E2E2E2E2F5E2E2E2E2E2E2E2F5E2E2E2E2E2E2E2F5E2E2E2E2F5E2F5F5F5E2E2E2E2E2E2E2E2E2E2E2E2E2E2E2
310
F5E2E2E2E2E2E2F5E2E2E2E2E2F5F5F5F5F5F5F5F5F5F5F5F5E2E2E2E2E2E2F5E2E2E2F5E2E2E2F5E2E2F5F5E2E2F5E2F5E2E2E2E2E2E2E2F5E2E2E2E2E2E2E2E2E2E2F5E2E2E2E2E2E2E2F5E2E2E2E2E2E2E2F5E2E2E2E2F5E2F5F5F5E2E2E2E2E2E2E2E2E2E2E2E2E2E2E2F5E2E2E2E2E2E2F5E2F5F5F5F5F5F5F5F5F5F5
310
F5F5F5F5F5F5F5F5F5F5E2E2F5E2E2E2F5E2E2E2F5E2E2F5F5E2E2F5E2F5E2E2E2E2E2E2E2F5E2E2E2E2E2E2E2E2E2E2F5E2E2E2E2E2E2E2F5E2E2E2E2E2E2E2F5E2E2E2E2F5E2F5F5F5E2E2E2E2E2E2E2E2E2E2E2E2E2E2E2F5E2E2E2E2E2E2F5E2F5F5F5F5F5F5F5F5F5F5F5F5F5F5F5F5F5F5F5F5E2E2F5E2E2E2F5E2E2
310
E2F5E2E2F5F5E2E2F5E2F5E2E2E2E2E2E2E2F5E2E2E2E2E2E2E2E2E2E2F5E2E2E2E2E2E2E2F5E2E2E2E2E2E2E2F5E2E2E2E2F5E2F5F5F5E2E2E2E2E2E2E2E2E2E2F5F5F5F5F5F5F5F5F5F5E2E2F5F5F5F5F5F5F5F5F5F5F5F5F5F5F5F5F5F5F5F5F5F5F5F5F5E2E2E2F5E2E2E2F5E2E2F5F5E2E2F5E2F5E2E2E2E2E2E2E2F5
310
E2E2E2E2E2E2E2E2E2E2F5E2E2E2E2E2E2E2F5E2E2E2E2E2E2E2F5E2E2E2E2F5E2F5F5F5E2E2E2E2E2E2E2E2E2E2E2E2E2F5F5F5F5E2E2E2E2E2E2E2E2E2E2E2E2E2E2E2E2E2E2E2E2E2E2E2E2E2E2E2E2E2E2E2E2E2F5E2E2E2F5E2E2F5F5E2E2F5E2F5E2E2E2E2E2E2E2F5E2E2E2E2E2E2E2E2E2E2F5E2E2E2E2E2E2E2F5
310
E2E2E2E2E2E2E2F5E2E2E2E2F5E2F5F5F5E2E2E2E2E2E2E2E2E2E2F5F5F5F5F5F5F5F5F5F5E2E2E2E2E2E2E2E2E2E2E2E2E2E2E2E2E2E2E2E2E2E2E2E2E2E2E2E2E2E2F5E2E2E2F5E2E2F5F5E2E2F5E2F5E2E2E2E2E2E2E2F5E2E2E2E2E2E2E2E2E2E2F5E2E2E2E2E2E2E2F5E2E2E2E2E2E2E2F5E2E2E2E2F5E2F5F5F5E2E2
310
E2E2E2E2E2E2E2E2E2E2E2E2E2E2E2E2E2E2E2E2E2E2E2E2E2E2E2E2E2E2E2E2E2E2E2E2E2E2E2E2E2E2E2E2E2E2E2E2F5E2E2E2F5E2E2F5F5E2E2F5E2F5E2E2E2E2E2E2E2F5E2E2E2E2E2E2E2E2E2E2F5E2E2E2E2E2F5F5F5F5E2E2E2E2E2E2F5E2E2E2E2F5E2F5F5F5E2E2E2E2E2E2E2E2E2E2E2E2E2E2E2F5E2E2E2E2E2
310
E2E2E2E2E2E2E2E2E2E2E2E2E2E2E2E2E2E2E2E2E2E2E2E2E2E2E2E2E2F5E2E2E2F5E2E2F5F5E2E2F5E2F5E2E2E2E2E2E2E2F5E2E2E2E2E2E2E2E2E2E2F5E2E2E2E2E2F5F5F5F5E2E2E2E2E2E2F5E2E2E2E2F5E2F5F5F5E2E2E2E2E2E2E2E2E2E2E2E2E2E2E2F5E2E2E2E2E2E2E2F5F5F5F5F5F5F5F5F5F5F5F5F5F5F5F5F5
310
F5F5F5F5F5F5E2E2E2E2F5E2E2E2F5E2E2F5F5E2E2F5E2F5E2E2E2E2E2E2E2F5E2E2E2E2E2E2E2E2E2E2F5E2E2E2E2E2F5F5F5F5E2E2E2E2E2E2F5E2E2E2E2F5E2F5F5F5E2E2E2E2E2E2E2E2E2E2E2E2E2E2E2F5E2E2E2E2E2E2E2F5F5F5F5F5F5F5F5F5F5F5F5F5F5F5F5F5F5F5F5F5F5F5E2E2E2E2F5E2E2E2F5E2E2F5F5
310
E2E2F5E2F5E2E2E2E2E2E2E2F5E2E2E2E2E2E2E2E2E2E2F5E2E2E2E2E2E2E2F5E2E2E2E2E2E2E2F5E2E2E2E2F5E2F5F5F5E2E2E2E2E2E2E2E2E2E2E2E2E2E2E2F5E2E2E2E2E2E2E2F5E2F5F5F5F5E2E2F5E2E2F5F5F5F5F5F5F5E2E2E2E2F5E2E2E2E2F5E2E2E2F5E2E2F5F5E2E2F5E2F5E2E2E2E2E2E2E2F5E2E2E2E2E2E2
310
E2E2E2E2F5E2E2E2E2E2E2E2F5E2E2E2E2E2E2E2F5E2E2E2E2F5E2F5F5F5E2E2E2E2E2E2E2E2E2E2E2E2E2E2E2F5E2E2E2E2E2E2E2F5E2F5F5F5E2E2E2F5E2E2E2F5F5F5F5F5E2E2E2E2E2F5E2E2E2E2F5E2E2E2F5E2E2F5F5E2E2F5E2F5E2E2E2E2E2E2E2F5E2E2E2E2E2E2E2E2E2E2F5E2E2E2E2E2E2E2F5E2F5F5F5F5F5
310
F5F5F5F5F5F5F5E2F5F5F5E2E2E2E2E2E2E2E2E2E2E2E2E2E2E2F5E2E2E2E2E2E2E2F5F5F5F5F5F5F5F5F5F5F5F5F5F5F5F5F5F5F5F5F5F5F5E2E2E2E2F5E2E2E2F5E2E2F5F5E2E2E2E2F5E2E2E2E2E2E2E2F5E2E2E2E2E2E2E2E2E2E2F5E2E2E2E2E2E2E2F5E2E2E2E2E2F5F5F5E2E2E2E2F5E2F5F5F5E2E2E2E2E2E2E2E2
310
E2E2E2E2E2E2E2F5E2E2E2E2E2E2E2F5E2E2E2F5F5F5F5F5F5F5F5F5F5F5F5F5E2E2E2E2E2F5E2E2E2E2F5E2E2E2E2E2E2F5F5E2E2E2E2F5E2E2E2E2E2E2E2F5E2E2E2E2E2E2E2E2E2E2F5E2E2E2E2E2E2E2F5E2E2F5F5F5F5F5F5F5F5F5E2F5E2F5F5F5E2E2E2E2E2E2E2E2E2E2E2E2E2E2E2F5E2E2E2E2E2E2E2F5E2E2E2
310
E2E2F5F5F5F5F5F5F5F5F5E2E2E2E2E2E2E2F5E2E2E2E2F5E2E2E2E2E2E2F5F5E2E2E2E2F5E2E2E2E2E2E2E2F5E2E2E2E2E2E2E2E2E2E2F5E2E2E2E2E2E2E2F5E2E2F5F5F5F5F5F5F5F5F5E2F5E2F5F5F5E2E2E2E2E2E2E2E2E2E2E2E2E2E2E2F5E2E2E2E2E2E2E2F5E2E2E2E2E2F5F5F5F5F5F5F5F5F5E2E2E2E2E2E2E2F5
310
E2E2E2E2F5E2E2E2E2E2E2F5F5E2E2E2E2F5E2E2E2E2E2E2E2F5E2E2E2E2E2E2E2E2E2E2F5E2E2E2E2E2E2E2F5E2E2E2E2E2E2E2F5E2E2E2E2F5E2F5F5F5E2E2E2E2E2E2E2E2E2E2E2E2E2E2E2F5E2E2E2E2E2E2E2F5F5F5F5F5F5F5F5F5F5F5F5F5F5F5F5F5F5F5F5F5F5F5E2E2E2E2F5E2E2E2E2E2E2F5F5E2E2E2E2F5E2
310
E2E2E2E2E2E2F5E2E2E2E2E2E2E2E2E2E2F5E2E2E2E2E2E2E2F5E2E2E2E2E2E2E2F5E2E2E2E2F5E2F5F5F5E2E2E2E2E2E2E2E2E2E2E2E2E2E2E2F5E2E2E2E2E2E2E2E2E2E2E2E2E2E2E2E2E2E2E2E2E2E2E2E2E2E2E2E2E2E2E2E2E2E2F5E2E2E2E2E2E2F5F5E2E2E2E2F5E2E2E2E2E2E2E2F5E2E2E2E2E2E2E2E2E2E2F5E2
310
E2E2E2E2E2E2F5E2E2E2E2E2E2E2F5E2E2E2E2F5E2F5F5F5E2E2E2E2E2E2E2E2E2E2E2E2E2E2E2F5E2E2E2E2E2E2E2E2E2E2E2E2E2E2E2E2E2E2E2E2E2E2E2E2E2E2E2E2E2E2E2E2E2E2F5E2E2E2E2E2E2F5F5E2E2E2E2F5E2E2E2E2E2E2E2F5E2E2E2E2E2E2E2E2E2E2F5E2E2E2E2E2E2E2F5E2E2E2E2E2E2E2F5E2E2E2E2
310
F5E2F5F5F5E2E2E2E2E2E2E2E2E2E2E2E2E2E2E2F5E2E2E2E2E2E2E2E2E2E2E2E2E2E2E2E2E2E2E2E2E2E2E2E2E2E2E2E2E2E2E2E2E2E2F5E2E2E2E2E2E2F5F5E2E2E2E2F5E2E2E2E2E2E2E2F5E2E2E2E2E2E2E2E2E2E2F5E2E2E2E2E2E2E2F5E2E2E2E2E2E2E2F5E2E2E2E2F5E2F5F5F5E2E2E2E2E2E2E2E2E2E2E2E2E2E2
310
E2F5E2E2E2E2E2E2E2E2E2E2E2E2E2E2E2E2E2E2E2E2E2E2E2E2E2E2E2E2E2E2E2E2E2E2F5E2E2E2E2E2E2F5F5E2E2E2E2F5E2E2E2E2E2E2E2F5E2E2E2E2E2E2E2E2E2E2F5E2E2E2E2E2E2E2F5E2E2E2E2E2E2E2F5E2E2E2E2F5E2F5F5F5E2E2E2E2E2E2E2E2E2E2E2E2E2E2E2F5E2E2E2E2E2E2E2E2E2E2E2E2E2E2E2E2E2
310
E2E2E2E2E2E2E2E2E2E2E2E2E2E2E2E2E2F5E2E2E2E2E2E2F5F5E2E2E2E2F5E2E2E2E2E2E2E2F5E2E2E2E2E2E2E2E2E2E2F5E2E2E2E2E2E2E2F5E2E2E2E2E2E2E2F5E2E2E2E2F5E2F5F5F5E2E2E2E2E2E2E2E2E2E2E2E2E2E2E2F5E2E2E2E2E2E2E2E2E2E2E2E2E2E2E2E2E2E2E2E2E2E2E2E2E2E2E2E2E2E2E2E2E2E2F5E2
310
E2E2E2E2E2F5F5E2E2F5E2F5E2E2E2E2E2E2E2F5E2E2E2E2E2E2E2E2E2E2F5E2E2E2E2E2E2E2F5E2E2E2E2E2E2E2F5E2E2E2E2F5E2F5F5F5E2E2E2E2E2E2E2E2E2E2E2E2E2E2E2F5E2E2E2E2E2E2E2E2E2E2E2E2E2E2E2E2E2E2E2E2E2E2E2E2E2E2E2E2E2E2E2E2E2E2F5E2E2E2F5E2E2F5F5E2E2F5E2F5E2E2E2E2E2E2E2
310
F5E2E2E2E2E2E2E2E2E2E2F5E2E2E2E2E2E2E2F5E2E2E2E2E2E2E2F5E2E2E2E2F5E2F5F5F5E2E2E2E2E2E2E2E2E2E2E2E2E2E2E2F5E2E2E2E2E2E2E2E2E2E2E2E2E2E2E2E2E2E2E2E2E2E2E2E2E2E2E2E2E2E2E2E2E2E2F5E2E2E2F5E2E2F5F5E2E2F5E2F5E2E2E2E2E2E2E2F5E2E2E2E2E2E2E2E2E2E2F5E2E2E2E2E2E2E2
310
F5E2E2E2E2E2E2E2F5E2E2E2E2F5E2F5F5F5F5F5F5F5F5F5F5F5F5F5F5F5F5F5F5F5F5F5F5F5F5F5F5F5F5E2E2E2E2E2E2E2E2E2E2E2E2E2E2E2E2E2E2E2E2E2E2E2E2E2F5E2E2E2F5E2E2F5F5E2E2F5E2F5E2E2E2E2E2E2E2F5E2E2E2E2E2E2E2E2E2E2F5E2E2E2E2E2E2E2F5E2E2E2E2E2E2E2F5E2E2E2E2F5E2F5F5F5F5
310
E2E2E2E2E2E2E2E2E2E2E2E2E2E2E2E2E2E2E2E2E2E2E2F5E2E2E2E2E2E2E2E2E2E2E2E2E2E2E2E2E2E2E2E2E2E2E2E2E2F5E2E2E2F5E2E2F5F5E2E2F5E2F5E2E2E2E2E2E2E2F5E2E2E2E2E2E2E2E2E2E2F5E2E2E2E2E2E2E2F5E2E2E2E2E2E2E2F5E2E2E2E2F5E2F5F5F5E2F5E2E2E2E2F5F5F5E2E2E2E2E2E2E2E2E2E2E2
310
E2E2E2E2F5E2E2E2E2E2E2E2E2E2E2E2E2E2E2E2E2E2E2E2E2E2E2E2E2E2F5E2E2E2F5E2E2F5F5E2E2F5E2F5E2E2E2E2E2E2E2F5E2E2E2E2E2E2E2E2E2E2F5E2E2E2E2E2E2E2F5E2E2E2E2E2E2E2F5E2E2E2E2F5E2F5F5F5E2E2F5E2E2E2F5F5F5E2E2E2E2E2E2E2E2E2E2E2E2E2E2E2F5E2E2E2E2E2E2E2E2E2E2E2E2E2E2
310
E2E2E2E2E2E2E2E2E2E2E2F5E2E2E2F5E2E2F5F5E2E2F5E2F5E2E2E2E2E2E2E2F5E2E2E2E2E2E2E2E2E2E2F5E2E2E2E2E2E2E2F5E2E2E2E2E2E2E2F5E2E2E2E2F5E2F5F5F5E2E2E2F5F5F5F5F5F5F5F5F5F5F5E2E2E2E2E2E2E2E2E2E2F5E2E2E2E2E2E2E2E2E2E2E2E2E2E2E2E2E2E2E2E2E2E2E2E2E2F5E2E2E2F5E2E2F5
310
F5E2E2F5E2F5E2E2E2E2E2E2E2F5E2E2E2E2E2E2E2E2E2E2F5E2E2E2E2E2E2E2F5E2E2E2E2E2E2E2F5E2E2E2E2F5E2F5F5F5F5E2E2E2E2E2E2E2E2E2E2E2E2E2E2E2E2E2E2E2E2E2E2E2F5E2E2E2E2E2E2E2E2E2E2E2E2E2E2E2E2E2E2E2E2E2E2E2E2E2F5E2E2E2F5E2E2F5F5E2E2F5E2F5E2E2E2E2E2E2E2F5E2E2E2E2E2
310
E2E2E2E2E2F5E2E2E2E2E2E2E2F5E2E2E2E2E2E2F5F5E2E2E2E2F5E2F5F5F5F5E2E2E2E2E2E2E2E2E2E2E2E2E2E2E2E2E2E2E2E2E2E2E2F5E2E2E2E2E2E2E2E2E2E2E2E2E2E2E2E2E2E2E2E2E2E2E2E2E2F5E2E2E2F5E2E2F5F5E2E2F5E2F5E2E2E2E2E2E2E2F5E2E2E2E2E2E2E2E2E2E2F5E2E2E2E2E2E2E2F5E2E2E2E2E2
310
E2E2F5E2E2E2E2F5E2F5F5F5F5E2E2E2E2E2E2E2E2E2E2E2E2E2E2E2E2E2E2E2E2E2E2E2F5E2E2E2E2E2E2E2E2E2E2E2E2E2E2E2E2E2E2E2E2E2E2E2E2E2F5E2E2E2F5E2E2F5F5E2E2F5E2F5E2E2E2E2E2E2E2F5E2E2E2E2E2E2E2E2E2E2F5E2E2E2E2E2E2E2F5E2E2E2E2E2E2F5F5F5F5F5F5F5F5F5F5F5F5E2E2E2E2E2E2
310
E2E2E2E2E2E2E2E2E2E2E2E2E2E2E2E2E2F5E2E2E2E2E2E2E2E2E2E2E2E2E2E2E2E2E2E2E2E2E2E2E2E2E2F5E2E2E2F5E2E2F5F5E2E2F5E2F5E2E2E2E2E2E2E2F5E2E2E2E2E2E2F5F5F5F5F5F5F5F5E2E2E2F5F5F5F5F5F5F5F5F5F5F5F5F5F5F5F5F5F5F5F5F5E2E2E2E2E2E2E2E2E2E2E2E2E2E2E2E2E2E2E2E2E2E2F5E2
310
E2E2E2E2E2E2E2E2E2E2E2E2E2E2E2E2E2E2E2E2E2E2E2E2F5E2E2E2F5E2E2F5F5E2E2F5E2F5E2E2E2E2E2E2E2F5E2E2E2E2E2E2E2F5F5F5F5F5F5E2E2E2E2E2F5E2E2E2E2E2E2E2F5E2E2E2E2F5F5F5F5F5F5E2F5F5E2E2E2E2E2E2E2E2E2E2E2E2E2E2E2E2E2E2E2E2F5E2E2E2E2E2E2E2E2E2E2E2E2E2E2E2E2E2E2E2E2
310
E2E2E2E2E2F5E2E2E2F5E2E2F5F5E2E2F5E2F5E2E2E2E2E2E2E2F5E2E2E2E2E2E2E2E2E2E2F5E2E2E2E2E2E2E2F5E2E2E2E2E2E2E2F5E2E2E2E2F5F5F5F5F5F5E2E2E2F5F5F5F5F5F5F5F5F5F5F5F5F5F5F5E2E2E2E2E2F5E2E2E2E2E2E2E2E2E2E2E2E2E2E2E2E2E2E2E2E2E2E2E2E2E2F5E2E2E2F5E2E2F5F5E2E2F5E2F5
310
E2E2E2E2E2E2E2F5E2E2E2E2E2E2E2E2E2E2F5E2E2E2E2E2E2E2F5E2E2E2E2E2E2E2F5E2E2E2E2F5F5F5F5F5F5E2E2E2E2E2E2E2E2E2E2E2E2E2E2E2E2E2E2E2E2E2E2E2F5E2E2E2E2E2E2E2E2E2E2E2E2E2E2E2E2E2E2E2E2E2E2E2E2E2F5E2E2E2F5E2E2F5F5E2E2F5E2F5E2E2E2E2E2E2E2F5E2E2E2E2E2E2E2E2E2E2F5
310
E2E2E2E2E2E2E2F5E2E2E2E2E2E2E2F5E2E2E2E2F5F5F5F5E2F5E2E2E2E2E2E2E2E2E2E2E2E2E2E2E2E2E2E2E2E2E2E2E2F5E2E2E2E2E2E2E2E2E2E2E2E2E2E2E2E2E2E2E2E2E2E2E2E2E2F5E2E2E2F5E2E2F5F5E2E2E2E2F5E2E2E2E2E2E2E2F5E2E2E2E2E2E2E2E2E2E2F5E2E2E2E2E2E2E2F5E2E2E2E2E2E2E2F5E2E2E2
310
E2F5F5F5F5E2F5E2E2E2E2E2E2E2E2E2E2E2E2E2E2E2E2E2E2E2E2E2E2E2F5E2E2E2E2E2E2E2E2E2E2E2E2E2E2E2E2E2E2E2E2E2E2E2E2E2F5E2E2E2E2E2E2F5F5E2E2E2E2F5E2E2E2E2E2F5F5F5F5E2E2E2E2E2E2E2E2E2F5E2E2E2E2E2E2E2F5E2E2E2E2E2E2E2F5E2E2E2E2F5F5F5F5E2F5E2E2E2E2E2E2E2E2E2E2E2E2
310
E2E2E2E2E2E2E2E2E2E2E2F5E2E2E2E2E2E2E2E2E2E2E2E2E2E2E2E2E2E2E2E2E2E2E2E2E2F5E2E2E2E2E2E2F5F5E2E2E2E2F5E2E2F5F5F5F5F5F5F5F5F5F5E2E2E2E2E2E2F5E2E2E2E2E2E2E2F5E2E2E2E2E2E2E2F5E2E2E2E2F5F5F5F5E2F5F5E2E2E2E2E2E2E2E2E2E2E2E2E2E2E2E2E2E2E2E2E2E2F5E2E2E2E2E2E2E2
310
E2E2E2E2E2E2E2E2E2E2E2E2E2E2E2E2E2E2F5E2E2E2E2E2E2F5F5E2E2E2E2F5E2E2E2E2E2E2E2F5E2E2E2E2E2E2E2E2E2E2F5E2E2E2E2E2E2E2F5E2E2E2E2E2E2E2F5E2E2E2E2F5F5F5F5E2F5F5E2E2E2E2E2E2E2E2E2E2E2E2E2E2E2E2E2E2E2E2E2E2F5E2E2E2E2E2E2E2E2E2E2E2E2E2E2E2E2E2E2E2E2E2E2E2E2E2F5
310
E2E2E2E2E2E2F5F5E2E2E2E2F5E2E2E2E2E2E2E2F5E2E2E2E2E2E2E2E2E2E2F5E2E2E2E2E2E2E2F5E2E2E2E2E2E2E2F5E2E2E2E2F5F5F5F5E2F5E2E2E2E2E2E2E2E2E2E2E2E2E2E2E2E2E2E2E2E2E2E2E2F5E2E2E2E2E2E2E2E2E2E2E2E2E2E2E2E2E2E2E2E2E2E2E2E2E2F5E2E2E2E2E2E2F5F5E2E2E2E2F5E2E2E2E2E2E2
310
E2F5E2E2E2E2E2E2E2E2E2E2F5E2E2E2E2E2E2E2F5E2E2E2E2E2E2E2F5E2E2E2E2F5F5F5F5E2F5F5E2E2E2E2E2E2E2E2E2E2E2E2E2E2E2E2E2E2E2E2E2E2F5E2E2E2E2E2E2E2E2E2E2E2E2E2E2E2E2E2E2E2E2E2E2E2E2E2F5E2E2E2E2E2E2F5F5E2E2E2E2F5E2E2E2E2E2E2E2F5E2E2E2E2E2E2E2E2E2E2F5E2E2E2E2E2E2
310
E2F5E2E2E2E2E2E2E2F5E2E2E2E2F5F5F5F5E2E2F5E2E2E2E2E2E2E2E2E2E2E2E2E2E2E2E2E2E2E2E2E2E2F5E2E2E2E2E2E2E2E2E2E2E2E2E2E2E2E2E2E2E2E2E2E2E2E2E2F5E2E2E2E2E2E2F5F5E2E2E2E2F5E2E2E2E2E2E2E2F5E2E2E2E2E2E2E2E2E2E2F5E2E2E2E2E2E2E2F5E2E2E2E2E2E2E2F5E2E2E2E2F5F5F5F5F5
310
F5F5E2E2E2E2E2E2E2E2E2E2E2E2E2E2E2E2E2E2E2E2E2E2F5E2E2E2E2E2E2E2E2E2E2E2E2E2E2E2E2E2E2E2E2E2E2E2E2E2F5E2E2E2E2E2E2F5F5E2E2E2E2F5E2E2E2E2E2E2E2F5E2E2E2E2E2E2E2E2E2E2F5E2E2E2E2E2E2E2F5E2E2E2E2E2E2E2F5E2E2E2E2F5F5F5F5F5F5F5E2E2E2E2E2E2E2E2E2E2E2E2E2E2E2E2E2
310
E2E2E2E2E2F5E2E2E2E2E2E2E2E2E2E2E2E2E2E2E2E2E2E2E2E2E2E2E2E2E2F5E2E2E2E2E2E2F5F5E2E2E2E2F5E2E2E2E2E2E2E2F5E2E2E2E2E2E2E2E2E2E2F5E2E2E2E2E2E2E2F5E2E2E2E2E2E2E2F5E2E2E2E2F5F5F5F5E2E2F5E2E2E2E2E2E2E2E2E2E2E2E2E2E2E2E2E2E2E2E2E2E2F5E2E2E2E2E2E2E2E2E2E2E2E2E2
310
E2E2E2E2E2E2E2E2E2E2E2E2F5E2E2E2E2E2E2F5F5E2E2F5E2F5E2E2E2E2E2E2E2F5E2E2E2E2E2E2E2E2E2E2F5E2E2E2E2E2E2E2F5E2E2E2E2E2E2E2F5E2E2E2E2F5F5F5F5E2E2F5E2E2E2E2E2E2E2E2E2E2E2E2E2E2E2E2E2E2E2E2E2E2F5E2E2E2E2E2E2E2E2E2E2E2E2E2E2E2E2E2E2E2E2E2E2E2E2E2F5E2E2E2F5E2E2
310
F5F5E2E2F5E2F5E2E2E2E2E2E2E2F5E2E2E2E2E2E2E2E2E2E2F5E2E2E2E2E2E2E2F5E2E2E2E2E2E2E2F5E2E2E2E2F5F5F5F5E2E2F5E2E2E2E2E2E2E2E2E2E2E2E2E2E2E2E2E2E2E2E2E2E2F5E2E2E2E2E2E2E2E2E2E2E2E2E2E2E2E2E2E2E2E2E2E2E2E2E2F5E2E2E2F5E2E2F5F5E2E2F5E2F5E2E2E2E2E2E2E2F5E2E2E2E2
310
E2E2E2E2E2E2F5E2E2E2E2E2E2E2F5E2E2E2E2E2E2E2F5E2E2E2E2F5F5F5F5E2E2F5E2E2E2E2E2E2E2E2E2E2E2E2E2E2E2E2E2E2E2E2E2E2F5E2E2E2E2E2E2E2E2E2E2E2E2E2E2E2E2E2E2E2E2E2E2E2E2E2F5E2E2E2F5E2E2F5F5E2E2F5E2F5E2E2E2E2E2E2E2F5E2E2E2E2E2E2E2E2E2E2F5E2E2E2E2E2E2E2F5E2E2E2E2
310
E2E2E2F5E2E2E2E2F5F5F5F5E2E2F5E2E2E2E2E2E2E2E2E2E2E2E2E2E2E2E2E2E2E2E2E2E2F5E2E2E2E2E2E2E2E2E2E2E2E2E2E2E2E2E2E2E2E2E2E2E2E2E2F5E2E2E2F5E2E2F5F5E2E2F5E2F5E2E2E2E2E2E2E2F5E2E2E2E2E2E2E2E2E2E2F5E2E2E2E2E2E2E2F5E2E2E2E2E2E2E2F5E2E2E2E2F5F5F5F5E2E2F5E2E2E2E2
310
E2E2E2E2E2E2E2E2E2E2E2E2E2E2E2E2E2E2F5E2E2E2E2E2E2E2E2E2E2E2E2E2E2E2E2E2E2E2E2E2E2E2E2E2F5E2E2E2F5E2E2F5F5E2E2F5E2F5E2E2E2E2E2E2E2F5E2E2E2E2E2E2E2E2E2E2F5E2E2E2E2E2E2E2F5E2E2E2E2E2E2E2F5E2E2E2E2F5F5F5F5E2E2F5E2E2E2E2E2E2E2E2E2E2E2E2E2E2E2E2E2E2E2E2E2E2F5
310
E2E2E2E2E2E2E2E2E2E2E2E2E2E2E2E2E2E2E2E2E2E2E2E2E2F5E2E2E2F5E2E2F5F5E2E2F5E2F5E2E2E2E2E2E2E2F5E2E2E2E2E2E2E2E2E2E2F5E2E2E2E2E2E2E2F5E2E2E2E2E2E2E2F5E2E2E2E2F5F5F5F5E2E2F5F5E2E2E2E2E2E2E2E2E2E2E2E2E2E2E2E2E2E2E2E2E2F5E2E2E2E2E2E2E2E2E2E2E2E2E2E2E2E2E2E2E2
310
E2E2E2E2E2E2F5E2E2E2F5E2E2F5F5E2E2F5E2F5E2E2E2E2E2E2E2F5E2E2E2E2E2E2E2E2E2E2F5E2E2E2E2E2E2E2F5E2E2E2E2E2E2E2F5E2E2E2E2F5F5F5F5F5F5F5F5E2E2E2E2E2E2E2E2E2E2E2E2E2E2E2F5F5F5F5F5F5F5F5F5F5F5E2E2E2E2E2E2E2E2E2E2E2E2E2E2E2E2E2E2E2E2E2F5E2E2E2F5E2E2F5F5E2E2F5E2
310
F5E2E2E2E2E2E2E2F5E2E2E2E2E2E2E2E2E2E2F5E2E2E2E2E2E2E2F5E2F5F5F5F5F5F5F5F5F5F5F5F5F5F5F5F5F5F5F5E2E2E2E2E2E2E2E2E2E2E2E2E2E2E2E2E2E2E2F5F5F5F5E2E2E2E2E2E2E2E2E2E2E2E2E2E2E2E2E2E2E2E2E2E2E2E2F5E2E2E2F5E2E2F5F5E2E2F5E2F5E2E2E2E2E2E2E2F5E2E2E2E2E2E2E2E2E2E2
310
F5E2E2E2E2E2E2E2F5E2E2E2E2E2F5F5F5E2E2E2E2F5F5F5F5E2E2E2F5E2E2E2E2E2E2E2E2E2E2E2E2E2E2E2E2F5F5F5F5F5F5F5F5F5E2E2E2E2E2E2E2E2E2E2E2E2E2E2E2E2E2E2E2E2E2E2F5E2E2E2F5E2E2F5F5E2E2F5E2F5E2E2E2E2E2E2E2F5E2E2E2E2E2E2E2E2E2E2F5E2E2E2E2E2E2E2F5E2E2F5F5F5F5F5F5F5F5
310
F5E2F5F5F5F5E2E2E2F5E2E2E2E2E2E2E2E2E2E2E2E2E2E2E2E2E2E2E2E2E2F5E2E2E2E2E2E2E2E2E2E2E2E2E2E2E2E2E2E2E2E2E2E2E2E2E2F5E2E2E2F5E2E2F5F5E2E2F5E2F5E2E2E2E2E2E2E2F5E2E2E2E2E2E2E2E2E2E2F5E2E2E2E2E2E2E2F5E2E2E2E2E2E2E2F5E2E2E2E2F5F5F5F5E2E2E2F5E2E2E2E2E2E2E2E2E2
310
E2E2E2E2E2E2E2E2E2E2E2E2F5E2E2E2E2E2E2E2E2E2E2E2E2E2E2E2E2E2E2E2E2E2E2E2E2E2F5E2E2E2F5E2E2F5F5E2E2F5E2F5E2E2E2E2E2E2E2F5E2E2E2E2E2E2E2E2E2E2F5E2E2E2E2E2E2E2F5E2E2E2E2E2E2E2F5E2E2E2E2F5F5F5F5E2E2E2F5E2E2E2E2E2E2E2E2E2E2E2E2E2E2E2E2E2E2E2E2E2F5E2E2E2E2E2E2
310
E2E2E2E2E2E2E2E2E2E2E2E2E2E2E2E2E2E2E2F5E2E2E2F5E2E2F5F5E2E2F5E2F5E2E2E2E2E2E2E2F5E2E2E2E2E2E2E2E2E2E2F5E2E2E2E2E2E2E2F5E2E2E2E2E2E2E2F5E2E2E2E2F5F5F5F5E2E2E2F5E2E2E2E2E2E2E2E2E2E2E2E2E2E2E2E2E2E2E2E2E2F5E2E2E2E2E2E2E2E2E2E2E2E2E2E2E2E2E2E2E2E2E2E2E2E2E2
310
F5E2E2E2F5E2E2F5F5E2E2F5E2F5E2E2E2E2E2E2E2F5E2E2E2E2E2E2E2E2E2E2F5E2E2E2E2E2E2E2F5E2E2E2E2E2E2E2F5E2E2E2E2F5F5F5F5E2E2E2F5E2E2E2E2E2E2E2E2E2E2E2E2E2E2E2E2E2E2E2E2E2F5E2E2E2E2E2E2E2E2E2E2E2E2E2E2E2E2E2E2E2E2E2E2E2E2E2F5E2E2E2F5E2E2F5F5E2E2F5E2F5E2E2E2E2E2
310
E2E2F5E2E2E2E2E2E2E2E2E2E2F5E2E2E2E2E2E2E2F5E2E2E2E2E2E2E2F5E2E2E2E2F5F5F5F5E2E2E2F5E2E2E2E2E2E2E2E2E2E2E2E2E2E2E2E2E2E2E2E2E2F5E2E2E2E2E2E2E2E2E2E2E2E2E2E2E2E2E2E2E2E2E2E2E2E2E2F5E2E2E2F5E2E2F5F5E2E2E2E2F5E2E2E2E2E2E2E2F5E2E2E2E2E2E2E2E2E2E2F5E2E2E2E2F5
310
F5F5F5F5F5E2E2E2E2E2F5E2E2E2E2F5F5F5F5E2E2E2F5E2E2E2E2E2E2E2E2E2E2E2E2E2E2E2E2E2E2E2E2E2F5E2E2E2E2E2E2E2E2E2E2E2E2E2E2E2E2E2E2E2E2E2E2E2E2E2F5E2E2E2E2E2E2F5F5E2E2E2E2F5E2E2E2E2E2E2E2F5E2E2E2E2E2E2E2E2E2E2F5E2E2E2E2E2F5F5F5F5F5E2E2E2E2E2F5E2E2E2E2F5F5F5F5
310
F5F5F5F5F5E2E2E2E2E2E2E2E2E2E2E2E2E2E2E2E2E2E2E2E2F5E2E2E2E2E2E2E2E2E2E2E2E2E2E2E2E2E2E2E2E2E2E2E2E2E2F5E2E2E2E2E2E2F5F5E2E2E2E2F5E2E2E2E2E2E2E2F5E2E2E2E2E2E2E2E2E2E2F5E2E2E2E2E2E2E2E2E2E2E2E2E2E2E2F5E2E2E2E2F5F5F5F5F5F5F5F5F5E2E2E2E2E2E2E2E2E2E2E2E2E2E2
310
E2E2E2E2E2E2F5E2E2E2E2E2E2E2E2E2E2E2E2E2E2E2E2E2E2E2E2E2E2E2E2E2F5E2E2E2E2E2E2F5F5E2E2E2E2F5E2E2E2E2E2E2E2F5E2E2E2E2E2E2E2E2E2E2F5E2E2E2E2E2E2E2F5E2E2E2E2E2E2E2F5E2E2E2E2F5F5F5F5E2E2F5F5F5E2E2E2E2E2E2E2E2E2E2E2E2E2E2E2E2E2E2E2E2F5E2E2E2E2E2E2E2E2E2E2E2E2
310
E2E2E2E2E2E2E2E2E2E2E2E2E2F5E2E2E2E2E2E2F5F5E2E2E2E2F5E2E2E2E2E2E2E2F5E2E2E2E2E2E2E2E2E2E2F5E2E2E2E2E2E2E2F5E2E2E2E2E2E2E2F5E2E2E2E2F5F5F5F5E2E2F5F5F5E2E2E2E2E2E2E2E2E2E2E2E2E2E2E2E2E2E2E2E2F5E2E2E2E2E2E2E2E2E2E2E2E2E2E2E2E2E2E2E2E2E2E2E2E2E2F5E2E2E2E2E2
310
E2F5F5E2E2E2E2F5E2E2E2E2E2E2E2F5E2E2E2E2E2E2E2E2E2E2F5E2E2E2E2E2E2E2F5E2E2E2E2E2E2E2F5E2E2E2E2F5F5F5F5E2E2E2F5F5F5E2E2E2F5F5F5F5F5F5F5F5F5F5E2E2E2E2E2E2F5E2E2E2E2E2E2E2E2E2E2E2E2E2E2E2E2E2E2E2E2E2E2E2E2E2F5E2E2E2E2E2E2F5F5E2E2E2E2F5E2E2E2E2E2E2E2F5E2E2E2
310
E2E2E2E2E2E2E2F5E2E2E2E2E2E2E2F5E2E2E2E2E2E2E2F5E2E2E2E2F5F5F5F5E2E2E2E2F5E2F5E2E2E2E2E2E2E2E2E2E2E2E2E2E2E2E2E2E2F5E2E2E2E2E2E2E2E2E2E2E2E2E2E2E2E2E2E2E2E2E2E2E2E2E2F5E2E2E2E2E2E2F5F5E2E2E2E2F5E2E2E2E2E2E2E2F5E2E2E2E2E2E2E2E2E2E2F5E2E2E2E2E2E2E2F5E2E2E2
310
E2E2E2E2F5E2E2E2E2F5F5F5F5E2E2E2E2F5E2E2F5F5F5F5F5F5F5F5F5F5F5E2E2E2E2E2E2E2F5E2E2E2E2E2E2E2E2E2E2E2E2E2E2E2E2E2E2E2E2E2E2E2E2E2F5E2E2E2E2E2E2F5F5E2E2E2E2F5E2E2E2E2E2E2E2F5E2E2E2E2E2E2E2E2E2E2F5E2E2E2E2E2E2E2F5E2E2E2E2E2E2E2F5E2E2E2E2F5F5F5F5E2E2E2E2F5E2
310
E2E2E2E2E2E2E2E2E2E2E2E2E2E2E2E2E2E2E2F5E2E2E2E2E2E2E2E2E2E2E2E2E2E2E2E2E2E2E2E2E2E2E2E2E2F5E2E2E2E2E2E2F5F5E2E2E2E2F5E2E2E2E2E2E2E2F5E2E2E2E2E2E2E2E2E2E2F5E2E2E2E2E2E2E2F5E2E2E2E2E2E2E2F5E2E2E2E2F5F5F5F5E2E2E2E2F5E2E2E2E2E2E2E2E2E2E2E2E2E2E2E2E2E2E2E2E2
310
F5E2E2E2E2E2E2E2E2E2E2E2E2E2E2E2E2E2E2E2E2E2E2E2E2E2F5E2E2E2E2E2E2F5F5E2E2F5E2F5E2E2E2E2E2E2E2F5E2E2E2E2E2E2E2E2E2E2F5E2E2E2E2E2E2E2F5E2E2E2E2E2E2E2F5E2E2E2E2F5F5F5F5E2E2E2E2F5E2E2E2E2E2E2E2E2E2E2E2E2E2E2E2E2E2E2E2E2F5E2E2E2E2E2E2E2E2E2E2E2E2E2E2E2E2E2E2
310
E2E2E2E2E2E2E2F5E2E2E2F5E2E2F5F5E2E2F5E2F5E2E2E2E2E2E2E2F5E2E2E2E2E2E2E2E2E2E2F5E2E2E2E2E2E2E2F5E2E2E2E2E2E2E2F5E2E2E2E2F5F5F5F5E2E2E2E2F5E2E2E2E2E2E2E2E2E2E2E2E2E2E2E2E2E2E2E2E2F5E2E2E2E2E2E2E2E2E2E2E2E2E2E2E2E2E2E2E2E2E2E2E2E2E2F5E2E2E2F5E2E2F5F5E2E2F5
310
E2F5E2E2E2E2E2E2E2F5E2E2E2E2E2E2E2E2E2E2F5E2E2E2E2E2E2E2F5E2E2E2E2E2E2E2F5E2E2E2E2F5F5F5F5E2E2E2E2F5E2E2E2E2E2E2E2E2E2E2E2E2E2E2E2E2E2E2E2E2F5E2E2E2E2E2E2E2E2E2E2E2E2E2E2E2E2E2E2E2E2E2E2E2E2E2F5E2E2E2F5E2E2F5F5E2E2F5E2F5E2E2E2E2E2E2E2F5E2E2E2E2E2E2E2E2E2
310
E2F5E2E2E2E2E2E2E2F5E2E2E2E2E2E2E2F5E2E2E2E2F5F5F5F5E2E2E2E2F5E2E2E2E2E2E2E2E2E2E2E2E2E2E2E2E2E2E2E2E2F5E2E2E2E2E2E2E2E2E2E2E2E2E2E2E2E2E2E2E2E2E2E2E2E2E2F5E2E2E2F5E2E2F5F5E2E2F5E2F5E2E2E2E2E2E2E2F5E2E2E2E2E2E2E2E2E2E2F5E2E2E2E2E2E2E2F5E2E2E2E2E2E2E2F5E2
310
E2E2E2F5F5F5F5F5F5F5F5F5F5E2E2E2E2E2E2E2E2E2E2E2E2E2E2E2E2E2E2E2F5E2E2E2E2E2E2E2E2E2E2E2E2E2E2E2E2E2E2E2E2E2E2E2E2E2F5E2E2E2F5E2E2F5F5E2E2F5E2F5E2E2E2E2E2E2E2F5E2E2E2E2E2E2E2E2E2E2F5E2E2E2E2E2E2E2F5E2E2E2E2E2E2E2F5E2E2E2E2F5F5F5F5F5F5F5F5F5F5E2E2E2E2E2E2
310
E2E2E2E2E2E2E2E2E2E2E2E2E2F5E2E2E2E2E2E2E2E2E2E2E2E2E2E2E2E2E2E2E2E2E2E2E2E2E2F5E2E2E2F5E2E2F5F5E2E2F5E2F5E2E2E2E2E2E2E2F5E2E2E2E2E2E2E2E2E2E2F5E2E2E2E2E2E2E2F5E2E2E2E2E2E2E2F5E2E2E2E2F5F5F5F5E2E2E2E2F5E2E2E2E2F5F5F5F5F5F5F5F5E2E2E2E2E2E2E2E2F5E2E2E2E2E2
310
E2E2E2E2E2E2E2E2E2E2E2E2E2E2E2E2E2E2E2E2F5E2E2E2F5E2E2F5F5E2E2F5E2F5E2E2E2E2E2E2E2F5E2E2E2E2E2E2E2E2E2E2F5E2E2E2E2E2E2E2F5E2E2E2E2E2E2E2F5E2E2E2E2F5F5F5F5E2E2E2E2F5F5E2E2F5F5E2E2E2E2E2E2E2E2E2E2E2E2E2E2E2F5E2E2E2E2E2E2E2E2E2E2E2E2E2E2E2E2E2E2E2E2E2E2E2E2
310
E2F5E2E2E2F5E2E2F5F5E2E2F5E2F5E2E2E2E2E2E2E2F5E2E2E2E2E2E2E2E2E2E2F5E2E2E2E2E2E2E2F5E2E2E2E2E2E2F5F5E2E2E2E2F5F5F5F5F5F5F5F5F5F5F5F5E2E2E2E2E2E2E2E2E2E2E2E2E2E2E2E2E2F5E2E2E2E2E2E2E2E2E2E2E2E2E2E2E2E2E2E2E2E2E2E2E2E2E2F5E2E2E2F5E2E2F5F5E2E2F5E2F5E2E2E2E2
310
E2E2E2F5E2E2E2E2E2E2E2E2E2E2F5E2E2E2E2E2E2E2F5E2E2E2E2E2E2F5F5F5F5F5F5F5F5F5F5F5F5F5F5F5F5E2E2E2E2E2E2E2E2E2E2E2E2E2E2E2E2E2E2E2F5E2E2E2E2E2E2E2E2E2E2E2E2E2E2E2E2E2E2E2E2E2E2E2E2E2F5E2E2E2F5E2E2F5F5E2E2F5E2F5E2E2E2E2E2E2E2F5E2E2E2E2E2E2E2E2E2E2F5E2E2E2E2
310
E2E2E2F5E2E2E2E2E2E2E2E2E2E2E2E2F5F5F5F5F5F5F5F5F5F5F5E2E2E2E2E2E2E2E2E2E2E2E2E2E2E2E2E2E2F5E2E2E2E2E2E2E2E2E2E2E2E2E2E2E2E2E2E2E2E2E2E2E2E2E2F5E2E2E2F5E2E2F5F5E2E2F5E2F5E2E2E2E2E2E2E2F5E2E2E2E2E2E2E2E2E2F5F5F5F5F5F5F5F5F5F5F5F5F5F5F5F5F5F5F5F5F5F5F5F5F5
310
F5F5F5F5E2E2F5F5F5F5F5E2E2E2E2E2E2E2E2E2E2E2E2E2E2E2F5E2E2E2E2E2E2E2E2E2E2E2E2E2E2E2E2E2E2E2E2E2E2E2E2E2F5E2E2E2F5E2E2F5F5E2E2F5E2F5E2E2E2E2E2E2E2F5E2E2E2E2E2E2E2E2E2E2E2E2E2E2E2E2E2E2F5E2E2E2E2E2E2E2E2E2E2E2E2F5F5F5F5F5F5F5E2F5F5F5F5F5E2F5F5F5F5F5F5F5F5
310
F5F5F5F5E2E2E2F5E2E2E2E2E2E2E2E2E2E2E2E2E2E2E2E2E2E2E2E2E2E2E2E2E2F5E2E2E2F5E2E2F5F5E2E2F5E2F5E2E2E2E2E2E2E2F5E2E2E2E2E2E2E2E2E2E2E2E2E2E2E2E2E2E2F5E2E2E2E2E2E2E2E2E2E2E2E2F5F5F5E2F5F5E2E2E2F5E2E2E2E2E2E2E2E2E2E2E2E2E2E2E2E2E2E2E2F5E2E2E2E2E2E2E2E2E2E2E2
310
E2E2E2E2E2E2E2E2E2E2E2E2E2E2F5E2E2E2F5E2E2F5F5E2E2F5E2F5E2E2E2E2E2E2E2F5F5F5F5F5F5F5F5F5F5F5F5F5F5F5F5F5F5F5F5F5F5F5F5F5F5F5F5F5F5F5F5F5F5F5F5F5F5F5F5F5F5F5F5F5F5F5F5F5F5F5F5F5F5F5F5F5F5F5F5F5F5F5F5F5F5F5F5F5F5F5F5F5F5F5F5E2E2E2E2E2E2E2E2E2E2E2F5E2E2E2F5
310
E2E2F5F5E2E2F5E2F5E2E2E2E2E2E2E2E2E2E2E2E2E2E2E2E2E2E2E2E2E2E2E2E2E2E2E2E2E2E2E2E2E2E2E2E2E2E2E2F5F5F5F5F5F5F5F5F5F5F5F5F5F5F5F5F5F5F5F5F5F5F5F5F5F5F5F5F5F5F5F5F5F5F5F5F5F5F5F5F5F5F5F5E2E2E2E2E2E2E2E2E2E2E2F5E2E2E2F5E2E2F5F5E2E2F5E2F5E2E2E2E2E2E2E2E2E2E2
310
E2E2E2E2E2E2E2E2E2E2E2E2E2E2E2E2E2E2E2E2E2E2E2E2E2E2E2E2E2F5F5F5F5F5F5F5F5F5F5F5F5F5F5F5F5F5F5F5F5F5F5F5F5F5F5F5F5F5F5F5F5F5F5F5F5F5F5F5F5F5F5F5F5E2E2E2E2E2E2E2E2E2E2E2F5E2E2E2F5E2E2F5F5E2E2E2E2F5F5F5F5F5F5F5F5F5F5F5F5F5F5F5F5F5F5F5F5F5F5F5F5F5F5F5F5F5F5
310
F5F5F5F5F5F5F5F5F5F5F5F5F5F5F5F5F5F5F5F5F5F5F5F5F5F5F5F5F5F5F5F5F5F5F5F5F5F5F5F5F5F5F5F5F5F5F5F5F5F5F5F5F5F5F5F5F5F5F5F5F5F5F5F5F5F5E2E2E2E2E2E2F5F5E2E2E2E2E2E2E2E2E2E2E2E2E2E2E2E2E2E2E2E2E2E2E2E2E2E2E2E2E2E2E2E2E2E2E2E2E2E2E2E2E2E2E2E2E2E2E2E2E2E2E2E2E2
310
E2E2E2E2E2E2E2E2E2E2E2E2E2E2E2E2E2E2E2E2E2E2E2E2E2E2E2E2E2E2E2E2E2E2E2E2E2E2E2E2E2E2E2E2E2E2E2E2E2E2E2E2E2F5F5E2E2E2E2E2E2E2E2E2E2E2E2E2E2E2E2E2E2E2E2E2E2E2E2E2E2E2E2E2E2E2E2E2E2E2E2E2E2E2E2E2E2E2E2E2E2E2E2E2E2E2E2E2E2E2E2E2E2E2E2E2E2E2E2E2E2E2E2E2E2E2E2
310
E2E2E2E2E2E2E2E2E2E2E2E2E2E2E2E2E2E2E2E2E2E2E2E2E2E2E2E2E2E2E2E2E2E2F5F5E2E2E2E2E2E2E2E2E2E2E2E2E2E2E2E2E2E2E2E2E2E2E2E2E2E2E2E2E2E2E2E2E2E2E2E2E2E2E2E2E2E2E2E2E2E2E2E2E2E2E2E2E2E2E2E2E2E2E2E2E2E2E2E2E2E2E2E2E2E2E2E2E2E2E2E2E2E2E2E2E2E2E2E2E2E2E2E2E2E2E2
310
E2E2E2E2E2E2E2E2E2E2E2E2E2E2E2F5F5E2E2E2E2E2E2E2E2E2E2E2E2E2E2E2E2E2E2E2E2E2E2E2E2E2E2E2E2E2E2E2E2E2E2E2E2E2E2E2E2E2E2E2E2E2E2E2E2E2E2E2E2E2E2E2E2E2E2E2E2E2E2E2E2E2E2E2E2E2E2E2E2E2E2E2E2E2E2E2E2E2E2E2E2E2E2E2E2E2E2E2E2E2E2E2E2E2E2E2E2E2E2E2E2E2E2F5F5E2E2
310
E2E2E2E2E2E2E2E2E2E2E2E2E2E2E2E2E2E2E2E2E2E2E2E2E2E2E2E2E2E2E2E2E2E2E2E2E2E2E2E2E2E2E2E2E2E2E2E2E2E2E2E2E2E2E2E2E2E2E2E2E2E2E2E2E2E2E2E2E2E2E2E2E2E2E2E2E2E2E2E2E2E2E2E2E2E2E2E2E2E2E2E2E2E2E2E2E2E2E2E2E2E2E2E2F5F5E2E2E2E2E2E2E2E2E2E2E2E2E2E2E2E2E2E2E2E2E2
310
E2E2E2E2E2E2E2E2E2E2E2E2E2E2E2E2E2E2E2E2E2E2E2E2E2E2E2E2E2E2E2E2E2E2E2E2E2E2E2E2E2E2E2E2E2E2E2E2E2E2E2E2E2E2E2E2E2E2E2E2E2E2E2E2E2E2E2E2E2E2E2E2E2E2E2E2E2E2E2E2E2E2E2E2E2F5F5E2E2E2E2E2E2E2E2E2E2E2E2E2E2E2E2E2E2E2E2E2E2E2E2E2E2E2E2E2E2E2E2E2E2E2E2E2E2E2E2
310
E2E2E2E2E2E2E2E2E2E2E2E2E2E2E2E2E2E2E2E2E2E2E2E2E2E2E2E2E2E2E2E2E2E2E2E2E2E2E2E2E2E2E2E2E2E2E2E2E2E2E2E2E2E2E2E2E2E2E2E2E2E2E2E2E2E2F5F5E2E2E2E2E2E2E2E2E2E2E2E2E2E2E2E2E2E2E2E2E2E2E2E2E2E2E2E2E2E2E2E2E2E2E2E2E2E2E2E2E2E2E2E2E2E2E2E2E2E2E2E2E2E2E2E2E2E2E2
310
E2E2E2E2E2E2E2E2E2E2E2E2E2E2E2E2E2E2E2E2E2E2E2E2E2E2E2E2E2E2E2E2E2E2E2E2E2E2E2E2E2E2E2E2E2E2E2F5F5E2E2F5E2E2E2E2E2E2E2E2E2E2E2E2E2E2E2E2E2E2E2E2E2E2E2E2E2E2E2E2E2E2E2E2E2E2E2E2E2E2E2E2E2E2E2E2E2E2E2E2E2E2E2E2E2E2E2E2E2E2E2E2E2E2E2E2E2E2E2E2E2E2E2E2E2E2E2
310
E2E2E2E2E2E2E2E2E2E2E2E2E2E2E2E2E2E2E2E2E2E2E2E2E2F5E2E2F5F5E2E2F5E2E2E2E2E2E2E2E2E2E2E2E2E2E2E2E2E2E2E2E2E2E2E2E2E2E2E2E2E2E2E2E2E2E2E2E2E2E2E2E2E2E2E2E2E2E2E2E2E2E2E2E2E2E2E2E2E2E2E2E2E2E2E2E2E2E2E2E2E2E2E2E2E2E2E2E2E2E2E2E2E2E2E2E2E2E2E2E2E2E2E2E2E2E2
310
E2E2E2E2E2E2F5E2E2F5F5E2E2F5E2E2E2E2E2E2E2E2E2E2E2E2E2E2E2E2E2E2E2E2E2E2E2E2E2E2E2E2E2E2E2E2E2E2E2E2E2E2E2E2E2E2E2E2E2E2E2E2E2E2E2E2E2E2E2E2E2E2E2E2E2E2E2E2E2E2E2E2E2E2E2E2E2E2E2E2E2E2E2E2E2E2E2E2E2E2E2E2E2E2E2E2E2E2E2E2E2E2E2E2F5E2E2F5F5E2E2F5E2E2E2E2E2
310
E2E2E2E2E2E2E2E2E2E2E2E2E2E2E2E2E2E2E2E2E2E2E2E2E2E2E2E2E2E2E2E2E2E2E2E2E2E2E2E2E2E2E2E2E2E2E2E2E2E2E2E2E2E2E2E2E2E2E2E2E2E2E2E2E2E2E2E2E2E2E2E2E2E2E2E2E2E2E2E2E2E2E2E2E2E2E2E2E2E2E2E2E2E2E2F5E2E2F5F5E2E2F5E2E2E2E2E2E2E2E2E2E2E2E2E2E2E2E2E2E2E2E2E2E2E2E2
310
E2E2E2E2E2E2E2E2E2E2E2E2E2E2E2E2E2E2E2E2E2E2E2E2E2E2E2E2E2E2E2E2E2E2E2E2E2E2E2E2E2E2E2E2E2E2E2E2E2E2E2E2E2E2E2E2E2E2E2E2E2E2E2E2E2E2E2E2E2E2E2E2E2E2E2E2F5E2E2F5F5E2E2F5E2E2E2E2E2E2E2E2E2E2E2E2E2E2E2E2E2E2E2E2E2E2E2E2E2E2E2E2E2E2E2E2E2E2E2E2E2E2E2E2E2E2E2
310
E2E2E2E2E2E2E2E2E2E2E2E2E2E2E2E2E2E2E2E2E2E2E2E2E2E2E2E2E2E2E2E2E2E2E2E2E2E2E2E2E2E2E2E2E2E2E2E2E2E2E2E2E2E2E2E2E2F5E2E2F5F5E2E2F5E2E2E2E2E2E2E2E2E2E2E2E2E2E2E2E2E2E2E2E2E2E2E2E2E2E2E2E2E2E2E2E2E2E2E2E2E2E2E2E2E2E2E2E2E2E2E2E2E2E2E2E2E2E2E2E2E2E2E2E2E2E2
310
E2E2E2E2E2E2E2E2E2E2E2E2E2E2E2E2E2E2E2E2E2E2E2E2E2E2E2E2E2E2E2E2E2E2E2E2E2E2F5E2E2F5F5E2E2F5E2E2E2E2E2E2E2E2E2E2E2E2E2E2E2E2E2E2E2E2E2E2E2E2E2E2E2E2E2E2E2E2E2E2E2E2E2E2E2E2E2E2E2E2E2E2E2E2E2E2E2E2E2E2E2E2E2E2E2E2E2E2E2E2E2E2E2E2E2E2E2E2E2E2E2E2E2E2E2E2E2
310
E2E2E2E2E2E2E2E2E2E2E2E2E2E2E2E2E2E2E2F5E2E2F5F5E2E2F5F5F5F5F5F5F5F5F5E2E2E2E2E2E2E2E2E2F5F5F5F5F5F5F5F5F5F5F5F5F5F5F5F5E2E2E2E2E2E2E2E2E2F5F5F5F5F5F5F5F5F5F5F5F5F5F5F5F5E2E2E2E2E2E2E2E2E2F5F5F5F5F5F5F5F5F5F5F5F5F5F5F5F5E2E2E2E2E2E2E2E2E2F5F5F5F5F5F5F5F5
310
F5E2E2F5F5E2E2E2E2E2E2E2E2E2E2E2E2E2E2E2E2E2E2E2E2E2E2E2E2E2E2E2E2E2E2E2E2E2E2E2E2E2E2E2E2E2E2E2E2E2E2E2E2E2E2E2E2E2E2E2E2E2E2E2E2E2E2E2E2E2E2E2E2E2E2E2E2E2E2E2E2E2E2E2E2E2E2E2E2E2E2E2E2E2E2E2E2E2E2E2E2E2E2E2E2E2E2E2E2E2E2F5F5E2E2E2E2E2E2E2E2E2E2E2E2E2E2
310
E2E2E2E2E2E2E2E2E2E2E2E2E2E2E2E2E2E2E2E2E2E2E2E2E2E2E2E2E2E2E2E2E2E2E2E2E2E2E2E2E2E2E2E2E2E2E2E2E2E2E2E2E2E2E2E2E2E2E2E2E2E2E2E2E2E2E2E2E2E2E2E2E2E2E2E2E2E2E2E2E2E2E2E2E2E2E2E2E2E2E2E2F5F5E2E2E2E2E2E2E2E2E2E2E2E2E2E2E2E2E2E2E2E2E2E2E2E2E2E2E2E2E2E2E2E2E2
310
E2E2E2E2E2E2E2E2E2E2E2E2E2E2E2E2E2E2E2E2E2E2E2E2E2E2E2E2E2E2E2E2E2E2E2E2E2E2E2E2E2E2E2E2E2E2E2E2E2E2E2E2E2E2E2E2E2E2E2E2E2E2E2E2E2E2E2E2E2E2E2E2E2F5F5F5F5F5F5F5F5F5F5F5F5F5F5F5F5F5F5F5F5F5F5F5F5F5F5F5F5F5F5F5F5F5F5F5F5F5F5F5F5F5F5F5F5F5F5F5F5F5F5F5F5F5F5
310
F5F5F5F5F5F5F5F5F5F5F5F5F5F5F5F5F5F5F5F5F5F5F5F5F5F5F5F5F5F5F5F5F5F5F5F5F5F5F5F5F5F5F5F5F5F5F5F5F5F5F5F5F5F5F5
  0
ENDSEC
  0
EOF
