  0
SECTION
  2
HEADER
  9
$ACADVER
  1
AC1021
  9
$ACADMAINTVER
 70
     1
  9
$DWGCODEPAGE
  3
ANSI_1252
  9
$LASTSAVEDBY
  1
RSutcliffe
  9
$INSBASE
 10
0.0
 20
0.0
 30
0.0
  9
$EXTMIN
 10
68.20448569982307
 20
96.68257372539109
 30
-0.0015258207003583
  9
$EXTMAX
 10
279.8463373378469
 20
333.8804127539714
 30
0.0000000349246037
  9
$LIMMIN
 10
0.0
 20
0.0
  9
$LIMMAX
 10
17.0
 20
11.0
  9
$ORTHOMODE
 70
     1
  9
$REGENMODE
 70
     1
  9
$FILLMODE
 70
     1
  9
$QTEXTMODE
 70
     0
  9
$MIRRTEXT
 70
     1
  9
$LTSCALE
 40
20.0
  9
$ATTMODE
 70
     1
  9
$TEXTSIZE
 40
2.0
  9
$TRACEWID
 40
0.05
  9
$TEXTSTYLE
  7
WEB PAGE
  9
$CLAYER
  8
0
  9
$CELTYPE
  6
BYLAYER
  9
$CECOLOR
 62
   256
  9
$CELTSCALE
 40
1.0
  9
$DISPSILH
 70
     0
  9
$DIMSCALE
 40
1.0
  9
$DIMASZ
 40
3.0
  9
$DIMEXO
 40
2.0
  9
$DIMDLI
 40
1.0
  9
$DIMRND
 40
0.0
  9
$DIMDLE
 40
0.0
  9
$DIMEXE
 40
1.0
  9
$DIMTP
 40
0.0
  9
$DIMTM
 40
0.0
  9
$DIMTXT
 40
1.75
  9
$DIMCEN
 40
1.0
  9
$DIMTSZ
 40
0.0
  9
$DIMTOL
 70
     0
  9
$DIMLIM
 70
     0
  9
$DIMTIH
 70
     1
  9
$DIMTOH
 70
     1
  9
$DIMSE1
 70
     0
  9
$DIMSE2
 70
     0
  9
$DIMTAD
 70
     0
  9
$DIMZIN
 70
     0
  9
$DIMBLK
  1

  9
$DIMASO
 70
     1
  9
$DIMSHO
 70
     1
  9
$DIMPOST
  1

  9
$DIMAPOST
  1

  9
$DIMALT
 70
     0
  9
$DIMALTD
 70
     2
  9
$DIMALTF
 40
25.4
  9
$DIMLFAC
 40
1.0
  9
$DIMTOFL
 70
     0
  9
$DIMTVP
 40
0.0
  9
$DIMTIX
 70
     0
  9
$DIMSOXD
 70
     0
  9
$DIMSAH
 70
     0
  9
$DIMBLK1
  1

  9
$DIMBLK2
  1

  9
$DIMSTYLE
  2
STANDARD
  9
$DIMCLRD
 70
     0
  9
$DIMCLRE
 70
     0
  9
$DIMCLRT
 70
     0
  9
$DIMTFAC
 40
1.0
  9
$DIMGAP
 40
1.0
  9
$DIMJUST
 70
     0
  9
$DIMSD1
 70
     0
  9
$DIMSD2
 70
     0
  9
$DIMTOLJ
 70
     1
  9
$DIMTZIN
 70
     0
  9
$DIMALTZ
 70
     0
  9
$DIMALTTZ
 70
     0
  9
$DIMUPT
 70
     0
  9
$DIMDEC
 70
     4
  9
$DIMTDEC
 70
     4
  9
$DIMALTU
 70
     2
  9
$DIMALTTD
 70
     2
  9
$DIMTXSTY
  7
WEB PAGE
  9
$DIMAUNIT
 70
     0
  9
$DIMADEC
 70
     0
  9
$DIMALTRND
 40
0.0
  9
$DIMAZIN
 70
     0
  9
$DIMDSEP
 70
    46
  9
$DIMATFIT
 70
     3
  9
$DIMFRAC
 70
     2
  9
$DIMLDRBLK
  1

  9
$DIMLUNIT
 70
     4
  9
$DIMLWD
 70
    -2
  9
$DIMLWE
 70
    -2
  9
$DIMTMOVE
 70
     0
  9
$DIMFXL
 40
1.0
  9
$DIMFXLON
 70
     0
  9
$DIMJOGANG
 40
0.7853981633974483
  9
$DIMTFILL
 70
     0
  9
$DIMTFILLCLR
 70
     0
  9
$DIMARCSYM
 70
     0
  9
$DIMLTYPE
  6

  9
$DIMLTEX1
  6

  9
$DIMLTEX2
  6

  9
$LUNITS
 70
     4
  9
$LUPREC
 70
     4
  9
$SKETCHINC
 40
0.1
  9
$FILLETRAD
 40
0.0
  9
$AUNITS
 70
     1
  9
$AUPREC
 70
     4
  9
$MENU
  1
acad
  9
$ELEVATION
 40
0.0
  9
$PELEVATION
 40
0.0
  9
$THICKNESS
 40
0.0
  9
$LIMCHECK
 70
     0
  9
$CHAMFERA
 40
0.0
  9
$CHAMFERB
 40
0.0
  9
$CHAMFERC
 40
0.0
  9
$CHAMFERD
 40
0.0
  9
$SKPOLY
 70
     0
  9
$TDCREATE
 40
2451029.636190972
  9
$TDUCREATE
 40
2451029.844524306
  9
$TDUPDATE
 40
2454105.457690428
  9
$TDUUPDATE
 40
2454105.666023762
  9
$TDINDWG
 40
3.0895890162
  9
$TDUSRTIMER
 40
3.0895890162
  9
$USRTIMER
 70
     1
  9
$ANGBASE
 50
0.0
  9
$ANGDIR
 70
     0
  9
$PDMODE
 70
     2
  9
$PDSIZE
 40
0.0
  9
$PLINEWID
 40
0.0
  9
$SPLFRAME
 70
     0
  9
$SPLINETYPE
 70
     6
  9
$SPLINESEGS
 70
     8
  9
$HANDSEED
  5
1337C
  9
$SURFTAB1
 70
     6
  9
$SURFTAB2
 70
     6
  9
$SURFTYPE
 70
     6
  9
$SURFU
 70
     6
  9
$SURFV
 70
     6
  9
$UCSBASE
  2

  9
$UCSNAME
  2

  9
$UCSORG
 10
0.0
 20
0.0
 30
0.0
  9
$UCSXDIR
 10
1.0
 20
0.0
 30
0.0
  9
$UCSYDIR
 10
0.0
 20
1.0
 30
0.0
  9
$UCSORTHOREF
  2

  9
$UCSORTHOVIEW
 70
     0
  9
$UCSORGTOP
 10
0.0
 20
0.0
 30
0.0
  9
$UCSORGBOTTOM
 10
0.0
 20
0.0
 30
0.0
  9
$UCSORGLEFT
 10
0.0
 20
0.0
 30
0.0
  9
$UCSORGRIGHT
 10
0.0
 20
0.0
 30
0.0
  9
$UCSORGFRONT
 10
0.0
 20
0.0
 30
0.0
  9
$UCSORGBACK
 10
0.0
 20
0.0
 30
0.0
  9
$PUCSBASE
  2

  9
$PUCSNAME
  2

  9
$PUCSORG
 10
0.0
 20
0.0
 30
0.0
  9
$PUCSXDIR
 10
1.0
 20
0.0
 30
0.0
  9
$PUCSYDIR
 10
0.0
 20
1.0
 30
0.0
  9
$PUCSORTHOREF
  2

  9
$PUCSORTHOVIEW
 70
     0
  9
$PUCSORGTOP
 10
0.0
 20
0.0
 30
0.0
  9
$PUCSORGBOTTOM
 10
0.0
 20
0.0
 30
0.0
  9
$PUCSORGLEFT
 10
0.0
 20
0.0
 30
0.0
  9
$PUCSORGRIGHT
 10
0.0
 20
0.0
 30
0.0
  9
$PUCSORGFRONT
 10
0.0
 20
0.0
 30
0.0
  9
$PUCSORGBACK
 10
0.0
 20
0.0
 30
0.0
  9
$USERI1
 70
     0
  9
$USERI2
 70
     0
  9
$USERI3
 70
     0
  9
$USERI4
 70
     0
  9
$USERI5
 70
     0
  9
$USERR1
 40
0.0
  9
$USERR2
 40
0.0
  9
$USERR3
 40
0.0
  9
$USERR4
 40
0.0
  9
$USERR5
 40
0.0
  9
$WORLDVIEW
 70
     1
  9
$SHADEDGE
 70
     3
  9
$SHADEDIF
 70
    70
  9
$TILEMODE
 70
     1
  9
$MAXACTVP
 70
    16
  9
$PINSBASE
 10
0.0
 20
0.0
 30
0.0
  9
$PLIMCHECK
 70
     0
  9
$PEXTMIN
 10
0.3048473493145387
 20
0.2833645265850535
 30
-0.0000000000000053
  9
$PEXTMAX
 10
7.896170986188241
 20
9.567803408682614
 30
0.0000000000000099
  9
$PLIMMIN
 10
-0.1598667081725191
 20
-0.1367557295956554
  9
$PLIMMAX
 10
8.340133051531589
 20
10.86324403010845
  9
$UNITMODE
 70
     0
  9
$VISRETAIN
 70
     0
  9
$PLINEGEN
 70
     0
  9
$PSLTSCALE
 70
     1
  9
$TREEDEPTH
 70
  3020
  9
$CMLSTYLE
  2
STANDARD
  9
$CMLJUST
 70
     0
  9
$CMLSCALE
 40
1.0
  9
$PROXYGRAPHICS
 70
     1
  9
$MEASUREMENT
 70
     0
  9
$CELWEIGHT
370
    -1
  9
$ENDCAPS
280
     0
  9
$JOINSTYLE
280
     0
  9
$LWDISPLAY
290
     0
  9
$INSUNITS
 70
     1
  9
$HYPERLINKBASE
  1

  9
$STYLESHEET
  1

  9
$XEDIT
290
     1
  9
$CEPSNTYPE
380
     0
  9
$PSTYLEMODE
290
     1
  9
$FINGERPRINTGUID
  2
{EED38BEA-5B6B-467F-90D5-C3127D1C881D}
  9
$VERSIONGUID
  2
{843517F8-CE89-4A55-BFF8-47E9DABC3AD2}
  9
$EXTNAMES
290
     1
  9
$PSVPSCALE
 40
0.0
  9
$OLESTARTUP
290
     0
  9
$SORTENTS
280
    96
  9
$INDEXCTL
280
     0
  9
$HIDETEXT
280
     0
  9
$XCLIPFRAME
290
     0
  9
$HALOGAP
280
     0
  9
$OBSCOLOR
 70
   257
  9
$OBSLTYPE
280
     0
  9
$INTERSECTIONDISPLAY
280
     0
  9
$INTERSECTIONCOLOR
 70
   257
  9
$DIMASSOC
280
     1
  9
$PROJECTNAME
  1

  9
$CAMERADISPLAY
290
     0
  9
$LENSLENGTH
 40
50.0
  9
$CAMERAHEIGHT
 40
0.0
  9
$STEPSPERSEC
 40
2.0
  9
$STEPSIZE
 40
6.0
  9
$3DDWFPREC
 40
2.0
  9
$PSOLWIDTH
 40
0.25
  9
$PSOLHEIGHT
 40
4.0
  9
$LOFTANG1
 40
1.570796326794896
  9
$LOFTANG2
 40
1.570796326794896
  9
$LOFTMAG1
 40
0.0
  9
$LOFTMAG2
 40
0.0
  9
$LOFTPARAM
 70
     7
  9
$LOFTNORMALS
280
     1
  9
$LATITUDE
 40
37.795
  9
$LONGITUDE
 40
-122.394
  9
$NORTHDIRECTION
 40
0.0
  9
$TIMEZONE
 70
 -8000
  9
$LIGHTGLYPHDISPLAY
280
     1
  9
$TILEMODELIGHTSYNCH
280
     1
  9
$CMATERIAL
347
1310C
  9
$SOLIDHIST
280
     1
  9
$SHOWHIST
280
     1
  9
$DWFFRAME
280
     2
  9
$DGNFRAME
280
     0
  9
$REALWORLDSCALE
290
     1
  9
$INTERFERECOLOR
 62
     1
  9
$INTERFEREOBJVS
345
13119
  9
$INTERFEREVPVS
346
13116
  9
$CSHADOW
280
     0
  9
$SHADOWPLANELOCATION
 40
0.0
  0
ENDSEC
  0
SECTION
  2
CLASSES
  0
CLASS
  1
DICTIONARYVAR
  2
AcDbDictionaryVar
  3
ObjectDBX Classes
 90
        0
 91
        3
280
     0
281
     0
  0
CLASS
  1
ACDBDICTIONARYWDFLT
  2
AcDbDictionaryWithDefault
  3
ObjectDBX Classes
 90
        0
 91
        1
280
     0
281
     0
  0
CLASS
  1
MATERIAL
  2
AcDbMaterial
  3
ObjectDBX Classes
 90
     1024
 91
        3
280
     0
281
     0
  0
CLASS
  1
VISUALSTYLE
  2
AcDbVisualStyle
  3
ObjectDBX Classes
 90
     4095
 91
       16
280
     0
281
     0
  0
CLASS
  1
TABLESTYLE
  2
AcDbTableStyle
  3
ObjectDBX Classes
 90
     4095
 91
        1
280
     0
281
     0
  0
CLASS
  1
SORTENTSTABLE
  2
AcDbSortentsTable
  3
ObjectDBX Classes
 90
        0
 91
        1
280
     0
281
     0
  0
ENDSEC
  0
SECTION
  2
TABLES
  0
TABLE
  2
VPORT
  5
8
102
{ACAD_XDICTIONARY
360
132F9
102
}
330
0
100
AcDbSymbolTable
 70
     1
  0
VPORT
  5
13109
330
8
100
AcDbSymbolTableRecord
100
AcDbViewportTableRecord
  2
*Active
 70
     0
 10
0.0
 20
0.0
 11
1.0
 21
1.0
 12
174.0254115188349
 22
215.2814932396812
 13
0.0
 23
0.0
 14
1.0
 24
1.0
 15
0.25
 25
0.25
 16
0.0
 26
0.0
 36
1.0
 17
0.0
 27
0.0
 37
0.0
 40
239.0318429385951
 41
1.544516129032257
 42
50.0
 43
0.0
 44
0.0
 50
0.0
 51
0.0
 71
     0
 72
   100
 73
     1
 74
     0
 75
     0
 76
     0
 77
     0
 78
     0
281
     0
 65
     1
110
0.0
120
0.0
130
0.0
111
1.0
121
0.0
131
0.0
112
0.0
122
1.0
132
0.0
 79
     0
146
0.0
348
13115
 60
     3
 61
     5
292
     1
282
     1
141
0.0
142
0.0
 63
   250
421
  3355443
  0
ENDTAB
  0
TABLE
  2
LTYPE
  5
5
330
0
100
AcDbSymbolTable
 70
     6
  0
LTYPE
  5
11
330
5
100
AcDbSymbolTableRecord
100
AcDbLinetypeTableRecord
  2
BYBLOCK
 70
     0
  3

 72
    65
 73
     0
 40
0.0
  0
LTYPE
  5
12
330
5
100
AcDbSymbolTableRecord
100
AcDbLinetypeTableRecord
  2
BYLAYER
 70
     0
  3

 72
    65
 73
     0
 40
0.0
  0
LTYPE
  5
13
330
5
100
AcDbSymbolTableRecord
100
AcDbLinetypeTableRecord
  2
CONTINUOUS
 70
     0
  3
Solid line
 72
    65
 73
     0
 40
0.0
  0
LTYPE
  5
3A
330
5
100
AcDbSymbolTableRecord
100
AcDbLinetypeTableRecord
  2
HIDDEN
 70
     0
  3
__ __ __ __ __ __ __ __ __ __ __ __ __ __ __ __
 72
    65
 73
     2
 40
0.375
 49
0.25
 74
     0
 49
-0.125
 74
     0
  0
ENDTAB
  0
TABLE
  2
LAYER
  5
2
102
{ACAD_XDICTIONARY
360
13128
102
}
330
0
100
AcDbSymbolTable
 70
    33
  0
LAYER
  5
E
330
2
100
AcDbSymbolTableRecord
100
AcDbLayerTableRecord
  2
0
 70
     0
 62
     7
  6
CONTINUOUS
370
    -3
390
B579
347
1310E
  0
LAYER
  5
41
330
2
100
AcDbSymbolTableRecord
100
AcDbLayerTableRecord
  2
BDR
 70
     0
 62
     7
  6
CONTINUOUS
370
    -3
390
B579
347
1310E
  0
LAYER
  5
43
330
2
100
AcDbSymbolTableRecord
100
AcDbLayerTableRecord
  2
5
 70
     0
 62
     7
  6
CONTINUOUS
370
    -3
390
B579
347
1310E
  0
LAYER
  5
44
330
2
100
AcDbSymbolTableRecord
100
AcDbLayerTableRecord
  2
AME_FRZ
 70
     0
 62
     7
  6
CONTINUOUS
370
    -3
390
B579
347
1310E
  0
LAYER
  5
45
330
2
100
AcDbSymbolTableRecord
100
AcDbLayerTableRecord
  2
ASHADE
 70
     0
 62
     7
  6
CONTINUOUS
370
    -3
390
B579
347
1310E
  0
LAYER
  5
B91F
330
2
100
AcDbSymbolTableRecord
100
AcDbLayerTableRecord
  2
HATCH
 70
     0
 62
     4
  6
CONTINUOUS
370
    -3
390
B579
347
1310E
  0
LAYER
  5
F047
330
2
100
AcDbSymbolTableRecord
100
AcDbLayerTableRecord
  2
Defpoints
 70
     0
 62
     7
  6
CONTINUOUS
290
     0
370
    -3
390
B579
347
1310E
  0
LAYER
  5
F086
330
2
100
AcDbSymbolTableRecord
100
AcDbLayerTableRecord
  2
SECTION JOINTS
 70
     0
 62
     7
  6
CONTINUOUS
370
    25
390
B579
347
1310E
  0
LAYER
  5
111E5
330
2
100
AcDbSymbolTableRecord
100
AcDbLayerTableRecord
  2
TEXT
 70
     0
 62
     7
  6
CONTINUOUS
370
    25
390
B579
347
1310E
  0
LAYER
  5
111E7
330
2
100
AcDbSymbolTableRecord
100
AcDbLayerTableRecord
  2
6
 70
     0
 62
     7
  6
CONTINUOUS
370
    -3
390
B579
347
1310E
  0
LAYER
  5
117C7
330
2
100
AcDbSymbolTableRecord
100
AcDbLayerTableRecord
  2
FRAMING
 70
     0
 62
     7
  6
CONTINUOUS
370
    25
390
B579
347
1310E
  0
LAYER
  5
11C8D
330
2
100
AcDbSymbolTableRecord
100
AcDbLayerTableRecord
  2
HIDDEN
 70
     0
 62
     2
  6
HIDDEN
370
    -3
390
B579
347
1310E
  0
ENDTAB
  0
TABLE
  2
STYLE
  5
3
330
0
100
AcDbSymbolTable
 70
     5
  0
STYLE
  5
F
330
3
100
AcDbSymbolTableRecord
100
AcDbTextStyleTableRecord
  2
STANDARD
 70
     0
 40
0.0
 41
1.0
 50
0.0
 71
     0
 42
2.0
  3
TIMES.TTF
  4

1001
ACAD
1000
Times New Roman
1071
       18
  0
STYLE
  5
1D21
330
3
100
AcDbSymbolTableRecord
100
AcDbTextStyleTableRecord
  2
SIMPLEX
 70
     0
 40
0.1
 41
0.6
 50
0.0
 71
     0
 42
0.1
  3
SIMPLEX.shx
  4

  0
STYLE
  5
10B94
330
3
100
AcDbSymbolTableRecord
100
AcDbTextStyleTableRecord
  2
WEB PAGE
 70
     0
 40
0.0
 41
1.0
 50
0.0
 71
     0
 42
2.0
  3
TIMES.TTF
  4

1001
ACAD
1000
Times New Roman
1071
       18
  0
ENDTAB
  0
TABLE
  2
VIEW
  5
6
330
0
100
AcDbSymbolTable
 70
     1
  0
ENDTAB
  0
TABLE
  2
UCS
  5
7
330
0
100
AcDbSymbolTable
 70
     0
  0
ENDTAB
  0
TABLE
  2
APPID
  5
9
330
0
100
AcDbSymbolTable
 70
     8
  0
APPID
  5
10
330
9
100
AcDbSymbolTableRecord
100
AcDbRegAppTableRecord
  2
ACAD
 70
     0
  0
APPID
  5
3F
330
9
100
AcDbSymbolTableRecord
100
AcDbRegAppTableRecord
  2
AME_SOL
 70
     0
  0
APPID
  5
40
330
9
100
AcDbSymbolTableRecord
100
AcDbRegAppTableRecord
  2
AVE_RENDER
 70
     0
  0
APPID
  5
71A7
330
9
100
AcDbSymbolTableRecord
100
AcDbRegAppTableRecord
  2
AVE_ENTITY_MATERIAL
 70
     0
  0
APPID
  5
71A8
330
9
100
AcDbSymbolTableRecord
100
AcDbRegAppTableRecord
  2
AVE_FINISH
 70
     0
  0
APPID
  5
71A9
330
9
100
AcDbSymbolTableRecord
100
AcDbRegAppTableRecord
  2
AVE_MATERIAL
 70
     0
  0
APPID
  5
71AA
330
9
100
AcDbSymbolTableRecord
100
AcDbRegAppTableRecord
  2
AVE_GLOBAL
 70
     0
  0
APPID
  5
13127
330
9
100
AcDbSymbolTableRecord
100
AcDbRegAppTableRecord
  2
ACAD_PSEXT
 70
     0
  0
ENDTAB
  0
TABLE
  2
DIMSTYLE
  5
A
330
0
100
AcDbSymbolTable
 70
     2
100
AcDbDimStyleTable
 71
     1
340
190D
  0
DIMSTYLE
105
190D
102
{ACAD_REACTORS
330
11CDE
330
11CDF
330
11CE0
330
11CE1
330
11CFE
330
11CFD
330
11D00
330
11D01
330
11D1F
330
11EA8
330
1205D
102
}
330
A
100
AcDbSymbolTableRecord
100
AcDbDimStyleTableRecord
  2
STANDARD
 70
     0
 41
3.0
 42
2.0
 43
1.0
 44
1.0
140
1.75
141
1.0
147
1.0
276
     2
277
     4
340
10B94
  0
ENDTAB
  0
TABLE
  2
BLOCK_RECORD
  5
1
330
0
100
AcDbSymbolTable
 70
    84
  0
BLOCK_RECORD
  5
17
330
1
100
AcDbSymbolTableRecord
100
AcDbBlockTableRecord
  2
*MODEL_SPACE
340
B57C
 70
     0
280
     1
281
     0
  0
BLOCK_RECORD
  5
14
330
1
100
AcDbSymbolTableRecord
100
AcDbBlockTableRecord
  2
*PAPER_SPACE
340
B57D
 70
     0
280
     1
281
     0
  0
BLOCK_RECORD
  5
20
330
1
100
AcDbSymbolTableRecord
100
AcDbBlockTableRecord
  2
AME_NIL
340
0
102
{BLKREFS
331
3374
331
3E3C
102
}
 70
     0
280
     1
281
     0
  0
BLOCK_RECORD
  5
21
330
1
100
AcDbSymbolTableRecord
100
AcDbBlockTableRecord
  2
AME_SOL
340
0
102
{BLKREFS
331
3375
331
3E3D
102
}
 70
     0
280
     1
281
     0
  0
BLOCK_RECORD
  5
22
330
1
100
AcDbSymbolTableRecord
100
AcDbBlockTableRecord
  2
AVE_RENDER
340
0
102
{BLKREFS
331
3376
331
3377
331
3378
331
3E3E
331
3E3F
331
3E40
102
}
 70
     0
280
     1
281
     0
  0
BLOCK_RECORD
  5
11B53
330
1
100
AcDbSymbolTableRecord
100
AcDbBlockTableRecord
  2
J-4
340
0
102
{BLKREFS
331
11BC9
102
}
 70
     0
280
     1
281
     0
  0
BLOCK_RECORD
  5
11B62
330
1
100
AcDbSymbolTableRecord
100
AcDbBlockTableRecord
  2
J-5
340
0
102
{BLKREFS
331
11BF7
102
}
 70
     0
280
     1
281
     0
  0
BLOCK_RECORD
  5
11B72
330
1
100
AcDbSymbolTableRecord
100
AcDbBlockTableRecord
  2
19-vert-angle
340
0
102
{BLKREFS
331
11D02
102
}
 70
     0
280
     1
281
     0
  0
BLOCK_RECORD
  5
11BA6
330
1
100
AcDbSymbolTableRecord
100
AcDbBlockTableRecord
  2
J-3
340
0
102
{BLKREFS
331
11BCA
102
}
 70
     0
280
     1
281
     0
  0
BLOCK_RECORD
  5
11BB5
330
1
100
AcDbSymbolTableRecord
100
AcDbBlockTableRecord
  2
J-1
340
0
102
{BLKREFS
331
11BC8
102
}
 70
     0
280
     1
281
     0
  0
BLOCK_RECORD
  5
11BC4
330
1
100
AcDbSymbolTableRecord
100
AcDbBlockTableRecord
  2
112VPT
340
0
310
28000000200000002000000001000800000000000004000000000000000000000000000000000000000000004000000080000000FF000000002000004020000080200000FF200000004000004040000080400000FF400000006000004060000080600000FF600000008000004080000080800000FF80000000A0000040A000
310
0080A00000FFA0000000C0000040C0000080C00000FFC0000000FF000040FF000080FF0000FFFF0000000020004000200080002000FF002000002020004020200080202000FF202000004020004040200080402000FF402000006020004060200080602000FF602000008020004080200080802000FF80200000A0200040A0
310
200080A02000FFA0200000C0200040C0200080C02000FFC0200000FF200040FF200080FF2000FFFF2000000040004000400080004000FF004000002040004020400080204000FF204000004040004040400080404000FF404000006040004060400080604000FF604000008040004080400080804000FF80400000A0400040
310
A0400080A04000FFA0400000C0400040C0400080C04000FFC0400000FF400040FF400080FF4000FFFF4000000060004000600080006000FF006000002060004020600080206000FF206000004060004040600080406000FF406000006060004060600080606000FF606000008060004080600080806000FF80600000A06000
310
40A0600080A06000FFA0600000C0600040C0600080C06000FFC0600000FF600040FF600080FF6000FFFF6000000080004000800080008000FF008000002080004020800080208000FF208000004080004040800080408000FF408000006080004060800080608000FF608000008080004080800080808000FF80800000A080
310
0040A0800080A08000FFA0800000C0800040C0800080C08000FFC0800000FF800040FF800080FF8000FFFF80000000A0004000A0008000A000FF00A0000020A0004020A0008020A000FF20A0000040A0004040A0008040A000FF40A0000060A0004060A0008060A000FF60A0000080A0004080A0008080A000FF80A00000A0
310
A00040A0A00080A0A000FFA0A00000C0A00040C0A00080C0A000FFC0A00000FFA00040FFA00080FFA000FFFFA0000000C0004000C0008000C000FF00C0000020C0004020C0008020C000FF20C0000040C0004040C0008040C000FF40C0000060C0004060C0008060C000FF60C0000080C0004080C0008080C000FF80C00000
310
A0C00040A0C00080A0C000FFA0C00000C0C00040C0C00080C0C000FFC0C00000FFC00040FFC00080FFC000FFFFC0000000FF004000FF008000FF00FF00FF000020FF004020FF008020FF00FF20FF000040FF004040FF008040FF00FF40FF000060FF004060FF008060FF00FF60FF000080FF004080FF008080FF00FF80FF00
310
00A0FF0040A0FF0080A0FF00FFA0FF0000C0FF0040C0FF0080C0FF00FFC0FF0000FFFF0040FFFF0080FFFF00FFFFFF00FFFFFFFFFFFFFFFFFFFFFFFFFFFFFFFFFFFFFFFFFFFFFFFFFFFFFFFFFFFFFFFFFFFFFFFFFFFFFFFFFFFFFFFFFFFFFF0000FFFFFFFFFFFFFFFFFFFFFFFFFFFFFFFFFFFFFFFFFFFFFFFFFFFFFFFFFFFF
310
0000FFFFFFFFFFFFFFFFFFFFFFFFFFFFFFFFFFFFFFFFFFFFFFFFFFFFFFFFFFFF0000FFFFFFFFFFFFFFFFFFFFFFFFFFFFFFFFFFFFFFFFFFFFFFFFFFFFFFFFFFFF000FFFFFFFFFFFFFFFFFFFFFFFFFFFFFFFFFFFFFFFFFFFFFFFFFFFFFFFFFFFFF0000FFFFFFFFFFFFFFFFFFFFFFFFFFFFFFFFFFFFFFFFFFFFFFFFFFFFFFFFFF
310
FF0000FFFFFFFFFFFFFFFFFFFFFFFFFFFFFFFFFFFFFFFFFFFFFFFFFFFFFFFFFFFF0000FFFFFFFFFFFFFFFFFFFFFFFFFFFFFFFFFFFFFFFFFFFFFFFFFFFFFFFFFFFF0000FFFFFFFFFFFFFFFFFFFFFFFFFFFFFFFFFFFFFFFFFFFFFFFFFFFFFFFFFFFF0000FFFFFFFFFFFFFFFFFFFFFFFFFFFFFFFFFFFFFFFFFFFFFFFFFFFFFFFF
310
FFFF0000FFFFFFFFFFFFFFFFFFFFFFFFFFFFFFFFFFFFFFFFFFFFFFFFFFFFFFFFFFFF0000FFFFFFFFFFFFFFFFFFFFFFFFFFFFFFFFFFFFFFFFFFFFFFFFFFFFFFFFFFFF0000FFFFFFFFFFFFFFFFFFFFFFFFFFFFFFFFFFFFFFFFFFFFFFFFFFFFFFFFFFFF0000FFFFFFFFFFFFFFFFFFFFFFFFFFFFFFFFFFFFFFFFFFFFFFFFFFFFFF
310
FFFFFF0000FFFFFFFFFFFFFFFFFFFFFFFFFFFFFFFFFFFFFFFFFFFFFFFFFFFFFFFFFFFF0000FFFFFFFFFFFFFFFFFFFFFFFFFFFFFFFFFFFFFFFFFFFFFFFFFFFFFFFFFFFF0F00FFFFFFFFFFFFFFFFFFFFFFFFFFFFFFFFFFFFFFFFFFFFFFFFFFFFFFFFFFFFFF00FFFFFFFFFFFFFFFFFFFFFFFFFFFFFFFFFFFFFFFFFFFFFFFFFFFF
310
FFFFFFFFFF00FFFFFFFFFFFFFFFFFFFFFFFFFFFFFFFFFFFFFFFFFFFFFFFFFFFFFFFFFFFFFF00FFFFFFFFFFFFFFFFFFFFFFFFFFFFFFFFFFFFFFFFFFFFFFFFFFFFFFFFFFFFFF00FFFFFFFFFFFFFFFFFFFFFFFFFFFFFFFFFFFFFFFFFFFFFFFFFFFFFFFFFFFFFF00FFFFFFFFFFFFFFFFFFFFFFFFFFFFFFFFFFFFFFFFFFFFFFFFFF
310
FFFFFFFFFF0F00FFFFFFFFFFFFFFFFFFFFFFFFFFFFFFFFFFFFFFFFFFFFFFFFFFFFFFFFFFFFFF00FFFFFFFFFFFFFFFFFFFFFFFFFFFFFFFFFFFFFFFFFFFFFFFFFFFFFFFFFFFFFF00FFFFFFFFFFFFFFFFFFFFFFFFFFFFFFFFFFFFFFFFFFFFFFFFFFFFFFFFFFFFFF00FFFFFFFFFFFFFFFFFFFFFFFFFFFFFFFFFFFFFFFFFFFFFFFF
310
FFFFFFFFFFFFFF00FFFFFFFFFFFFFFFFFFFFFFFFFFFFFFFFFFFFFFFFFFFFFFFFFFFFFFFFFFFFFF00FFFFFFFFFFFFFFFFFFFFFFFFFFFFFFFFFFFFFFFFFFFFFFFFFFFFFFFFFFFFFF00FFFFFFFFFFFFFFFFFFFFFFFFFFFFFFFFFFFFFFFFFFFFFFFFFFFFFFFFFFFFFF00FFFFFFFFFFFFFFFFFFFFFFFFFFFFFFFFFFFFFFFFFFFFFF
310
FFFFFFFFFFFFFFFF00FFFFFFFFFFFFFFFFFFFFFFFFFFFFFFFFFFFFFFFFFFFFFFFFFFFFFFFFFFFFFFFFFFFFFFFFFFFFFFFFFFFFFFFFFFFFFF
102
{BLKREFS
331
11C05
102
}
 70
     1
280
     1
281
     0
  0
BLOCK_RECORD
  5
11C04
330
1
100
AcDbSymbolTableRecord
100
AcDbBlockTableRecord
  2
A$C6F454818
340
0
102
{BLKREFS
331
11CE4
102
}
 70
     0
280
     1
281
     0
  0
BLOCK_RECORD
  5
11C08
330
1
100
AcDbSymbolTableRecord
100
AcDbBlockTableRecord
  2
SP-8-34
340
0
102
{BLKREFS
331
11D03
102
}
 70
     0
280
     1
281
     0
  0
BLOCK_RECORD
  5
11D2A
330
1
100
AcDbSymbolTableRecord
100
AcDbBlockTableRecord
  2
*D64
340
0
 70
     0
280
     1
281
     0
  0
BLOCK_RECORD
  5
11D37
330
1
100
AcDbSymbolTableRecord
100
AcDbBlockTableRecord
  2
*D65
340
0
 70
     0
280
     1
281
     0
  0
BLOCK_RECORD
  5
11D44
330
1
100
AcDbSymbolTableRecord
100
AcDbBlockTableRecord
  2
*D66
340
0
 70
     0
280
     1
281
     0
  0
BLOCK_RECORD
  5
11D51
330
1
100
AcDbSymbolTableRecord
100
AcDbBlockTableRecord
  2
*D67
340
0
 70
     0
280
     1
281
     0
  0
BLOCK_RECORD
  5
11D5E
330
1
100
AcDbSymbolTableRecord
100
AcDbBlockTableRecord
  2
*D68
340
0
 70
     0
280
     1
281
     0
  0
BLOCK_RECORD
  5
11E49
330
1
100
AcDbSymbolTableRecord
100
AcDbBlockTableRecord
  2
WD-9-3-38
340
0
102
{BLKREFS
331
11E5B
102
}
 70
     1
280
     1
281
     0
  0
BLOCK_RECORD
  5
11EA9
330
1
100
AcDbSymbolTableRecord
100
AcDbBlockTableRecord
  2
*D71
340
0
 70
     0
280
     1
281
     0
  0
BLOCK_RECORD
  5
12034
330
1
100
AcDbSymbolTableRecord
100
AcDbBlockTableRecord
  2
A$C2D8E259A
340
0
102
{BLKREFS
331
12045
102
}
 70
     0
280
     1
281
     0
  0
BLOCK_RECORD
  5
1205E
330
1
100
AcDbSymbolTableRecord
100
AcDbBlockTableRecord
  2
*D73
340
0
 70
     0
280
     1
281
     0
  0
BLOCK_RECORD
  5
1213E
330
1
100
AcDbSymbolTableRecord
100
AcDbBlockTableRecord
  2
A$C3C365376
340
0
102
{BLKREFS
331
1215E
102
}
 70
     0
280
     1
281
     0
  0
BLOCK_RECORD
  5
12254
330
1
100
AcDbSymbolTableRecord
100
AcDbBlockTableRecord
  2
A$C73DC2C6A
340
0
102
{BLKREFS
331
12261
102
}
 70
     0
280
     1
281
     0
  0
BLOCK_RECORD
  5
12307
330
1
100
AcDbSymbolTableRecord
100
AcDbBlockTableRecord
  2
A$C3F914E2A
340
0
102
{BLKREFS
331
12337
102
}
 70
     0
280
     1
281
     0
  0
ENDTAB
  0
ENDSEC
  0
SECTION
  2
BLOCKS
  0
BLOCK
  5
57
330
17
100
AcDbEntity
  8
0
100
AcDbBlockBegin
  2
*MODEL_SPACE
 70
     0
 10
0.0
 20
0.0
 30
0.0
  3
*MODEL_SPACE
  1

  0
ENDBLK
  5
58
330
17
100
AcDbEntity
  8
0
100
AcDbBlockEnd
  0
BLOCK
  5
55
330
14
100
AcDbEntity
 67
     1
  8
0
100
AcDbBlockBegin
  2
*PAPER_SPACE
 70
     0
 10
0.0
 20
0.0
 30
0.0
  3
*PAPER_SPACE
  1

  0
ENDBLK
  5
56
330
14
100
AcDbEntity
 67
     1
  8
0
100
AcDbBlockEnd
  0
BLOCK
  5
91E
330
20
100
AcDbEntity
  8
0
100
AcDbBlockBegin
  2
AME_NIL
 70
     0
 10
0.0
 20
0.0
 30
0.0
  3
AME_NIL
  1
AME_NIL
  0
ENDBLK
  5
91F
330
20
100
AcDbEntity
  8
0
100
AcDbBlockEnd
  0
BLOCK
  5
920
330
21
100
AcDbEntity
  8
0
100
AcDbBlockBegin
  2
AME_SOL
 70
     0
 10
0.0
 20
0.0
 30
0.0
  3
AME_SOL
  1
AME_SOL
  0
ENDBLK
  5
921
330
21
100
AcDbEntity
  8
0
100
AcDbBlockEnd
  0
BLOCK
  5
922
330
22
100
AcDbEntity
  8
0
100
AcDbBlockBegin
  2
AVE_RENDER
 70
     0
 10
0.0
 20
0.0
 30
0.0
  3
AVE_RENDER
  1
AVE_RENDER
  0
ENDBLK
  5
923
330
22
100
AcDbEntity
  8
0
100
AcDbBlockEnd
  0
BLOCK
  5
11B60
330
11B53
100
AcDbEntity
  8
0
100
AcDbBlockBegin
  2
J-4
 70
     0
 10
0.0
 20
0.0
 30
0.0
  3
J-4
  1

  0
LINE
  5
11B54
330
11B53
100
AcDbEntity
  8
6
100
AcDbLine
 10
2.875000000000003
 20
-1.125
 30
0.0
 11
0.0
 21
-1.125
 31
0.0
  0
LINE
  5
11B55
330
11B53
100
AcDbEntity
  8
6
100
AcDbLine
 10
0.0
 20
1.125
 30
0.0
 11
2.875000000000003
 21
1.125
 31
0.0
  0
TEXT
  5
11B56
330
11B53
100
AcDbEntity
  8
6
 62
    10
100
AcDbText
 10
0.8331828303452972
 20
-0.8025466262900238
 30
0.0
 40
0.4
  1
J-4
100
AcDbText
  0
LINE
  5
11B57
330
11B53
100
AcDbEntity
  8
6
100
AcDbLine
 10
0.1000000000000014
 20
-1.125
 30
0.0
 11
0.1000000000000014
 21
1.125
 31
0.0
  0
LINE
  5
11B58
330
11B53
100
AcDbEntity
  8
6
100
AcDbLine
 10
0.0
 20
-1.125
 30
0.0
 11
0.0
 21
1.125
 31
0.0
  0
LINE
  5
11B59
330
11B53
100
AcDbEntity
  8
6
100
AcDbLine
 10
2.875
 20
-1.125
 30
0.0
 11
2.875
 21
1.125
 31
0.0
  0
CIRCLE
  5
11B5A
330
11B53
100
AcDbEntity
  8
6
100
AcDbCircle
 10
2.500000000000003
 20
-0.75
 30
0.0
 40
0.1325
  0
ARC
  5
11B5B
330
11B53
100
AcDbEntity
  8
6
100
AcDbCircle
 10
2.585900000000002
 20
0.0000000000000036
 30
0.0
 40
0.1327999999999977
100
AcDbArc
 50
270.0
 51
90.0
  0
CIRCLE
  5
11B5C
330
11B53
100
AcDbEntity
  8
6
100
AcDbCircle
 10
2.500000000000003
 20
0.75
 30
0.0
 40
0.1325
  0
ARC
  5
11B5D
330
11B53
100
AcDbEntity
  8
6
100
AcDbCircle
 10
1.226500000000001
 20
0.0000000000000036
 30
0.0
 40
0.1327999999999977
100
AcDbArc
 50
90.0
 51
270.0
  0
LINE
  5
11B5E
330
11B53
100
AcDbEntity
  8
6
100
AcDbLine
 10
1.226500000000001
 20
-0.1327999999999996
 30
0.0
 11
2.585900000000002
 21
-0.1327999999999996
 31
0.0
  0
LINE
  5
11B5F
330
11B53
100
AcDbEntity
  8
6
100
AcDbLine
 10
1.226500000000001
 20
0.1327999999999996
 30
0.0
 11
2.585900000000002
 21
0.1327999999999996
 31
0.0
  0
ENDBLK
  5
11B61
330
11B53
100
AcDbEntity
  8
0
100
AcDbBlockEnd
  0
BLOCK
  5
11B70
330
11B62
100
AcDbEntity
  8
0
100
AcDbBlockBegin
  2
J-5
 70
     0
 10
0.0
 20
0.0
 30
0.0
  3
J-5
  1

  0
LINE
  5
11B63
330
11B62
100
AcDbEntity
  8
6
100
AcDbLine
 10
0.1000000000000014
 20
-1.125
 30
0.0
 11
0.1000000000000014
 21
1.125
 31
0.0
  0
LINE
  5
11B64
330
11B62
100
AcDbEntity
  8
6
100
AcDbLine
 10
0.0
 20
-1.125
 30
0.0
 11
0.0
 21
1.125
 31
0.0
  0
CIRCLE
  5
11B65
330
11B62
100
AcDbEntity
  8
6
100
AcDbCircle
 10
2.75
 20
0.75
 30
0.0
 40
0.1325
  0
LINE
  5
11B66
330
11B62
100
AcDbEntity
  8
6
100
AcDbLine
 10
3.125
 20
-1.125
 30
0.0
 11
3.125
 21
1.125
 31
0.0
  0
LINE
  5
11B67
330
11B62
100
AcDbEntity
  8
6
100
AcDbLine
 10
3.125
 20
-1.125
 30
0.0
 11
3.125
 21
1.125
 31
0.0
  0
LINE
  5
11B68
330
11B62
100
AcDbEntity
  8
6
100
AcDbLine
 10
1.476499999999994
 20
0.1327999999999996
 30
0.0
 11
2.835899999999995
 21
0.1327999999999996
 31
0.0
  0
LINE
  5
11B69
330
11B62
100
AcDbEntity
  8
6
100
AcDbLine
 10
1.476499999999994
 20
-0.1327999999999996
 30
0.0
 11
2.835899999999995
 21
-0.1327999999999996
 31
0.0
  0
LINE
  5
11B6A
330
11B62
100
AcDbEntity
  8
6
100
AcDbLine
 10
3.125
 20
-1.125
 30
0.0
 11
0.0
 21
-1.125
 31
0.0
  0
TEXT
  5
11B6B
330
11B62
100
AcDbEntity
  8
6
 62
    10
100
AcDbText
 10
0.7596062631773393
 20
-0.8551374061173966
 30
0.0
 40
0.4
  1
J-5
100
AcDbText
  0
ARC
  5
11B6C
330
11B62
100
AcDbEntity
  8
6
100
AcDbCircle
 10
1.476499999999994
 20
0.0000000000000036
 30
0.0
 40
0.1327999999999977
100
AcDbArc
 50
90.0
 51
270.0
  0
CIRCLE
  5
11B6D
330
11B62
100
AcDbEntity
  8
6
100
AcDbCircle
 10
2.75
 20
-0.75
 30
0.0
 40
0.1325
  0
ARC
  5
11B6E
330
11B62
100
AcDbEntity
  8
6
100
AcDbCircle
 10
2.835899999999995
 20
0.0000000000000036
 30
0.0
 40
0.1327999999999977
100
AcDbArc
 50
270.0
 51
90.0
  0
LINE
  5
11B6F
330
11B62
100
AcDbEntity
  8
6
100
AcDbLine
 10
0.0
 20
1.125
 30
0.0
 11
3.125
 21
1.125
 31
0.0
  0
ENDBLK
  5
11B71
330
11B62
100
AcDbEntity
  8
0
100
AcDbBlockEnd
  0
BLOCK
  5
11BA4
330
11B72
100
AcDbEntity
  8
0
100
AcDbBlockBegin
  2
19-vert-angle
 70
     0
 10
0.0
 20
0.0
 30
0.0
  3
19-vert-angle
  1

  0
LINE
  5
11B73
330
11B72
100
AcDbEntity
  8
5
 62
     7
100
AcDbLine
 10
-8.584845159629228
 20
1.944386559922987
 30
0.0
 11
10.06165484037078
 21
1.944386559922987
 31
0.0
  0
LINE
  5
11B74
330
11B72
100
AcDbEntity
  8
5
 62
     7
100
AcDbLine
 10
-8.584845159629228
 20
2.030886559922988
 30
0.0
 11
10.06165484037078
 21
2.030886559922988
 31
0.0
  0
LINE
  5
11B75
330
11B72
100
AcDbEntity
  8
5
 62
     7
100
AcDbLine
 10
10.06165484037078
 20
0.5208865599229871
 30
0.0
 11
-8.584845159629228
 21
0.5208865599229871
 31
0.0
  0
LINE
  5
11B76
330
11B72
100
AcDbEntity
  8
5
 62
     7
100
AcDbLine
 10
-8.584845159629228
 20
2.030886559922988
 30
0.0
 11
-8.584845159629228
 21
0.5208865599229871
 31
0.0
  0
CIRCLE
  5
11B77
330
11B72
100
AcDbEntity
  8
5
 62
     7
100
AcDbCircle
 10
-7.857345159629229
 20
0.8708865599229884
 30
0.0
 40
0.1349999999999998
  0
LINE
  5
11B78
330
11B72
100
AcDbEntity
  8
HIDDEN
 62
     7
100
AcDbLine
 10
-7.722345159629227
 20
1.944386559922987
 30
0.0
 11
-7.722345159629227
 21
2.030886559922988
 31
0.0
  0
LINE
  5
11B79
330
11B72
100
AcDbEntity
  8
HIDDEN
 62
     7
100
AcDbLine
 10
-7.992345159629227
 20
1.944386559922987
 30
0.0
 11
-7.992345159629227
 21
2.030886559922988
 31
0.0
  0
LINE
  5
11B7A
330
11B72
100
AcDbEntity
  8
5
 62
     7
100
AcDbLine
 10
-6.807345159629228
 20
1.444386559922987
 30
0.0
 11
-6.807345159629228
 21
1.037386559922991
 31
0.0
  0
LINE
  5
11B7B
330
11B72
100
AcDbEntity
  8
5
 62
     7
100
AcDbLine
 10
-7.150345159629232
 20
1.444386559922987
 30
0.0
 11
-7.150345159629232
 21
1.037386559922991
 31
0.0
  0
ARC
  5
11B7C
330
11B72
100
AcDbEntity
  8
5
 62
     7
100
AcDbCircle
 10
-6.978845159629226
 20
1.037386559922991
 30
0.0
 40
0.1715000000000028
100
AcDbArc
 50
180.0
 51
0.0
  0
CIRCLE
  5
11B7D
330
11B72
100
AcDbEntity
  8
5
 62
     7
100
AcDbCircle
 10
-6.109345159629228
 20
0.8708865599229884
 30
0.0
 40
0.1349999999999998
  0
LINE
  5
11B7E
330
11B72
100
AcDbEntity
  8
HIDDEN
 62
     7
100
AcDbLine
 10
-5.97434515962923
 20
1.944386559922987
 30
0.0
 11
-5.97434515962923
 21
2.030886559922988
 31
0.0
  0
LINE
  5
11B7F
330
11B72
100
AcDbEntity
  8
HIDDEN
 62
     7
100
AcDbLine
 10
-6.244345159629229
 20
1.944386559922987
 30
0.0
 11
-6.244345159629229
 21
2.030886559922988
 31
0.0
  0
LINE
  5
11B80
330
11B72
100
AcDbEntity
  8
HIDDEN
 62
     7
100
AcDbLine
 10
-6.807345159629228
 20
1.944386559922987
 30
0.0
 11
-6.807345159629228
 21
2.030886559922988
 31
0.0
  0
LINE
  5
11B81
330
11B72
100
AcDbEntity
  8
HIDDEN
 62
     7
100
AcDbLine
 10
-7.150345159629232
 20
1.944386559922987
 30
0.0
 11
-7.150345159629232
 21
2.030886559922988
 31
0.0
  0
ARC
  5
11B82
330
11B72
100
AcDbEntity
  8
5
 62
     7
100
AcDbCircle
 10
-6.97884515962923
 20
1.444386559922987
 30
0.0
 40
0.171500000000001
100
AcDbArc
 50
0.0
 51
180.0
  0
POINT
  5
11B83
330
11B72
100
AcDbEntity
  8
Defpoints
  6
ByBlock
 62
     7
100
AcDbPoint
 10
-7.063199282689655
 20
1.593707127570944
 30
0.0
  0
ARC
  5
11B84
330
11B72
100
AcDbEntity
  8
5
 62
     7
100
AcDbCircle
 10
6.451654840370778
 20
0.9268865599229894
 30
0.0
 40
0.1999999999999994
100
AcDbArc
 50
270.0
 51
90.0
  0
LINE
  5
11B85
330
11B72
100
AcDbEntity
  8
5
 62
     7
100
AcDbLine
 10
0.2016548403707734
 20
1.444386559922987
 30
0.0
 11
0.2016548403707752
 21
1.037386559922991
 31
0.0
  0
LINE
  5
11B86
330
11B72
100
AcDbEntity
  8
5
 62
     7
100
AcDbLine
 10
-0.1413451596292283
 20
1.444386559922987
 30
0.0
 11
-0.1413451596292283
 21
1.037386559922991
 31
0.0
  0
ARC
  5
11B87
330
11B72
100
AcDbEntity
  8
5
 62
     7
100
AcDbCircle
 10
0.0301548403707752
 20
1.037386559922991
 30
0.0
 40
0.1715000000000028
100
AcDbArc
 50
180.0
 51
0.0
  0
LINE
  5
11B88
330
11B72
100
AcDbEntity
  8
HIDDEN
 62
     7
100
AcDbLine
 10
0.2016548403707734
 20
1.944386559922987
 30
0.0
 11
0.2016548403707734
 21
2.030886559922988
 31
0.0
  0
LINE
  5
11B89
330
11B72
100
AcDbEntity
  8
HIDDEN
 62
     7
100
AcDbLine
 10
-0.1413451596292301
 20
1.944386559922987
 30
0.0
 11
-0.1413451596292301
 21
2.030886559922988
 31
0.0
  0
ARC
  5
11B8A
330
11B72
100
AcDbEntity
  8
5
 62
     7
100
AcDbCircle
 10
0.0301548403707734
 20
1.444386559922987
 30
0.0
 40
0.171500000000001
100
AcDbArc
 50
0.0
 51
180.0
  0
LINE
  5
11B8B
330
11B72
100
AcDbEntity
  8
5
 62
     7
100
AcDbLine
 10
4.161654840370776
 20
1.126886559922988
 30
0.0
 11
3.701654840370775
 21
1.126886559922988
 31
0.0
  0
LINE
  5
11B8C
330
11B72
100
AcDbEntity
  8
5
 62
     7
100
AcDbLine
 10
4.161654840370776
 20
0.7268865599229902
 30
0.0
 11
3.701654840370775
 21
0.7268865599229902
 31
0.0
  0
ARC
  5
11B8D
330
11B72
100
AcDbEntity
  8
5
 62
     7
100
AcDbCircle
 10
3.701654840370775
 20
0.9268865599229894
 30
0.0
 40
0.1999999999999994
100
AcDbArc
 50
90.0
 51
270.0
  0
POINT
  5
11B8E
330
11B72
100
AcDbEntity
  8
Defpoints
  6
ByBlock
 62
     7
100
AcDbPoint
 10
3.570072844355843
 20
1.077505875831429
 30
0.0
  0
ARC
  5
11B8F
330
11B72
100
AcDbEntity
  8
5
 62
     7
100
AcDbCircle
 10
4.161654840370776
 20
0.9268865599229894
 30
0.0
 40
0.1999999999999994
100
AcDbArc
 50
270.0
 51
90.0
  0
LINE
  5
11B90
330
11B72
100
AcDbEntity
  8
5
 62
     7
100
AcDbLine
 10
6.451654840370778
 20
1.126886559922988
 30
0.0
 11
5.066654840370777
 21
1.126886559922988
 31
0.0
  0
LINE
  5
11B91
330
11B72
100
AcDbEntity
  8
5
 62
     7
100
AcDbLine
 10
6.451654840370778
 20
0.7268865599229902
 30
0.0
 11
5.066654840370777
 21
0.7268865599229902
 31
0.0
  0
ARC
  5
11B92
330
11B72
100
AcDbEntity
  8
5
 62
     7
100
AcDbCircle
 10
5.066654840370777
 20
0.9268865599229894
 30
0.0
 40
0.1999999999999994
100
AcDbArc
 50
90.0
 51
270.0
  0
LINE
  5
11B93
330
11B72
100
AcDbEntity
  8
HIDDEN
 62
     7
100
AcDbLine
 10
4.361654840370775
 20
1.944386559922987
 30
0.0
 11
4.361654840370775
 21
2.030886559922988
 31
0.0
  0
LINE
  5
11B94
330
11B72
100
AcDbEntity
  8
HIDDEN
 62
     7
100
AcDbLine
 10
3.501654840370775
 20
1.944386559922987
 30
0.0
 11
3.501654840370775
 21
2.030886559922988
 31
0.0
  0
LINE
  5
11B95
330
11B72
100
AcDbEntity
  8
HIDDEN
 62
     7
100
AcDbLine
 10
4.866654840370777
 20
1.944386559922987
 30
0.0
 11
4.866654840370777
 21
2.030886559922988
 31
0.0
  0
LINE
  5
11B96
330
11B72
100
AcDbEntity
  8
5
 62
     7
100
AcDbLine
 10
6.915654840370777
 20
1.378386559922988
 30
0.0
 11
6.915654840370777
 21
1.101386559922987
 31
0.0
  0
LINE
  5
11B97
330
11B72
100
AcDbEntity
  8
5
 62
     7
100
AcDbLine
 10
7.25865484037078
 20
1.378386559922988
 30
0.0
 11
7.25865484037078
 21
1.101386559922987
 31
0.0
  0
LINE
  5
11B98
330
11B72
100
AcDbEntity
  8
5
 62
     7
100
AcDbLine
 10
9.474154840370779
 20
1.126886559922988
 30
0.0
 11
7.71315484037078
 21
1.126886559922988
 31
0.0
  0
LINE
  5
11B99
330
11B72
100
AcDbEntity
  8
5
 62
     7
100
AcDbLine
 10
9.474154840370779
 20
0.7268865599229902
 30
0.0
 11
7.71315484037078
 21
0.7268865599229902
 31
0.0
  0
ARC
  5
11B9A
330
11B72
100
AcDbEntity
  8
5
 62
     7
100
AcDbCircle
 10
7.087154840370782
 20
1.101386559922987
 30
0.0
 40
0.1715000000000028
100
AcDbArc
 50
180.0
 51
0.0
  0
ARC
  5
11B9B
330
11B72
100
AcDbEntity
  8
5
 62
     7
100
AcDbCircle
 10
7.71315484037078
 20
0.9268865599229894
 30
0.0
 40
0.1999999999999994
100
AcDbArc
 50
90.0
 51
270.0
  0
ARC
  5
11B9C
330
11B72
100
AcDbEntity
  8
5
 62
     7
100
AcDbCircle
 10
9.474154840370779
 20
0.9268865599229894
 30
0.0
 40
0.1999999999999994
100
AcDbArc
 50
270.0
 51
90.0
  0
LINE
  5
11B9D
330
11B72
100
AcDbEntity
  8
HIDDEN
 62
     7
100
AcDbLine
 10
7.513154840370781
 20
1.944386559922987
 30
0.0
 11
7.513154840370781
 21
2.030886559922988
 31
0.0
  0
LINE
  5
11B9E
330
11B72
100
AcDbEntity
  8
HIDDEN
 62
     7
100
AcDbLine
 10
7.25865484037078
 20
1.944386559922987
 30
0.0
 11
7.25865484037078
 21
2.030886559922988
 31
0.0
  0
LINE
  5
11B9F
330
11B72
100
AcDbEntity
  8
HIDDEN
 62
     7
100
AcDbLine
 10
6.915654840370777
 20
1.944386559922987
 30
0.0
 11
6.915654840370777
 21
2.030886559922988
 31
0.0
  0
LINE
  5
11BA0
330
11B72
100
AcDbEntity
  8
HIDDEN
 62
     7
100
AcDbLine
 10
6.651654840370778
 20
1.944386559922987
 30
0.0
 11
6.651654840370778
 21
2.030886559922988
 31
0.0
  0
ARC
  5
11BA1
330
11B72
100
AcDbEntity
  8
5
 62
     7
100
AcDbCircle
 10
7.087154840370779
 20
1.378386559922988
 30
0.0
 40
0.171500000000001
100
AcDbArc
 50
0.0
 51
180.0
  0
LINE
  5
11BA2
330
11B72
100
AcDbEntity
  8
HIDDEN
 62
     7
100
AcDbLine
 10
9.674154840370778
 20
1.944386559922987
 30
0.0
 11
9.674154840370778
 21
2.030886559922988
 31
0.0
  0
LINE
  5
11BA3
330
11B72
100
AcDbEntity
  8
5
 62
     7
100
AcDbLine
 10
10.06165484037078
 20
2.030886559922988
 30
0.0
 11
10.06165484037078
 21
0.5208865599229871
 31
0.0
  0
ENDBLK
  5
11BA5
330
11B72
100
AcDbEntity
  8
0
100
AcDbBlockEnd
  0
BLOCK
  5
11BB3
330
11BA6
100
AcDbEntity
  8
0
100
AcDbBlockBegin
  2
J-3
 70
     0
 10
0.0
 20
0.0
 30
0.0
  3
J-3
  1

  0
LINE
  5
11BA7
330
11BA6
100
AcDbEntity
  8
6
100
AcDbLine
 10
2.625
 20
-1.124999999999999
 30
0.0
 11
2.625
 21
1.125
 31
0.0
  0
CIRCLE
  5
11BA8
330
11BA6
100
AcDbEntity
  8
6
100
AcDbCircle
 10
2.25
 20
-0.7499999999999992
 30
0.0
 40
0.1325
  0
LINE
  5
11BA9
330
11BA6
100
AcDbEntity
  8
6
100
AcDbLine
 10
0.0
 20
-1.124999999999999
 30
0.0
 11
0.0
 21
1.125
 31
0.0
  0
LINE
  5
11BAA
330
11BA6
100
AcDbEntity
  8
6
100
AcDbLine
 10
0.1000000000000014
 20
-1.124999999999999
 30
0.0
 11
0.1000000000000014
 21
1.125
 31
0.0
  0
LINE
  5
11BAB
330
11BA6
100
AcDbEntity
  8
6
100
AcDbLine
 10
2.625
 20
-1.124999999999999
 30
0.0
 11
0.0
 21
-1.124999999999999
 31
0.0
  0
TEXT
  5
11BAC
330
11BA6
100
AcDbEntity
  8
6
 62
    10
100
AcDbText
 10
0.5831828303452938
 20
-0.8025466262900247
 30
0.0
 40
0.4
  1
J-3
100
AcDbText
  0
LINE
  5
11BAD
330
11BA6
100
AcDbEntity
  8
6
100
AcDbLine
 10
0.9764999999999979
 20
-0.1327999999999987
 30
0.0
 11
2.335899999999998
 21
-0.1327999999999987
 31
0.0
  0
LINE
  5
11BAE
330
11BA6
100
AcDbEntity
  8
6
100
AcDbLine
 10
0.9764999999999979
 20
0.1328000000000005
 30
0.0
 11
2.335899999999998
 21
0.1328000000000005
 31
0.0
  0
LINE
  5
11BAF
330
11BA6
100
AcDbEntity
  8
6
100
AcDbLine
 10
0.0
 20
1.125
 30
0.0
 11
2.625
 21
1.125
 31
0.0
  0
ARC
  5
11BB0
330
11BA6
100
AcDbEntity
  8
6
100
AcDbCircle
 10
0.9764999999999979
 20
0.0000000000000027
 30
0.0
 40
0.1327999999999977
100
AcDbArc
 50
90.0
 51
270.0
  0
ARC
  5
11BB1
330
11BA6
100
AcDbEntity
  8
6
100
AcDbCircle
 10
2.335899999999998
 20
0.0000000000000027
 30
0.0
 40
0.1327999999999977
100
AcDbArc
 50
270.0
 51
90.0
  0
CIRCLE
  5
11BB2
330
11BA6
100
AcDbEntity
  8
6
100
AcDbCircle
 10
2.25
 20
0.7500000000000009
 30
0.0
 40
0.1325
  0
ENDBLK
  5
11BB4
330
11BA6
100
AcDbEntity
  8
0
100
AcDbBlockEnd
  0
BLOCK
  5
11BC2
330
11BB5
100
AcDbEntity
  8
0
100
AcDbBlockBegin
  2
J-1
 70
     0
 10
0.0
 20
0.0
 30
0.0
  3
J-1
  1

  0
CIRCLE
  5
11BB6
330
11BB5
100
AcDbEntity
  8
6
100
AcDbCircle
 10
1.875
 20
0.75
 30
0.0
 40
0.1325
  0
LINE
  5
11BB7
330
11BB5
100
AcDbEntity
  8
6
100
AcDbLine
 10
2.25
 20
-1.125
 30
0.0
 11
2.25
 21
1.125
 31
0.0
  0
LINE
  5
11BB8
330
11BB5
100
AcDbEntity
  8
6
100
AcDbLine
 10
0.1000000000000014
 20
-1.125
 30
0.0
 11
0.1000000000000014
 21
1.125
 31
0.0
  0
LINE
  5
11BB9
330
11BB5
100
AcDbEntity
  8
6
100
AcDbLine
 10
0.0
 20
-1.125
 30
0.0
 11
0.0
 21
1.125
 31
0.0
  0
ARC
  5
11BBA
330
11BB5
100
AcDbEntity
  8
6
100
AcDbCircle
 10
0.601499999999998
 20
0.0
 30
0.0
 40
0.1327999999999977
100
AcDbArc
 50
90.0
 51
270.0
  0
TEXT
  5
11BBB
330
11BB5
100
AcDbEntity
  8
6
 62
    10
100
AcDbText
 10
0.4590441626977722
 20
-0.8654942851065055
 30
0.0
 40
0.4
  1
J-1
100
AcDbText
  0
LINE
  5
11BBC
330
11BB5
100
AcDbEntity
  8
6
100
AcDbLine
 10
2.25
 20
-1.125
 30
0.0
 11
0.0
 21
-1.125
 31
0.0
  0
CIRCLE
  5
11BBD
330
11BB5
100
AcDbEntity
  8
6
100
AcDbCircle
 10
1.875
 20
-0.75
 30
0.0
 40
0.1325
  0
LINE
  5
11BBE
330
11BB5
100
AcDbEntity
  8
6
100
AcDbLine
 10
0.601499999999998
 20
-0.1327999999999996
 30
0.0
 11
1.960899999999998
 21
-0.1327999999999996
 31
0.0
  0
LINE
  5
11BBF
330
11BB5
100
AcDbEntity
  8
6
100
AcDbLine
 10
0.601499999999998
 20
0.1327999999999996
 30
0.0
 11
1.960899999999998
 21
0.1327999999999996
 31
0.0
  0
ARC
  5
11BC0
330
11BB5
100
AcDbEntity
  8
6
100
AcDbCircle
 10
1.960899999999998
 20
0.0
 30
0.0
 40
0.1327999999999977
100
AcDbArc
 50
270.0
 51
90.0
  0
LINE
  5
11BC1
330
11BB5
100
AcDbEntity
  8
6
100
AcDbLine
 10
0.0
 20
1.125
 30
0.0
 11
2.25
 21
1.125
 31
0.0
  0
ENDBLK
  5
11BC3
330
11BB5
100
AcDbEntity
  8
0
100
AcDbBlockEnd
  0
BLOCK
  5
11C02
330
11BC4
100
AcDbEntity
  8
0
100
AcDbBlockBegin
  2
112VPT
 70
     0
 10
0.0
 20
0.0
 30
0.0
  3
112VPT
  1

  0
LINE
  5
11BC5
330
11BC4
100
AcDbEntity
  8
HIDDEN
 62
     7
100
AcDbLine
 10
3.048447375173047
 20
111.9712223066748
 30
0.0
 11
1.687375389119033
 21
-0.0205072230041878
 31
0.0
  0
LINE
  5
11BC6
330
11BC4
100
AcDbEntity
  8
5
 62
     7
100
AcDbLine
 10
3.485915068648409
 20
111.9659056192296
 30
0.0
 11
2.124843082594331
 21
-0.0258239104495033
 31
0.0
  0
LINE
  5
11BC7
330
11BC4
100
AcDbEntity
  8
5
 62
     7
100
AcDbLine
 10
0.0
 20
0.0
 30
0.0
 11
1.361071986054007
 21
111.9917295296791
 31
0.0
  0
INSERT
  5
11BC8
330
11BC4
100
AcDbEntity
  8
0
100
AcDbBlockReference
  2
J-1
 10
-0.9783944876973862
 20
10.0126292364414
 30
0.0
 50
359.3036999999985
  0
INSERT
  5
11BC9
330
11BC4
100
AcDbEntity
  8
5
100
AcDbBlockReference
  2
J-4
 10
-1.020031770067539
 20
58.01668001694043
 30
0.0
 50
359.3036999999985
  0
INSERT
  5
11BCA
330
11BC4
100
AcDbEntity
  8
5
100
AcDbBlockReference
  2
J-3
 10
-1.061708513664648
 20
34.01541415346901
 30
0.0
 50
359.3036999999985
  0
LINE
  5
11BCB
330
11BC4
100
AcDbEntity
  8
5
 62
     7
100
AcDbLine
 10
1.63944494010721
 20
32.04494307294624
 30
0.0
 11
1.625773458104475
 21
30.92002614686681
 31
0.0
  0
LINE
  5
11BCC
330
11BC4
100
AcDbEntity
  8
5
 62
     7
100
AcDbLine
 10
0.6395187835921945
 20
32.05709550139318
 30
0.0
 11
0.6258473015894026
 21
30.93217857531374
 31
0.0
  0
LINE
  5
11BCD
330
11BC4
100
AcDbEntity
  8
0
100
AcDbLine
 10
2.124843082594331
 20
-0.0258239104495033
 30
0.0
 11
0.0
 21
0.0
 31
0.0
  0
LINE
  5
11BCE
330
11BC4
100
AcDbEntity
  8
5
 62
     7
100
AcDbLine
 10
0.7576867915584842
 20
9.720760080281593
 30
0.0
 11
0.7642673315624223
 21
10.26222009403443
 31
0.0
  0
LINE
  5
11BCF
330
11BC4
100
AcDbEntity
  8
5
 62
     7
100
AcDbLine
 10
1.035247319978026
 20
10.25892678592538
 30
0.0
 11
1.028666779974031
 21
9.717466772172429
 31
0.0
  0
ARC
  5
11BD0
330
11BC4
100
AcDbEntity
  8
5
 62
     7
100
AcDbCircle
 10
0.8931767857662009
 20
9.719113426226954
 30
0.0
 40
0.1355
100
AcDbArc
 50
179.3036999999984
 51
359.3036999999985
  0
ARC
  5
11BD1
330
11BC4
100
AcDbEntity
  8
5
 62
     7
100
AcDbCircle
 10
0.8997573257701958
 20
10.2605734399799
 30
0.0
 40
0.1355
100
AcDbArc
 50
359.3036999999985
 51
179.3036999999984
  0
CIRCLE
  5
11BD2
330
11BC4
100
AcDbEntity
  8
5
 62
     7
100
AcDbCircle
 10
0.9055813771034024
 20
10.73978805048966
 30
0.0
 40
0.1405
  0
CIRCLE
  5
11BD3
330
11BC4
100
AcDbEntity
  8
5
 62
     7
100
AcDbCircle
 10
0.8873527344329943
 20
9.239898815717197
 30
0.0
 40
0.1405
  0
CIRCLE
  5
11BD4
330
11BC4
100
AcDbEntity
  8
5
 62
     7
100
AcDbCircle
 10
0.8276305377270247
 20
1.240033847530639
 30
0.0
 40
0.203
  0
CIRCLE
  5
11BD5
330
11BC4
100
AcDbEntity
  8
5
 62
     7
100
AcDbCircle
 10
0.4446838054869815
 20
0.5884394642930602
 30
0.0
 40
0.1405
  0
CIRCLE
  5
11BD6
330
11BC4
100
AcDbEntity
  8
5
 62
     7
100
AcDbCircle
 10
1.194628422873272
 20
0.5793251429579414
 30
0.0
 40
0.1405
  0
LINE
  5
11BD7
330
11BC4
100
AcDbEntity
  8
5
 62
     7
100
AcDbLine
 10
1.562518546544282
 20
30.85829028886258
 30
0.0
 11
0.6875831595936859
 21
30.86892366375366
 31
0.0
  0
ARC
  5
11BD8
330
11BC4
100
AcDbEntity
  8
5
 62
     7
100
AcDbCircle
 10
1.563278073322265
 20
30.92078567364479
 30
0.0
 40
0.0625
100
AcDbArc
 50
269.3037000000001
 51
359.3036999999985
  0
CIRCLE
  5
11BD9
330
11BC4
100
AcDbEntity
  8
5
 62
     7
100
AcDbCircle
 10
1.121633590189702
 20
30.58242774109613
 30
0.0
 40
0.1325
  0
ARC
  5
11BDA
330
11BC4
100
AcDbEntity
  8
5
 62
     7
100
AcDbCircle
 10
0.6883426863716125
 20
30.93141904853587
 30
0.0
 40
0.0625
100
AcDbArc
 50
179.3036999999984
 51
269.3037000000001
  0
CIRCLE
  5
11BDB
330
11BC4
100
AcDbEntity
  8
5
 62
     7
100
AcDbCircle
 10
1.107201366166208
 20
29.39491543761892
 30
0.0
 40
0.1325
  0
LINE
  5
11BDC
330
11BC4
100
AcDbEntity
  8
5
 62
     7
100
AcDbLine
 10
1.623280688778862
 20
35.85792107143755
 30
0.0
 11
0.7483453018282092
 21
35.86855444632863
 31
0.0
  0
LINE
  5
11BDD
330
11BC4
100
AcDbEntity
  8
5
 62
     7
100
AcDbLine
 10
1.638471224337507
 20
37.10782876708129
 30
0.0
 11
0.763535837386911
 21
37.11846214197226
 31
0.0
  0
ARC
  5
11BDE
330
11BC4
100
AcDbEntity
  8
5
 62
     7
100
AcDbCircle
 10
1.624040215556789
 20
35.92041645621975
 30
0.0
 40
0.0625
100
AcDbArc
 50
269.3037000000001
 51
359.3036999999985
  0
ARC
  5
11BDF
330
11BC4
100
AcDbEntity
  8
5
 62
     7
100
AcDbCircle
 10
1.637711697559581
 20
37.04533338229908
 30
0.0
 40
0.0625
100
AcDbArc
 50
359.3036999999985
 51
89.30370000000008
  0
LINE
  5
11BE0
330
11BC4
100
AcDbEntity
  8
5
 62
     7
100
AcDbLine
 10
1.686535600338999
 20
35.91965692944177
 30
0.0
 11
1.70020708234179
 21
37.04457385552121
 31
0.0
  0
CIRCLE
  5
11BE1
330
11BC4
100
AcDbEntity
  8
5
 62
     7
100
AcDbCircle
 10
1.182395732424282
 20
35.58205852367109
 30
0.0
 40
0.1325
  0
ARC
  5
11BE2
330
11BC4
100
AcDbEntity
  8
5
 62
     7
100
AcDbCircle
 10
1.197615150666507
 20
34.25872585128355
 30
0.0
 40
0.1355
100
AcDbArc
 50
359.3036999999985
 51
179.3036999999984
  0
CIRCLE
  5
11BE3
330
11BC4
100
AcDbEntity
  8
5
 62
     7
100
AcDbCircle
 10
1.203439201999657
 20
34.7379404617933
 30
0.0
 40
0.1405
  0
CIRCLE
  5
11BE4
330
11BC4
100
AcDbEntity
  8
5
 62
     7
100
AcDbCircle
 10
1.218853017765042
 20
38.58183699321603
 30
0.0
 40
0.1325
  0
CIRCLE
  5
11BE5
330
11BC4
100
AcDbEntity
  8
5
 62
     7
100
AcDbCircle
 10
1.204420793741434
 20
37.39432468973883
 30
0.0
 40
0.1325
  0
ARC
  5
11BE6
330
11BC4
100
AcDbEntity
  8
5
 62
     7
100
AcDbCircle
 10
0.7491048286061926
 20
35.93104983111084
 30
0.0
 40
0.0625
100
AcDbArc
 50
179.3036999999984
 51
269.3037000000001
  0
ARC
  5
11BE7
330
11BC4
100
AcDbEntity
  8
5
 62
     7
100
AcDbCircle
 10
0.7627763106089276
 20
37.05596675719017
 30
0.0
 40
0.0625
100
AcDbArc
 50
89.30370000000008
 51
179.3036999999984
  0
LINE
  5
11BE8
330
11BC4
100
AcDbEntity
  8
5
 62
     7
100
AcDbLine
 10
0.6866094438240396
 20
35.93180935788871
 30
0.0
 11
0.7002809258268315
 21
37.05672628396803
 31
0.0
  0
LINE
  5
11BE9
330
11BC4
100
AcDbEntity
  8
5
 62
     7
100
AcDbLine
 10
1.577709082102984
 20
32.10819798450632
 30
0.0
 11
0.7027736951522741
 21
32.11883135939741
 31
0.0
  0
CIRCLE
  5
11BEA
330
11BC4
100
AcDbEntity
  8
5
 62
     7
100
AcDbCircle
 10
1.185210559329306
 20
33.23805122702083
 30
0.0
 40
0.1405
  0
ARC
  5
11BEB
330
11BC4
100
AcDbEntity
  8
5
 62
     7
100
AcDbCircle
 10
1.576949555325057
 20
32.04570259972411
 30
0.0
 40
0.0625
100
AcDbArc
 50
359.3036999999985
 51
89.30370000000008
  0
CIRCLE
  5
11BEC
330
11BC4
100
AcDbEntity
  8
5
 62
     7
100
AcDbCircle
 10
1.14365865150691
 20
32.39469390716386
 30
0.0
 40
0.1325
  0
ARC
  5
11BED
330
11BC4
100
AcDbEntity
  8
5
 62
     7
100
AcDbCircle
 10
1.191034610662512
 20
33.71726583753059
 30
0.0
 40
0.1355
100
AcDbArc
 50
179.3036999999984
 51
359.3036999999985
  0
ARC
  5
11BEE
330
11BC4
100
AcDbEntity
  8
5
 62
     7
100
AcDbCircle
 10
0.7020141683744044
 20
32.05633597461519
 30
0.0
 40
0.0625
100
AcDbArc
 50
89.30370000000008
 51
179.3036999999984
  0
LINE
  5
11BEF
330
11BC4
100
AcDbEntity
  8
5
 62
     7
100
AcDbLine
 10
1.06212515645879
 20
34.26037250533807
 30
0.0
 11
1.055544616454795
 21
33.71891249158523
 31
0.0
  0
LINE
  5
11BF0
330
11BC4
100
AcDbEntity
  8
5
 62
     7
100
AcDbLine
 10
1.326524604870343
 20
33.71561918347607
 30
0.0
 11
1.333105144874338
 21
34.25707919722891
 31
0.0
  0
ARC
  5
11BF1
330
11BC4
100
AcDbEntity
  8
5
 62
     7
100
AcDbCircle
 10
1.476493351217975
 20
57.71556893894672
 30
0.0
 40
0.1355
100
AcDbArc
 50
179.3036999999984
 51
359.3036999999985
  0
CIRCLE
  5
11BF2
330
11BC4
100
AcDbEntity
  8
5
 62
     7
100
AcDbCircle
 10
1.470669299884768
 20
57.23635432843685
 30
0.0
 40
0.1405
  0
LINE
  5
11BF3
330
11BC4
100
AcDbEntity
  8
5
 62
     7
100
AcDbLine
 10
1.347583897014196
 20
58.25867560675419
 30
0.0
 11
1.341003357010201
 21
57.71721559300124
 31
0.0
  0
LINE
  5
11BF4
330
11BC4
100
AcDbEntity
  8
5
 62
     7
100
AcDbLine
 10
1.611983345425748
 20
57.71392228489219
 30
0.0
 11
1.6185638854298
 21
58.25538229864503
 31
0.0
  0
CIRCLE
  5
11BF5
330
11BC4
100
AcDbEntity
  8
5
 62
     7
100
AcDbCircle
 10
1.488897942555063
 20
58.73624356320942
 30
0.0
 40
0.1405
  0
ARC
  5
11BF6
330
11BC4
100
AcDbEntity
  8
5
 62
     7
100
AcDbCircle
 10
1.48307389122197
 20
58.25702895269955
 30
0.0
 40
0.1355
100
AcDbArc
 50
359.3036999999985
 51
179.3036999999984
  0
INSERT
  5
11BF7
330
11BC4
100
AcDbEntity
  8
5
100
AcDbBlockReference
  2
J-5
 10
-0.978355026470524
 20
82.01794588041195
 30
0.0
 50
359.3036999999985
  0
ARC
  5
11BF8
330
11BC4
100
AcDbEntity
  8
5
 62
     7
100
AcDbCircle
 10
1.774732173947768
 20
82.25525670905938
 30
0.0
 40
0.1355
100
AcDbArc
 50
359.3036999999985
 51
179.3036999999984
  0
LINE
  5
11BF9
330
11BC4
100
AcDbEntity
  8
5
 62
     7
100
AcDbLine
 10
1.639242179740051
 20
82.25690336311391
 30
0.0
 11
1.632661639736056
 21
81.71544334936106
 31
0.0
  0
LINE
  5
11BFA
330
11BC4
100
AcDbEntity
  8
5
 62
     7
100
AcDbLine
 10
1.903641628151547
 20
81.7121500412519
 30
0.0
 11
1.910222168155598
 21
82.25361005500486
 31
0.0
  0
CIRCLE
  5
11BFB
330
11BC4
100
AcDbEntity
  8
5
 62
     7
100
AcDbCircle
 10
1.762327582610566
 20
81.23458208479666
 30
0.0
 40
0.1405
  0
ARC
  5
11BFC
330
11BC4
100
AcDbEntity
  8
5
 62
     7
100
AcDbCircle
 10
1.768151633943716
 20
81.71379669530642
 30
0.0
 40
0.1355
100
AcDbArc
 50
179.3036999999984
 51
359.3036999999985
  0
CIRCLE
  5
11BFD
330
11BC4
100
AcDbEntity
  8
5
 62
     7
100
AcDbCircle
 10
1.780556225280975
 20
82.73447131956913
 30
0.0
 40
0.1405
  0
LINE
  5
11BFE
330
11BC4
100
AcDbEntity
  8
0
100
AcDbLine
 10
3.485915068648409
 20
111.9659056192296
 30
0.0
 11
1.361071986054007
 21
111.9917295296791
 31
0.0
  0
CIRCLE
  5
11BFF
330
11BC4
100
AcDbEntity
  8
5
 62
     7
100
AcDbCircle
 10
2.541268184903792
 20
111.3835423691597
 30
0.0
 40
0.1405
  0
CIRCLE
  5
11C00
330
11BC4
100
AcDbEntity
  8
5
 62
     7
100
AcDbCircle
 10
2.158321452663805
 20
110.7319479859221
 30
0.0
 40
0.203
  0
CIRCLE
  5
11C01
330
11BC4
100
AcDbEntity
  8
5
 62
     7
100
AcDbCircle
 10
1.791323567517558
 20
111.3926566904948
 30
0.0
 40
0.1405
  0
ENDBLK
  5
11C03
330
11BC4
100
AcDbEntity
  8
0
100
AcDbBlockEnd
  0
BLOCK
  5
11C06
330
11C04
100
AcDbEntity
  8
0
100
AcDbBlockBegin
  2
A$C6F454818
 70
     0
 10
0.0
 20
0.0
 30
0.0
  3
A$C6F454818
  1

  0
INSERT
  5
11C05
330
11C04
100
AcDbEntity
  8
0
100
AcDbBlockReference
  2
112VPT
 10
1.075381380723946
 20
0.0258243022473153
 30
0.0
  0
ENDBLK
  5
11C07
330
11C04
100
AcDbEntity
  8
0
100
AcDbBlockEnd
  0
BLOCK
  5
11C1A
330
11C08
100
AcDbEntity
  8
0
100
AcDbBlockBegin
  2
SP-8-34
 70
     0
 10
0.0
 20
0.0
 30
0.0
  3
SP-8-34
  1

  0
CIRCLE
  5
11C09
330
11C08
100
AcDbEntity
  8
0
100
AcDbCircle
 10
0.0
 20
0.0
 30
0.0
 40
0.135
  0
CIRCLE
  5
11C0A
330
11C08
100
AcDbEntity
  8
0
100
AcDbCircle
 10
0.0
 20
-1.75
 30
0.0
 40
0.135
  0
LINE
  5
11C0B
330
11C08
100
AcDbEntity
  8
0
100
AcDbLine
 10
2.949000000000012
 20
0.3129999999999882
 30
0.0
 11
-0.681999999999988
 21
0.3129999999999882
 31
0.0
  0
LINE
  5
11C0C
330
11C08
100
AcDbEntity
  8
0
100
AcDbLine
 10
-0.681999999999988
 20
-2.062000000000011
 30
0.0
 11
2.949000000000012
 21
-2.062000000000011
 31
0.0
  0
LINE
  5
11C0D
330
11C08
100
AcDbEntity
  8
0
100
AcDbLine
 10
-0.681999999999988
 20
0.3129999999999882
 30
0.0
 11
-0.681999999999988
 21
-2.062000000000011
 31
0.0
  0
LINE
  5
11C0E
330
11C08
100
AcDbEntity
  8
0
100
AcDbLine
 10
2.949000000000012
 20
-2.062000000000011
 30
0.0
 11
2.949000000000012
 21
0.3129999999999882
 31
0.0
  0
TEXT
  5
11C0F
330
11C08
100
AcDbEntity
  8
0
100
AcDbText
 10
0.2357683309594734
 20
-1.103721344312361
 30
0.0
 40
0.25
  1
8-3/4
100
AcDbText
  0
ARC
  5
11C10
330
11C08
100
AcDbEntity
  8
0
100
AcDbCircle
 10
1.734000000000008
 20
-0.1820000000000164
 30
0.0
 40
0.135
100
AcDbArc
 50
0.0
 51
180.0
  0
LINE
  5
11C11
330
11C08
100
AcDbEntity
  8
0
100
AcDbLine
 10
1.869000000000013
 20
-0.1820000000000164
 30
0.0
 11
1.869000000000013
 21
-0.4320000000000164
 31
0.0
  0
LINE
  5
11C12
330
11C08
100
AcDbEntity
  8
0
100
AcDbLine
 10
1.599000000000003
 20
-0.4320000000000164
 30
0.0
 11
1.599000000000003
 21
-0.1820000000000448
 31
0.0
  0
ARC
  5
11C13
330
11C08
100
AcDbEntity
  8
0
100
AcDbCircle
 10
1.734000000000008
 20
-0.4320000000000164
 30
0.0
 40
0.135
100
AcDbArc
 50
180.0
 51
0.0
  0
CIRCLE
  5
11C14
330
11C08
100
AcDbEntity
  8
0
100
AcDbCircle
 10
1.734000000000008
 20
-1.494000000000028
 30
0.0
 40
0.135
  0
ARC
  5
11C15
330
11C08
100
AcDbEntity
  8
0
100
AcDbCircle
 10
2.484000000000008
 20
-0.1820000000000164
 30
0.0
 40
0.135
100
AcDbArc
 50
0.0
 51
180.0
  0
LINE
  5
11C16
330
11C08
100
AcDbEntity
  8
0
100
AcDbLine
 10
2.349000000000003
 20
-0.4320000000000164
 30
0.0
 11
2.349000000000003
 21
-0.1820000000000448
 31
0.0
  0
LINE
  5
11C17
330
11C08
100
AcDbEntity
  8
0
100
AcDbLine
 10
2.619000000000013
 20
-0.1820000000000164
 30
0.0
 11
2.619000000000013
 21
-0.4320000000000164
 31
0.0
  0
ARC
  5
11C18
330
11C08
100
AcDbEntity
  8
0
100
AcDbCircle
 10
2.484000000000008
 20
-0.4320000000000164
 30
0.0
 40
0.135
100
AcDbArc
 50
180.0
 51
0.0
  0
CIRCLE
  5
11C19
330
11C08
100
AcDbEntity
  8
0
100
AcDbCircle
 10
2.484000000000008
 20
-1.494000000000028
 30
0.0
 40
0.135
  0
ENDBLK
  5
11C1B
330
11C08
100
AcDbEntity
  8
0
100
AcDbBlockEnd
  0
BLOCK
  5
11D35
330
11D2A
100
AcDbEntity
  8
0
100
AcDbBlockBegin
  2
*D64
 70
     1
 10
0.0
 20
0.0
 30
0.0
  3
*D64
  1

  0
LINE
  5
120CB
330
11D2A
100
AcDbEntity
  8
TEXT
 62
     0
370
    -2
100
AcDbLine
 10
132.2169295018095
 20
123.0362941793405
 30
0.0
 11
98.74439873530288
 21
123.0362941793405
 31
0.0
  0
LINE
  5
120CC
330
11D2A
100
AcDbEntity
  8
TEXT
 62
     0
370
    -2
100
AcDbLine
 10
139.5919295018095
 20
255.753848011267
 30
0.0
 11
98.74439873530292
 21
255.753848011267
 31
0.0
  0
LINE
  5
120CD
330
11D2A
100
AcDbEntity
  8
TEXT
 62
     0
370
    -2
100
AcDbLine
 10
99.74439873530288
 20
126.0362941793405
 30
0.0
 11
99.7443987353029
 21
199.4565655181477
 31
0.0
  0
LINE
  5
120CE
330
11D2A
100
AcDbEntity
  8
TEXT
 62
     0
370
    -2
100
AcDbLine
 10
99.74439873530291
 20
252.753848011267
 30
0.0
 11
99.7443987353029
 21
206.1232321848144
 31
0.0
  0
SOLID
  5
120CF
330
11D2A
100
AcDbEntity
  8
TEXT
 62
     0
100
AcDbTrace
 10
99.24439873530289
 20
126.0362941793405
 30
0.0
 11
100.2443987353029
 21
126.0362941793405
 31
0.0
 12
99.74439873530288
 22
123.0362941793405
 32
0.0
 13
99.74439873530288
 23
123.0362941793405
 33
0.0
  0
SOLID
  5
120D0
330
11D2A
100
AcDbEntity
  8
TEXT
 62
     0
100
AcDbTrace
 10
99.24439873530291
 20
252.753848011267
 30
0.0
 11
100.2443987353029
 21
252.753848011267
 31
0.0
 12
99.74439873530291
 22
255.753848011267
 32
0.0
 13
99.74439873530291
 23
255.753848011267
 33
0.0
  0
MTEXT
  5
120D1
330
11D2A
100
AcDbEntity
  8
TEXT
 62
     0
100
AcDbMText
 10
99.74439873530286
 20
202.7898988514811
 30
0.0
 40
1.75
 41
0.0
 46
0.0
 71
     5
 72
     1
  1
\A1;FLOOR TO\PSHAFT CENTER
  7
WEB PAGE
 73
     1
 44
1.0
  0
POINT
  5
120D2
330
11D2A
100
AcDbEntity
  8
Defpoints
 62
     0
100
AcDbPoint
 10
134.2169295018095
 20
123.0362941793405
 30
0.0
  0
POINT
  5
120D3
330
11D2A
100
AcDbEntity
  8
Defpoints
 62
     0
100
AcDbPoint
 10
141.5919295018095
 20
255.753848011267
 30
0.0
  0
POINT
  5
120D4
330
11D2A
100
AcDbEntity
  8
Defpoints
 62
     0
100
AcDbPoint
 10
99.74439873530291
 20
255.753848011267
 30
0.0
  0
ENDBLK
  5
11D36
330
11D2A
100
AcDbEntity
  8
0
100
AcDbBlockEnd
  0
BLOCK
  5
11D42
330
11D37
100
AcDbEntity
  8
0
100
AcDbBlockBegin
  2
*D65
 70
     1
 10
0.0
 20
0.0
 30
0.0
  3
*D65
  1

  0
LINE
  5
12280
330
11D37
100
AcDbEntity
  8
TEXT
 62
     0
370
    -2
100
AcDbLine
 10
132.2169295018095
 20
123.0362941793405
 30
0.0
 11
77.52234592598826
 21
123.0362941793405
 31
0.0
  0
LINE
  5
12281
330
11D37
100
AcDbEntity
  8
TEXT
 62
     0
370
    -2
100
AcDbLine
 10
136.2169295018095
 20
257.8220506712392
 30
0.0
 11
77.52234592598829
 21
257.8220506712392
 31
0.0
  0
LINE
  5
12282
330
11D37
100
AcDbEntity
  8
TEXT
 62
     0
370
    -2
100
AcDbLine
 10
78.52234592598826
 20
126.0362941793405
 30
0.0
 11
78.52234592598827
 21
178.0912897901556
 31
0.0
  0
LINE
  5
12283
330
11D37
100
AcDbEntity
  8
TEXT
 62
     0
370
    -2
100
AcDbLine
 10
78.52234592598829
 20
254.8220506712392
 30
0.0
 11
78.52234592598827
 21
184.7579564568223
 31
0.0
  0
SOLID
  5
12284
330
11D37
100
AcDbEntity
  8
TEXT
 62
     0
100
AcDbTrace
 10
78.02234592598826
 20
126.0362941793405
 30
0.0
 11
79.02234592598826
 21
126.0362941793405
 31
0.0
 12
78.52234592598826
 22
123.0362941793405
 32
0.0
 13
78.52234592598826
 23
123.0362941793405
 33
0.0
  0
SOLID
  5
12285
330
11D37
100
AcDbEntity
  8
TEXT
 62
     0
100
AcDbTrace
 10
78.02234592598829
 20
254.8220506712392
 30
0.0
 11
79.02234592598829
 21
254.8220506712392
 31
0.0
 12
78.52234592598829
 22
257.8220506712392
 32
0.0
 13
78.52234592598829
 23
257.8220506712392
 33
0.0
  0
MTEXT
  5
12286
330
11D37
100
AcDbEntity
  8
TEXT
 62
     0
100
AcDbMText
 10
78.52234592598825
 20
181.424623123489
 30
0.0
 40
1.75
 41
0.0
 46
0.0
 71
     5
 72
     1
  1
\A1;MINIMUM\PCEILING HEIGHT
  7
WEB PAGE
 73
     1
 44
1.0
  0
POINT
  5
12287
330
11D37
100
AcDbEntity
  8
Defpoints
 62
     0
100
AcDbPoint
 10
134.2169295018095
 20
123.0362941793405
 30
0.0
  0
POINT
  5
12288
330
11D37
100
AcDbEntity
  8
Defpoints
 62
     0
100
AcDbPoint
 10
138.2169295018095
 20
257.8220506712392
 30
0.0
  0
POINT
  5
12289
330
11D37
100
AcDbEntity
  8
Defpoints
 62
     0
100
AcDbPoint
 10
78.52234592598829
 20
257.8220506712392
 30
0.0
  0
ENDBLK
  5
11D43
330
11D37
100
AcDbEntity
  8
0
100
AcDbBlockEnd
  0
BLOCK
  5
11D4F
330
11D44
100
AcDbEntity
  8
0
100
AcDbBlockBegin
  2
*D66
 70
     1
 10
0.0
 20
0.0
 30
0.0
  3
*D66
  1

  0
LINE
  5
124F1
330
11D44
100
AcDbEntity
  8
TEXT
 62
     0
370
    -2
100
AcDbLine
 10
207.4861505668555
 20
123.0362941793405
 30
0.0
 11
179.063357343277
 21
123.0362941793405
 31
0.0
  0
LINE
  5
124F2
330
11D44
100
AcDbEntity
  8
TEXT
 62
     0
370
    -2
100
AcDbLine
 10
144.7782259511818
 20
235.0280241008174
 30
0.0
 11
181.063357343277
 21
235.0280241008174
 31
0.0
  0
LINE
  5
124F3
330
11D44
100
AcDbEntity
  8
TEXT
 62
     0
370
    -2
100
AcDbLine
 10
180.063357343277
 20
126.0362941793405
 30
0.0
 11
180.063357343277
 21
176.1692756482695
 31
0.0
  0
LINE
  5
124F4
330
11D44
100
AcDbEntity
  8
TEXT
 62
     0
370
    -2
100
AcDbLine
 10
180.063357343277
 20
232.0280241008175
 30
0.0
 11
180.063357343277
 21
183.1692756482694
 31
0.0
  0
SOLID
  5
124F5
330
11D44
100
AcDbEntity
  8
TEXT
 62
     0
100
AcDbTrace
 10
179.563357343277
 20
126.0362941793405
 30
0.0
 11
180.5633573432769
 21
126.0362941793405
 31
0.0
 12
180.063357343277
 22
123.0362941793405
 32
0.0
 13
180.063357343277
 23
123.0362941793405
 33
0.0
  0
SOLID
  5
124F6
330
11D44
100
AcDbEntity
  8
TEXT
 62
     0
100
AcDbTrace
 10
179.563357343277
 20
232.0280241008175
 30
0.0
 11
180.563357343277
 21
232.0280241008175
 31
0.0
 12
180.063357343277
 22
235.0280241008174
 32
0.0
 13
180.063357343277
 23
235.0280241008174
 33
0.0
  0
MTEXT
  5
124F7
330
11D44
100
AcDbEntity
  8
TEXT
 62
     0
100
AcDbMText
 10
180.0633573432769
 20
179.6692756482695
 30
0.0
 40
1.75
 41
0.0
 46
0.0
 71
     5
 72
     1
  1
\A1;VERTICAL TRACK\PDOOR HEIGHT-8"
  7
WEB PAGE
 73
     1
 44
1.0
  0
POINT
  5
124F8
330
11D44
100
AcDbEntity
  8
Defpoints
 62
     0
100
AcDbPoint
 10
209.4861505668555
 20
123.0362941793405
 30
0.0
  0
POINT
  5
124F9
330
11D44
100
AcDbEntity
  8
Defpoints
 62
     0
100
AcDbPoint
 10
142.7782259511818
 20
235.0280241008174
 30
0.0
  0
POINT
  5
124FA
330
11D44
100
AcDbEntity
  8
Defpoints
 62
     0
100
AcDbPoint
 10
180.063357343277
 20
235.0280241008174
 30
0.0
  0
ENDBLK
  5
11D50
330
11D44
100
AcDbEntity
  8
0
100
AcDbBlockEnd
  0
BLOCK
  5
11D5C
330
11D51
100
AcDbEntity
  8
0
100
AcDbBlockBegin
  2
*D67
 70
     1
 10
0.0
 20
0.0
 30
0.0
  3
*D67
  1

  0
LINE
  5
120D5
330
11D51
100
AcDbEntity
  8
TEXT
 62
     0
370
    -2
100
AcDbLine
 10
132.2169295018095
 20
243.0362941793405
 30
0.0
 11
117.0575413775432
 21
243.0362941793405
 31
0.0
  0
LINE
  5
120D6
330
11D51
100
AcDbEntity
  8
TEXT
 62
     0
370
    -2
100
AcDbLine
 10
132.2169295018095
 20
123.0362941793405
 30
0.0
 11
117.0575413775432
 21
123.0362941793405
 31
0.0
  0
LINE
  5
120D7
330
11D51
100
AcDbEntity
  8
TEXT
 62
     0
370
    -2
100
AcDbLine
 10
118.0575413775432
 20
240.0362941793405
 30
0.0
 11
118.0575413775432
 21
186.3696275126739
 31
0.0
  0
LINE
  5
120D8
330
11D51
100
AcDbEntity
  8
TEXT
 62
     0
370
    -2
100
AcDbLine
 10
118.0575413775432
 20
126.0362941793405
 30
0.0
 11
118.0575413775432
 21
179.7029608460072
 31
0.0
  0
SOLID
  5
120D9
330
11D51
100
AcDbEntity
  8
TEXT
 62
     0
100
AcDbTrace
 10
117.5575413775432
 20
240.0362941793405
 30
0.0
 11
118.5575413775432
 21
240.0362941793405
 31
0.0
 12
118.0575413775432
 22
243.0362941793405
 32
0.0
 13
118.0575413775432
 23
243.0362941793405
 33
0.0
  0
SOLID
  5
120DA
330
11D51
100
AcDbEntity
  8
TEXT
 62
     0
100
AcDbTrace
 10
117.5575413775432
 20
126.0362941793405
 30
0.0
 11
118.5575413775432
 21
126.0362941793405
 31
0.0
 12
118.0575413775432
 22
123.0362941793405
 32
0.0
 13
118.0575413775432
 23
123.0362941793405
 33
0.0
  0
MTEXT
  5
120DB
330
11D51
100
AcDbEntity
  8
TEXT
 62
     0
100
AcDbMText
 10
118.0575413775432
 20
183.0362941793405
 30
0.0
 40
1.75
 41
0.0
 46
0.0
 71
     5
 72
     1
  1
\A1;OPENING\PHEIGHT
  7
WEB PAGE
 73
     1
 44
1.0
  0
POINT
  5
120DC
330
11D51
100
AcDbEntity
  8
Defpoints
 62
     0
100
AcDbPoint
 10
134.2169295018095
 20
243.0362941793405
 30
0.0
  0
POINT
  5
120DD
330
11D51
100
AcDbEntity
  8
Defpoints
 62
     0
100
AcDbPoint
 10
134.2169295018095
 20
123.0362941793405
 30
0.0
  0
POINT
  5
120DE
330
11D51
100
AcDbEntity
  8
Defpoints
 62
     0
100
AcDbPoint
 10
118.0575413775432
 20
123.0362941793405
 30
0.0
  0
ENDBLK
  5
11D5D
330
11D51
100
AcDbEntity
  8
0
100
AcDbBlockEnd
  0
BLOCK
  5
11D6A
330
11D5E
100
AcDbEntity
  8
0
100
AcDbBlockBegin
  2
*D68
 70
     1
 10
0.0
 20
0.0
 30
0.0
  3
*D68
  1

  0
LINE
  5
12275
330
11D5E
100
AcDbEntity
  8
TEXT
 62
     0
370
    -2
100
AcDbLine
 10
132.2169295018095
 20
243.0362941793405
 30
0.0
 11
117.0575413775432
 21
243.0362941793405
 31
0.0
  0
LINE
  5
12276
330
11D5E
100
AcDbEntity
  8
TEXT
 62
     0
370
    -2
100
AcDbLine
 10
136.2169295018095
 20
257.8220506712392
 30
0.0
 11
117.0575413775432
 21
257.8220506712392
 31
0.0
  0
LINE
  5
12277
330
11D5E
100
AcDbEntity
  8
TEXT
 62
     0
370
    -2
100
AcDbLine
 10
118.0575413775432
 20
246.0362941793405
 30
0.0
 11
118.0575413775432
 21
254.8220506712392
 31
0.0
  0
LINE
  5
12278
330
11D5E
100
AcDbEntity
  8
TEXT
 62
     0
370
    -2
100
AcDbLine
 10
118.0575413775432
 20
257.8220506712392
 30
0.0
 11
118.0575413775432
 21
272.3008621425022
 31
0.0
  0
LINE
  5
12279
330
11D5E
100
AcDbEntity
  8
TEXT
 62
     0
370
    -2
100
AcDbLine
 10
118.0575413775432
 20
272.3008621425022
 30
0.0
 11
121.0575413775432
 21
272.3008621425022
 31
0.0
  0
SOLID
  5
1227A
330
11D5E
100
AcDbEntity
  8
TEXT
 62
     0
100
AcDbTrace
 10
117.5575413775432
 20
246.0362941793405
 30
0.0
 11
118.5575413775432
 21
246.0362941793405
 31
0.0
 12
118.0575413775432
 22
243.0362941793405
 32
0.0
 13
118.0575413775432
 23
243.0362941793405
 33
0.0
  0
SOLID
  5
1227B
330
11D5E
100
AcDbEntity
  8
TEXT
 62
     0
100
AcDbTrace
 10
117.5575413775432
 20
254.8220506712392
 30
0.0
 11
118.5575413775432
 21
254.8220506712392
 31
0.0
 12
118.0575413775432
 22
257.8220506712392
 32
0.0
 13
118.0575413775432
 23
257.8220506712392
 33
0.0
  0
MTEXT
  5
1227C
330
11D5E
100
AcDbEntity
  8
TEXT
 62
     0
100
AcDbMText
 10
128.9325413775432
 20
272.3008621425022
 30
0.0
 40
1.75
 41
0.0
 46
0.0
 71
     5
 72
     1
  1
\A1;MINIMUM\PHEADROOM
  7
WEB PAGE
 73
     1
 44
1.0
  0
POINT
  5
1227D
330
11D5E
100
AcDbEntity
  8
Defpoints
 62
     0
100
AcDbPoint
 10
134.2169295018095
 20
243.0362941793405
 30
0.0
  0
POINT
  5
1227E
330
11D5E
100
AcDbEntity
  8
Defpoints
 62
     0
100
AcDbPoint
 10
138.2169295018095
 20
257.8220506712392
 30
0.0
  0
POINT
  5
1227F
330
11D5E
100
AcDbEntity
  8
Defpoints
 62
     0
100
AcDbPoint
 10
118.0575413775432
 20
257.8220506712392
 30
0.0
  0
ENDBLK
  5
11D6B
330
11D5E
100
AcDbEntity
  8
0
100
AcDbBlockEnd
  0
BLOCK
  5
11E59
330
11E49
100
AcDbEntity
  8
0
100
AcDbBlockBegin
  2
WD-9-3-38
 70
     0
 10
0.0
 20
0.0
 30
0.0
  3
WD-9-3-38
  1

  0
LINE
  5
11E4A
330
11E49
100
AcDbEntity
  8
0
100
AcDbLine
 10
0.0
 20
4.25
 30
0.0
 11
0.0
 21
0.0
 31
0.0
  0
LINE
  5
11E4B
330
11E49
100
AcDbEntity
  8
0
100
AcDbLine
 10
5.0
 20
4.25
 30
0.0
 11
5.0
 21
-2.0
 31
0.0
  0
LINE
  5
11E4C
330
11E49
100
AcDbEntity
  8
0
100
AcDbLine
 10
0.0
 20
0.0
 30
0.0
 11
2.25
 21
-0.0000000000000142
 31
0.0
  0
LINE
  5
11E4D
330
11E49
100
AcDbEntity
  8
0
100
AcDbLine
 10
4.4375
 20
-1.462500000000005
 30
0.0
 11
3.1875
 21
-1.462500000000005
 31
0.0
  0
LINE
  5
11E4E
330
11E49
100
AcDbEntity
  8
0
100
AcDbLine
 10
3.1875
 20
-1.837500000000005
 30
0.0
 11
4.4375
 21
-1.837500000000005
 31
0.0
  0
LINE
  5
11E4F
330
11E49
100
AcDbEntity
  8
0
100
AcDbLine
 10
5.0
 20
-2.0
 30
0.0
 11
2.25
 21
-2.0
 31
0.0
  0
LINE
  5
11E50
330
11E49
100
AcDbEntity
  8
0
100
AcDbLine
 10
2.25
 20
-2.0
 30
0.0
 11
2.25
 21
-1.837500000000019
 31
0.0
  0
LINE
  5
11E51
330
11E49
100
AcDbEntity
  8
0
100
AcDbLine
 10
2.25
 20
-1.462500000000019
 30
0.0
 11
2.25
 21
-0.0000000000000142
 31
0.0
  0
LINE
  5
11E52
330
11E49
100
AcDbEntity
  8
0
100
AcDbLine
 10
2.5
 20
-1.462500000000005
 30
0.0
 11
2.25
 21
-1.462500000000019
 31
0.0
  0
LINE
  5
11E53
330
11E49
100
AcDbEntity
  8
0
100
AcDbLine
 10
2.25
 20
-1.837500000000019
 30
0.0
 11
2.5
 21
-1.837500000000005
 31
0.0
  0
ARC
  5
11E54
330
11E49
100
AcDbEntity
  8
0
100
AcDbCircle
 10
3.1875
 20
-1.650000000000005
 30
0.0
 40
0.1875
100
AcDbArc
 50
90.0
 51
270.0
  0
ARC
  5
11E55
330
11E49
100
AcDbEntity
  8
0
100
AcDbCircle
 10
2.5
 20
-1.650000000000005
 30
0.0
 40
0.1875
100
AcDbArc
 50
270.0
 51
90.0
  0
ARC
  5
11E56
330
11E49
100
AcDbEntity
  8
0
100
AcDbCircle
 10
4.4375
 20
-1.650000000000005
 30
0.0
 40
0.1875
100
AcDbArc
 50
270.0
 51
90.0
  0
LINE
  5
11E57
330
11E49
100
AcDbEntity
  8
0
100
AcDbLine
 10
0.0
 20
4.25
 30
0.0
 11
5.0
 21
4.25
 31
0.0
  0
CIRCLE
  5
11E58
330
11E49
100
AcDbEntity
  8
0
100
AcDbCircle
 10
3.375
 20
2.599999999999994
 30
0.0
 40
0.5
  0
ENDBLK
  5
11E5A
330
11E49
100
AcDbEntity
  8
0
100
AcDbBlockEnd
  0
BLOCK
  5
11EB4
330
11EA9
100
AcDbEntity
  8
0
100
AcDbBlockBegin
  2
*D71
 70
     1
 10
0.0
 20
0.0
 30
0.0
  3
*D71
  1

  0
LINE
  5
12505
330
11EA9
100
AcDbEntity
  8
TEXT
 62
     0
370
    -2
100
AcDbLine
 10
140.6533828685875
 20
237.0538480112669
 30
0.0
 11
140.6533828685875
 21
243.5301141835794
 31
0.0
  0
LINE
  5
12506
330
11EA9
100
AcDbEntity
  8
TEXT
 62
     0
370
    -2
100
AcDbLine
 10
258.5097990719801
 20
301.5085879753311
 30
0.0
 11
258.5097990719801
 21
241.5301141835794
 31
0.0
  0
LINE
  5
12507
330
11EA9
100
AcDbEntity
  8
TEXT
 62
     0
370
    -2
100
AcDbLine
 10
143.6533828685875
 20
242.5301141835794
 30
0.0
 11
195.2199465724189
 21
242.5301141835794
 31
0.0
  0
LINE
  5
12508
330
11EA9
100
AcDbEntity
  8
TEXT
 62
     0
370
    -2
100
AcDbLine
 10
255.5097990719801
 20
242.5301141835794
 30
0.0
 11
240.6366132390856
 21
242.5301141835794
 31
0.0
  0
SOLID
  5
12509
330
11EA9
100
AcDbEntity
  8
TEXT
 62
     0
100
AcDbTrace
 10
143.6533828685875
 20
243.0301141835794
 30
0.0
 11
143.6533828685875
 21
242.0301141835794
 31
0.0
 12
140.6533828685875
 22
242.5301141835794
 32
0.0
 13
140.6533828685875
 23
242.5301141835794
 33
0.0
  0
SOLID
  5
1250A
330
11EA9
100
AcDbEntity
  8
TEXT
 62
     0
100
AcDbTrace
 10
255.5097990719801
 20
243.0301141835794
 30
0.0
 11
255.5097990719801
 21
242.0301141835794
 31
0.0
 12
258.5097990719801
 22
242.5301141835794
 32
0.0
 13
258.5097990719801
 23
242.5301141835794
 33
0.0
  0
MTEXT
  5
1250B
330
11EA9
100
AcDbEntity
  8
TEXT
 62
     0
100
AcDbMText
 10
217.9282799057522
 20
242.5301141835794
 30
0.0
 40
1.75
 41
0.0
 46
0.0
 71
     5
 72
     1
  1
\A1;HORIZONTAL TRACK LENGTH\P(BACKROOM: DOOR HEIGHT+18")
  7
WEB PAGE
 73
     1
 44
1.0
  0
POINT
  5
1250C
330
11EA9
100
AcDbEntity
  8
Defpoints
 62
     0
100
AcDbPoint
 10
140.6533828685875
 20
235.0538480112669
 30
0.0
  0
POINT
  5
1250D
330
11EA9
100
AcDbEntity
  8
Defpoints
 62
     0
100
AcDbPoint
 10
258.5097990719801
 20
303.5085879753311
 30
0.0
  0
POINT
  5
1250E
330
11EA9
100
AcDbEntity
  8
Defpoints
 62
     0
100
AcDbPoint
 10
258.5097990719801
 20
242.5301141835794
 30
0.0
  0
ENDBLK
  5
11EB5
330
11EA9
100
AcDbEntity
  8
0
100
AcDbBlockEnd
  0
BLOCK
  5
12043
330
12034
100
AcDbEntity
  8
0
100
AcDbBlockBegin
  2
A$C2D8E259A
 70
     0
 10
0.0
 20
0.0
 30
0.0
  3
A$C2D8E259A
  1

  0
LINE
  5
12035
330
12034
100
AcDbEntity
  8
0
100
AcDbLine
 10
-0.0000004604032604
 20
2.095456975818166
 30
0.0
 11
0.9999995395967395
 21
2.095456975818166
 31
0.0
  0
LINE
  5
12036
330
12034
100
AcDbEntity
  8
0
100
AcDbLine
 10
0.0549995395967393
 20
2.040456975818166
 30
0.0
 11
0.9999995395967395
 21
2.040456975818166
 31
0.0
  0
LINE
  5
12037
330
12034
100
AcDbEntity
  8
0
100
AcDbLine
 10
0.8478670952251974
 20
0.3621827433166693
 30
0.0
 11
0.6627309988545634
 21
0.1415461353480936
 31
0.0
  0
LINE
  5
12038
330
12034
100
AcDbEntity
  8
0
100
AcDbLine
 10
0.8899995395967437
 20
0.3268294247839059
 30
0.0
 11
0.8478670952251974
 21
0.3621827433166658
 31
0.0
  0
LINE
  5
12039
330
12034
100
AcDbEntity
  8
0
100
AcDbLine
 10
0.2262781434198011
 20
0.2224495439404386
 30
0.0
 11
0.0549995395967393
 21
0.6071475867100134
 31
0.0
  0
LINE
  5
1203A
330
12034
100
AcDbEntity
  8
0
100
AcDbLine
 10
0.1751036101700158
 20
0.2021667940502745
 30
0.0
 11
-0.0000004604032569
 21
0.5954569758181663
 31
0.0
  0
ARC
  5
1203B
330
12034
100
AcDbEntity
  8
0
100
AcDbCircle
 10
0.4673896658592263
 20
0.3054569758181671
 30
0.0
 40
0.255
100
AcDbArc
 50
198.997042049035
 51
320.0
  0
LINE
  5
1203C
330
12034
100
AcDbEntity
  8
0
100
AcDbLine
 10
0.8899995395967366
 20
0.3268294247839059
 30
0.0
 11
0.7048634432261061
 21
0.1061928168153337
 31
0.0
  0
ARC
  5
1203D
330
12034
100
AcDbEntity
  8
0
100
AcDbCircle
 10
0.4673896658592263
 20
0.3054569758181671
 30
0.0
 40
0.31
100
AcDbArc
 50
199.4627615683172
 51
320.0
  0
LINE
  5
1203E
330
12034
100
AcDbEntity
  8
0
100
AcDbLine
 10
-0.0000004604032604
 20
1.184456975818165
 30
0.0
 11
0.0549995395967429
 21
1.184456975818165
 31
0.0
  0
LINE
  5
1203F
330
12034
100
AcDbEntity
  8
0
100
AcDbLine
 10
-0.0000004604032604
 20
1.456456975818166
 30
0.0
 11
0.0549995395967429
 21
1.456456975818166
 31
0.0
  0
LINE
  5
12040
330
12034
100
AcDbEntity
  8
0
100
AcDbLine
 10
0.0549995395967393
 20
0.6071475867100134
 30
0.0
 11
0.0549995395967393
 21
2.040456975818166
 31
0.0
  0
LINE
  5
12041
330
12034
100
AcDbEntity
  8
0
100
AcDbLine
 10
-0.0000004604032569
 20
0.5954569758181663
 30
0.0
 11
-0.0000004604032604
 21
2.095456975818166
 31
0.0
  0
LINE
  5
12042
330
12034
100
AcDbEntity
  8
0
100
AcDbLine
 10
0.9999995395967395
 20
2.095456975818166
 30
0.0
 11
0.9999995395967395
 21
2.040456975818166
 31
0.0
  0
ENDBLK
  5
12044
330
12034
100
AcDbEntity
  8
0
100
AcDbBlockEnd
  0
BLOCK
  5
1206B
330
1205E
100
AcDbEntity
  8
0
100
AcDbBlockBegin
  2
*D73
 70
     1
 10
0.0
 20
0.0
 30
0.0
  3
*D73
  1

  0
ARC
  5
12520
330
1205E
100
AcDbEntity
  8
TEXT
 62
     0
370
    -2
100
AcDbCircle
 10
218.9863120290153
 20
221.1999923624842
 30
0.0
 40
5.663360582444524
100
AcDbArc
 50
118.5653662259091
 51
149.2826831129546
  0
ARC
  5
12521
330
1205E
100
AcDbEntity
  8
TEXT
 62
     0
370
    -2
100
AcDbCircle
 10
218.9863120290153
 20
221.1999923624842
 30
0.0
 40
5.663360582444524
100
AcDbArc
 50
255.7173168870455
 51
286.4346337740909
  0
SOLID
  5
12522
330
1205E
100
AcDbEntity
  8
TEXT
 62
     0
100
AcDbTrace
 10
214.5996760556139
 20
223.9604224508334
 30
0.0
 11
213.6353892913361
 21
224.2252828598015
 31
0.0
 12
213.3229514465707
 22
221.1999923624842
 32
0.0
 13
213.3229514465707
 23
221.1999923624842
 33
0.0
  0
SOLID
  5
12523
330
1205E
100
AcDbEntity
  8
TEXT
 62
     0
100
AcDbTrace
 10
217.3418417013094
 20
215.2771151833537
 30
0.0
 11
217.8364108200894
 21
216.1462534846321
 31
0.0
 12
214.9817113568642
 22
217.195391690333
 32
0.0
 13
214.9817113568642
 23
217.195391690333
 33
0.0
  0
MTEXT
  5
12524
330
1205E
100
AcDbEntity
  8
TEXT
 62
     0
100
AcDbMText
 10
213.6612524674275
 20
219.2719379669006
 30
0.0
 40
1.75
 41
0.0
 46
0.0
 71
     5
 72
     1
  1
\A1;45°
  7
WEB PAGE
 73
     1
 44
1.0
  0
POINT
  5
12525
330
1205E
100
AcDbEntity
  8
Defpoints
 62
     0
100
AcDbPoint
 10
214.0816978938269
 20
218.3683120712619
 30
0.0
  0
POINT
  5
12526
330
1205E
100
AcDbEntity
  8
Defpoints
 62
     0
100
AcDbPoint
 10
207.2540789819814
 20
209.4677593154503
 30
0.0
  0
POINT
  5
12527
330
1205E
100
AcDbEntity
  8
Defpoints
 62
     0
100
AcDbPoint
 10
229.0737967348033
 20
221.1999923624842
 30
0.0
  0
POINT
  5
12528
330
1205E
100
AcDbEntity
  8
Defpoints
 62
     0
100
AcDbPoint
 10
207.2540789819815
 20
221.1999923624841
 30
0.0
  0
POINT
  5
12529
330
1205E
100
AcDbEntity
  8
Defpoints
 62
     0
100
AcDbPoint
 10
218.9863120290153
 20
221.1999923624842
 30
0.0
  0
ENDBLK
  5
1206C
330
1205E
100
AcDbEntity
  8
0
100
AcDbBlockEnd
  0
BLOCK
  5
1215C
330
1213E
100
AcDbEntity
  8
0
100
AcDbBlockBegin
  2
A$C3C365376
 70
     0
 10
0.0
 20
0.0
 30
0.0
  3
A$C3C365376
  1

  0
LINE
  5
1213F
330
1213E
100
AcDbEntity
  8
0
100
AcDbLine
 10
117.8564162033925
 20
68.4547399640642
 30
0.0
 11
10.54130693244073
 21
13.77496067523876
 31
0.0
  0
LINE
  5
12140
330
1213E
100
AcDbEntity
  8
0
  6
HIDDEN
100
AcDbLine
 10
117.5840219035487
 20
68.98934387857721
 30
0.0
 11
10.26891263259699
 21
14.3095645897518
 31
0.0
  0
ARC
  5
12141
330
1213E
100
AcDbEntity
  8
0
100
AcDbCircle
 10
17.56000005841414
 20
-0.0000001887134431
 30
0.0
 40
15.46
100
AcDbArc
 50
117.0000000000003
 51
180.0
  0
ARC
  5
12142
330
1213E
100
AcDbEntity
  8
0
100
AcDbCircle
 10
17.56000005841414
 20
-0.0000001887134431
 30
0.0
 40
17.56
100
AcDbArc
 50
117.0000000000003
 51
180.0
  0
ARC
  5
12143
330
1213E
100
AcDbEntity
  8
0
  6
HIDDEN
100
AcDbCircle
 10
17.56000005841414
 20
-0.0000001887134431
 30
0.0
 40
16.06
100
AcDbArc
 50
117.0000000000003
 51
180.0
  0
CIRCLE
  5
12144
330
1213E
100
AcDbEntity
  8
0
100
AcDbCircle
 10
6.646739689966466
 20
13.23838039697907
 30
0.0
 40
0.136
  0
CIRCLE
  5
12145
330
1213E
100
AcDbEntity
  8
0
100
AcDbCircle
 10
7.591206605606117
 20
13.71961032670299
 30
0.0
 40
0.25
  0
CIRCLE
  5
12146
330
1213E
100
AcDbEntity
  8
0
100
AcDbCircle
 10
11.1017723109083
 20
15.5083328956768
 30
0.0
 40
0.136
  0
LINE
  5
12147
330
1213E
100
AcDbEntity
  8
FRAMING
100
AcDbLine
 10
2.100000058414224
 20
-0.0000001887134431
 30
0.0
 11
0.0000000584140878
 21
-0.0000001887134431
 31
0.0
  0
CIRCLE
  5
12148
330
1213E
100
AcDbEntity
  8
0
100
AcDbCircle
 10
0.4398259673837118
 20
0.5999998112865228
 30
0.0
 40
0.136
  0
CIRCLE
  5
12149
330
1213E
100
AcDbEntity
  8
0
100
AcDbCircle
 10
1.189825967383683
 20
0.5999998112864944
 30
0.0
 40
0.136
  0
ARC
  5
1214A
330
1213E
100
AcDbEntity
  8
0
  6
HIDDEN
100
AcDbCircle
 10
17.56000005841417
 20
-0.0000001887134431
 30
0.0
 40
16.06
100
AcDbArc
 50
178.9296554388587
 51
179.0210950958157
  0
LINE
  5
1214B
330
1213E
100
AcDbEntity
  8
0
100
AcDbLine
 10
116.9030361539394
 20
70.32585366485981
 30
0.0
 11
9.587926882987687
 21
15.64607437603436
 31
0.0
  0
CIRCLE
  5
1214C
330
1213E
100
AcDbEntity
  8
0
100
AcDbCircle
 10
28.03089627048729
 20
24.13415239072819
 30
0.0
 40
0.136
  0
CIRCLE
  5
1214D
330
1213E
100
AcDbEntity
  8
0
100
AcDbCircle
 10
28.03089627048729
 20
24.13415239072819
 30
0.0
 40
0.136
  0
CIRCLE
  5
1214E
330
1213E
100
AcDbEntity
  8
0
100
AcDbCircle
 10
49.41505285100811
 20
35.02992438447731
 30
0.0
 40
0.136
  0
CIRCLE
  5
1214F
330
1213E
100
AcDbEntity
  8
0
100
AcDbCircle
 10
49.41505285100811
 20
35.02992438447731
 30
0.0
 40
0.136
  0
CIRCLE
  5
12150
330
1213E
100
AcDbEntity
  8
0
100
AcDbCircle
 10
70.79920943152893
 20
45.92569637822643
 30
0.0
 40
0.136
  0
CIRCLE
  5
12151
330
1213E
100
AcDbEntity
  8
0
100
AcDbCircle
 10
70.79920943152893
 20
45.92569637822643
 30
0.0
 40
0.136
  0
CIRCLE
  5
12152
330
1213E
100
AcDbEntity
  8
0
100
AcDbCircle
 10
85.50081708063704
 20
53.41653962392896
 30
0.0
 40
0.136
  0
CIRCLE
  5
12153
330
1213E
100
AcDbEntity
  8
0
100
AcDbCircle
 10
85.50081708063704
 20
53.41653962392896
 30
0.0
 40
0.136
  0
CIRCLE
  5
12154
330
1213E
100
AcDbEntity
  8
0
100
AcDbCircle
 10
92.18336601204976
 20
56.82146837197556
 30
0.0
 40
0.136
  0
CIRCLE
  5
12155
330
1213E
100
AcDbEntity
  8
0
100
AcDbCircle
 10
92.18336601204976
 20
56.82146837197556
 30
0.0
 40
0.136
  0
CIRCLE
  5
12156
330
1213E
100
AcDbEntity
  8
0
100
AcDbCircle
 10
116.5681880593118
 20
69.66141649437318
 30
0.0
 40
0.136
  0
LINE
  5
12157
330
1213E
100
AcDbEntity
  8
0
100
AcDbLine
 10
117.8564162033925
 20
68.4547399640642
 30
0.0
 11
116.9030361539394
 21
70.32585366485981
 31
0.0
  0
CIRCLE
  5
12158
330
1213E
100
AcDbEntity
  8
0
100
AcDbCircle
 10
113.7902742236177
 20
67.83073799065957
 30
0.0
 40
0.136
  0
CIRCLE
  5
12159
330
1213E
100
AcDbEntity
  8
0
100
AcDbCircle
 10
113.7902742236177
 20
67.83073799065957
 30
0.0
 40
0.136
  0
CIRCLE
  5
1215A
330
1213E
100
AcDbEntity
  8
0
100
AcDbCircle
 10
116.9086809341164
 20
68.99316160123189
 30
0.0
 40
0.136
  0
CIRCLE
  5
1215B
330
1213E
100
AcDbEntity
  8
0
100
AcDbCircle
 10
116.157010303493
 20
69.03665025559283
 30
0.0
 40
0.2075
  0
ENDBLK
  5
1215D
330
1213E
100
AcDbEntity
  8
0
100
AcDbBlockEnd
  0
BLOCK
  5
1225F
330
12254
100
AcDbEntity
  8
0
100
AcDbBlockBegin
  2
A$C73DC2C6A
 70
     0
 10
0.0
 20
0.0
 30
0.0
  3
A$C73DC2C6A
  1

  0
LINE
  5
12255
330
12254
100
AcDbEntity
  8
0
100
AcDbLine
 10
0.000000041477648
 20
1.625000210335571
 30
0.0
 11
15.25288226494265
 21
1.625000210335571
 31
0.0
  0
LINE
  5
12256
330
12254
100
AcDbEntity
  8
0
100
AcDbLine
 10
0.000000041477648
 20
0.0000002103355712
 30
0.0
 11
15.25288226494265
 21
0.0000002103355712
 31
0.0
  0
LINE
  5
12257
330
12254
100
AcDbEntity
  8
0
100
AcDbLine
 10
0.000000041477648
 20
0.1030002103355798
 30
0.0
 11
15.25288226494265
 21
0.1030002103355798
 31
0.0
  0
LWPOLYLINE
  5
12258
330
12254
100
AcDbEntity
  8
0
100
AcDbPolyline
 90
        4
 70
     1
 43
0.0
 10
6.373033806874474
 20
1.017500210335555
 10
8.623033806859353
 20
1.017500210335555
 42
-0.6078378199146741
 10
8.623033806874474
 20
0.6075002103355303
 10
6.373033806874644
 20
0.6075002103354735
 42
-0.6078378199146746
  0
LWPOLYLINE
  5
12259
330
12254
100
AcDbEntity
  8
0
100
AcDbPolyline
 90
        4
 70
     1
 43
0.0
 10
0.3746067945560583
 20
1.017500210335555
 10
2.624606794540937
 20
1.017500210335555
 42
-0.6078378199146741
 10
2.624606794556058
 20
0.6075002103355303
 10
0.3746067945562288
 20
0.6075002103354735
 42
-0.6078378199146746
  0
LINE
  5
1225A
330
12254
100
AcDbEntity
  8
0
100
AcDbLine
 10
0.000000041477648
 20
1.625000210335571
 30
0.0
 11
0.000000041477648
 21
0.0000002103355712
 31
0.0
  0
LWPOLYLINE
  5
1225B
330
12254
100
AcDbEntity
  8
0
100
AcDbPolyline
 90
        4
 70
     1
 43
0.0
 10
3.373820300716971
 20
1.017500210335555
 10
5.623820300701851
 20
1.017500210335555
 42
-0.6078378199146741
 10
5.623820300716971
 20
0.6075002103355303
 10
3.373820300717142
 20
0.6075002103354735
 42
-0.6078378199146746
  0
LWPOLYLINE
  5
1225C
330
12254
100
AcDbEntity
  8
0
100
AcDbPolyline
 90
        4
 70
     1
 43
0.0
 10
9.372247313035387
 20
1.017500210335555
 10
11.62224731302027
 20
1.017500210335555
 42
-0.6078378199146741
 10
11.62224731303538
 20
0.6075002103355303
 10
9.372247313035558
 20
0.6075002103354735
 42
-0.6078378199146746
  0
LINE
  5
1225D
330
12254
100
AcDbEntity
  8
0
100
AcDbLine
 10
15.25288226494265
 20
1.625000210335571
 30
0.0
 11
15.25288226494265
 21
0.0000002103355712
 31
0.0
  0
LWPOLYLINE
  5
1225E
330
12254
100
AcDbEntity
  8
0
100
AcDbPolyline
 90
        4
 70
     1
 43
0.0
 10
12.37146081919289
 20
1.017500210335555
 10
14.62146081917777
 20
1.017500210335555
 42
-0.6078378199146741
 10
14.62146081919289
 20
0.6075002103355303
 10
12.37146081919306
 20
0.6075002103354735
 42
-0.6078378199146746
  0
ENDBLK
  5
12260
330
12254
100
AcDbEntity
  8
0
100
AcDbBlockEnd
  0
BLOCK
  5
12335
330
12307
100
AcDbEntity
  8
0
100
AcDbBlockBegin
  2
A$C3F914E2A
 70
     0
 10
0.0
 20
0.0
 30
0.0
  3
A$C3F914E2A
  1

  0
LINE
  5
12308
330
12307
100
AcDbEntity
  8
0
100
AcDbLine
 10
117.6128616337121
 20
61.26325579472501
 30
0.0
 11
0.0000004408475434
 21
1.336509829104812
 31
0.0
  0
LINE
  5
12309
330
12307
100
AcDbEntity
  8
0
100
AcDbLine
 10
118.2484483333475
 20
60.01584666086126
 30
0.0
 11
0.6355871404829259
 21
0.0891006952410578
 31
0.0
  0
LINE
  5
1230A
330
12307
100
AcDbEntity
  8
0
100
AcDbLine
 10
0.6809861904568493
 20
0.0000000428222506
 30
0.0
 11
118.2938473833214
 21
59.92674600844242
 31
0.0
  0
LINE
  5
1230B
330
12307
100
AcDbEntity
  8
0
100
AcDbLine
 10
0.0000004408475434
 20
1.336509829104812
 30
0.0
 11
0.6809861904568493
 21
0.0000000428222506
 31
0.0
  0
LINE
  5
1230C
330
12307
100
AcDbEntity
  8
0
100
AcDbLine
 10
1.506630123110596
 20
1.110917274875134
 30
0.0
 11
0.7403645123084744
 21
0.7204854450990866
 31
0.0
  0
LINE
  5
1230D
330
12307
100
AcDbEntity
  8
0
100
AcDbLine
 10
0.5633082174100537
 20
1.067977989532522
 30
0.0
 11
1.329573828212176
 21
1.458409819308599
 31
0.0
  0
ARC
  5
1230E
330
12307
100
AcDbEntity
  8
0
100
AcDbCircle
 10
0.651836364859264
 20
0.8942317173158187
 30
0.0
 40
0.195
100
AcDbArc
 50
116.9999999999981
 51
296.9999999999981
  0
CIRCLE
  5
1230F
330
12307
100
AcDbEntity
  8
0
100
AcDbCircle
 10
2.763521827185854
 20
1.970189201698588
 30
0.0
 40
0.195
  0
CIRCLE
  5
12310
330
12307
100
AcDbEntity
  8
0
100
AcDbCircle
 10
2.095266934044559
 20
1.629696326893935
 30
0.0
 40
0.195
  0
ARC
  5
12311
330
12307
100
AcDbEntity
  8
0
100
AcDbCircle
 10
1.418101975661386
 20
1.284663547091867
 30
0.0
 40
0.195
100
AcDbArc
 50
296.9999999999981
 51
116.9999999999981
  0
CIRCLE
  5
12312
330
12307
100
AcDbEntity
  8
0
100
AcDbCircle
 10
3.431776720327093
 20
2.31068207650324
 30
0.0
 40
0.195
  0
LINE
  5
12313
330
12307
100
AcDbEntity
  8
0
100
AcDbLine
 10
7.556818425764618
 20
4.631349421988261
 30
0.0
 11
7.932823178972114
 21
4.822933412878342
 31
0.0
  0
LINE
  5
12314
330
12307
100
AcDbEntity
  8
0
100
AcDbLine
 10
7.733874720663038
 20
4.283856877554796
 30
0.0
 11
8.109879473870535
 21
4.475440868444906
 31
0.0
  0
CIRCLE
  5
12315
330
12307
100
AcDbEntity
  8
0
100
AcDbCircle
 10
6.556876397018584
 20
3.622418334575769
 30
0.0
 40
0.078
  0
CIRCLE
  5
12316
330
12307
100
AcDbEntity
  8
0
100
AcDbCircle
 10
6.270862382182656
 20
4.183752444814444
 30
0.0
 40
0.078
  0
ARC
  5
12317
330
12307
100
AcDbEntity
  8
0
100
AcDbCircle
 10
5.401792145307581
 20
3.314455071427374
 30
0.0
 40
0.195
100
AcDbArc
 50
296.9999999999981
 51
116.9999999999981
  0
CIRCLE
  5
12318
330
12307
100
AcDbEntity
  8
0
100
AcDbCircle
 10
4.322783244515449
 20
2.764672576242787
 30
0.0
 40
0.195
  0
ARC
  5
12319
330
12307
100
AcDbEntity
  8
0
100
AcDbCircle
 10
5.025787392100085
 20
3.122871080537294
 30
0.0
 40
0.195
100
AcDbArc
 50
116.9999999999981
 51
296.9999999999981
  0
LINE
  5
1231A
330
12307
100
AcDbEntity
  8
0
100
AcDbLine
 10
5.114315539549295
 20
2.949124808320561
 30
0.0
 11
5.490320292756791
 21
3.140708799210671
 31
0.0
  0
LINE
  5
1231B
330
12307
100
AcDbEntity
  8
0
100
AcDbLine
 10
4.937259244650874
 20
3.296617352754026
 30
0.0
 11
5.313263997858371
 21
3.488201343644107
 31
0.0
  0
ARC
  5
1231C
330
12307
100
AcDbEntity
  8
0
100
AcDbCircle
 10
7.645346573213828
 20
4.457603149771529
 30
0.0
 40
0.195
100
AcDbArc
 50
116.9999999999981
 51
296.9999999999981
  0
CIRCLE
  5
1231D
330
12307
100
AcDbEntity
  8
0
100
AcDbCircle
 10
6.942342425629192
 20
4.099404645477022
 30
0.0
 40
0.195
  0
CIRCLE
  5
1231E
330
12307
100
AcDbEntity
  8
0
100
AcDbCircle
 10
11.39737504657108
 20
6.369357144174784
 30
0.0
 40
0.195
  0
CIRCLE
  5
1231F
330
12307
100
AcDbEntity
  8
0
100
AcDbCircle
 10
9.615361998194316
 20
5.461376144695691
 30
0.0
 40
0.195
  0
ARC
  5
12320
330
12307
100
AcDbEntity
  8
0
100
AcDbCircle
 10
8.021351326421324
 20
4.649187140661638
 30
0.0
 40
0.195
100
AcDbArc
 50
296.9999999999981
 51
116.9999999999981
  0
CIRCLE
  5
12321
330
12307
100
AcDbEntity
  8
0
100
AcDbCircle
 10
14.73864951227745
 20
8.071821518198078
 30
0.0
 40
0.1325
  0
CIRCLE
  5
12322
330
12307
100
AcDbEntity
  8
0
100
AcDbCircle
 10
13.17938809494779
 20
7.277338143653878
 30
0.0
 40
0.195
  0
CIRCLE
  5
12323
330
12307
100
AcDbEntity
  8
0
100
AcDbCircle
 10
19.19368213321928
 20
10.34177401689578
 30
0.0
 40
0.1325
  0
ARC
  5
12324
330
12307
100
AcDbEntity
  8
0
100
AcDbCircle
 10
36.03147792406901
 20
18.9210594857239
 30
0.0
 40
0.1325
100
AcDbArc
 50
116.9999999999981
 51
296.9999999999981
  0
LINE
  5
12325
330
12307
100
AcDbEntity
  8
0
100
AcDbLine
 10
36.27428800274305
 20
18.89606917371554
 30
0.0
 11
36.09163166528447
 21
18.80300112126895
 31
0.0
  0
LINE
  5
12326
330
12307
100
AcDbEntity
  8
0
100
AcDbLine
 10
35.9713241828535
 20
19.03911785017885
 30
0.0
 11
36.15398052031208
 21
19.13218590262545
 31
0.0
  0
ARC
  5
12327
330
12307
100
AcDbEntity
  8
0
100
AcDbCircle
 10
36.21413426152753
 20
19.0141275381705
 30
0.0
 40
0.1325
100
AcDbArc
 50
296.9999999999981
 51
116.9999999999981
  0
ARC
  5
12328
330
12307
100
AcDbEntity
  8
0
100
AcDbCircle
 10
57.41563450458983
 20
29.81683147947303
 30
0.0
 40
0.1325
100
AcDbArc
 50
116.9999999999981
 51
296.9999999999981
  0
LINE
  5
12329
330
12307
100
AcDbEntity
  8
0
100
AcDbLine
 10
57.35548076337432
 20
29.93488984392798
 30
0.0
 11
57.5381371008329
 21
30.02795789637457
 31
0.0
  0
LINE
  5
1232A
330
12307
100
AcDbEntity
  8
0
100
AcDbLine
 10
57.65844458326387
 20
29.79184116746467
 30
0.0
 11
57.47578824580529
 21
29.69877311501807
 31
0.0
  0
ARC
  5
1232B
330
12307
100
AcDbEntity
  8
0
100
AcDbCircle
 10
57.59829084204835
 20
29.90989953191962
 30
0.0
 40
0.1325
100
AcDbArc
 50
296.9999999999981
 51
116.9999999999981
  0
LINE
  5
1232C
330
12307
100
AcDbEntity
  8
0
100
AcDbLine
 10
79.04260116378458
 20
40.68761316121373
 30
0.0
 11
78.85994482632606
 21
40.59454510876713
 31
0.0
  0
LINE
  5
1232D
330
12307
100
AcDbEntity
  8
0
100
AcDbLine
 10
78.73963734389509
 20
40.83066183767704
 30
0.0
 11
78.9222936813536
 21
40.92372989012363
 31
0.0
  0
ARC
  5
1232E
330
12307
100
AcDbEntity
  8
0
100
AcDbCircle
 10
78.79979108511054
 20
40.71260347322208
 30
0.0
 40
0.1325
100
AcDbArc
 50
116.9999999999981
 51
296.9999999999981
  0
ARC
  5
1232F
330
12307
100
AcDbEntity
  8
0
100
AcDbCircle
 10
78.98244742256912
 20
40.80567152566868
 30
0.0
 40
0.1325
100
AcDbArc
 50
296.9999999999981
 51
116.9999999999981
  0
ARC
  5
12330
330
12307
100
AcDbEntity
  8
0
100
AcDbCircle
 10
100.1839476656315
 20
51.60837546697127
 30
0.0
 40
0.1325
100
AcDbArc
 50
116.9999999999981
 51
296.9999999999981
  0
ARC
  5
12331
330
12307
100
AcDbEntity
  8
0
100
AcDbCircle
 10
100.36660400309
 20
51.70144351941786
 30
0.0
 40
0.1325
100
AcDbArc
 50
296.9999999999981
 51
116.9999999999981
  0
LINE
  5
12332
330
12307
100
AcDbEntity
  8
0
100
AcDbLine
 10
100.4267577443055
 20
51.58338515496286
 30
0.0
 11
100.244101406847
 21
51.49031710251631
 31
0.0
  0
LINE
  5
12333
330
12307
100
AcDbEntity
  8
0
100
AcDbLine
 10
100.123793924416
 20
51.72643383142622
 30
0.0
 11
100.3064502618745
 21
51.81950188387276
 31
0.0
  0
LINE
  5
12334
330
12307
100
AcDbEntity
  8
0
100
AcDbLine
 10
118.2938473833214
 20
59.92674600844248
 30
0.0
 11
117.6128616337121
 21
61.26325579472501
 31
0.0
  0
ENDBLK
  5
12336
330
12307
100
AcDbEntity
  8
0
100
AcDbBlockEnd
  0
ENDSEC
  0
SECTION
  2
ENTITIES
  0
INSERT
  5
3374
330
17
100
AcDbEntity
  8
AME_FRZ
100
AcDbBlockReference
  2
AME_NIL
 10
0.0
 20
0.0
 30
0.0
 41
24.609375
 42
24.609375
 43
24.609375
  0
INSERT
  5
3375
330
17
100
AcDbEntity
  8
AME_FRZ
100
AcDbBlockReference
  2
AME_SOL
 10
0.0
 20
0.0
 30
0.0
 41
24.609375
 42
24.609375
 43
24.609375
1001
AME_SOL
1000
R2.1
1000
AME2
1000
sq cm
1070
     3
1070
     0
1070
     3
1000
wire
1040
45.0
1000
U
1040
1.0
1000
cm
1000
gm
1000
MILD_STEEL
1070
    25
1000
CSG
1070
     1
1070
     3
1070
     3
1070
     3
1070
     0
1000
cu cm
1070
     1
1070
     0
1005
2D0D
  0
INSERT
  5
3376
330
17
100
AcDbEntity
  8
ASHADE
 62
     1
100
AcDbBlockReference
  2
AVE_RENDER
 10
0.0
 20
0.0
 30
0.0
 41
24.609375
 42
24.609375
 43
24.609375
1001
AVE_RENDER
1002
{
1070
     2
1000
Pref
1070
    30
1070
    20
1070
     0
1070
     0
1000

1070
    10
1070
     0
1070
    30
1040
1.0
1070
     1
1040
0.3
1040
0.7
1040
0.0
1040
10.0
1010
-1.0
1020
-1.0
1030
-1.0
1040
0.3
1070
    49
1002
}
  0
INSERT
  5
3377
330
17
100
AcDbEntity
  8
ASHADE
 62
     3
100
AcDbBlockReference
  2
AVE_RENDER
 10
0.0
 20
0.0
 30
0.0
 41
24.609375
 42
24.609375
 43
24.609375
1001
AVE_RENDER
1002
{
1070
     0
1000
Full Opt
1070
     0
1070
     1
1070
     1
1070
     1
1070
     0
1070
     0
1070
     0
1070
     1
1070
     1
1040
0.0001
1040
0.0001
1002
}
  0
INSERT
  5
3378
330
17
100
AcDbEntity
  8
ASHADE
 62
     4
100
AcDbBlockReference
  2
AVE_RENDER
 10
0.0
 20
0.0
 30
0.0
 41
24.609375
 42
24.609375
 43
24.609375
1001
AVE_RENDER
1002
{
1070
     0
1000
Quick Opt
1070
     0
1070
     1
1070
     1
1070
     1
1070
     0
1070
     0
1070
     1
1002
}
  0
INSERT
  5
3E3C
330
17
100
AcDbEntity
  8
AME_FRZ
100
AcDbBlockReference
  2
AME_NIL
 10
0.0
 20
0.0
 30
0.0
 41
34.993056
 42
34.993056
 43
34.993056
  0
INSERT
  5
3E3D
330
17
100
AcDbEntity
  8
AME_FRZ
100
AcDbBlockReference
  2
AME_SOL
 10
0.0
 20
0.0
 30
0.0
 41
34.993056
 42
34.993056
 43
34.993056
1001
AME_SOL
1000
R2.1
1000
AME2
1000
sq cm
1070
     3
1070
     0
1070
     3
1000
wire
1040
45.0
1000
U
1040
1.0
1000
cm
1000
gm
1000
MILD_STEEL
1070
    25
1000
CSG
1070
     1
1070
     3
1070
     3
1070
     3
1070
     0
1000
cu cm
1070
     1
1070
     0
1005
2D0D
  0
INSERT
  5
3E3E
330
17
100
AcDbEntity
  8
ASHADE
 62
     1
100
AcDbBlockReference
  2
AVE_RENDER
 10
0.0
 20
0.0
 30
0.0
 41
34.993056
 42
34.993056
 43
34.993056
1001
AVE_RENDER
1002
{
1070
     2
1000
Pref
1070
    30
1070
    20
1070
     0
1070
     0
1000

1070
    10
1070
     0
1070
    30
1040
1.0
1070
     1
1040
0.3
1040
0.7
1040
0.0
1040
10.0
1010
-1.0
1020
-1.0
1030
-1.0
1040
0.3
1070
    49
1002
}
  0
INSERT
  5
3E3F
330
17
100
AcDbEntity
  8
ASHADE
 62
     3
100
AcDbBlockReference
  2
AVE_RENDER
 10
0.0
 20
0.0
 30
0.0
 41
34.993056
 42
34.993056
 43
34.993056
1001
AVE_RENDER
1002
{
1070
     0
1000
Full Opt
1070
     0
1070
     1
1070
     1
1070
     1
1070
     0
1070
     0
1070
     0
1070
     1
1070
     1
1040
0.0001
1040
0.0001
1002
}
  0
INSERT
  5
3E40
330
17
100
AcDbEntity
  8
ASHADE
 62
     4
100
AcDbBlockReference
  2
AVE_RENDER
 10
0.0
 20
0.0
 30
0.0
 41
34.993056
 42
34.993056
 43
34.993056
1001
AVE_RENDER
1002
{
1070
     0
1000
Quick Opt
1070
     0
1070
     1
1070
     1
1070
     1
1070
     0
1070
     0
1070
     1
1002
}
  0
MTEXT
  5
405A
330
17
100
AcDbEntity
  8
BDR
100
AcDbMText
 10
353.0635595970848
 20
56.58463448330076
 30
0.0
 40
0.1
 41
37.627
 46
0.0
 71
     1
 72
     5
  1

  7
SIMPLEX
 73
     1
 44
1.0
  0
MTEXT
  5
8913
330
17
100
AcDbEntity
  8
BDR
100
AcDbMText
 10
877.3233813939555
 20
282.200335478095
 30
0.0
 40
3.0
 41
0.0
 46
0.0
 71
     4
 72
     1
  1
\A1;
 73
     1
 44
1.0
  0
MTEXT
  5
BB0D
330
17
100
AcDbEntity
  8
HATCH
 48
0.5
100
AcDbMText
 10
862.711853351133
 20
170.0626199810501
 30
0.0
 40
1.1
 41
0.0
 46
0.0
 71
     4
 72
     1
  1

 73
     1
 44
1.0
  0
MTEXT
  5
BD7C
330
17
100
AcDbEntity
  8
BDR
100
AcDbMText
 10
648.3700742151118
 20
223.690432353357
 30
0.0
 40
2.5
 41
0.0
 46
0.0
 71
     1
 72
     1
  1

 73
     1
 44
1.0
  0
MTEXT
  5
CE5A
330
17
100
AcDbEntity
  8
BDR
100
AcDbMText
 10
645.7641368582438
 20
217.5930814931963
 30
0.0
 40
2.5
 41
0.0
 46
0.0
 71
     1
 72
     1
  1

 73
     1
 44
1.0
  0
MTEXT
  5
D3E4
330
17
100
AcDbEntity
  8
0
100
AcDbMText
 10
393.5054431651311
 20
218.3654697964034
 30
0.0
 40
2.5
 41
0.0
 46
0.0
 71
     1
 72
     1
  1

 73
     1
 44
1.0
  0
MTEXT
  5
D891
330
17
100
AcDbEntity
  8
BDR
100
AcDbMText
 10
278.8170020773584
 20
330.6127380359346
 30
0.0
 40
2.5
 41
0.0
 46
0.0
 71
     1
 72
     1
  1

 73
     1
 44
1.0
  0
MTEXT
  5
D894
330
17
100
AcDbEntity
  8
BDR
100
AcDbMText
 10
282.4572809863948
 20
283.699790306357
 30
0.0
 40
2.5
 41
0.0
 46
0.0
 71
     1
 72
     1
  1

 73
     1
 44
1.0
  0
MTEXT
  5
D8BC
330
17
100
AcDbEntity
  8
BDR
100
AcDbMText
 10
280.6377852630108
 20
262.5297979250931
 30
0.0
 40
2.5
 41
0.0
 46
0.0
 71
     1
 72
     1
  1

 73
     1
 44
1.0
  0
MTEXT
  5
D8BE
330
17
100
AcDbEntity
  8
BDR
100
AcDbMText
 10
280.052229178619
 20
230.2002619872308
 30
0.0
 40
2.5
 41
0.0
 46
0.0
 71
     1
 72
     1
  1

 73
     1
 44
1.0
  0
MTEXT
  5
D8C2
330
17
100
AcDbEntity
  8
BDR
100
AcDbMText
 10
210.2931674542633
 20
331.4813092531851
 30
0.0
 40
2.5
 41
0.0
 46
0.0
 71
     9
 72
     1
  1

 73
     1
 44
1.0
  0
MTEXT
  5
DE82
330
17
100
AcDbEntity
  8
0
100
AcDbMText
 10
230.9601867147205
 20
186.4290317625283
 30
0.0
 40
3.5
 41
0.0
 46
0.0
 71
     1
 72
     1
  1

 73
     1
 44
1.0
  0
DIMENSION
  5
11CDE
330
17
100
AcDbEntity
  8
TEXT
100
AcDbDimension
  2
*D64
 10
99.74439873530291
 20
255.753848011267
 30
0.0
 11
99.74439873530286
 21
202.7898988514811
 31
0.0
 70
   160
  1
FLOOR TO\PSHAFT CENTER
 71
     5
 42
132.7175538319264
 73
     0
 74
     0
 75
     0
  3
STANDARD
100
AcDbAlignedDimension
 13
134.2169295018095
 23
123.0362941793405
 33
0.0
 14
141.5919295018095
 24
255.753848011267
 34
0.0
 50
90.0
100
AcDbRotatedDimension
1001
ACAD
1000
DSTYLE
1002
{
1070
    40
1040
1.0
1002
}
  0
DIMENSION
  5
11CDF
330
17
100
AcDbEntity
  8
TEXT
100
AcDbDimension
  2
*D65
 10
78.52234592598829
 20
257.8220506712392
 30
0.0
 11
78.52234592598825
 21
181.424623123489
 31
0.0
 70
   160
  1
MINIMUM\PCEILING HEIGHT
 71
     5
 42
134.7857564918987
 73
     0
 74
     0
 75
     0
  3
STANDARD
100
AcDbAlignedDimension
 13
134.2169295018095
 23
123.0362941793405
 33
0.0
 14
138.2169295018095
 24
257.8220506712392
 34
0.0
 50
90.0
100
AcDbRotatedDimension
1001
ACAD
1000
DSTYLE
1002
{
1070
    40
1040
1.0
1002
}
  0
DIMENSION
  5
11CE0
330
17
100
AcDbEntity
  8
TEXT
100
AcDbDimension
  2
*D66
 10
180.063357343277
 20
235.0280241008174
 30
0.0
 11
180.0633573432769
 21
179.6692756482695
 31
0.0
 70
   160
  1
VERTICAL TRACK\PDOOR HEIGHT-8"
 71
     5
 42
111.9917299214769
 73
     0
 74
     0
 75
     0
  3
STANDARD
100
AcDbAlignedDimension
 13
209.4861505668555
 23
123.0362941793405
 33
0.0
 14
142.7782259511818
 24
235.0280241008174
 34
0.0
 50
90.0
100
AcDbRotatedDimension
1001
ACAD
1000
DSTYLE
1002
{
1070
    40
1040
1.0
1002
}
  0
DIMENSION
  5
11CE1
330
17
100
AcDbEntity
  8
TEXT
100
AcDbDimension
  2
*D67
 10
118.0575413775432
 20
123.0362941793405
 30
0.0
 11
118.0575413775432
 21
183.0362941793405
 31
0.0
 70
    32
  1
OPENING\PHEIGHT
 71
     5
 42
120.0
 73
     0
 74
     0
 75
     0
  3
STANDARD
100
AcDbAlignedDimension
 13
134.2169295018095
 23
243.0362941793405
 33
0.0
 14
134.2169295018095
 24
123.0362941793405
 34
0.0
 50
90.0
100
AcDbRotatedDimension
1001
ACAD
1000
DSTYLE
1002
{
1070
    40
1040
1.0
1002
}
  0
LINE
  5
11CE2
102
{ACAD_REACTORS
330
12468
102
}
330
17
100
AcDbEntity
  8
BDR
100
AcDbLine
 10
134.2169295018095
 20
123.0362941793405
 30
0.0
 11
134.2169295018095
 21
260.2732538237989
 31
0.0
  0
LINE
  5
11CE3
102
{ACAD_REACTORS
330
12468
102
}
330
17
100
AcDbEntity
  8
BDR
100
AcDbLine
 10
138.2169295018095
 20
123.0362941793405
 30
0.0
 11
138.2169295018095
 21
257.8220506712392
 31
0.0
  0
INSERT
  5
11CE4
330
17
100
AcDbEntity
  8
BDR
100
AcDbBlockReference
  2
A$C6F454818
 10
138.2169295018095
 20
123.0362941793405
 30
0.0
  0
LINE
  5
11CE5
330
17
100
AcDbEntity
  8
BDR
100
AcDbLine
 10
221.5803211345133
 20
123.0362941793405
 30
0.0
 11
134.2169295018095
 21
123.0362941793405
 31
0.0
  0
LINE
  5
11CE7
330
17
100
AcDbEntity
  8
BDR
100
AcDbLine
 10
143.2690223512286
 20
135.9017747485227
 30
0.0
 11
145.9563921309725
 21
137.8070675453008
 31
0.0
  0
SOLID
  5
11CE8
330
17
100
AcDbEntity
  8
BDR
100
AcDbTrace
 10
143.5582067749237
 20
135.4938870567593
 30
0.0
 11
142.9798379275332
 21
136.3096624402861
 31
0.0
 12
140.8216962006481
 22
134.1666682063514
 32
0.0
 13
140.8216962006481
 23
134.1666682063514
 33
0.0
  0
MTEXT
  5
11CE9
330
17
100
AcDbEntity
  8
TEXT
100
AcDbMText
 10
149.9938929532877
 20
137.040685061373
 30
0.0
 40
1.75
 41
0.0
 46
0.0
 71
     7
 72
     1
  1
JAMB BRACKETS
  7
WEB PAGE
 73
     1
 44
1.0
  0
LINE
  5
11CEA
330
17
100
AcDbEntity
  8
TEXT
100
AcDbLine
 10
145.9563921309725
 20
137.8070675453008
 30
0.0
 11
148.9563921309725
 21
137.8070675453008
 31
0.0
  0
MTEXT
  5
11CF6
330
17
100
AcDbEntity
  8
TEXT
100
AcDbMText
 10
156.8995012135224
 20
240.1385700375258
 30
0.0
 40
1.75
 41
0.0
 46
0.0
 71
     1
 72
     1
  1
19" VERTICAL ANGLE
  7
WEB PAGE
 73
     1
 44
1.0
  0
MTEXT
  5
11CF7
330
17
100
AcDbEntity
  8
TEXT
100
AcDbMText
 10
182.0592737279882
 20
246.4208221568841
 30
0.0
 40
1.75
 41
0.0
 46
0.0
 71
     6
 72
     1
  1
HORIZONTAL ANGLE
  7
WEB PAGE
 73
     1
 44
1.0
  0
LEADER
  5
11CFD
330
17
100
AcDbEntity
  8
TEXT
100
AcDbLeader
  3
STANDARD
 73
     0
 40
3.5
 76
     2
 10
143.9324363986765
 20
246.3574529875396
 30
0.0
 10
155.2962545383717
 20
246.3537903698627
 30
0.0
213
-30.35839136054324
223
2.172941992376536
233
0.0
1001
ACAD
1000
DSTYLE
1002
{
1070
    40
1040
1.0
1070
   147
1040
3.0
1002
}
  0
DIMENSION
  5
11CFE
330
17
100
AcDbEntity
  8
TEXT
100
AcDbDimension
  2
*D68
 10
118.0575413775432
 20
257.8220506712392
 30
0.0
 11
128.9325413775432
 21
272.3008621425022
 31
0.0
 70
   160
  1
MINIMUM\PHEADROOM
 71
     5
 42
14.78575649189869
 73
     0
 74
     0
 75
     0
  3
STANDARD
100
AcDbAlignedDimension
 13
134.2169295018095
 23
243.0362941793405
 33
0.0
 14
138.2169295018095
 24
257.8220506712392
 34
0.0
 50
90.0
100
AcDbRotatedDimension
1001
ACAD
1000
DSTYLE
1002
{
1070
    40
1040
1.0
1002
}
  0
LEADER
  5
11D00
330
17
100
AcDbEntity
  8
TEXT
100
AcDbLeader
  3
STANDARD
 73
     0
 40
3.5
 76
     2
 10
139.13166414243
 20
238.8495995985101
 30
0.0
 10
155.9615954346191
 20
238.8476822217861
 30
0.0
213
-28.01915490533588
223
-1.822965986319815
233
0.0
1001
ACAD
1000
DSTYLE
1002
{
1070
    40
1040
1.0
1070
   147
1040
3.0
1002
}
  0
LEADER
  5
11D01
330
17
100
AcDbEntity
  8
TEXT
100
AcDbLeader
  3
STANDARD
 73
     0
 74
     0
 75
     1
 40
3.5
 76
     3
 10
141.6050142418557
 20
234.1937525140189
 30
0.0
 10
150.5657661904963
 20
226.6974048509269
 30
0.0
 10
153.5657661904963
 20
226.6974048509269
 30
0.0
213
-48.64761024359063
223
59.9694878650547
233
0.0
1001
ACAD
1000
DSTYLE
1002
{
1070
    40
1040
1.0
1070
   147
1040
3.0
1002
}
  0
INSERT
  5
11D02
102
{ACAD_REACTORS
330
12468
102
}
330
17
100
AcDbEntity
  8
BDR
100
AcDbBlockReference
  2
19-vert-angle
 10
140.2478160617324
 20
242.0453818397245
 30
0.0
 50
90.0
  0
INSERT
  5
11D03
330
17
100
AcDbEntity
  8
BDR
100
AcDbBlockReference
  2
SP-8-34
 10
139.3769295018096
 20
235.9360366800953
 30
0.0
  0
LINE
  5
11D06
102
{ACAD_REACTORS
330
12468
102
}
330
17
100
AcDbEntity
  8
BDR
100
AcDbLine
 10
138.2169295018095
 20
243.0362941793405
 30
0.0
 11
134.2169295018095
 21
243.0362941793405
 31
0.0
  0
MTEXT
  5
11D07
330
17
100
AcDbEntity
  8
TEXT
100
AcDbMText
 10
154.4086580328253
 20
225.6956888143518
 30
0.0
 40
1.75
 41
0.0
 46
0.0
 71
     7
 72
     1
  1
SPLICE PLATE
  7
WEB PAGE
 73
     1
 44
1.0
  0
LINE
  5
11D0E
330
17
100
AcDbEntity
  8
0
100
AcDbLine
 10
196.218650287783
 20
271.9787749357355
 30
0.0
 11
194.7271125868537
 21
271.9787749357355
 31
0.0
  0
LINE
  5
11D0F
330
17
100
AcDbEntity
  8
0
100
AcDbLine
 10
194.7271125868537
 20
271.9787749357355
 30
0.0
 11
194.7271125868537
 21
286.6154271086588
 31
0.0
  0
LINE
  5
11D10
330
17
100
AcDbEntity
  8
0
100
AcDbLine
 10
194.8514471696089
 20
271.9787749357355
 30
0.0
 11
194.8514471696085
 21
286.6787787428247
 31
0.0
  0
LINE
  5
11D12
330
17
100
AcDbEntity
  8
0
100
AcDbLine
 10
196.2186502877828
 20
271.9787749357355
 30
0.0
 11
196.2186502877832
 21
287.3754035261628
 31
0.0
  0
CIRCLE
  5
11D13
330
17
100
AcDbEntity
  8
0
100
AcDbCircle
 10
195.4728814373184
 20
278.6261175958215
 30
0.0
 40
0.2171678892550922
  0
CIRCLE
  5
11D14
330
17
100
AcDbEntity
  8
0
100
AcDbCircle
 10
195.4728814373184
 20
272.6480344905029
 30
0.0
 40
0.2171678892550922
  0
CIRCLE
  5
11D15
330
17
100
AcDbEntity
  8
0
100
AcDbCircle
 10
195.4728814373184
 20
274.6407288589424
 30
0.0
 40
0.2171678892550922
  0
CIRCLE
  5
11D16
330
17
100
AcDbEntity
  8
0
100
AcDbCircle
 10
195.4728814373184
 20
275.6346895828409
 30
0.0
 40
0.2171678892550922
  0
CIRCLE
  5
11D17
330
17
100
AcDbEntity
  8
0
100
AcDbCircle
 10
195.4728814373184
 20
273.6419952144014
 30
0.0
 40
0.2171678892550922
  0
CIRCLE
  5
11D18
330
17
100
AcDbEntity
  8
0
100
AcDbCircle
 10
195.4728814373184
 20
277.6273839512804
 30
0.0
 40
0.2171678892550922
  0
CIRCLE
  5
11D19
330
17
100
AcDbEntity
  8
0
100
AcDbCircle
 10
195.4728814373184
 20
276.633423227382
 30
0.0
 40
0.2171678892550922
  0
MTEXT
  5
11D1B
330
17
100
AcDbEntity
  8
TEXT
100
AcDbMText
 10
231.9021556963449
 20
230.456332006391
 30
0.0
 40
1.75
 41
0.0
 46
0.0
 71
     4
 72
     1
  1
BACK AND INTERMEDIATE HANGERS\PSUPPLIED BY INSTALLERS
  7
WEB PAGE
 73
     1
 44
1.0
  0
LINE
  5
11D1C
330
17
100
AcDbEntity
  8
0
100
AcDbLine
 10
256.1557473939708
 20
303.4465587534634
 30
0.0
 11
256.1557473939708
 21
317.9148798705844
 31
0.0
  0
LINE
  5
11D1D
330
17
100
AcDbEntity
  8
0
100
AcDbLine
 10
256.280081976726
 20
303.4465587534634
 30
0.0
 11
256.2800819767252
 21
317.9782315047499
 31
0.0
  0
LINE
  5
11D1E
330
17
100
AcDbEntity
  8
0
100
AcDbLine
 10
257.6472850948999
 20
303.4465587534634
 30
0.0
 11
257.6472850949004
 21
318.6748562880885
 31
0.0
  0
LEADER
  5
11D1F
330
17
100
AcDbEntity
  8
TEXT
100
AcDbLeader
  3
STANDARD
 73
     0
 74
     0
 75
     1
 40
3.5
 76
     3
 10
224.2870910922349
 20
223.7510652680661
 30
0.0
 10
228.1857476791705
 20
231.7553933217076
 30
0.0
 10
231.1857476791705
 20
231.7553933217076
 30
0.0
213
-30.73869949890218
223
37.29359984281018
233
0.0
1001
ACAD
1000
DSTYLE
1002
{
1070
    40
1040
1.0
1002
}
  0
LINE
  5
11D20
330
17
100
AcDbEntity
  8
0
100
AcDbLine
 10
257.6472850949001
 20
303.4465587534634
 30
0.0
 11
256.1557473939708
 21
303.4465587534634
 31
0.0
  0
CIRCLE
  5
11D21
330
17
100
AcDbEntity
  8
0
100
AcDbCircle
 10
256.9015162444355
 20
304.1158183082308
 30
0.0
 40
0.2075
  0
CIRCLE
  5
11D22
330
17
100
AcDbEntity
  8
0
100
AcDbCircle
 10
256.9015162444355
 20
307.1024734005687
 30
0.0
 40
0.2171678892550922
  0
CIRCLE
  5
11D23
330
17
100
AcDbEntity
  8
0
100
AcDbCircle
 10
256.9015162444355
 20
308.1012070451099
 30
0.0
 40
0.2171678892550922
  0
CIRCLE
  5
11D24
330
17
100
AcDbEntity
  8
0
100
AcDbCircle
 10
256.9015162444355
 20
309.0951677690082
 30
0.0
 40
0.2171678892550922
  0
CIRCLE
  5
11D25
330
17
100
AcDbEntity
  8
0
100
AcDbCircle
 10
256.9015162444355
 20
305.1097790321291
 30
0.0
 40
0.2171678892550922
  0
CIRCLE
  5
11D26
330
17
100
AcDbEntity
  8
0
100
AcDbCircle
 10
256.9015162444355
 20
306.1085126766703
 30
0.0
 40
0.2171678892550922
  0
CIRCLE
  5
11D27
330
17
100
AcDbEntity
  8
0
100
AcDbCircle
 10
256.9015162444355
 20
310.0939014135493
 30
0.0
 40
0.2171678892550922
  0
CIRCLE
  5
11D28
330
17
100
AcDbEntity
  8
0
100
AcDbCircle
 10
256.9015162444355
 20
310.9660840854583
 30
0.0
 40
0.2171678892550922
  0
INSERT
  5
11E5B
330
17
100
AcDbEntity
  8
FRAMING
100
AcDbBlockReference
  2
WD-9-3-38
 10
138.2169295018095
 20
253.153848011267
 30
0.0
  0
CIRCLE
  5
11E86
330
17
100
AcDbEntity
  8
FRAMING
100
AcDbCircle
 10
141.5919295018095
 20
255.753848011267
 30
0.0
 40
2.375
  0
DIMENSION
  5
11EA8
330
17
100
AcDbEntity
  8
TEXT
100
AcDbDimension
  2
*D71
 10
258.5097990719801
 20
242.5301141835794
 30
0.0
 11
217.9282799057522
 21
242.5301141835794
 31
0.0
 70
   160
  1
HORIZONTAL TRACK LENGTH\P(BACKROOM: DOOR HEIGHT+18")
 71
     5
 42
117.8564162033925
 73
     0
 74
     0
 75
     0
  3
STANDARD
100
AcDbAlignedDimension
 13
140.6533828685875
 23
235.0538480112669
 33
0.0
 14
258.5097990719801
 24
303.5085879753311
 34
0.0
100
AcDbRotatedDimension
  0
LWPOLYLINE
  5
12008
330
17
100
AcDbEntity
  8
FRAMING
100
AcDbPolyline
 90
        6
 70
     0
 43
0.0
 10
204.7540789819815
 20
221.1999923624842
 10
201.0737967348033
 20
221.1999923624842
 10
201.0737967348033
 20
223.6999923624842
 10
229.0737967348033
 20
223.6999923624842
 10
229.0737967348033
 20
221.1999923624842
 10
207.2540789819815
 20
221.1999923624842
  0
LWPOLYLINE
  5
1200A
330
17
100
AcDbEntity
  8
FRAMING
100
AcDbPolyline
 90
        2
 70
     0
 43
0.0
 10
207.2540789819815
 20
209.4677593154504
 10
218.9863120290153
 20
221.1999923624842
  0
CIRCLE
  5
1200B
330
17
100
AcDbEntity
  8
FRAMING
100
AcDbCircle
 10
206.0040789819815
 20
200.4499923624842
 30
0.0
 40
0.5
  0
CIRCLE
  5
1200C
330
17
100
AcDbEntity
  8
FRAMING
100
AcDbCircle
 10
206.0040789819815
 20
202.4499923624842
 30
0.0
 40
0.5
  0
CIRCLE
  5
1200D
330
17
100
AcDbEntity
  8
FRAMING
100
AcDbCircle
 10
206.0040789819815
 20
204.4499923624842
 30
0.0
 40
0.5
  0
CIRCLE
  5
1200E
330
17
100
AcDbEntity
  8
FRAMING
100
AcDbCircle
 10
206.0040789819815
 20
206.4499923624842
 30
0.0
 40
0.5
  0
CIRCLE
  5
1200F
330
17
100
AcDbEntity
  8
FRAMING
100
AcDbCircle
 10
206.0040789819815
 20
208.4499923624842
 30
0.0
 40
0.5
  0
CIRCLE
  5
12010
330
17
100
AcDbEntity
  8
FRAMING
100
AcDbCircle
 10
206.0040789819815
 20
210.4499923624842
 30
0.0
 40
0.5
  0
CIRCLE
  5
12011
330
17
100
AcDbEntity
  8
FRAMING
100
AcDbCircle
 10
206.0040789819815
 20
212.4499923624842
 30
0.0
 40
0.5
  0
CIRCLE
  5
12012
330
17
100
AcDbEntity
  8
FRAMING
100
AcDbCircle
 10
206.0040789819815
 20
214.4499923624842
 30
0.0
 40
0.5
  0
CIRCLE
  5
12013
330
17
100
AcDbEntity
  8
FRAMING
100
AcDbCircle
 10
206.0040789819815
 20
216.4499923624842
 30
0.0
 40
0.5
  0
CIRCLE
  5
12014
330
17
100
AcDbEntity
  8
FRAMING
100
AcDbCircle
 10
206.0040789819815
 20
218.4499923624842
 30
0.0
 40
0.5
  0
CIRCLE
  5
12015
330
17
100
AcDbEntity
  8
FRAMING
100
AcDbCircle
 10
206.0040789819815
 20
220.4499923624842
 30
0.0
 40
0.5
  0
CIRCLE
  5
12016
330
17
100
AcDbEntity
  8
FRAMING
100
AcDbCircle
 10
206.0040789819815
 20
222.4499923624842
 30
0.0
 40
0.5
  0
CIRCLE
  5
12017
330
17
100
AcDbEntity
  8
FRAMING
100
AcDbCircle
 10
206.0040789819815
 20
222.4499923624842
 30
0.0
 40
0.5
  0
CIRCLE
  5
12018
330
17
100
AcDbEntity
  8
FRAMING
100
AcDbCircle
 10
208.0040789819815
 20
222.4499923624842
 30
0.0
 40
0.5
  0
CIRCLE
  5
12019
330
17
100
AcDbEntity
  8
FRAMING
100
AcDbCircle
 10
210.0040789819815
 20
222.4499923624842
 30
0.0
 40
0.5
  0
CIRCLE
  5
1201A
330
17
100
AcDbEntity
  8
FRAMING
100
AcDbCircle
 10
212.0040789819815
 20
222.4499923624842
 30
0.0
 40
0.5
  0
CIRCLE
  5
1201B
330
17
100
AcDbEntity
  8
FRAMING
100
AcDbCircle
 10
214.0040789819815
 20
222.4499923624842
 30
0.0
 40
0.5
  0
CIRCLE
  5
1201C
330
17
100
AcDbEntity
  8
FRAMING
100
AcDbCircle
 10
216.0040789819815
 20
222.4499923624842
 30
0.0
 40
0.5
  0
CIRCLE
  5
1201D
330
17
100
AcDbEntity
  8
FRAMING
100
AcDbCircle
 10
218.0040789819815
 20
222.4499923624842
 30
0.0
 40
0.5
  0
CIRCLE
  5
1201E
330
17
100
AcDbEntity
  8
FRAMING
100
AcDbCircle
 10
220.0040789819815
 20
222.4499923624842
 30
0.0
 40
0.5
  0
CIRCLE
  5
1201F
330
17
100
AcDbEntity
  8
FRAMING
100
AcDbCircle
 10
222.0040789819815
 20
222.4499923624842
 30
0.0
 40
0.5
  0
CIRCLE
  5
12020
330
17
100
AcDbEntity
  8
FRAMING
100
AcDbCircle
 10
224.0040789819815
 20
222.4499923624842
 30
0.0
 40
0.5
  0
CIRCLE
  5
12021
330
17
100
AcDbEntity
  8
FRAMING
100
AcDbCircle
 10
226.0040789819815
 20
222.4499923624842
 30
0.0
 40
0.5
  0
CIRCLE
  5
12022
330
17
100
AcDbEntity
  8
FRAMING
100
AcDbCircle
 10
228.0040789819815
 20
222.4499923624842
 30
0.0
 40
0.5
  0
CIRCLE
  5
12023
330
17
100
AcDbEntity
  8
FRAMING
100
AcDbCircle
 10
212.1045840453699
 20
212.5504974258725
 30
0.0
 40
0.5
  0
CIRCLE
  5
12024
330
17
100
AcDbEntity
  8
FRAMING
100
AcDbCircle
 10
210.6903704829967
 20
211.1362838634994
 30
0.0
 40
0.5
  0
CIRCLE
  5
12025
330
17
100
AcDbEntity
  8
FRAMING
100
AcDbCircle
 10
209.2761569206236
 20
209.7220703011263
 30
0.0
 40
0.5
  0
CIRCLE
  5
12026
330
17
100
AcDbEntity
  8
FRAMING
100
AcDbCircle
 10
207.8619433582505
 20
208.3078567387532
 30
0.0
 40
0.5
  0
CIRCLE
  5
12028
330
17
100
AcDbEntity
  8
FRAMING
100
AcDbCircle
 10
219.1756518572354
 20
219.621565237738
 30
0.0
 40
0.5
  0
CIRCLE
  5
12029
330
17
100
AcDbEntity
  8
FRAMING
100
AcDbCircle
 10
217.7614382948623
 20
218.2073516753649
 30
0.0
 40
0.5
  0
CIRCLE
  5
1202A
330
17
100
AcDbEntity
  8
FRAMING
100
AcDbCircle
 10
216.3472247324892
 20
216.7931381129918
 30
0.0
 40
0.5
  0
CIRCLE
  5
1202B
330
17
100
AcDbEntity
  8
FRAMING
100
AcDbCircle
 10
214.9330111701161
 20
215.3789245506187
 30
0.0
 40
0.5
  0
CIRCLE
  5
1202C
330
17
100
AcDbEntity
  8
FRAMING
100
AcDbCircle
 10
213.518797607743
 20
213.9647109882456
 30
0.0
 40
0.5
  0
CIRCLE
  5
1202D
330
17
100
AcDbEntity
  8
FRAMING
100
AcDbCircle
 10
222.0040789819815
 20
222.4499923624842
 30
0.0
 40
0.5
  0
ARC
  5
1202E
330
17
100
AcDbEntity
  8
FRAMING
100
AcDbCircle
 10
220.5898654196084
 20
221.0357788001111
 30
0.0
 40
0.5
100
AcDbArc
 50
160.8266638561468
 51
19.17333614385317
  0
CIRCLE
  5
12030
330
17
100
AcDbEntity
  8
FRAMING
100
AcDbCircle
 10
204.0040789819815
 20
222.4499923624842
 30
0.0
 40
0.5
  0
CIRCLE
  5
12032
330
17
100
AcDbEntity
  8
FRAMING
100
AcDbCircle
 10
202.0040789819815
 20
222.4499923624842
 30
0.0
 40
0.5
  0
ARC
  5
12033
330
17
100
AcDbEntity
  8
FRAMING
100
AcDbCircle
 10
205.0335162335043
 20
205.479429614007
 30
0.0
 40
0.5
100
AcDbArc
 50
123.9779978142455
 51
236.0220021857545
  0
INSERT
  5
12045
330
17
100
AcDbEntity
  8
FRAMING
100
AcDbBlockReference
  2
A$C2D8E259A
 10
204.754078061175
 20
199.722899153726
 30
0.0
 41
-2.0
 42
2.0
 43
2.0
  0
LWPOLYLINE
  5
12046
330
17
100
AcDbEntity
  8
FRAMING
100
AcDbPolyline
 90
        3
 70
     0
 43
0.0
 10
204.7540789819815
 20
204.4467050736448
 10
203.4935518610787
 20
205.7072321945476
 10
204.7540789819815
 20
206.9677593154504
  0
LINE
  5
12047
330
17
100
AcDbEntity
  8
FRAMING
100
AcDbLine
 10
204.7540789819815
 20
223.3882881163656
 30
0.0
 11
207.2540789819815
 21
223.3882881163656
 31
0.0
  0
LINE
  5
12048
330
17
100
AcDbEntity
  8
FRAMING
100
AcDbLine
 10
207.2540789819815
 20
223.3882881163656
 30
0.0
 11
207.2540789819815
 21
199.3882881163656
 31
0.0
  0
LINE
  5
12049
330
17
100
AcDbEntity
  8
FRAMING
100
AcDbLine
 10
207.2540789819815
 20
199.3882881163656
 30
0.0
 11
204.7540789819815
 21
199.3882881163656
 31
0.0
  0
LINE
  5
1204A
330
17
100
AcDbEntity
  8
FRAMING
100
AcDbLine
 10
204.7540789819815
 20
199.3882881163656
 30
0.0
 11
204.7540789819815
 21
223.3882881163656
 31
0.0
  0
LINE
  5
1204B
330
17
100
AcDbEntity
  8
FRAMING
100
AcDbLine
 10
205.0470586123121
 20
199.3882881163656
 30
0.0
 11
205.0470586123121
 21
223.3882881163656
 31
0.0
  0
LWPOLYLINE
  5
1204C
330
17
100
AcDbEntity
  8
FRAMING
100
AcDbPolyline
 90
        2
 70
     0
 43
0.0
 10
222.5218459349479
 20
221.1999923624842
 10
207.2540789819815
 20
205.9322254095178
  0
DIMENSION
  5
1205D
330
17
100
AcDbEntity
  8
TEXT
100
AcDbDimension
  2
*D73
 10
218.9863120290153
 20
221.1999923624842
 30
0.0
 11
213.6612524674275
 21
219.2719379669006
 31
0.0
 70
   162
 71
     5
 42
0.7853981633974474
 73
     0
 74
     0
 75
     0
  3
STANDARD
100
AcDb2LineAngularDimension
 13
229.0737967348033
 23
221.1999923624842
 33
0.0
 14
207.2540789819815
 24
221.1999923624842
 34
0.0
 15
207.2540789819815
 25
209.4677593154504
 35
0.0
 16
214.0816978938269
 26
218.3683120712619
 36
0.0
  0
TEXT
  5
12085
330
17
100
AcDbEntity
  8
SECTION JOINTS
100
AcDbText
 10
267.741385867314
 20
301.8251729000976
 30
0.0
 40
2.0
  1
A
  7
WEB PAGE
100
AcDbText
  0
TEXT
  5
12088
330
17
100
AcDbEntity
  8
SECTION JOINTS
100
AcDbText
 10
253.2517195376149
 20
327.2141470454611
 30
0.0
 40
2.0
  1
A
  7
WEB PAGE
100
AcDbText
  0
TEXT
  5
1208F
330
17
100
AcDbEntity
  8
TEXT
100
AcDbText
 10
139.7005727871072
 20
105.4169741739935
 30
0.0
 40
3.0
  1
%%USTANDARD LIFT FOLLOW THE ROOF PITCH
  7
WEB PAGE
 72
     1
 11
185.0433990307986
 21
105.4169741739935
 31
0.0
100
AcDbText
  0
SOLID
  5
12091
330
17
100
AcDbEntity
  8
SECTION JOINTS
100
AcDbTrace
 10
272.4245793412408
 20
305.4618744187228
 30
0.0
 11
270.0728740899978
 21
303.533278449818
 31
0.0
 12
272.9229507229806
 22
304.5949107713519
 32
0.0
 13
272.9229507229806
 23
304.5949107713519
 33
0.0
1001
ACAD
1000
DSTYLE
1002
{
1070
   147
1040
1.0
1070
    77
1070
     0
1002
}
  0
LINE
  5
12092
330
17
100
AcDbEntity
  8
SECTION JOINTS
100
AcDbLine
 10
264.2263705989736
 20
333.8702230659913
 30
0.0
 11
278.7861699991857
 21
308.5420897591938
 31
0.0
1001
ACAD
1000
DSTYLE
1002
{
1070
   147
1040
1.0
1070
    77
1070
     0
1002
}
  0
LINE
  5
12093
330
17
100
AcDbEntity
  8
SECTION JOINTS
100
AcDbLine
 10
272.6737650321108
 20
305.0283925950374
 30
0.0
 11
278.7861699991857
 21
308.5420897591938
 31
0.0
1001
ACAD
1000
DSTYLE
1002
{
1070
   147
1040
1.0
1070
    77
1070
     0
1002
}
  0
LINE
  5
12094
330
17
100
AcDbEntity
  8
SECTION JOINTS
100
AcDbLine
 10
258.1139656318987
 20
330.3565259018349
 30
0.0
 11
264.2263705989736
 21
333.8702230659913
 31
0.0
1001
ACAD
1000
DSTYLE
1002
{
1070
   147
1040
1.0
1070
    77
1070
     0
1002
}
  0
SOLID
  5
12095
330
17
100
AcDbEntity
  8
SECTION JOINTS
100
AcDbTrace
 10
257.8647799410288
 20
330.7900077255204
 30
0.0
 11
255.5130746897857
 21
328.8614117566155
 31
0.0
 12
258.3631513227686
 22
329.9230440781494
 32
0.0
 13
258.3631513227686
 23
329.9230440781494
 33
0.0
1001
ACAD
1000
DSTYLE
1002
{
1070
   147
1040
1.0
1070
    77
1070
     0
1002
}
  0
TEXT
  5
12096
330
17
100
AcDbEntity
  8
TEXT
100
AcDbText
 10
212.2527615047389
 20
189.1443504340273
 30
0.0
 40
3.0
  1
%%USECTION A-A
  7
WEB PAGE
100
AcDbText
  0
TEXT
  5
12097
330
17
100
AcDbEntity
  8
TEXT
100
AcDbText
 10
202.2163425728505
 20
183.2378502465067
 30
0.0
 40
3.0
  1
%%USUPPORT HANGER DETAIL
  7
WEB PAGE
100
AcDbText
  0
INSERT
  5
1215E
330
17
100
AcDbEntity
  8
FRAMING
100
AcDbBlockReference
  2
A$C3C365376
 10
140.6533828685875
 20
235.0538480112669
 30
0.0
  0
INSERT
  5
12261
330
17
100
AcDbEntity
  8
FRAMING
100
AcDbBlockReference
  2
A$C73DC2C6A
 10
138.3071483963077
 20
250.6938478225535
 30
0.0
  0
LINE
  5
12264
102
{ACAD_REACTORS
330
12468
102
}
330
17
100
AcDbEntity
  8
FRAMING
100
AcDbLine
 10
138.2169295018095
 20
257.8220506712392
 30
0.0
 11
262.9306879497101
 21
321.3668845025455
 31
0.0
  0
LINE
  5
12274
102
{ACAD_REACTORS
330
12468
102
}
330
17
100
AcDbEntity
  8
FRAMING
100
AcDbLine
 10
134.2169295018095
 20
260.2732538237989
 30
0.0
 11
261.1147259507519
 21
324.930910599299
 31
0.0
  0
LINE
  5
1228D
102
{ACAD_REACTORS
330
12468
102
}
330
17
100
AcDbEntity
  8
FRAMING
100
AcDbLine
 10
261.1147259507519
 20
324.930910599299
 30
0.0
 11
262.9306879497101
 21
321.3668845025455
 31
0.0
  0
CIRCLE
  5
1228E
330
17
100
AcDbEntity
  8
0
100
AcDbCircle
 10
256.9015162444355
 20
311.9648177299995
 30
0.0
 40
0.2171678892550922
  0
CIRCLE
  5
1228F
330
17
100
AcDbEntity
  8
0
100
AcDbCircle
 10
256.9015162444355
 20
312.9587784538978
 30
0.0
 40
0.2171678892550922
  0
CIRCLE
  5
12290
330
17
100
AcDbEntity
  8
0
100
AcDbCircle
 10
256.9015162444355
 20
313.957512098439
 30
0.0
 40
0.2171678892550922
  0
CIRCLE
  5
12291
330
17
100
AcDbEntity
  8
0
100
AcDbCircle
 10
256.9015162444355
 20
314.8296947703479
 30
0.0
 40
0.2171678892550922
  0
CIRCLE
  5
12292
330
17
100
AcDbEntity
  8
0
100
AcDbCircle
 10
256.9015162444355
 20
317.6945718106964
 30
0.0
 40
0.2171678892550922
  0
CIRCLE
  5
12293
330
17
100
AcDbEntity
  8
0
100
AcDbCircle
 10
256.9015162444355
 20
316.8223891387875
 30
0.0
 40
0.2171678892550922
  0
CIRCLE
  5
12294
330
17
100
AcDbEntity
  8
0
100
AcDbCircle
 10
256.9015162444355
 20
315.8236554942463
 30
0.0
 40
0.2171678892550922
  0
CIRCLE
  5
12295
330
17
100
AcDbEntity
  8
0
100
AcDbCircle
 10
195.4728814373184
 20
279.6248512403626
 30
0.0
 40
0.2171678892550922
  0
CIRCLE
  5
12296
330
17
100
AcDbEntity
  8
0
100
AcDbCircle
 10
195.4728814373184
 20
280.618811964261
 30
0.0
 40
0.2171678892550922
  0
CIRCLE
  5
12297
330
17
100
AcDbEntity
  8
0
100
AcDbCircle
 10
195.4728814373184
 20
281.6175456088021
 30
0.0
 40
0.2171678892550922
  0
CIRCLE
  5
12298
330
17
100
AcDbEntity
  8
0
100
AcDbCircle
 10
195.4728814373184
 20
282.6162792533431
 30
0.0
 40
0.2171678892550922
  0
CIRCLE
  5
12299
330
17
100
AcDbEntity
  8
0
100
AcDbCircle
 10
195.4728814373184
 20
283.6102399772416
 30
0.0
 40
0.2171678892550922
  0
CIRCLE
  5
1229A
330
17
100
AcDbEntity
  8
0
100
AcDbCircle
 10
195.4728814373184
 20
284.6089736217826
 30
0.0
 40
0.2171678892550922
  0
CIRCLE
  5
1229B
330
17
100
AcDbEntity
  8
0
100
AcDbCircle
 10
195.4728814373184
 20
285.6077072663237
 30
0.0
 40
0.2171678892550922
  0
CIRCLE
  5
1229E
330
17
100
AcDbEntity
  8
0
100
AcDbCircle
 10
195.4728814373184
 20
286.6064409108648
 30
0.0
 40
0.2171678892550922
  0
INSERT
  5
12337
330
17
100
AcDbEntity
  8
FRAMING
100
AcDbBlockReference
  2
A$C3F914E2A
 10
138.4421161059197
 20
243.2167441883289
 30
0.0
  0
LEADER
  5
1233F
330
17
100
AcDbEntity
  8
FRAMING
100
AcDbLeader
  3
STANDARD
 73
     0
 40
7.583333333333334
 41
40.91666666666667
 76
     3
 10
145.9335892207844
 20
252.3188480575548
 30
0.0
 10
153.6232365523027
 20
258.7490311532278
 30
0.0
 10
186.1430058416421
 20
258.6785360329737
 30
0.0
340
12340
213
0.0
223
-0.875
233
0.0
1001
ACAD
1000
DSTYLE
1002
{
1070
   147
1040
1.0
1070
    77
1070
     0
1002
}
  0
MTEXT
  5
12340
102
{ACAD_REACTORS
330
1233F
102
}
330
17
100
AcDbEntity
  8
FRAMING
100
AcDbMText
 10
187.1430058416421
 20
259.5535360329737
 30
0.0
 40
1.75
 41
0.0
 46
0.0
 71
     4
 72
     1
  1
\PCOMMERCIAL HANGER IRON\PEND BEARING PLATE SUPPORT
  7
WEB PAGE
 73
     1
 44
1.0
  0
HATCH
  5
12468
330
17
100
AcDbEntity
  8
FRAMING
100
AcDbHatch
 10
0.0
 20
0.0
 30
0.0
210
0.0
220
0.0
230
1.0
  2
ANSI31
 70
     0
 71
     1
 91
        1
 92
        7
 72
     0
 73
     1
 93
        7
 10
138.2169295018095
 20
252.1070366800953
 10
138.2169295018095
 20
257.8220506712392
 10
262.9306879497101
 20
321.3668845025455
 10
261.1147259507519
 20
324.930910599299
 10
134.2169295018095
 20
260.2732538237989
 10
134.2169295018095
 20
243.0362941793405
 10
138.2169295018095
 20
243.0362941793406
 97
        7
330
11CE3
330
12264
330
1228D
330
12274
330
11CE2
330
11D06
330
11D02
 75
     0
 76
     1
 52
0.0
 41
15.0
 77
     0
 78
     1
 53
45.0
 43
0.0
 44
0.0
 45
-1.325825214724776
 46
1.325825214724776
 79
     0
 47
0.2534671048586845
 98
        1
 10
136.4179305492154
 20
248.5678931469311
  0
TEXT
  5
1246D
330
17
100
AcDbEntity
  8
TEXT
100
AcDbText
 10
144.9316470481021
 20
97.64297090502891
 30
0.0
 40
3.0
  1
%%UBRACKET MOUNT TRACK SET DETAIL
  7
WEB PAGE
 72
     1
 11
185.0433990307986
 21
97.64297090502891
 31
0.0
100
AcDbText
  0
MTEXT
  5
1251A
330
17
100
AcDbEntity
  8
TEXT
100
AcDbMText
 10
136.2193896448618
 20
118.3936485290714
 30
0.0
 40
1.75
 41
0.0
 46
0.0
 71
     4
 72
     1
  1
NOTE: CONTACT ENGINEERING DEPARTMENT FOR HORIZONTAL\P      TRACK PITCH CUTTTING INSTRUCTIONS.
  7
WEB PAGE
 73
     1
 44
1.0
  0
MTEXT
  5
13160
330
17
100
AcDbEntity
  8
TEXT
100
AcDbMText
 10
208.4378718536011
 20
166.2865399175177
 30
0.0
 40
2.6
 41
37.3125
 46
0.0
 71
     2
 72
     5
  1
HEADROOM\PREQUIREMENTS
  7
WEB PAGE
 73
     1
 44
1.0
  0
LINE
  5
13161
330
17
100
AcDbEntity
  8
TEXT
100
AcDbLine
 10
188.8811523299855
 20
150.3939046601429
 30
0.0
 11
227.5868081239271
 21
150.3939046601429
 31
0.0
  0
LINE
  5
13162
330
17
100
AcDbEntity
  8
TEXT
100
AcDbLine
 10
188.8811523299855
 20
157.2775144611112
 30
0.0
 11
227.5868081239271
 21
157.2775144611112
 31
0.0
  0
TEXT
  5
13163
330
17
100
AcDbEntity
  8
TEXT
100
AcDbText
 10
193.2320992996151
 20
140.4146889717984
 30
0.0
 40
1.75
  1
16'3" - 18'
  7
WEB PAGE
 72
     1
 11
198.5313062210282
 21
140.4146889717984
 31
0.0
100
AcDbText
  0
TEXT
  5
13164
330
17
100
AcDbEntity
  8
TEXT
100
AcDbText
 10
193.0452408781522
 20
143.9205221500297
 30
0.0
 40
1.75
  1
12'3" - 16'
  7
WEB PAGE
 72
     1
 11
198.3444477995654
 21
143.9205221500297
 31
0.0
100
AcDbText
  0
TEXT
  5
13165
330
17
100
AcDbEntity
  8
TEXT
100
AcDbText
 10
195.3579140860054
 20
147.7042645074603
 30
0.0
 40
1.75
  1
7' - 12'
  7
WEB PAGE
 72
     1
 11
198.8377266310667
 21
147.7042645074603
 31
0.0
100
AcDbText
  0
TEXT
  5
13166
330
17
100
AcDbEntity
  8
TEXT
100
AcDbText
 10
193.9158473102816
 20
151.5468194766525
 30
0.0
 40
1.75
  1
HEIGHT
  7
WEB PAGE
 72
     1
 11
198.7236158755304
 21
151.5468194766525
 31
0.0
100
AcDbText
  0
TEXT
  5
13167
330
17
100
AcDbEntity
  8
TEXT
100
AcDbText
 10
195.0513916505845
 20
154.5926584390244
 30
0.0
 40
1.75
  1
DOOR
  7
WEB PAGE
 72
     1
 11
198.7236158755304
 21
154.5926584390244
 31
0.0
100
AcDbText
  0
LINE
  5
13168
330
17
100
AcDbEntity
  8
TEXT
100
AcDbLine
 10
188.8811523299855
 20
157.2775144611112
 30
0.0
 11
188.8811523299855
 21
135.8594654562703
 31
0.0
  0
LINE
  5
13169
330
17
100
AcDbEntity
  8
TEXT
100
AcDbLine
 10
208.3279363084586
 20
157.2775144611112
 30
0.0
 11
208.3279363084586
 21
135.8594654562704
 31
0.0
  0
LINE
  5
1316A
330
17
100
AcDbEntity
  8
TEXT
100
AcDbLine
 10
227.5868081239271
 20
157.2775144611112
 30
0.0
 11
227.5868081239272
 21
135.8594654562704
 31
0.0
  0
TEXT
  5
1316B
330
17
100
AcDbEntity
  8
TEXT
100
AcDbText
 10
214.974292377499
 20
147.7042645074603
 30
0.0
 40
1.75
  1
15-1/4"
  7
WEB PAGE
 72
     1
 11
218.8748871864392
 21
147.7042645074603
 31
0.0
100
AcDbText
  0
TEXT
  5
1316C
330
17
100
AcDbEntity
  8
TEXT
100
AcDbText
 10
214.974292377499
 20
140.5083644761664
 30
0.0
 40
1.75
  1
16-1/4"
  7
WEB PAGE
 72
     1
 11
218.8748871864392
 21
140.5083644761664
 31
0.0
100
AcDbText
  0
TEXT
  5
1316D
330
17
100
AcDbEntity
  8
TEXT
100
AcDbText
 10
214.974292377499
 20
144.17802614466
 30
0.0
 40
1.75
  1
15-3/4"
  7
WEB PAGE
 72
     1
 11
218.8748871864392
 21
144.17802614466
 31
0.0
100
AcDbText
  0
TEXT
  5
1316E
330
17
100
AcDbEntity
  8
TEXT
100
AcDbText
 10
211.7076400250471
 20
154.5926584390244
 30
0.0
 40
1.75
  1
MINIMUM
  7
WEB PAGE
 72
     1
 11
217.8805852305266
 21
154.5926584390244
 31
0.0
100
AcDbText
  0
TEXT
  5
1316F
330
17
100
AcDbEntity
  8
TEXT
100
AcDbText
 10
210.4156429089692
 20
151.5468194766525
 30
0.0
 40
1.75
  1
HEADROOM
  7
WEB PAGE
 72
     1
 11
217.8805852305266
 21
151.5468194766525
 31
0.0
100
AcDbText
  0
LINE
  5
13170
330
17
100
AcDbEntity
  8
TEXT
100
AcDbLine
 10
227.5868081239272
 20
146.7602948591748
 30
0.0
 11
188.8811523299855
 21
146.7602948591748
 31
0.0
  0
LINE
  5
13171
330
17
100
AcDbEntity
  8
TEXT
100
AcDbLine
 10
227.5868081239272
 20
143.1266850582067
 30
0.0
 11
188.8811523299855
 21
143.1266850582066
 31
0.0
  0
LINE
  5
13172
330
17
100
AcDbEntity
  8
TEXT
100
AcDbLine
 10
227.5868081239272
 20
139.4930752572385
 30
0.0
 11
188.8811523299855
 21
139.4930752572385
 31
0.0
  0
LINE
  5
13173
330
17
100
AcDbEntity
  8
TEXT
100
AcDbLine
 10
188.8811523299855
 20
167.5160389247956
 30
0.0
 11
227.5868081239271
 21
167.5160389247956
 31
0.0
  0
LINE
  5
13174
330
17
100
AcDbEntity
  8
TEXT
100
AcDbLine
 10
188.8811523299855
 20
157.2775144611112
 30
0.0
 11
188.8811523299855
 21
167.5160389247956
 31
0.0
  0
LINE
  5
13175
330
17
100
AcDbEntity
  8
TEXT
100
AcDbLine
 10
227.5868081239271
 20
157.2775144611112
 30
0.0
 11
227.5868081239271
 21
167.5160389247956
 31
0.0
  0
LINE
  5
13176
330
17
100
AcDbEntity
  8
TEXT
100
AcDbLine
 10
232.4840447181168
 20
157.2775144611112
 30
0.0
 11
279.8377967144653
 21
157.2775144611112
 31
0.0
  0
LINE
  5
13177
330
17
100
AcDbEntity
  8
TEXT
100
AcDbLine
 10
279.8377967144653
 20
143.1266850582068
 30
0.0
 11
232.4840447181168
 21
143.1266850582067
 31
0.0
  0
LINE
  5
13178
330
17
100
AcDbEntity
  8
TEXT
100
AcDbLine
 10
279.8377967144653
 20
146.7602948591749
 30
0.0
 11
232.4840447181168
 21
146.7602948591749
 31
0.0
  0
LINE
  5
13179
330
17
100
AcDbEntity
  8
TEXT
100
AcDbLine
 10
279.8377967144653
 20
150.3939046601431
 30
0.0
 11
232.4840447181168
 21
150.393904660143
 31
0.0
  0
LINE
  5
1317A
330
17
100
AcDbEntity
  8
TEXT
100
AcDbLine
 10
232.4840447181168
 20
167.5160389247956
 30
0.0
 11
279.8377967144652
 21
167.5160389247956
 31
0.0
  0
LINE
  5
1317B
330
17
100
AcDbEntity
  8
TEXT
100
AcDbLine
 10
232.4840447181168
 20
154.0275144611111
 30
0.0
 11
279.8377967144653
 21
154.0275144611111
 31
0.0
  0
LINE
  5
1317C
330
17
100
AcDbEntity
  8
TEXT
100
AcDbLine
 10
279.8377967144653
 20
139.4930752572386
 30
0.0
 11
232.4840447181168
 21
139.4930752572386
 31
0.0
  0
LINE
  5
1317D
330
17
100
AcDbEntity
  8
TEXT
100
AcDbLine
 10
232.4840447181168
 20
139.4930752572386
 30
0.0
 11
232.4840447181168
 21
157.2775144611112
 31
0.0
  0
TEXT
  5
1317E
330
17
100
AcDbEntity
  8
TEXT
100
AcDbText
 10
192.6480861574219
 20
132.3639267809427
 30
0.0
 40
1.75
  1
* ADD 4" FOR OPERATOR.
  7
WEB PAGE
 72
     1
 11
208.214506489073
 21
132.3639267809427
 31
0.0
100
AcDbText
  0
LINE
  5
1317F
330
17
100
AcDbEntity
  8
TEXT
100
AcDbLine
 10
232.4840447181168
 20
157.2775144611112
 30
0.0
 11
232.4840447181168
 21
167.5160389247956
 31
0.0
  0
TEXT
  5
13180
330
17
100
AcDbEntity
  8
TEXT
100
AcDbText
 10
236.7270693052744
 20
154.7019464738919
 30
0.0
 40
1.75
  1
DRUM
  7
WEB PAGE
 72
     1
 11
240.6036915114748
 21
154.7019464738919
 31
0.0
100
AcDbText
  0
TEXT
  5
13181
330
17
100
AcDbEntity
  8
TEXT
100
AcDbText
 10
258.2004665344284
 20
154.7019464738919
 30
0.0
 40
1.75
  1
FORMULA
  7
WEB PAGE
 72
     1
 11
264.517878214313
 21
154.7019464738919
 31
0.0
100
AcDbText
  0
LINE
  5
13182
330
17
100
AcDbEntity
  8
TEXT
100
AcDbLine
 10
249.1979597141607
 20
157.2775144611112
 30
0.0
 11
249.1979597141607
 21
139.4930752572386
 31
0.0
  0
TEXT
  5
13183
330
17
100
AcDbEntity
  8
TEXT
100
AcDbText
 10
235.601726801575
 20
144.083765747478
 30
0.0
 40
1.75
  1
D525-216
  7
WEB PAGE
 72
     1
 11
240.8410022161388
 21
144.083765747478
 31
0.0
100
AcDbText
  0
TEXT
  5
13184
330
17
100
AcDbEntity
  8
TEXT
100
AcDbText
 10
235.601726801575
 20
140.2812871598224
 30
0.0
 40
1.75
  1
D800-384
  7
WEB PAGE
 72
     1
 11
240.8410022161388
 21
140.2812871598224
 31
0.0
100
AcDbText
  0
TEXT
  5
13185
330
17
100
AcDbEntity
  8
TEXT
100
AcDbText
 10
236.2477253596139
 20
151.2151700249944
 30
0.0
 40
1.75
  1
D400-96
  7
WEB PAGE
 72
     1
 11
240.8410022161388
 21
151.2151700249944
 31
0.0
100
AcDbText
  0
TEXT
  5
13186
330
17
100
AcDbEntity
  8
TEXT
100
AcDbText
 10
235.601726801575
 20
147.7283935760971
 30
0.0
 40
1.75
  1
D400-144
  7
WEB PAGE
 72
     1
 11
240.8410022161388
 21
147.7283935760971
 31
0.0
100
AcDbText
  0
TEXT
  5
13187
330
17
100
AcDbEntity
  8
TEXT
100
AcDbText
 10
255.6063785748032
 20
144.083765747478
 30
0.0
 40
1.75
  1
F= DH + 12-1/4"
  7
WEB PAGE
 72
     1
 11
264.517878214313
 21
144.083765747478
 31
0.0
100
AcDbText
  0
TEXT
  5
13188
330
17
100
AcDbEntity
  8
TEXT
100
AcDbText
 10
257.6875790073915
 20
140.2812871598224
 30
0.0
 40
1.75
  1
F= DH + 14"
  7
WEB PAGE
 72
     1
 11
264.517878214313
 21
140.2812871598224
 31
0.0
100
AcDbText
  0
TEXT
  5
13189
330
17
100
AcDbEntity
  8
TEXT
100
AcDbText
 10
255.6063785748032
 20
151.2151700249944
 30
0.0
 40
1.75
  1
F= DH + 12-1/4"
  7
WEB PAGE
 72
     1
 11
264.517878214313
 21
151.2151700249944
 31
0.0
100
AcDbText
  0
TEXT
  5
1318A
330
17
100
AcDbEntity
  8
TEXT
100
AcDbText
 10
255.6063785748032
 20
147.7283935760971
 30
0.0
 40
1.75
  1
F= DH + 12-1/4"
  7
WEB PAGE
 72
     1
 11
264.517878214313
 21
147.7283935760971
 31
0.0
100
AcDbText
  0
MTEXT
  5
1318B
330
17
100
AcDbEntity
  8
TEXT
100
AcDbMText
 10
256.160920716291
 20
166.302561552626
 30
0.0
 40
2.6
 41
37.3125
 46
0.0
 71
     2
 72
     5
  1
FLOOR TO SHAFT\PCENTER DISTANCE
  7
WEB PAGE
 73
     1
 44
1.0
  0
LINE
  5
1318C
330
17
100
AcDbEntity
  8
TEXT
100
AcDbLine
 10
279.8377967144653
 20
157.2775144611112
 30
0.0
 11
279.8377967144653
 21
139.4930752572386
 31
0.0
  0
LINE
  5
1318D
330
17
100
AcDbEntity
  8
TEXT
100
AcDbLine
 10
279.8377967144653
 20
157.2775144611112
 30
0.0
 11
279.8377967144652
 21
167.5160389247956
 31
0.0
  0
TEXT
  5
1318E
330
17
100
AcDbEntity
  8
TEXT
100
AcDbText
 10
234.4164582286576
 20
135.5714701922109
 30
0.0
 40
1.75
  1
DH = DOOR HEIGHT
  7
WEB PAGE
 72
     1
 11
246.4488122300996
 21
135.5714701922109
 31
0.0
100
AcDbText
  0
LINE
  5
1318F
330
17
100
AcDbEntity
  8
TEXT
100
AcDbLine
 10
227.5868081239272
 20
135.8594654562704
 30
0.0
 11
188.8811523299855
 21
135.8594654562703
 31
0.0
  0
TEXT
  5
13190
330
17
100
AcDbEntity
  8
TEXT
100
AcDbText
 10
193.2320992996151
 20
136.7810791708303
 30
0.0
 40
1.75
  1
18'3" - 20'
  7
WEB PAGE
 72
     1
 11
198.5313062210282
 21
136.7810791708303
 31
0.0
100
AcDbText
  0
TEXT
  5
13191
330
17
100
AcDbEntity
  8
TEXT
100
AcDbText
 10
217.0554928100874
 20
136.8747546751983
 30
0.0
 40
1.75
  1
19"
  7
WEB PAGE
 72
     1
 11
218.8748871864392
 21
136.8747546751983
 31
0.0
100
AcDbText
  0
VIEWPORT
  5
C943
330
14
100
AcDbEntity
 67
     1
  8
0
100
AcDbViewport
 10
4.10050916775139
 20
4.925583967633834
 30
0.0
 40
14.45084162511299
 41
9.356225780670481
 68
     1
 69
     1
 12
4.10050916775139
 22
4.925583967633834
 13
0.0
 23
0.0
 14
0.5
 24
0.5
 15
0.5
 25
0.5
 16
0.0
 26
0.0
 36
1.0
 17
0.0
 27
0.0
 37
0.0
 42
50.0
 43
0.0
 44
0.0
 45
9.356225780670481
 50
0.0
 51
0.0
 72
   100
 90
    32800
  1

281
     0
 71
     1
 74
     0
110
0.0
120
0.0
130
0.0
111
1.0
121
0.0
131
0.0
112
0.0
122
1.0
132
0.0
 79
     0
146
0.0
170
     0
 61
     5
348
13115
292
     1
282
     1
141
0.0
142
0.0
 63
   250
421
  3355443
  0
VIEWPORT
  5
12DC8
330
14
100
AcDbEntity
 67
     1
  8
Defpoints
100
AcDbViewport
 10
4.100410422129625
 20
4.925631193153052
 30
0.0
 40
7.590616073650355
 41
9.284216870391288
 68
     2
 69
     2
 12
174.0365070638593
 22
215.2703658861726
 13
0.0
 23
0.0
 14
1.0
 24
1.0
 15
0.25
 25
0.25
 16
0.0
 26
0.0
 36
1.0
 17
0.0
 27
0.0
 37
0.0
 42
50.0
 43
0.0
 44
0.0
 45
262.2809345721928
 50
0.0
 51
0.0
 72
   100
 90
    32768
  1

281
     0
 71
     1
 74
     0
110
0.0
120
0.0
130
0.0
111
1.0
121
0.0
131
0.0
112
0.0
122
1.0
132
0.0
 79
     0
146
0.0
170
     0
 61
     5
348
13115
292
     1
282
     1
141
0.0
142
0.0
 63
   250
421
  3355443
  0
ENDSEC
  0
SECTION
  2
OBJECTS
  0
DICTIONARY
  5
C
330
0
100
AcDbDictionary
281
     1
  3
ACAD_COLOR
350
13120
  3
ACAD_GROUP
350
D
  3
ACAD_LAYOUT
350
B57A
  3
ACAD_MATERIAL
350
1310B
  3
ACAD_MLINESTYLE
350
1A
  3
ACAD_PLOTSETTINGS
350
B57B
  3
ACAD_PLOTSTYLENAME
350
B578
  3
ACAD_TABLESTYLE
350
13121
  3
ACAD_VISUALSTYLE
350
1310F
  3
AcadDim
350
119E2
  3
ACDBVARIABLEDICTIONARY
350
59
  0
DICTIONARY
  5
132F9
330
8
100
AcDbDictionary
280
     1
281
     1
  0
DICTIONARY
  5
13128
330
2
100
AcDbDictionary
280
     1
281
     1
  3
ACAD_LAYERSTATES
360
13129
  0
DICTIONARY
  5
13120
102
{ACAD_REACTORS
330
C
102
}
330
C
100
AcDbDictionary
281
     1
  0
DICTIONARY
  5
D
102
{ACAD_REACTORS
330
C
102
}
330
C
100
AcDbDictionary
281
     1
  0
DICTIONARY
  5
B57A
102
{ACAD_REACTORS
330
C
102
}
330
C
100
AcDbDictionary
281
     1
  3
Layout1
350
B57D
  3
Model
350
B57C
  0
DICTIONARY
  5
1310B
102
{ACAD_REACTORS
330
C
102
}
330
C
100
AcDbDictionary
281
     1
  3
ByBlock
350
1310D
  3
ByLayer
350
1310C
  3
Global
350
1310E
  0
DICTIONARY
  5
1A
102
{ACAD_REACTORS
330
C
102
}
330
C
100
AcDbDictionary
281
     1
  3
STANDARD
350
1B
  0
DICTIONARY
  5
B57B
102
{ACAD_REACTORS
330
C
102
}
330
C
100
AcDbDictionary
281
     1
  0
ACDBDICTIONARYWDFLT
  5
B578
102
{ACAD_REACTORS
330
C
102
}
330
C
100
AcDbDictionary
281
     1
  3
Normal
350
B579
100
AcDbDictionaryWithDefault
340
B579
  0
DICTIONARY
  5
13121
102
{ACAD_REACTORS
330
C
102
}
330
C
100
AcDbDictionary
281
     1
  3
Standard
350
13122
  0
DICTIONARY
  5
1310F
102
{ACAD_REACTORS
330
C
102
}
330
C
100
AcDbDictionary
281
     1
  3
2dWireframe
350
13115
  3
3D Hidden
350
13117
  3
3dWireframe
350
13116
  3
Basic
350
13114
  3
Brighten
350
1311B
  3
ColorChange
350
1311F
  3
Conceptual
350
13118
  3
Dim
350
1311A
  3
Facepattern
350
1311E
  3
Flat
350
13110
  3
FlatWithEdges
350
13111
  3
Gouraud
350
13112
  3
GouraudWithEdges
350
13113
  3
Linepattern
350
1311D
  3
Realistic
350
13119
  3
Thicken
350
1311C
  0
XRECORD
  5
119E2
102
{ACAD_REACTORS
330
C
102
}
330
C
100
AcDbXrecord
280
     1
 90
   990106
  3

 60
     0
 61
     0
 62
     1
 63
     3
 64
     0
 65
     0
 66
     0
 67
     3
 68
     1
 69
     0
 70
     0
 71
     0
 72
     0
 40
0.0
170
     0
340
0
  0
DICTIONARY
  5
59
102
{ACAD_REACTORS
330
C
102
}
330
C
100
AcDbDictionary
281
     1
  3
CTABLESTYLE
350
13239
  3
DIMADEC
350
5A
  3
SORTENTS
350
769A
  0
DICTIONARY
  5
13129
102
{ACAD_REACTORS
330
13128
102
}
330
13128
100
AcDbDictionary
281
     1
  0
LAYOUT
  5
B57D
102
{ACAD_XDICTIONARY
360
1323E
102
}
102
{ACAD_REACTORS
330
B57A
102
}
330
B57A
100
AcDbPlotSettings
  1

  2
Acrobat PDFWriter
  4
Letter
  6

 40
7.143749713897705
 41
7.143756389617919
 42
7.14373779296875
 43
7.14373779296875
 44
215.8999938964844
 45
279.3999938964844
 46
0.254
 47
0.508
 48
0.0
 49
0.0
140
0.0
141
0.0
142
1.0
143
1.0
 70
   692
 72
     0
 73
     0
 74
     1
  7

 75
    16
147
1.0
 76
     0
 77
     2
 78
   300
148
-3.345135426078296
149
-4.170512016375991
100
AcDbLayout
  1
Layout1
 70
     1
 71
     1
 10
-0.1598667081725191
 20
-0.1367557295956554
 11
8.340133051531589
 21
10.86324403010845
 12
0.0
 22
0.0
 32
0.0
 14
0.3048473493145387
 24
0.2833645265850535
 34
-0.0000000000000053
 15
7.896170986188241
 25
9.567803408682614
 35
0.0000000000000099
146
0.0
 13
0.0
 23
0.0
 33
0.0
 16
1.0
 26
0.0
 36
0.0
 17
0.0
 27
1.0
 37
0.0
 76
     0
330
14
331
C943
  0
LAYOUT
  5
B57C
102
{ACAD_REACTORS
330
B57A
102
}
330
B57A
100
AcDbPlotSettings
  1

  2
PMKT1 Marketing HP-8100DN Laser
  4
Letter
  6

 40
4.233333110809326
 41
4.233341693878173
 42
4.233322143554687
 43
4.23333740234375
 44
215.8999938964844
 45
279.3999938964844
 46
0.0
 47
28.702
 48
139.3684830884462
 49
213.5442578355003
140
281.5818113799604
141
346.2220205485337
142
1.0
143
29.0014085165632
 70
 11956
 72
     0
 73
     1
 74
     1
  7

 75
     0
147
0.0344810838904215
 76
     0
 77
     2
 78
   300
148
-1738.90354616888
149
-2464.832936590383
100
AcDbLayout
  1
Model
 70
     1
 71
     0
 10
0.0
 20
0.0
 11
12.0
 21
9.0
 12
0.0
 22
0.0
 32
0.0
 14
0.0
 24
0.0
 34
0.0
 15
0.0
 25
0.0
 35
0.0
146
0.0
 13
0.0
 23
0.0
 33
0.0
 16
1.0
 26
0.0
 36
0.0
 17
0.0
 27
1.0
 37
0.0
 76
     0
330
17
331
13109
  0
MATERIAL
  5
1310D
102
{ACAD_REACTORS
330
1310B
102
}
330
1310B
100
AcDbMaterial
  1
ByBlock
  0
MATERIAL
  5
1310C
102
{ACAD_REACTORS
330
1310B
102
}
330
1310B
100
AcDbMaterial
  1
ByLayer
  0
MATERIAL
  5
1310E
102
{ACAD_REACTORS
330
1310B
102
}
330
1310B
100
AcDbMaterial
  1
Global
  0
MLINESTYLE
  5
1B
102
{ACAD_REACTORS
330
1A
102
}
330
1A
100
AcDbMlineStyle
  2
STANDARD
 70
     0
  3

 62
   256
 51
90.0
 52
90.0
 71
     2
 49
0.5
 62
   256
  6
BYLAYER
 49
-0.5
 62
   256
  6
BYLAYER
  0
ACDBPLACEHOLDER
  5
B579
102
{ACAD_REACTORS
330
B578
102
}
330
B578
  0
TABLESTYLE
  5
13122
102
{ACAD_REACTORS
330
13121
102
}
330
13121
100
AcDbTableStyle
  3
Standard
 70
     0
 71
     0
 40
0.06
 41
0.06
280
     0
281
     0
  7
STANDARD
140
0.18
170
     2
 62
     0
 63
     7
283
     0
 90
      512
 91
        0
  1

274
    -2
284
     1
 64
     0
275
    -2
285
     1
 65
     0
276
    -2
286
     1
 66
     0
277
    -2
287
     1
 67
     0
278
    -2
288
     1
 68
     0
279
    -2
289
     1
 69
     0
  7
STANDARD
140
0.25
170
     5
 62
     0
 63
     7
283
     0
 90
      512
 91
        0
  1

274
    -2
284
     1
 64
     0
275
    -2
285
     1
 65
     0
276
    -2
286
     1
 66
     0
277
    -2
287
     1
 67
     0
278
    -2
288
     1
 68
     0
279
    -2
289
     1
 69
     0
  7
STANDARD
140
0.18
170
     5
 62
     0
 63
     7
283
     0
 90
      512
 91
        0
  1

274
    -2
284
     1
 64
     0
275
    -2
285
     1
 65
     0
276
    -2
286
     1
 66
     0
277
    -2
287
     1
 67
     0
278
    -2
288
     1
 68
     0
279
    -2
289
     1
 69
     0
  0
VISUALSTYLE
  5
13115
102
{ACAD_REACTORS
330
1310F
102
}
330
1310F
100
AcDbVisualStyle
  2
2dWireframe
 70
     4
 71
     0
 72
     2
 73
     0
 90
        0
 40
-0.6
 41
-30.0
 62
     5
 63
     7
421
 16777215
 74
     1
 91
        4
 64
     7
 65
   257
 75
     1
175
     1
 42
1.0
 92
        0
 66
   257
 43
1.0
 76
     1
 77
     6
 78
     2
 67
     7
 79
     5
170
     0
171
     0
290
     0
174
     0
 93
        1
 44
0.0
173
     0
291
     0
 45
0.0
  0
VISUALSTYLE
  5
13117
102
{ACAD_REACTORS
330
1310F
102
}
330
1310F
100
AcDbVisualStyle
  2
3D Hidden
 70
     6
 71
     1
 72
     2
 73
     2
 90
        0
 40
-0.6
 41
-30.0
 62
     5
 63
     7
421
 16777215
 74
     2
 91
        2
 64
     7
 65
   257
 75
     2
175
     1
 42
40.0
 92
        0
 66
   257
 43
1.0
 76
     1
 77
     6
 78
     2
 67
     7
 79
     3
170
     0
171
     0
290
     0
174
     0
 93
        1
 44
0.0
173
     0
291
     0
 45
0.0
  0
VISUALSTYLE
  5
13116
102
{ACAD_REACTORS
330
1310F
102
}
330
1310F
100
AcDbVisualStyle
  2
3dWireframe
 70
     5
 71
     0
 72
     2
 73
     0
 90
        0
 40
-0.6
 41
-30.0
 62
     5
 63
     7
421
 16777215
 74
     1
 91
        4
 64
     7
 65
   257
 75
     1
175
     1
 42
1.0
 92
        0
 66
   257
 43
1.0
 76
     1
 77
     6
 78
     2
 67
     7
 79
     5
170
     0
171
     0
290
     0
174
     0
 93
        1
 44
0.0
173
     0
291
     0
 45
0.0
  0
VISUALSTYLE
  5
13114
102
{ACAD_REACTORS
330
1310F
102
}
330
1310F
100
AcDbVisualStyle
  2
Basic
 70
     7
 71
     1
 72
     0
 73
     1
 90
        0
 40
-0.6
 41
-30.0
 62
     5
 63
     7
421
 16777215
 74
     0
 91
        4
 64
     7
 65
   257
 75
     1
175
     1
 42
1.0
 92
        8
 66
     7
 43
1.0
 76
     1
 77
     6
 78
     2
 67
     7
 79
     5
170
     0
171
     0
290
     0
174
     0
 93
        1
 44
0.0
173
     0
291
     1
 45
0.0
  0
VISUALSTYLE
  5
1311B
102
{ACAD_REACTORS
330
1310F
102
}
330
1310F
100
AcDbVisualStyle
  2
Brighten
 70
    12
 71
     2
 72
     2
 73
     0
 90
        0
 40
-0.6
 41
-30.0
 62
     5
 63
     7
421
 16777215
 74
     1
 91
        4
 64
     7
 65
   257
 75
     1
175
     1
 42
1.0
 92
        8
 66
     7
 43
1.0
 76
     1
 77
     6
 78
     2
 67
     7
 79
     5
170
     0
171
     0
290
     0
174
     0
 93
        1
 44
50.0
173
     0
291
     1
 45
0.0
  0
VISUALSTYLE
  5
1311F
102
{ACAD_REACTORS
330
1310F
102
}
330
1310F
100
AcDbVisualStyle
  2
ColorChange
 70
    16
 71
     2
 72
     2
 73
     3
 90
        0
 40
-0.6
 41
-30.0
 62
     5
 63
     8
421
  8421504
 74
     1
 91
        4
 64
     7
 65
   257
 75
     1
175
     1
 42
1.0
 92
        8
 66
     8
424
  8421504
 43
1.0
 76
     1
 77
     6
 78
     2
 67
     7
 79
     5
170
     0
171
     0
290
     0
174
     0
 93
        1
 44
0.0
173
     0
291
     1
 45
0.0
  0
VISUALSTYLE
  5
13118
102
{ACAD_REACTORS
330
1310F
102
}
330
1310F
100
AcDbVisualStyle
  2
Conceptual
 70
     9
 71
     3
 72
     2
 73
     0
 90
        0
 40
-0.6
 41
-30.0
 62
     5
 63
     7
421
 16777215
 74
     2
 91
        2
 64
     7
 65
   257
 75
     1
175
     1
 42
40.0
 92
        8
 66
     7
 43
1.0
 76
     1
 77
     6
 78
     2
 67
     7
 79
     3
170
     0
171
     0
290
     0
174
     0
 93
        1
 44
0.0
173
     0
291
     0
 45
0.0
  0
VISUALSTYLE
  5
1311A
102
{ACAD_REACTORS
330
1310F
102
}
330
1310F
100
AcDbVisualStyle
  2
Dim
 70
    11
 71
     2
 72
     2
 73
     0
 90
        0
 40
-0.6
 41
-30.0
 62
     5
 63
     7
421
 16777215
 74
     1
 91
        4
 64
     7
 65
   257
 75
     1
175
     1
 42
1.0
 92
        8
 66
     7
 43
1.0
 76
     1
 77
     6
 78
     2
 67
     7
 79
     5
170
     0
171
     0
290
     0
174
     0
 93
        1
 44
-50.0
173
     0
291
     1
 45
0.0
  0
VISUALSTYLE
  5
1311E
102
{ACAD_REACTORS
330
1310F
102
}
330
1310F
100
AcDbVisualStyle
  2
Facepattern
 70
    15
 71
     2
 72
     2
 73
     0
 90
        0
 40
-0.6
 41
-30.0
 62
     5
 63
     7
421
 16777215
 74
     1
 91
        4
 64
     7
 65
   257
 75
     1
175
     1
 42
1.0
 92
        8
 66
     7
 43
1.0
 76
     1
 77
     6
 78
     2
 67
     7
 79
     5
170
     0
171
     0
290
     0
174
     0
 93
        1
 44
0.0
173
     0
291
     1
 45
0.0
  0
VISUALSTYLE
  5
13110
102
{ACAD_REACTORS
330
1310F
102
}
330
1310F
100
AcDbVisualStyle
  2
Flat
 70
     0
 71
     2
 72
     1
 73
     1
 90
        2
 40
-0.6
 41
30.0
 62
     5
 63
     7
421
 16777215
 74
     0
 91
        4
 64
     7
 65
   257
 75
     1
175
     1
 42
1.0
 92
        8
 66
     7
 43
1.0
 76
     1
 77
     6
 78
     2
 67
     7
 79
     5
170
     0
171
     0
290
     0
174
     0
 93
       13
 44
0.0
173
     0
291
     1
 45
0.0
  0
VISUALSTYLE
  5
13111
102
{ACAD_REACTORS
330
1310F
102
}
330
1310F
100
AcDbVisualStyle
  2
FlatWithEdges
 70
     1
 71
     2
 72
     1
 73
     1
 90
        2
 40
-0.6
 41
30.0
 62
     5
 63
     7
421
 16777215
 74
     1
 91
        4
 64
     7
 65
   257
 75
     1
175
     1
 42
1.0
 92
        0
 66
   257
 43
1.0
 76
     1
 77
     6
 78
     2
 67
     7
 79
     5
170
     0
171
     0
290
     0
174
     0
 93
       13
 44
0.0
173
     0
291
     1
 45
0.0
  0
VISUALSTYLE
  5
13112
102
{ACAD_REACTORS
330
1310F
102
}
330
1310F
100
AcDbVisualStyle
  2
Gouraud
 70
     2
 71
     2
 72
     2
 73
     1
 90
        2
 40
-0.6
 41
30.0
 62
     5
 63
     7
421
 16777215
 74
     0
 91
        4
 64
     7
 65
   257
 75
     1
175
     1
 42
1.0
 92
        0
 66
     7
 43
1.0
 76
     1
 77
     6
 78
     2
 67
     7
 79
     5
170
     0
171
     0
290
     0
174
     0
 93
       13
 44
0.0
173
     0
291
     1
 45
0.0
  0
VISUALSTYLE
  5
13113
102
{ACAD_REACTORS
330
1310F
102
}
330
1310F
100
AcDbVisualStyle
  2
GouraudWithEdges
 70
     3
 71
     2
 72
     2
 73
     1
 90
        2
 40
-0.6
 41
30.0
 62
     5
 63
     7
421
 16777215
 74
     1
 91
        4
 64
     7
 65
   257
 75
     1
175
     1
 42
1.0
 92
        0
 66
   257
 43
1.0
 76
     1
 77
     6
 78
     2
 67
     7
 79
     5
170
     0
171
     0
290
     0
174
     0
 93
       13
 44
0.0
173
     0
291
     1
 45
0.0
  0
VISUALSTYLE
  5
1311D
102
{ACAD_REACTORS
330
1310F
102
}
330
1310F
100
AcDbVisualStyle
  2
Linepattern
 70
    14
 71
     2
 72
     2
 73
     0
 90
        0
 40
-0.6
 41
-30.0
 62
     5
 63
     7
421
 16777215
 74
     1
 91
        4
 64
     7
 65
   257
 75
     7
175
     7
 42
1.0
 92
        8
 66
     7
 43
1.0
 76
     1
 77
     6
 78
     2
 67
     7
 79
     5
170
     0
171
     0
290
     0
174
     0
 93
        1
 44
0.0
173
     0
291
     1
 45
0.0
  0
VISUALSTYLE
  5
13119
102
{ACAD_REACTORS
330
1310F
102
}
330
1310F
100
AcDbVisualStyle
  2
Realistic
 70
     8
 71
     2
 72
     2
 73
     0
 90
        0
 40
-0.6
 41
-30.0
 62
     5
 63
     7
421
 16777215
 74
     1
 91
        0
 64
     7
 65
   257
 75
     1
175
     1
 42
1.0
 92
        8
 66
     8
424
  7895160
 43
1.0
 76
     1
 77
     6
 78
     2
 67
     7
 79
     5
170
     0
171
     0
290
     0
174
     0
 93
       13
 44
0.0
173
     0
291
     0
 45
0.0
  0
VISUALSTYLE
  5
1311C
102
{ACAD_REACTORS
330
1310F
102
}
330
1310F
100
AcDbVisualStyle
  2
Thicken
 70
    13
 71
     2
 72
     2
 73
     0
 90
        0
 40
-0.6
 41
-30.0
 62
     5
 63
     7
421
 16777215
 74
     1
 91
        4
 64
     7
 65
   257
 75
     1
175
     1
 42
1.0
 92
       12
 66
     7
 43
1.0
 76
     1
 77
     6
 78
     2
 67
     7
 79
     5
170
     0
171
     0
290
     0
174
     0
 93
        1
 44
0.0
173
     0
291
     1
 45
0.0
  0
DICTIONARYVAR
  5
13239
102
{ACAD_REACTORS
330
59
102
}
330
59
100
DictionaryVariables
280
     0
  1
STANDARD
  0
DICTIONARYVAR
  5
5A
102
{ACAD_REACTORS
330
59
102
}
330
59
100
DictionaryVariables
280
     0
  1
0
  0
DICTIONARYVAR
  5
769A
102
{ACAD_REACTORS
330
59
102
}
330
59
100
DictionaryVariables
280
     0
  1
96
  0
DICTIONARY
  5
1323E
330
B57D
100
AcDbDictionary
280
     1
281
     1
  3
ADSK_XREC_LAYOUTTHUMBNAIL
360
1323F
  0
XRECORD
  5
1323F
102
{ACAD_REACTORS
330
1323E
102
}
330
1323E
100
AcDbXrecord
280
     1
310
280000006B0000008C0000000100080000000000103B0000000000000000000000010000000000000000000000000000FFFFFF000000000000000000000000000000000000000000000000000000000000000000330000006600000099000000CC000000FF00000000330000333300006633000099330000CC330000FF3300
310
0000660000336600006666000099660000CC660000FF66000000990000339900006699000099990000CC990000FF99000000CC000033CC000066CC000099CC0000CCCC0000FFCC000000FF000033FF000066FF000099FF0000CCFF0000FFFF000000003300330033006600330099003300CC003300FF003300003333003333
310
33006633330099333300CC333300FF33330000663300336633006666330099663300CC663300FF66330000993300339933006699330099993300CC993300FF99330000CC330033CC330066CC330099CC3300CCCC3300FFCC330000FF330033FF330066FF330099FF3300CCFF3300FFFF330000006600330066006600660099
310
006600CC006600FF00660000336600333366006633660099336600CC336600FF33660000666600336666006666660099666600CC666600FF66660000996600339966006699660099996600CC996600FF99660000CC660033CC660066CC660099CC6600CCCC6600FFCC660000FF660033FF660066FF660099FF6600CCFF6600
310
FFFF660000009900330099006600990099009900CC009900FF00990000339900333399006633990099339900CC339900FF33990000669900336699006666990099669900CC669900FF66990000999900339999006699990099999900CC999900FF99990000CC990033CC990066CC990099CC9900CCCC9900FFCC990000FF99
310
0033FF990066FF990099FF9900CCFF9900FFFF99000000CC003300CC006600CC009900CC00CC00CC00FF00CC000033CC003333CC006633CC009933CC00CC33CC00FF33CC000066CC003366CC006666CC009966CC00CC66CC00FF66CC000099CC003399CC006699CC009999CC00CC99CC00FF99CC0000CCCC0033CCCC0066CC
310
CC0099CCCC00CCCCCC00FFCCCC0000FFCC0033FFCC0066FFCC0099FFCC00CCFFCC00FFFFCC000000FF003300FF006600FF009900FF00CC00FF00FF00FF000033FF003333FF006633FF009933FF00CC33FF00FF33FF000066FF003366FF006666FF009966FF00CC66FF00FF66FF000099FF003399FF006699FF009999FF00CC
310
99FF00FF99FF0000CCFF0033CCFF0066CCFF0099CCFF00CCCCFF00FFCCFF0000FFFF0033FFFF0066FFFF0099FFFF00CCFFFF00FFFFFF00000000000D0D0D001A1A1A00282828003535350043434300505050005D5D5D006B6B6B00787878008686860093939300A1A1A100AEAEAE00BBBBBB00C9C9C900D6D6D600E4E4E400
310
F1F1F100FFFFFF0000000000000000000000000000000000000000000000000000000000000000000000000000000000F5F5F5F5F5F5F5F5F5F5F5F5F5F5F5F5F5F5F5F5F5F5F5F5F5F5F5F5F5F5F5F5F5F5F5F5F5F5F5F5F5F5F5F5F5F5F5F5F5F5F5F5F5F5F5F5F5F5F5F5F5F5F5F5F5F5F5F5F5F5F5F5F5F5F5F5F5F5F5
310
F5F5F5F5F5F5F5F5F5F5F5F5F5F5F5F5F5F5F5F5F5F5F5F5F5F5F5F501F5E2E2E2E2E2E2E2E2E2E2E2E2E2E2E2E2E2E2E2E2E2E2E2E2E2E2E2E2E2E2E2E2E2E2E2E2E2E2E2E2E2E2E2E2E2E2E2E2E2E2E2E2E2E2E2E2E2E2E2E2E2E2E2E2E2E2E2E2E2E2E2E2E2E2E2E2E2E2E2E2E2E2E2E2E2E2E2E2E2E2E2E2E2E2E2E2E2
310
E2E2E2E2E2E2E2E2E2E2F5E2E2E2E2E2E2E2E2E2E2E2E2E2E2E2E2E2E2E2E2E2E2E2E2E2E2E2E2E2E2E2E2E2E2E2E2E2E2E2E2E2E2E2E2E2E2E2E2E2E2E2E2E2E2E2E2E2E2E2E2E2E2E2E2E2E2E2E2E2E2E2E2E2E2E2E2E2E2E2E2E2E2E2E2E2E2E2E2E2E2E2E2E2E2E2E2E2E2E2E2E2E2E2E2E2E2E2F5E2E2E2E2E2E2E2E2
310
E2E2E2E2E2E2E2E2E2E2E2E2E2E2E2E2E2E2E2E2E2E2E2E2E2E2E2E2E2E2E2E2E2E2E2E2E2E2E2E2E2E2E2E2E2E2E2E2E2E2E2E2E2E2E2E2E2E2E2E2E2E2E2E2E2E2E2E2E2E2E2E2E2E2E2E2E2E2E2E2E2E2E2E2E2E2E2E2E2E2E2E2E2E2E2E2E2E2E2F5E2E2E2F5F5F5F5F5F5F5F5E2E2E2E2E2E2E2E2E2F5F5F5F5F5F5F5
310
F5F5F5F5F5F5F5F5F5E2E2E2E2E2E2E2E2E2F5F5F5F5F5F5F5F5F5F5F5F5F5F5F5F5E2E2E2E2E2E2E2E2E2F5F5F5F5F5F5F5F5F5F5F5F5F5F5F5F5E2E2E2E2E2E2E2E2E2F5F5F5F5F5F5F5F5E2E2E2F5F5E2E2E2F5E2E2E2E2E2E2E2E2E2E2E2E2E2E2E2E2E2E2E2E2E2E2E2E2E2E2E2E2E2E2E2E2E2E2E2E2E2E2E2E2E2E2
310
E2E2E2E2E2E2E2E2E2E2E2E2E2E2E2E2E2E2E2E2E2E2E2E2E2E2E2E2E2E2E2E2E2E2E2E2E2E2E2E2E2E2E2E2E2E2E2E2E2E2E2E2E2E2E2E2F5E2E2E2E2F5E2E2E2F5E2F5F5F5F5F5F5F5F5F5F5F5F5F5F5F5F5F5F5F5F5F5F5F5F5F5F5F5F5F5F5F5F5F5F5F5F5F5F5F5F5F5F5F5F5F5F5F5F5F5F5F5F5F5F5F5F5F5F5F5F5
310
F5F5F5F5F5F5F5F5F5F5F5F5F5F5F5F5F5F5F5F5F5F5F5F5F5F5F5F5F5F5F5F5F5F5F5F5E2F5E2E2E2F5F5E2E2E2F5E2F5E2E2E2E2E2E2E2E2E2E2E2E2E2E2E2E2E2E2E2E2E2E2E2E2E2E2E2E2E2E2E2E2E2E2E2E2E2E2E2E2E2E2E2E2E2E2E2E2E2E2E2E2E2E2E2E2E2E2E2E2E2E2E2E2E2E2E2E2E2E2E2E2E2E2E2E2E2E2
310
E2E2E2E2E2E2E2E2E2E2E2E2E2E2E2E2F5E2F5E2E2E2E2F5E2E2E2F5E2F5E2E2E2E2E2E2E2E2E2E2E2E2E2E2E2E2E2E2E2E2E2E2E2E2E2E2E2E2E2E2E2E2E2E2E2E2E2E2E2E2E2E2E2E2E2E2E2E2E2E2E2E2E2E2E2E2E2E2E2E2E2E2E2E2E2E2E2E2E2E2E2E2E2E2E2E2E2E2E2E2E2E2E2E2E2E2E2E2E2E2E2E2E2E2F5E2F5
310
E2E2E2E2F5E2E2E2F5E2F5E2E2E2E2E2E2E2E2E2E2E2E2E2E2E2E2E2E2E2E2E2E2E2E2E2E2E2E2E2E2E2E2E2E2E2E2E2E2E2E2E2E2E2E2E2E2E2E2E2E2E2E2E2E2E2E2E2E2E2E2E2E2E2E2E2E2E2E2E2E2E2E2E2E2E2E2E2E2E2E2E2E2E2E2E2E2E2E2E2E2E2E2E2E2F5E2F5E2E2E2E2F5E2E2E2F5E2F5E2E2E2E2E2E2E2E2
310
E2E2E2E2E2E2E2E2E2E2E2E2E2E2E2E2E2E2E2E2E2E2E2E2E2E2E2E2E2E2E2E2E2E2E2E2E2E2E2E2E2E2E2E2E2E2E2E2E2E2E2E2E2E2E2E2E2E2E2E2E2E2E2E2E2E2E2E2E2E2E2E2E2E2E2E2E2E2E2E2E2E2E2E2E2E2F5E2F5E2E2E2E2F5E2E2E2F5E2F5E2E2E2E2E2E2E2E2E2E2E2E2E2E2E2E2E2E2E2E2E2E2E2E2E2E2E2
310
E2E2E2E2E2E2E2F5F5F5F5F5F5F5F5F5F5F5F5F5F5F5F5F5F5F5F5F5F5F5F5F5F5F5F5F5F5F5F5F5F5F5F5E2E2E2E2E2E2E2E2E2E2E2E2E2E2E2E2E2E2E2E2E2E2E2E2F5E2F5E2E2E2F5F5E2E2E2F5E2F5E2E2E2E2E2E2E2E2E2E2E2E2E2E2E2E2E2E2E2E2E2E2E2E2E2E2E2E2E2E2E2E2E2E2F5F5F5F5F5F5F5F5F5F5F5F5
310
F5F5F5F5F5F5F5F5F5F5F5F5F5F5F5F5F5F5F5F5F5F5F5E2E2E2E2E2E2E2E2E2E2E2E2E2E2E2E2E2E2E2E2E2E2E2E2E2F5E2F5E2E2E2F5F5E2E2E2E2E2F5E2E2E2E2E2E2E2E2E2E2E2E2E2E2E2E2E2E2E2E2E2E2E2E2E2E2E2E2E2E2E2E2E2E2E2E2E2E2E2E2E2E2E2E2E2E2E2E2E2E2E2E2E2E2E2E2E2E2E2E2E2E2E2E2E2
310
E2E2E2E2E2E2E2E2E2E2E2E2E2E2E2E2E2E2E2E2E2E2E2E2E2E2E2E2E2F5E2E2E2E2E2E2F5E2E2E2E2E2F5E2E2E2E2E2E2E2E2E2E2E2E2E2E2E2E2E2E2E2E2E2E2E2E2E2E2E2E2E2E2E2E2E2E2E2E2E2E2E2E2E2E2E2E2E2E2E2E2E2E2E2E2E2E2E2E2E2E2E2E2E2E2E2E2E2E2E2E2E2E2E2E2E2E2E2E2E2E2E2E2E2E2E2E2
310
E2E2E2E2E2E2E2E2E2E2F5E2E2E2E2E2E2F5E2E2E2E2E2F5E2E2E2E2E2E2E2E2E2E2E2E2E2E2E2E2E2E2E2E2E2E2E2E2E2E2E2E2E2E2E2F5F5F5F5F5F5F5F5F5F5F5F5F5F5F5F5F5F5F5F5F5F5F5F5F5F5F5F5F5F5F5F5F5F5F5F5F5F5F5F5F5F5E2E2E2E2E2E2E2E2E2E2E2E2E2E2E2E2E2E2E2E2E2F5E2E2E2E2E2F5F5E2
310
E2E2E2E2F5E2E2E2E2E2E2E2E2E2E2E2E2E2E2E2E2E2E2E2E2E2E2E2E2E2E2E2E2E2E2E2F5F5F5F5F5F5F5F5F5F5F5F5F5F5F5F5F5F5F5F5F5F5F5F5F5F5F5F5F5F5F5F5F5F5F5F5F5F5F5F5F5E2E2E2E2E2E2E2E2E2E2E2E2E2E2E2E2E2E2E2E2E2E2F5E2E2E2E2E2F5F5E2E2E2E2E2F5E2E2E2E2E2E2E2E2E2E2E2E2E2E2
310
E2E2E2E2E2E2E2E2E2E2E2E2E2E2E2E2E2E2E2E2E2E2E2E2E2E2E2E2E2E2E2E2E2E2E2E2E2E2E2E2E2E2E2E2E2E2E2E2E2E2E2E2E2E2E2E2E2E2E2E2E2E2E2E2E2E2E2E2E2E2E2E2E2E2E2E2E2E2E2E2F5E2E2E2E2E2E2F5E2E2E2E2E2F5E2E2E2E2E2E2E2E2E2E2E2E2E2E2E2E2E2E2E2E2E2E2E2E2E2E2E2E2E2E2E2E2E2
310
E2E2E2E2E2E2E2E2E2E2E2E2E2E2E2E2E2E2E2E2E2E2E2E2E2E2E2E2E2E2E2E2E2E2E2E2E2E2E2E2E2E2E2E2E2E2E2E2E2E2E2E2E2E2E2E2E2E2E2E2E2F5E2E2E2E2E2E2F5E2E2E2E2E2F5E2E2E2E2E2E2E2E2E2E2E2E2E2E2E2E2E2E2E2E2E2E2E2E2E2E2E2E2E2E2E2E2E2E2E2E2E2E2E2E2E2E2E2E2E2E2E2E2E2E2E2E2
310
E2E2E2E2E2E2E2E2E2E2E2E2E2E2E2E2E2E2E2E2E2E2E2E2E2E2E2E2E2E2E2E2E2E2E2E2E2E2E2E2E2E2F5E2E2E2E2E2E2F5E2E2E2E2E2F5E2E2E2E2E2E2E2E2E2E2E2E2E2E2E2E2E2E2E2E2E2E2E2E2E2E2E2E2E2E2F5F5F5F5F5F5F5F5F5F5F5F5F5F5F5F5F5F5F5F5F5F5F5F5E2E2E2E2E2E2E2E2E2E2E2E2E2E2E2E2E2
310
E2E2E2E2E2E2E2E2E2E2E2E2E2E2E2E2E2E2E2E2E2E2E2F5E2E2E2E2E2E2F5E2E2E2E2E2F5E2E2E2E2E2E2E2E2E2E2E2E2E2E2E2E2E2E2E2E2E2E2E2E2E2E2E2E2E2E2F5F5F5F5F5F5F5F5F5F5F5F5F5F5F5F5F5F5F5F5F5F5F5F5F5F5F5F5F5F5F5F5F5F5F5E2E2E2E2E2E2E2E2E2E2E2E2E2E2E2E2E2E2E2E2E2E2E2E2E2
310
E2E2E2E2F5E2E2E2E2E2E2F5E2E2E2F5E2F5E2E2E2E2E2E2E2E2E2E2E2E2E2E2E2E2E2E2E2E2E2E2E2E2E2E2E2E2E2E2E2E2E2E2E2E2E2E2E2E2E2E2E2E2E2E2E2E2E2E2E2E2E2E2E2E2E2E2E2E2E2E2E2E2E2E2E2E2E2E2E2E2E2E2E2E2E2E2E2E2E2E2E2E2E2E2E2E2E2E2E2E2E2E2F5E2F5E2E2E2E2F5E2E2E2F5E2F5E2
310
E2E2E2F5F5F5F5F5F5F5F5F5F5F5F5F5F5F5F5F5F5F5F5F5F5F5F5F5F5F5F5F5F5F5F5F5F5F5F5F5F5F5F5F5F5F5F5F5F5F5F5F5F5F5F5F5F5F5F5F5F5F5F5F5F5F5F5F5E2E2E2E2E2E2E2E2E2E2E2E2E2E2E2E2E2E2E2E2E2E2E2E2E2F5E2F5E2E2E2F5F5E2E2E2F5E2F5E2E2E2E2F5E2E2E2E2E2E2E2E2F5F5E2E2E2E2E2
310
E2F5F5E2E2E2E2E2E2F5E2F5F5E2E2E2E2E2E2E2E2E2E2E2E2E2E2E2E2F5E2E2E2E2E2E2E2E2E2E2E2E2E2E2E2E2E2E2E2E2E2E2E2E2E2E2E2E2E2E2E2E2E2E2E2E2E2E2E2E2E2E2E2E2F5E2F5E2E2E2F5F5E2E2E2F5E2F5E2E2E2E2F5E2E2E2E2E2E2E2E2F5E2E2E2E2E2E2E2E2F5E2E2E2E2E2E2F5E2F5F5E2E2E2E2E2E2
310
E2E2E2E2E2E2E2E2E2E2F5E2E2E2E2E2E2E2E2E2E2E2E2E2E2E2E2E2E2E2E2E2E2E2E2E2E2E2E2E2E2E2E2E2E2E2E2E2E2E2E2E2E2E2E2F5E2F5E2E2E2E2F5E2E2E2F5E2F5E2E2E2E2F5E2E2E2E2E2E2E2E2F5E2E2E2E2E2E2E2E2F5E2E2E2E2E2E2F5E2F5F5E2E2E2E2E2E2E2E2E2E2E2E2E2E2E2E2F5E2E2E2E2E2E2E2E2
310
E2E2E2E2E2E2E2E2E2E2E2E2E2E2E2E2E2E2E2E2E2E2E2E2E2E2E2E2E2E2E2E2E2E2E2E2F5E2F5E2E2E2E2F5E2E2E2F5E2F5E2E2E2E2F5E2E2E2E2E2E2E2E2F5E2E2E2E2E2E2E2E2F5E2E2E2E2E2E2F5E2F5F5E2E2E2E2E2E2E2E2E2E2E2E2E2E2E2E2F5E2E2E2E2E2F5F5F5F5F5F5F5F5F5F5F5F5F5F5E2E2E2E2E2E2E2E2
310
E2E2E2E2E2E2E2E2E2E2E2E2E2E2E2E2E2F5E2F5E2E2E2F5F5E2E2E2F5E2F5E2E2E2E2F5E2E2E2E2E2E2E2E2F5E2E2E2E2E2E2E2E2F5E2E2E2E2E2E2F5E2F5F5F5E2E2E2E2E2E2E2E2E2E2E2E2E2E2E2F5E2E2E2E2E2E2E2E2E2E2E2E2E2E2E2E2E2E2E2E2E2E2E2F5F5F5F5F5F5F5F5F5F5F5E2E2E2E2E2E2E2E2E2E2F5E2
310
F5E2E2E2E2F5E2E2E2F5E2F5E2E2E2E2F5E2E2E2E2E2E2E2E2F5E2E2E2E2E2E2E2E2F5E2E2E2E2E2E2F5E2F5F5F5F5F5F5F5F5F5F5F5F5F5F5E2E2E2E2F5E2E2E2F5F5F5F5F5F5F5F5F5F5F5F5F5F5F5F5F5F5E2E2E2E2E2E2E2E2E2E2E2E2E2E2E2E2E2E2E2E2E2E2E2F5E2F5E2E2E2F5F5E2E2E2F5E2F5E2E2E2E2F5E2E2
310
E2E2E2E2E2E2F5E2E2E2E2E2E2E2E2F5E2E2E2E2E2E2F5E2F5F5E2E2E2E2E2E2E2E2E2E2E2E2E2E2E2E2F5E2E2E2F5F5F5F5F5F5F5F5F5F5F5F5F5F5F5F5F5F5E2F5F5F5F5F5F5F5F5F5F5F5F5F5F5F5F5F5F5F5F5F5F5F5E2F5E2E2E2F5F5E2E2E2F5E2F5E2E2E2E2F5E2E2E2E2E2E2E2E2F5E2E2E2E2E2E2E2E2F5E2E2E2
310
E2E2E2F5E2F5F5E2E2E2E2E2E2E2E2E2E2E2E2E2E2E2E2F5E2E2E2F5E2F5F5F5F5F5E2E2F5E2E2F5F5F5E2E2F5E2F5E2F5F5F5F5F5E2F5E2E2E2F5F5F5F5F5F5E2E2E2E2F5E2F5E2E2E2E2F5E2E2E2F5E2F5E2E2E2E2F5E2E2E2E2E2E2E2E2F5E2E2E2E2E2E2E2E2F5E2E2E2E2E2E2F5E2F5F5E2E2E2E2E2E2E2E2E2E2E2E2
310
E2E2E2E2F5E2E2E2F5F5F5F5F5F5F5F5F5F5F5F5F5F5F5F5F5F5E2F5F5F5F5F5F5F5F5F5F5F5F5F5F5F5F5F5F5F5F5F5F5F5E2F5E2E2E201F5E2E2E2F5E2F5E2E2E2E2F5E2E2E2E2E2E2E2E2F5E2E2E2E2E2E2E2E2F5E2E2E2E2E2E2F5E2F5F5E2E2E2E2E2E2E2E2E2E2E2E2E2E2E2E2F5E2E2E2F5F5F5F5F5F5F5F5F5F5F5
310
F5F5F5F5F5F5F5E2F5F5F5F5F5F5F5F5F5F5F5F5F5F5F5F5F5F5F5F5F5F5F5E2F5E2E2E2E2F5E2E2E2F5E2F5E2E2E2E2F5E2E2E2E2E2E2E2E2F5E2E2E2E2E2E2E2E2F5E2E2E2E2E2E2F5E2F5F5E2E2E2E2E2E2E2E2E2E2E2E2E2E2E2E2F5E2E2E2F5E2E2F5F5F5E2E2E2F5E2E2F5F5F5E2E2F5E2F5E2F5F5F5F5F5E2F5E2E2
310
F5F5F5F5F5F5F5F5E2E2E2F5E2F5E2E2E2F5F5E2E2E2F5E2F5E2E2E2E2F5E2E2E2E2E2E2E2E2F5E2E2E2E2E2E2E2E2F5E2E2E2E2E2E2F5E2F5F5E2E2E2E2E2E2E2E2E2E2E2E2E2E2E2E2F5E2E2E2F5F5F5F5F5F5F5F5F5F5F5F5F5F5F5F5F5F5E2F5F5F5F5F5F5F5F5F5F5F5F5F5F5F5F5F5F5F5F5F5F5F5E2F5E2E2E2E2F5
310
E2E2E2F5E2F5E2E2E2E2F5E2E2E2E2E2E2E2E2F5E2E2E2E2E2E2E2E2F5E2E2E2E2E2E2F5E2F5F5E2E2E2E2E2E2E2E2E2E2E2E2E2E2E2E2F5E2E2E2F5E2E2E2E2E2E2E2E2F5E2E2E2E2E2E2E2F5E2F5E2E2E2E2E2E2E2F5E2E2E2E2E2E2E2E2E2E2E2E2E2F5E2F5E2E2E2F5F5E2E2E2F5E2F5E2E2E2E2F5E2E2E2E2E2E2E2E2
310
F5E2E2E2E2E2E2E2E2F5E2E2E2E2E2E2F5E2F5F5E2E2E2E2E2E2E2E2E2E2E2E2E2E2E2E2F5E2E2E2F5E2E2F5F5F5E2E2E2F5F5F5F5F5F5F5E2F5E2F5F5F5F5F5F5F5F5F5F5F5F5F5F5F5F5F5F5F5F5F5F5F5E2F5E2E2E2E2F5E2E2E2F5E2F5E2E2E2E2F5E2E2E2E2E2E2E2E2F5E2E2E2E2E2E2E2E2F5E2E2E2E2E2E2F5E2F5
310
F5E2E2E2E2E2E2E2E2E2E2E2E2E2E2E2E2F5E2E2E2F5F5F5F5F5F5F5F5F5F5F5F5F5F5F5F5F5F5E2F5F5F5F5F5F5F5F5F5F5F5F5F5F5F5F5F5F5F5F5F5F5F5E2F5E2E2E2F5F5E2E2E2E2E2F5E2E2E2E2F5E2E2E2E2E2E2E2E2F5E2E2E2E2E2E2E2E2F5E2E2E2E2E2E2F5E2F5F5E2E2E2E2E2E2E2E2E2E2E2E2E2E2E2E2F5E2
310
E2E2F5E2F5F5F5F5F5F5F5F5F5F5F5F5F5E2E2F5E2F5E2E2F5F5F5F5F5F5F5F5F5F5F5F5F5F5F5F5E2E2E2F5E2E2E2E2E2F5F5E2E2E2E2E2F5E2E2E2E2F5E2E2E2E2E2E2E2E2F5E2E2E2E2E2E2E2E2F5E2E2E2E2E2E2F5E2F5F5E2E2E2E2E2E2E2E2E2E2E2E2E2E2E2E2F5E2E2E2F5E2E2E2F5F5F5F5F5F5F5F5F5F5E2E2E2
310
F5E2F5E2E2E2F5F5F5F5F5F5F5F5F5F5F5F5F5F5E2E2E2E2F5E2E2E2E2E2F5F5E2E2E2E2E2F5E2E2E2E2F5E2E2E2E2E2E2E2E2F5E2E2E2E2E2E2E2E2F5E2E2E2E2E2E2F5E2F5F5E2E2E2E2E2E2E2E2E2E2E2E2E2E2E2E2F5E2E2E2F5E2E2E2F5F5F5F5F5F5F5F5F5F5E2E2E2F5E2F5E2E2E2F5F5F5F5F5F5F5F5F5F5F5F5F5
310
F5E2E2E2E2F5E2E2E2E2E2F5F5E2E2E2E2E2F5E2E2E2E2F5E2E2E2E2E2E2E2E2F5E2E2E2E2E2E2E2E2F5E2E2E2E2E2E2F5E2F5F5E2E2E2E2E2E2E2E2E2E2E2E2E2E2E2E2F5E2E2E2F5F5F5F5F5F5F5F5F5F5F5F5F5F5F5F5F5F5E2F5F5F5F5F5F5F5F5F5F5F5F5F5F5F5F5F5F5F5F5F5F5F5E2E2E2E2E2F5F5E2E2E2E2E2F5
310
E2E2E2E2F5E2E2E2E2E2E2E2E2F5E2E2E2E2E2E2E2E2F5E2E2E2E2E2E2F5E2F5F5E2E2E2E2E2E2E2E2E2E2E2E2E2E2E2E2F5E2E2E2E2E2E2E2E2E2E2E2E2E2E2E2E2E2E2E2E2E2E2E2E2E2E2E2E2E2E2E2E2E2E2E2E2E2E2E2E2E2E2E2E2F5E2E2E2E2E2F5F5E2E2E2E2E2F5E2E2E2E2F5E2E2E2E2E2E2E2E2F5E2E2E2E2E2
310
E2E2E2F5E2E2E2E2E2E2F5E2F5F5E2E2E2E2E2E2E2E2E2E2E2E2E2E2E2E2F5E2E2E2E2E2E2E2E2E2E2E2E2E2E2E2E2E2E2E2E2E2E2E2E2E2E2E2E2E2E2E2E2E2E2E2E2E2E2E2E2E2E2E2E2F5E2E2E2E2E2E2F5E2E2E2E2E2F5E2E2E2E2F5E2E2E2E2E2E2E2E2F5E2E2E2E2E2E2E2E2F5E2E2E2E2E2E2F5E2F5F5E2E2E2E2E2
310
E2E2E2E2E2E2E2E2E2E2E2F5E2E2E2E2E2E2E2E2E2E2E2E2E2E2E2E2E2E2E2E2E2E2E2E2E2E2E2E2E2E2E2E2E2E2E2E2E2E2E2E2E2E2E2E2F5E2E2E2E2E2E2F5E2E2E2E2E2F5E2E2E2E2F5E2E2E2E2E2E2E2E2F5E2E2E2E2E2E2E2E2F5E2E2E2E2E2E2F5E2F5F5E2E2E2E2E2E2E2E2E2E2E2E2E2E2E2E2F5E2E2E2E2E2E2E2
310
E2E2E2E2E2E2E2E2E2E2E2E2E2E2E2E2E2E2E2E2E2E2E2E2E2E2E2E2E2E2E2E2E2E2E2E2E2F5E2E2E2E2E2E2F5E2E2E2E2E2F5F5F5F5F5F5F5F5F5F5E2E2E2E2F5E2E2E2E2E2E2E2E2F5E2E2E2E2E2E2F5E2F5F5E2E2E2E2E2E2E2E2E2E2E2E2F5F5F5F5F5F5F5F5F5E2E2E2E2E2E2E2E2E2E2E2E2E2E2E2E2E2E2E2E2E2E2
310
E2E2E2E2E2E2E2E2E2E2E2E2E2E2E2E2E2E2F5E2E2E2E2E2E2F5E2E2E2F5E2F5F5F5F5F5F5F5F5F5F5E2E2E2E2F5E2E2E2E2E2F5F5F5F5F5E2E2E2E2E2F5E2F5F5F5E2E2E2E2E2E2E2E2E2E2F5F5F5F5F5F5F5F5F5F5E2E2E2E2E2E2E2E2E2E2E2E2E2E2E2E2E2E2E2E2E2E2E2E2E2E2E2E2E2E2E2E2E2E2E2E2E2E2E2E2F5
310
E2F5E2E2E2E2F5E2E2E2F5E2F5E2F5F5F5F5F5F5E2E2E2E2E2E2F5E2E2E2E2E2F5F5F5F5F5E2E2E2E2E2F5E2F5F5F5E2E2E2E2E2E2E2E2E2E2E2E2E2E2E2F5E2E2E2E2E2E2E2E2E2F5F5F5F5F5F5F5F5F5F5F5F5F5F5F5F5F5F5F5F5F5F5F5F5F5F5E2E2E2E2E2E2E2E2E2F5E2F5E2E2E2E2F5E2E2E2F5E2F5E2E2E2E2F5E2
310
E2E2E2E2E2E2E2F5E2E2E2E2E2F5F5F5F5F5E2E2E2E2E2F5E2F5F5F5E2E2E2E2E2E2E2E2E2E2E2E2E2E2E2F5E2E2E2E2E2E2E2E2E2F5F5F5F5F5F5F5F5F5F5F5F5F5F5F5F5F5F5F5F5F5F5F5F5F5E2E2E2E2E2E2E2E2E2E2F5E2F5E2E2E2E2F5E2E2E2F5E2F5E2E2E2E2F5E2E2E2E2E2E2E2E2F5E2E2E2E2E2E2E2E2F5E2E2
310
E2E2E2E2F5E2F5F5F5E2E2E2E2E2E2E2E2E2E2E2E2E2E2E2F5E2E2E2E2E2E2E2E2E2E2E2E2E2E2E2E2E2E2E2E2E2E2E2E2E2E2E2E2E2E2E2E2E2E2E2E2E2E2E2E2E2E2E2E2F5E2F5E2E2E2E2F5E2E2E2F5E2F5E2E2E2E2F5E2E2E2E2E2E2E2E2F5E2E2E2E2E2E2E2E2F5E2E2E2E2E2E2F5E2F5F5F5E2E2E2E2E2E2E2E2E2E2
310
E2E2E2E2E2F5E2E2E2E2E2E2E2E2E2E2E2E2E2F5F5F5F5F5F5F5F5F5F5F5F5F5F5E2E2E2E2E2E2E2E2E2E2E2E2E2E2E2E2E2F5E2F5E2E2E2F5F5E2E2E2F5E2F5E2E2E2E2F5E2E2E2E2E2E2E2E2F5E2E2E2E2E2E2E2E2F5E2E2E2E2E2E2F5E2F5F5F5E2E2E2E2E2E2E2E2E2E2E2E2E2E2E2F5E2E2E2E2E2E2E2E2E2E2E2E2E2
310
F5F5F5F5F5F5F5F5F5F5F5F5F5E2E2E2E2E2E2E2E2E2E2E2E2E2E2E2E2E2E2F5E2F5E2E2E2E2F5E2E2E2F5E2F5E2E2E2E2F5E2E2E2E2E2E2E2E2F5E2E2E2E2E2E2E2E2F5E2E2E2E2E2E2F5E2F5F5F5E2E2E2E2E2E2E2E2E2E2E2E2E2E2E2F5E2E2E2E2E2E2E2E2E2E2E2E2E2E2E2E2E2E2E2E2E2E2E2E2E2E2E2E2E2E2E2E2
310
E2E2E2E2E2E2E2E2E2E2E2E2F5E2F5E2E2E2E2F5E2E2E2F5E2F5E2E2E2E2F5E2E2E2E2E2E2E2E2F5E2E2E2E2E2E2E2E2F5E2E2E2E2E2E2F5E2F5F5F5E2E2E2E2E2E2E2E2E2E2E2E2E2E2E2F5E2E2E2E2E2E2E2E2E2E2E2E2E2E2E2E2E2E2E2E2E2E2E2E2E2E2E2E2E2E2E2E2E2E2E2E2E2E2E2E2E2E2E2E2F5E2F5E2E2E2E2
310
F5E2E2E2F5E2F5E2E2E2E2F5E2E2E2E2E2E2E2E2F5E2E2E2E2E2E2E2E2F5E2E2E2E2E2E2F5E2F5F5F5E2E2E2E2E2E2E2E2E2E2E2E2E2E2E2F5E2E2E2E2E2E2E2E2E2E2E2E2E2E2E2E2E2E2E2E2E2E2E2E2E2E2E2E2E2E2E2E2E2E2E2E2E2E2E2E2E2E2E2E2F5E2F5E2E2E2E2F5E2E2E2F5E2F5E2E2E2E2F5E2E2E2E2F5F5F5
310
F5F5F5F5F5F5E2E2E2E2F5E2E2E2E2E2E2F5E2F5F5F5E2E2E2E2E2E2E2E2E2E2E2E2E2E2E2F5E2E2E2E2E2E2E2E2E2F5F5F5E2E2E2E2E2E2E2E2E2E2E2E2E2E2E2E2E2E2E2E2E2E2E2E2E2E2E2E2E2E2E2E2F5E2F5E2E2E2E2F5E2E2E2F5E2F5E2E2E2E2F5E2E2E2E2E2E2F5F5F5F5F5E2E2E2E2E2E2F5E2E2E2E2E2E2F5E2
310
F5F5F5E2E2E2E2E2E2E2E2E2E2E2E2E2E2E2F5E2E2E2E2E2E2E2E2E2F5F5F5E2E2E2E2E2E2E2E2E2E2E2E2E2E2E2E2E2E2E2E2E2E2E2E2E2E2E2E2E2E2E2E2F5E2F5E2E2E2E2F5E2E2E2F5E2F5E2E2E2E2F5E2E2E2E2E2E2E2E2F5E2E2E2E2E2E2E2E2F5E2E2E2E2E2E2F5E2F5F5F5E2E2E2E2E2E2E2E2E2E2E2E2E2E2E2F5
310
E2E2E2E2E2E2E2E2E2F5F5F5E2E2E2E2E2E2E2E2E2E2E2E2E2E2E2E2E2E2E2E2E2E2E2E2E2E2E2E2E2E2E2E2F5E2F5E2E2E2F5F5E2E2E2F5E2F5E2E2E2E2F5E2E2E2E2E2E2E2E2F5E2E2E2E2E2E2E2E2F5E2E2E2E2E2E2F5E2F5F5F5E2E2E2E2E2E2E2E2E2E2E2E2E2E2E2F5E2E2E2E2E2E2E2E2E2E2F5F5F5E2E2E2E2E2E2
310
E2E2E2E2E2E2E2E2E2E2E2E2E2E2E2E2E2E2E2E2E2E2E2E2E2F5E2F5E2E2E2F5F5E2E2E2F5E2F5E2E2E2E2F5E2E2E2E2E2E2E2E2F5E2E2E2E2E2E2E2E2F5E2E2E2E2E2E2F5E2F5F5F5E2E2E2E2E2E2E2E2E2E2E2E2E2E2E2F5E2E2E2E2E2E2E2E2E2E2F5F5F5F5E2E2E2E2E2E2E2E2E2E2E2E2E2E2E2E2E2E2E2E2E2E2E2E2
310
E2E2E2E2E2E2F5E2F5E2E2E2E2F5E2E2E2F5E2F5E2E2E2E2F5E2E2E2E2E2E2E2E2F5E2E2E2E2E2E2E2E2F5E2E2E2E2E2E2F5E2F5F5F5E2E2E2E2E2E2E2E2E2E2E2E2E2E2E2F5E2E2E2E2E2E2E2E2E2E2F5F5F5F5F5E2E2E2E2E2E2E2E2E2E2E2E2E2E2E2E2E2E2E2E2E2E2E2E2E2E2E2E2E2F5E2F5E2E2E2E2F5E2E2E2F5E2
310
F5E2E2E2E2F5E2E2E2E2E2E2E2E2F5E2E2E2E2E2E2E2E2F5E2E2E2E2E2E2F5E2F5F5F5E2E2E2E2E2E2E2E2E2E2E2E2E2E2E2F5E2E2E2E2E2E2E2E2E2E2F5F5E2F5F5F5E2E2E2E2E2E2E2E2E2E2E2E2E2E2E2E2E2E2E2E2E2E2E2E2E2E2E2E2F5E2F5E2E2E2F5F5E2E2E2F5E2F5E2E2E2E2F5E2E2E2E2E2E2E2E2F5E2E2E2E2
310
E2E2E2E2F5E2E2E2E2E2E2F5E2F5F5F5E2E2E2E2E2E2E2E2E2E2E2E2E2E2E2F5E2E2E2E2E2E2E2E2E2E2F5F5E2E2F5F5F5F5E2E2E2E2E2E2E2E2E2E2E2E2E2E2E2E2E2E2E2E2E2E2E2E2E2E2F5E2F5E2E2E2E2F5E2E2E2E2E2F5E2E2E2E2F5E2E2E2E2E2E2E2E2F5E2E2E2E2E2E2E2E2F5E2E2E2E2E2E2F5E2F5F5F5E2E2E2
310
E2E2E2E2E2E2E2E2E2E2E2E2F5E2E2E2E2E2E2E2E2E2E2F5F5E2F5F5F5F5F5E2E2E2E2E2E2E2E2E2E2E2E2E2E2E2E2E2E2E2E2E2E2E2E2E2E2F5E2E2E2E2E201F5E2E2E2E2E2F5E2E2E2E2F5E2E2E2E2E2E2E2E2F5E2E2E2E2E2E2E2E2F5E2E2E2E2E2E2F5E2F5F5F5E2E2E2E2E2E2E2E2E2E2E2E2E2E2E2F5E2E2E2E2E2E2
310
E2E2E2F5F5F5F5F5F5F5F5F5F5F5F5F5E2E2E2E2E2E2E2E2E2E2E2E2E2E2E2E2E2E2E2E2E2E2F5E2E2E2E2E200F5E2E2E2E2E2F5E2E2E2E2F5E2E2E2E2E2E2E2E2F5E2E2E2E2E2E2E2E2F5E2E2E2E2E2E2F5E2F5F5F5E2E2E2E2E2E2E2E2E2E2E2E2E2E2E2F5E2E2E2E2E2E2E2E2E2F5F5F5F5F5F5F5F5F5F5F5F5F5E2E2E2
310
E2E2E2E2E2E2E2E2E2E2E2E2E2E2E2E2E2E2E2F5E2E2E2E2E200F5E2E2E2E2E2F5E2E2E2E2F5E2E2E2E2E2E2E2E2F5E2E2E2E2E2E2E2E2F5E2E2E2E2E2E2F5E2F5F5F5E2E2E2E2F5F5F5F5F5F5F5E2E2E2E2F5E2E2E2E2E2E2E2E2E2E2E2E2E2E2E2F5E2E2E2F5F5E2E2E2E2E2E2E2E2E2E2E2E2E2E2E2E2E2E2E2E2E2E2E2
310
F5E2E2E2E2E200F5E2E2E2E2E2F5E2E2E2E2F5E2E2E2E2E2E2E2E2F5E2E2E2E2E2E2E2E2F5E2E2E2E2E2E2F5E2F5F5F5E2E2F5F5E2E2E2E2E2E2E2E2E2E2E2F5E2E2E2E2E2E2E2E2E2E2E2E2E2E2E2E2E2E2E2F5F5E2F5F5F5F5F5F5F5F5F5F5F5F5F5F5F5E2E2E2E2E2E2E2F5E2E2E2E2E200F5E2E2E2E2E2F5E2E2E2E2F5
310
E2E2E2E2E2E2E2E2F5E2E2E2E2E2E2E2E2F5E2E2E2E2E2E2F5E2F5F5F5F5F5E2E2E2E2E2E2E2E2E2E2E2E2E2F5E2E2E2E2E2E2E2E2E2E2E2E2E2E2E2E2E2E2E2E2F5E2F5F5F5F5F5F5F5F5F5F5F5F5F5F5F5F5F5F5F5F5F5E2F5E2E2E2E2E200F5E2E2E2E2E2F5E2E2E2E2F5E2E2E2E2E2E2E2E2F5E2E2E2E2E2E2E2E2F5E2
310
E2E2E2E2E2F5E2F5F5F5E2E2E2E2E2E2E2E2E2E2E2E2E2E2E2F5E2E2E2E2E2E2E2E2E2E2E2E2E2E2E2E2E2E2E2E2E2F5F5E2E2E2E2E2E2E2E2E2E2E2E2E2E2E2E2E2E2E2E2E2F5E2E2E2E2E200F5E2E2E2E2E2F5E2E2E2E2F5E2E2E2E2E2E2E2E2F5E2E2E2E2E2E2E2E2F5E2E2E2E2E2E2F5E2F5F5F5F5F5F5F5F5F5F5F5F5
310
F5F5F5F5F5F5F5F5E2E2E2E2E2E2E2E2E2E2E2E2E2E2E2E2E2E2E2E2E2E2E2E2E2E2E2E2E2E2E2E2E2E2E2E2E2E2E2E2E2E2E2F5E2E2E2E2E200F5E2E2E2E2E2F5E2E2E2E2F5E2E2E2E2E2E2E2E2F5E2E2E2E2E2E2E2E2F5E2E2E2E2E2E2F5E2F5F5F5E2E2E2E2E2F5F5F5F5F5F5F5F5F5F5F5F5E2E2E2E2E2E2E2E2E2E2E2
310
E2E2E2E2E2E2E2E2E2E2E2E2E2E2E2E2E2E2E2E2E2E2E2E2E2E2E2E2E2E2E2E2F5E2E2E2E2E200F5E2E2E2F5E2F5E2E2E2E2F5E2E2E2E2E2E2E2E2F5E2E2E2E2E2E2E2F5F5E2E2E2E2E2E2F5E2F5F5F5F5F5F5F5F5F5F5F5F5F5F5F5F5F5F5F5F5E2E2E2E2E2E2F5F5F5F5F5F5F5F5F5F5F5F5F5F5F5F5F5F5E2E2E2E2E2E2
310
E2E2E2E2E2E2E2E2E2E2E2E2E2F5E2F5E2E2E200F5E2E2E2F5E2F5E2E2E2E2F5E2E2E2E2E2E2E2E2F5E2E2E2E2E2E2E2E2F5E2E2E2E2E2E2F5E2F5F5F5F5F5F5F5F5F5F5F5F5F5F5F5F5F5F5F5F5F5F5F5F5F5F5F5F5F5F5F5F5F5F5F5F5F5F5F5F5F5F5F5F5E2F5F5F5F5F5F5F5F5F5E2E2E2E2E2E2E2E2E2F5E2F5E2E2E2
310
00F5E2E2E2F5E2F5E2E2E2E2F5E2E2E2E2E2E2E2E2F5E2E2E2E2E2E2E2F5F5F5F5F5F5F5F5F5F5F5F5F5F5E2E2E2E2E2E2E2E2E2E2E2E2E2E2E2E2E2E2E2E2E2E2E2F5F5F5F5F5F5F5F5F5F5F5F5F5F5F5F5E2E2E2E2E2E2E2E2E2F5F5E2E2E2E2E2E2E2E2E2F5E2F5E2E2E200F5E2E2E2F5E2F5E2E2E2E2F5E2E2E2E2E2E2
310
E2E2F5E2E2E2E2E2E2E2F5F5E2E2E2E2E2E2F5F5F5F5F5F5F5F5F5F5F5F5F5F5F5F5F5F5F5F5F5E2E2E2E2E2E2E2E2E2E2E2E2E2E2E2E2E2E2E2E2E2E2E2E2E2E2E2E2E2E2E2E2E2E2F5E2E2E2E2E2E2E2E2E2F5E2F5E2E2E236F5E2E2E2F5E2F5E2E2E2E2F5E2E2E2E2E2E2E2E2F5E2E2E2E2E2E2E2E2F5E2E2E2E2E2E2F5
310
F5F5E2F5F5F5F5E2E2E2E2E2E2E2E2E2E2E2E2E2E2E2E2E2E2E2E2E2E2E2E2E2E2E2E2E2E2E2E2E2E2E2E2E2E2E2E2E2E2E2E2E2E2E2F5E2E2E2E2E2E2E2E2E2F5E2F5E2E2E200F5E2E2E2F5E2F5E2E2E2E2F5E2E2E2E2E2E2E2E2F5E2E2E2E2E2E2E2E2F5E2E2E2E2E2E2F5F5F5F5F5F5F5F5F5F5E2E2E2E2E2E2E2E2E2E2
310
E2E2E2E2E2E2E2E2E2E2E2E2E2E2E2E2E2E2E2E2E2E2E2E2E2E2E2E2E2E2E2E2E2E2E2F5E2E2E2E2E2E2E2E2E2F5E2F5E2E2E236F5E2E2E2F5E2F5E2E2E2E2F5E2E2E2E2E2E2E2E2F5F5E2E2E2E2E2E2E2F5E2E2E2E2E2E2F5F5F5F5F5F5F5F5F5F5F5F5E2E2E2E2E2E2E2E2E2E2E2E2E2E2E2E2E2E2E2E2E2E2E2E2E2E2E2
310
E2E2E2E2E2E2E2E2E2E2E2E2E2E2E2E2F5E2E2E2E2E2E2E2E2E2F5E2F5E2E2E200F5E2E2E2F5E2F5E2E2E2E2F5E2E2E2E2E2E2E2E2F5F5F5F5F5F5F5F5F5F5F5F5F5F5F5F5F5F5F5F5F5E2F5E2E2E2F5F5F5F5E2E2E2E2E2E2E2E2E2F5F5F5F5F5F5F5F5F5F5F5F5F5F5F5F5F5E2E2E2E2E2E2E2E2E2E2E2E2E2E2E2F5E2E2
310
E2E2E2E2E2E2E2F5E2F5E2E2E236F5E2E2E2F5E2F5E2E2E2E2F5F5F5F5F5F5F5F5F5F5F5F5F5F5F5F5F5F5F5F5F5F5F5F5F5F5F5F5F5F5E2E2F5E2E2E2E2F5F5F5F5E2E2E2E2E2E2E2F5F5F5F5F5F5F5F5F5F5F5F5F5F5F5F5E2E2E2E2E2E2E2E2E2E2E2E2E2E2E2E2F5E2E2E2E2E2E2E2E2E2F5E2F5E2E2E200F5E2E2E2F5
310
E2F5E2E2E2E2E2E2E2E2E2E2E2E2E2E2E2E2E2E2E2E2E2E2F5E2E2E2E2E2E2F5F5E2F5F5E2E2E2F5F5F5F5F5F5F5F5F5F5F5F5F5F5F5F5F5F5F5F5F5F5F5F5F5F5F5F5F5F5F5E2E2E2E2E2E2E2E2E2E2E2E2E2E2E2E2F5E2E2E2E2E2E2E2E2E2F5E2F5E2E2E236F5E2E2E2F5E2F5E2E2E2E2E2E2E2E2E2E2E2E2E2E2E2E2E2
310
E2E2E2E2E2F5E2E2E2E2E2E2E2F5F5E2F5F5F5E2E2E2E2E2E2E2E2E2F5F5F5F5E2E2E2E2E2E2E2E2E2E2E2E2E2E2E2E2E2E2E2E2E2E2E2E2E2E2E2E2E2E2E2E2E2E2E2F5E2E2E2E2E2E2E2E2E2F5E2F5E2E2E200F5E2E2E2F5E2F5E2E2E2E2E2E2E2E2E2E2E2E2E2E2E2E2E2E2E2E2E2E2F5E2E2E2E2E2E2E2E2E2F5F5F5E2
310
F5F5E2E2E2E2E2E2E2E2E2F5F5F5F5E2E2E2E2E2E2E2E2E2E2E2E2E2E2E2E2E2E2E2E2E2E2E2E2E2E2E2E2E2E2E2E2E2F5E2E2E2E2E2E2E2E2E2F5E2F5E2E2E236F5E2E2E2F5E2F5E2E2E2E2E2E2E2E2E2E2E2E2E2E2E2E2E2E2E2E2E2E2F5E2E2E2E2E2E2E2E2E2E2E2F5F5E2F5F5F5E2E2E2E2E2E2E2E2E2F5F5F5F5E2E2
310
E2E2E2E2E2E2E2E2E2E2E2E2E2E2E2E2E2E2E2E2E2E2E2E2E2E2E2E2E2F5E2E2E2E2E2E2E2E2E2F5E2F5E2E2E200F5E2E2E2F5E2F5E2E2E2E2E2E2E2E2E2E2E2E2E2E2E2E2E2E2E2E2E2E2F5F5F5F5F5F5F5F5E2E2E2E2E2E2F5F5F5F5F5F5E2E2E2E2E2E2E2E2E2F5F5F5F5E2E2E2E2E2E2E2E2E2E2E2E2E2E2E2E2E2E2E2
310
E2E2E2E2E2E2E2E2E2E2F5E2E2E2E2E2E2E2E2E2F5E2F5E2E2E236F5E2E2E2F5E2F5E2E2E2E2E2E2E2E2E2E2E2E2E2E2E2E2E2E2E2E2E2E2F5F5F5F5F5F5F5F5E2E2E2E2E2E2E2F5F5F5F5F5F5F5E2E2E2E2E2E2E2E2E2F5F5F5F5E2E2E2E2E2E2E2E2E2E2E2E2E2E2E2E2E2E2E2E2E2E2E2E2E2E2E2F5E2E2E2E2E2E2E2E2
310
E2F5E2F5E2E2E200F5E2E2E2F5E2F5E2E2E2E2E2E2E2E2E2E2E2E2E2E2E2E2E2E2E2E2E2E2F5F5F5F5F5F5F5E2E2E2E2E2E2E2E2E2E2E2F5F5F5F5F5F5E2E2E2E2E2E2E2E2E2F5F5F5F5E2E2E2E2E2E2E2E2E2E2E2E2E2E2E2E2E2E2E2E2E2E2E2E2E2F5E2E2E2E2E2E2E2E2E2F5E2F5E2E2E236F5E2E2E2F5E2F5E2E2E2E2
310
E2E2E2E2E2E2E2E2E2E2E2E2E2E2E2E2E2E2E2E2E2E2E2E2E2E2E2E2E2E2E2E2E2E2E2E2E2E2F5F5F5F5F5F5E2E2E2E2E2E2E2E2F5F5F5F5F5E2E2E2E2E2E2E2E2E2E2E2E2E2E2E2E2E2E2E2E2E2E2E2F5E2E2E2E2E2E2E2E2E2F5E2F5E2E2E200F5E2E2E2E2E2F5E2E2E2E2E2E2E2E2E2E2E2E2E2E2E2E2E2E2E2E2E2E2E2
310
E2E2E2E2E2E2E2E2E2E2E2E2E2E2E2E2E2E2E2E2E2F5F5F5E2F5F5E2E2E2E2E2E2F5E2E2F5F5F5F5E2E2E2E2E2E2E2E2E2E2E2E2E2E2E2E2E2E2E2E2E2F5E2E2E2E2E2E2E2E2E2F5E2E2E2E2E236F5E2E2E2E2E2F5E2E2E2E2E2E2E2E2E2E2E2E2E2E2E2E2E2E2E2E2E2E2E2E2E2E2E2E2E2E2E2E2E2E2E2E2E2E2E2E2E2E2
310
E2E2E2E2F5F5E2F5F5F5E2E2E2E2F5E2E2E2E2F5F5F5F5E2E2E2E2E2E2E2E2E2E2E2E2E2E2E2E2E2E2E2F5E2E2E2E2E2E2E2E2E2F5E2E2E2E2E200F5E2E2E2E2E2F5E2E2E2E2E2E2E2E2E2E2E2E2E2E2E2E2E2E2E2E2E2E2E2E2E2E2E2E2E2E2E2E2E2E2E2E2E2E2E2E2E2E2E2E2E2E2E2E2F5F5F5F5F5F5E2E2F5E2E2E2E2
310
E2E2F5F5F5F5E2E2E2E2E2E2E2E2E2E2E2E2E2E2E2E2E2F5E2E2E2E2E2E2E2E2E2F5E2E2E2E2E236F5E2E2E2E2E2F5E2E2E2E2E2E2E2E2E2E2E2E2E2E2E2E2E2E2E2E2E2E2E2E2E2E2E2E2E2E2E2E2E2E2E2E2E2E2E2E2E2E2E2E2E2E2E2E2E2F5F5F5F5F5F5F5F5E2E2E2E2E2E2E2E2F5F5F5F5E2E2E2E2E2E2E2E2E2E2E2
310
E2E2E2E2F5E2E2E2E2E2E2E2E2E2F5E2E2E2E2E200F5E2E2E2E2E2F5E2E2E2E2E2E2E2E2E2E2E2E2E2E2E2E2E2E2E2E2E2E2E2E2E2E2E2E2E2E2E2E2E2E2E2E2E2E2E2E2E2E2E2E2E2E2E2E2E2E2E2E2F5F5F5F5F5F5E2E2E2E2E2E2E2E2E2F5F5F5F5E2E2E2E2E2E2E2E2E2E2E2E2E2F5E2E2E2E2E2E2E2E2E2F5E2E2E2E2
310
E200F5E2E2E2E2E2F5E2E2E2E2E2E2E2E2E2E2E2E2E2E2E2E2E2E2E2E2E2E2E2E2E2E2E2E2E2E2E2E2E2E2E2E2E2E2E2E2E2E2E2E2E2E2E2E2E2E2E2E2E2E2F5F5F5F5F5F5E2E2E2E2E2E2E2E2E2F5F5F5F5E2E2E2E2E2E2E2E2E2E2E2F5E2E2E2E2E2E2E2E2E2F5E2E2E2E2E200F5E2E2E2E2E2F5E2E2E2E2E2E2E2E2E2E2
310
E2E2E2E2E2E2E2E2E2E2E2E2E2E2E2E2E2E2E2E2E2E2E2E2E2E2E2E2E2E2E2E2E2E2E2E2E2E2E2E2E2E2E2E2E2E2F5F5F5E2F5F5E2E2E2E2E2E2E2E2E2F5F5F5F5E2E2E2E2E2E2E2E2E2F5E2E2E2E2E2E2E2E2E2F5E2E2E2E2E236F5E2E2E2E2E2F5E2E2E2E2E2E2E2E2E2E2E2E2E2E2E2E2E2E2E2E2E2E2E2E2E2E2E2E2E2
310
E2E2E2E2E2E2E2E2E2E2E2E2E2E2E2E2E2E2E2E2E2E2E2E2E2E2E2E2F5F5F5E2F5F5F5E2E2E2E2E2E2E2E2E2F5F5F5F5E2E2E2E2E2E2E2F5E2E2E2E2E2E2E2E2E2F5E2E2E2E2E200F5E2E2E2E2E2F5E2E2E2E2E2E2E2E2E2E2E2E2E2E2E2E2E2E2E2E2E2E2E2E2E2E2E2E2E2E2E2E2E2E2E2E2E2E2E2E2E2E2E2E2E2E2E2E2
310
E2E2E2E2E2E2E2E2E2E2E2F5F5E2F5F5F5F5E2E2E2E2E2E2E2E2E2F5F5F5F5E2E2E2E2E2F5E2E2E2E2E2E2E2E2E2F5E2E2E2E2E236F5E2E2E2F5E2F5E2E2E2E2E2E2E2E2E2E2E2E2E2E2E2E2E2E2E2E2E2E2E2E2E2E2E2E2E2E2E2E2E2E2E2E2E2E2E2E2E2E2E2E2E2E2E2E2E2E2E2E2E2E2E2E2E2E2E2E2E2F5F5F5F5F5F5
310
F5E2E2E2E2E2E2E2E2E2F5F5F5F5E2E2E2F5E2E2E2E2E2E2E2E2E2F5E2F5E2E2E200F5E2E2E2F5E2F5E2E2E2E2E2E2E2E2E2E2E2E2E2E2E2E2E2E2E2E2E2E2E2E2E2E2E2E2E2E2E2E2E2E2E2E2E2E2E2E2E2E2E2E2E2E2E2E2E2E2E2E2E2E2E2E2E2E2E2E2E2E2E2F5F5F5F5F5F5F5E2E2E2E2E2E2E2E2E2F5F5F5F5E2F5E2
310
E2E2F5F5E2E2E2E2F5E2F5E2E2E236F5E2E2E2F5E2F5E2E2E2E2E2E2E2E2E2E2E2E2E2E2E2E2E2E2E2E2E2E2E2E2E2E2E2E2E2E2E2E2E2E2E2E2E2E2E2E2E2E2E2E2E2E2E2E2E2E2E2E2E2E2E2E2E2E2E2E2E2E2E2E2E2F5F5E2F5F5F5F5E2E2E2E2E2E2E2E2E2F5F5F5F5E2E2E2F5F5E2E2E2E2F5E2F5E2E2E200F5E2E2E2
310
F5E2F5E2E2E2E2E2E2E2E2E2E2E2E2E2E2E2E2E2E2E2E2E2E2E2E2E2E2E2E2E2E2E2E2E2E2E2E2E2E2E2E2E2E2E2E2E2E2E2E2E2E2E2E2E2E2E2E2E2E2E2E2E2E2E2E2E2E2E2F5F5F5F5E2F5F5E2E2E2E2E2E2E2E2E2F5F5E2E2E2E2E2F5E2E2E2F5E2F5E2E2E236F5E2E2E2F5E2F5E2E2E2E2E2E2E2E2E2E2E2E2E2E2E2E2
310
E2E2E2E2E2E2E2E2E2E2E2E2E2E2E2E2E2E2E2E2E2E2E2E2E2E2E2E2E2E2E2E2E2E2E2E2E2E2E2E2E2E2E2E2E2E2E2E2E2E2E2E2E2F5F5F5E2F5F5F5E2E2E2E2E2E2E2F5F5E2E2E2E2E2E2F5F5E2F5E2F5E2E2E200F5E2E2E2F5E2F5E2E2E2E2E2E2E2E2E2E2E2E2E2E2E2E2E2E2E2E2E2E2E2E2E2E2E2E2E2E2E2E2E2E2E2
310
E2E2E2E2E2E2E2E2E2E2E2E2E2E2E2E2E2E2E2E2E2E2E2E2E2E2E2E2E2E2E2E2E2E2E2E2F5F5E2F5F5F5F5E2E2E2E2E2F5F5E2E2E2E2E2E2E2E2F5F5E2F5E2E2E236F5E2E2E2F5E2F5E2E2E2E2E2E2E2E2E2E2E2E2E2E2E2E2E2E2E2E2E2E2E2E2E2E2E2E2E2E2E2E2E2E2E2E2E2E2E2E2E2E2E2E2E2E2E2E2E2E2E2E2E2E2
310
E2E2E2E2E2E2E2E2E2E2E2E2E2E2E2E2E2E2E2F5F5F5F5E2F5F5E2E2E2F5F5E2E2E2E2E2E2E2F5E2F5E2F5E2E2E200F5E2E2E2F5E2F5E2E2E2E2E2E2E2E2E2E2E2E2E2E2E2E2E2E2E2E2E2E2E2E2E2E2E2E2E2E2E2E2E2E2E2E2E2E2E2E2E2E2E2E2E2E2E2E2E2E2E2E2E2E2E2E2E2E2E2E2E2E2E2E2E2E2E2E2E2E2E2E2E2
310
E2E2F5F5F5E2F5F5F5E2F5F5E2E2E2E2E2E2E2F5E2F5E2F5E2E2E236F5E2E2E2F5E2F5E2E2E2E2E2E2E2E2E2E2E2E2E2E2E2E2E2E2E2E2E2E2E2E2E2E2E2E2E2E2E2E2E2E2E2E2E2E2E2E2E2E2E2E2E2E2E2E2E2E2E2E2E2E2E2E2E2E2E2E2E2E2E2E2E2E2E2E2E2E2E2E2E2E2E2E2E2F5F5E2F5F5F5F5F5E2E2E2E2E2E2F5
310
E2E2F5E2F5E2E2E200F5E2E2E2F5E2F5E2E2E2E2E2E2E2E2E2E2E2E2E2E2E2E2E2E2E2E2E2E2E2E2E2E2E2E2E2E2E2E2E2E2E2E2E2E2E2E2E2E2E2E2E2E2E2E2E2E2E2E2E2E2E2E2E2E2E2E2E2E2E2E2E2E2E2E2E2E2E2E2E2E2E2E2E2E2E2F5F5F5F5F5F5F5E2E2E2E2E2F5E2E2F5E2F5E2E2E236F5E2E2E2F5E2F5E2E2E2
310
E2E2E2E2E2E2E2E2E2E2E2E2E2E2E2E2E2E2E2E2E2E2E2E2E2E2E2E2E2E2E2E2E2E2E2E2E2E2E2E2E2E2E2E2E2E2E2E2E2E2E2E2E2E2E2E2E2E2E2E2E2E2E2E2E2E2E2E2E2E2E2E2E2E2E2E2E2E2F5F5F5E2F5F5E2E2E2F5E2E2E2F5E2F5E2E2E200F5E2E2E2F5E2F5E2E2E2E2E2E2E2E2E2E2E2E2E2E2E2E2E2E2E2E2E2E2
310
E2E2E2E2E2E2E2E2E2E2E2E2E2E2E2E2E2E2E2E2E2E2E2E2E2E2E2E2E2E2E2E2E2E2E2E2E2E2E2E2E2E2E2E2E2E2E2E2E2E2E2E2E2E2E2E2E2E2E2E2E2F5F5E2F5E2E2E2F5E2E2E2F5E2F5E2E2E236F5E2E2E2F5E2F5E2E2E2E2E2E2E2E2E2E2E2E2E2E2E2E2E2E2E2E2E2E2E2E2E2E2E2E2E2E2E2E2E2E2E2E2E2E2E2E2E2
310
E2E2E2E2E2E2E2E2E2E2E2E2E2E2E2E2E2E2E2E2E2E2E2E2E2E2E2E2E2E2E2E2E2E2E2E2E2E2E2E2E2F5F5E2F5E2E2E2F5E2E2E2E2F5E2F5E2E2E200F5E2E2E2F5E2F5E2E2E2E2E2E2E2E2E2E2E2E2E2E2E2E2E2E2E2E2E2E2E2E2E2E2E2E2E2E2E2E2E2E2E2E2E2E2E2E2E2E2E2E2E2E2E2E2E2E2E2E2E2E2E2E2E2E2E2E2
310
E2E2E2E2E2E2E2E2E2E2E2E2E2E2E2E2E2E2E2E2E2E2F5F5E2E2E2E2E2F5E2E2E2E2F5E2F5E2E2E236F5E2E2E2F5E2F5E2E2E2E2E2E2E2E2E2E2E2E2E2E2E2E2E2E2E2E2E2E2E2E2E2E2E2E2E2E2E2E2E2E2E2E2E2E2E2E2E2E2E2E2E2E2E2E2E2E2E2E2E2E2E2E2E2E2E2E2E2E2E2E2E2E2E2E2E2E2E2E2E2E2E2E2E2E2E2
310
E2E2E2E2E2F5E2E2E2F5E2E2E2E2E2F5E2F5E2E2E200F5E2E2E2F5E2F5E2E2E2E2E2E2E2E2E2E2E2E2E2E2E2E2E2E2E2E2E2E2E2E2E2E2E2E2E2E2E2E2E2E2E2E2E2E2E2E2E2E2E2E2E2E2E2E2E2E2E2E2E2E2E2E2E2E2E2E2E2E2E2E2E2E2E2E2E2E2E2E2E2E2E2E2E2E2E2E2E2E2E2E2E2F5F5E2F5E2E2E2E2E2F5E2F5E2
310
E2E200F5E2E2E2F5E2F5E2E2E2E2E2E2E2E2E2E2E2E2E2E2E2E2E2E2E2E2E2E2E2E2E2E2E2E2E2E2E2E2E2E2E2E2E2E2E2E2E2E2E2E2E2E2E2E2E2E2E2E2E2E2E2E2E2E2E2E2E2E2E2E2E2E2E2E2E2E2E2E2E2E2E2E2E2E2E2E2E2E2E2E2E2E2E2F5E2E2E2E2E2E2F5E2F5E2E2E200F5E2E2E2E2E2F5E2E2E2E2E2E2E2E2E2
310
E2E2E2E2E2E2E2E2E2E2E2E2E2E2E2E2E2E2E2E2E2E2E2E2E2E2E2E2E2E2E2E2E2E2E2E2E2E2E2E2E2E2E2E2E2E2E2E2E2E2E2E2E2E2E2E2E2E2E2E2E2E2E2E2E2E2E2E2E2E2E2E2E2E2E2E2E2E2E2E2E2E2E2E2E2F5E2E2E2E2E200F5E2E2E2E2E2F5E2E2E2E2E2E2E2E2E2E2E2E2E2E2E2E2E2E2E2E2E2E2E2E2E2E2E2E2
310
E2E2E2E2E2E2E2E2E2E2E2E2E2E2E2E2E2E2E2E2E2E2E2E2E2E2E2E2E2E2E2E2E2E2E2E2E2E2E2E2E2E2E2E2E2E2E2E2E2E2E2E2E2E2E2E2E2E2E2E2E2E2E2E2E2E2F5E2E2E2E2E200F5E2E2E2E2E2F5E2E2E2E2E2E2E2E2E2E2E2E2E2E2E2E2E2E2E2E2E2E2E2E2E2E2E2E2E2E2E2E2E2E2E2E2E2E2E2E2E2E2E2E2E2E2E2
310
E2E2E2E2E2E2E2E2E2E2E2E2E2E2E2E2E2E2E2E2E2E2E2E2E2E2E2E2E2E2E2E2E2E2E2E2E2E2E2E2E2E2E2E2E2E2E2F5E2E2E2E2E200F5E2E2E2E2E2F5E2E2E2E2E2E2E2E2E2E2E2E2E2E2E2E2E2E2E2E2E2E2E2E2E2E2E2E2E2E2E2E2E2E2E2E2E2E2E2E2E2E2E2E2E2E2E2E2E2E2E2E2E2E2E2E2E2E2E2E2E2E2E2E2E2E2
310
E2E2E2E2E2E2E2E2E2E2E2E2E2E2E2E2E2E2E2E2E2E2E2E2E2E2E2E2F5E2E2E2E2E200F5E2E2E2E2E2F5F5F5F5F5F5F5F5F5F5F5F5F5F5F5F5F5F5F5F5F5F5F5F5F5F5F5F5F5F5F5F5F5F5F5F5F5F5F5F5F5F5F5F5F5F5F5F5F5F5F5F5F5F5F5F5F5F5F5F5F5F5F5F5F5F5F5F5F5F5F5F5F5F5F5F5F5F5F5F5F5F5F5F5F5F5
310
F5F5F5F5F5F5F5F5F5F5E2E2E2E2E200F5E2E2E2E2E2E2E2E2E2E2E2E2E2E2E2E2E2E2E2E2E2E2E2E2E2E2E2E2E2E2E2E2E2E2E2E2E2E2E2E2E2E2E2E2E2E2E2E2E2E2E2E2E2E2E2E2E2E2E2E2E2E2E2E2E2E2E2E2E2E2E2E2E2E2E2E2E2E2E2E2E2E2E2E2E2E2E2E2E2E2E2E2E2E2E2E2E2E2E2E2E2E2E2E2E2E200F5E2E2
310
E2E2E2E2E2E2E2E2E2E2E2E2E2E2E2E2E2E2E2E2E2E2E2E2E2E2E2E2E2E2E2E2E2E2E2E2E2E2E2E2E2E2E2E2E2E2E2E2E2E2E2E2E2E2E2E2E2E2E2E2E2E2E2E2E2E2E2E2E2E2E2E2E2E2E2E2E2E2E2E2E2E2E2E2E2E2E2E2E2E2E2E2E2E2E2E2E2E2E2E2E2E2E2E200F5E2E2E2E2E2E2E2E2E2E2E2E2E2E2E2E2E2E2E2E2E2
310
E2E2E2E2E2E2E2E2E2E2E2E2E2E2E2E2E2E2E2E2E2E2E2E2E2E2E2E2E2E2E2E2E2E2E2E2E2E2E2E2E2E2E2E2E2E2E2E2E2E2E2E2E2E2E2E2E2E2E2E2E2E2E2E2E2E2E2E2E2E2E2E2E2E2E2E2E2E2E2E2E2E2E2E2E200F5E2E2E2E2E2E2E2E2E2E2E2E2E2E2E2E2E2E2E2E2E2E2E2E2E2E2E2E2E2E2E2E2E2E2E2E2E2E2E2E2
310
E2E2E2E2E2E2E2E2E2E2E2E2E2E2E2E2E2E2E2E2E2E2E2E2E2E2E2E2E2E2E2E2E2E2E2E2E2E2E2E2E2E2E2E2E2E2E2E2E2E2E2E2E2E2E2E2E2E2E2E2E2E2E2E2E2E200F5E2E2E2F5E2E2E2E2E2E2E2E2E2E2E2E2E2E2E2E2E2E2E2E2E2E2E2E2E2E2E2E2E2E2E2E2E2E2E2E2E2E2E2E2E2E2E2E2E2E2E2E2E2E2E2E2E2E2E2
310
E2E2E2E2E2E2E2E2E2E2E2E2E2E2E2E2E2E2E2E2E2E2E2E2E2E2E2E2E2E2E2E2E2E2E2E2E2E2E2E2E2E2E2F5E2E2E200F5E2E2E2F5E2E2E2E2E2E2E2E2E2E2E2E2E2E2E2E2E2E2E2E2E2E2E2E2E2E2E2E2E2E2E2E2E2E2E2E2E2E2E2E2E2E2E2E2E2E2E2E2E2E2E2E2E2E2E2E2E2E2E2E2E2E2E2E2E2E2E2E2E2E2E2E2E2E2
310
E2E2E2E2E2E2E2E2E2E2E2E2E2E2E2E2E2E2E2E2E2E2E2E2F5E2E2E200F5E2E2E2F5E2E2E2E2E2E2E2E2E2E2E2E2E2E2E2E2E2E2E2E2E2E2E2E2E2E2E2E2E2E2E2E2E2E2E2E2E2E2E2E2E2E2E2E2E2E2E2E2E2E2E2E2E2E2E2E2E2E2E2E2E2E2E2E2E2E2E2E2E2E2E2E2E2E2E2E2E2E2E2E2E2E2E2E2E2E2E2E2E2E2E2E2E2
310
E2E2E2E2E2F5E2E2E200F5E2E2E2F5E2E2E2E2E2E2E2E2E2E2E2E2E2E2E2E2E2E2E2E2E2E2E2E2E2E2E2E2E2E2E2E2E2E2E2E2E2E2E2E2E2E2E2E2E2E2E2E2E2E2E2E2E2E2E2E2E2E2E2E2E2E2E2E2E2E2E2E2E2E2E2E2E2E2E2E2E2E2E2E2E2E2E2E2E2E2E2E2E2E2E2E2E2E2E2E2E2E2F5E2E2E200F5E2E2E2F5E2E2E2E2
310
E2E2E2E2E2E2E2E2E2E2E2E2E2E2E2E2E2E2E2E2E2E2E2E2E2E2E2E2E2E2E2E2E2E2E2E2E2E2E2E2E2E2E2E2E2E2E2E2E2E2E2E2E2E2E2E2E2E2E2E2E2E2E2E2E2E2E2E2E2E2E2E2E2E2E2E2E2E2E2E2E2E2E2E2E2E2E2E2E2E2E2E2E2E2F5E2E2E200F5E2E2E2F5E2E2E2E2E2E2E2E2E2E2E2E2E2E2E2E2E2E2E2E2E2E2E2
310
E2E2E2E2E2E2E2E2E2E2E2E2E2E2E2E2E2E2E2E2E2E2E2E2E2E2E2E2E2E2E2E2E2E2E2E2E2E2E2E2E2E2E2E2E2E2E2E2E2E2E2E2E2E2E2E2E2E2E2E2E2E2E2E2E2E2E2E2E2E2E2E2E2E2E2F5E2E2E200F5E2E2E2F5E2E2E2E2E2E2E2E2E2E2E2E2E2E2E2E2E2E2E2E2E2E2E2E2E2E2E2E2E2E2E2E2E2E2E2E2E2E2E2E2E2E2
310
E2E2E2E2E2E2E2E2E2E2E2E2E2E2E2E2E2E2E2E2E2E2E2E2E2E2E2E2E2E2E2E2E2E2E2E2E2E2E2E2E2E2E2E2E2E2E2E2E2E2E2E2E2E2E2E2F5E2E2E200F5E2E2E2F5E2E2E2E2E2E2E2E2E2E2E2E2E2E2E2E2E2E2E2E2E2E2E2E2E2E2E2E2E2E2E2E2E2E2E2E2E2E2E2E2E2E2E2E2E2E2E2E2E2E2E2E2E2E2E2E2E2E2E2E2E2
310
E2E2E2E2E2E2E2E2E2E2E2E2E2E2E2E2E2E2E2E2E2E2E2E2E2E2E2E2E2E2E2E2E2E2E2E2E2F5E2E2E200F5E2E2E2F5F5F5F5F5F5F5F5E2E2E2E2E2E2E2E2E2F5F5F5F5F5F5F5F5F5F5F5F5F5F5F5F5E2E2E2E2E2E2E2E2E2F5F5F5F5F5F5F5F5F5F5F5F5F5F5F5F5E2E2E2E2E2E2E2E2E2F5F5F5F5F5F5F5F5F5F5F5F5F5F5
310
F5F5E2E2E2E2E2E2E2E2E2F5F5F5F5F5F5F5F5E2E2E2F5F5E2E2E2E2E2E2E2E2E2E2E2E2E2E2E2E2E2E2E2E2E2E2E2E2E2E2E2E2E2E2E2E2E2E2E2E2E2E2E2E2E2E2E2E2E2E2E2E2E2E2E2E2E2E2E2E2E2E2E2E2E2E2E2E2E2E2E2E2E2E2E2E2E2E2E2E2E2E2E2E2E2E2E2E2E2E2E2E2E2E2E2E2E2E2E2E2E2E2E2E2E2E2E2
310
E2E2E280F5E2E2E2E2E2E2E2E2E2E2E2E2E2E2E2E2E2E2E2E2E2E2E2E2E2E2E2E2E2E2E2E2E2E2E2E2E2E2E2E2E2E2E2E2E2E2E2E2E2E2E2E2E2E2E2E2E2E2E2E2E2E2E2E2E2E2E2E2E2E2E2E2E2E2E2E2E2E2E2E2E2E2E2E2E2E2E2E2E2E2E2E2E2E2E2E2E2E2E2E2E2E2E2E2E2E2E2F5E2E2E2E2E2E2E2E2E2E2E2E2E2E2
310
E2E2E2E2E2E2E2E2E2E2E2E2E2E2E2E2E2E2E2E2E2E2E2E2E2E2E2E2E2E2E2E2E2E2E2E2E2E2E2E2E2E2E2E2E2E2E2E2E2E2E2E2E2E2E2E2E2E2E2E2E2E2E2E2E2E2E2E2E2E2E2E2E2E2E2E2E2E2E2E2E2E2E2E2E2E2E2E2E2E2E2E2E2F5F5F5F5F5F5F5F5F5F5F5F5F5F5F5F5F5F5F5F5F5F5F5F5F5F5F5F5F5F5F5F5F5F5
310
F5F5F5F5F5F5F5F5F5F5F5F5F5F5F5F5F5F5F5F5F5F5F5F5F5F5F5F5F5F5F5F5F5F5F5F5F5F5F5F5F5F5F5F5F5F5F5F5F5F5F5F5F5F5F5F5F5F5F5F5F5F5F5F5F5F5F5F5F5F5F5F5F5E2EFEFEFEFEFEFEFEFEFEFEFEFEFEFEFEFEFEFEFEFEFEFEFEFEFEFEFEFEFEFEFEFEFEFEFEFEFEFEFEFEFEFEFEFEFEFEFEFEFEFEFEFEF
310
EFEFEFEFEFEFEFEFEFEFEFEFEFEFEFEFEFEFEFEFEFEFEFEFEFEFEFEFEFEFEFEFEFEFEFEFEFEFEFEFEFEFEFEFEFEFEFEFEFEFEFEFEFEFE2
  0
ENDSEC
  0
EOF
