  0
SECTION
  2
HEADER
  9
$ACADVER
  1
AC1021
  9
$ACADMAINTVER
 70
     1
  9
$DWGCODEPAGE
  3
ANSI_1252
  9
$LASTSAVEDBY
  1
RSutcliffe
  9
$INSBASE
 10
0.0
 20
0.0
 30
0.0
  9
$EXTMIN
 10
46.13090459686668
 20
94.26732583282023
 30
-0.0015258207003583
  9
$EXTMAX
 10
278.5706428160369
 20
333.9870232814915
 30
0.0000000349246037
  9
$LIMMIN
 10
0.0
 20
0.0
  9
$LIMMAX
 10
17.0
 20
11.0
  9
$ORTHOMODE
 70
     1
  9
$REGENMODE
 70
     1
  9
$FILLMODE
 70
     1
  9
$QTEXTMODE
 70
     0
  9
$MIRRTEXT
 70
     1
  9
$LTSCALE
 40
20.0
  9
$ATTMODE
 70
     1
  9
$TEXTSIZE
 40
2.0
  9
$TRACEWID
 40
0.05
  9
$TEXTSTYLE
  7
WEB PAGE
  9
$CLAYER
  8
0
  9
$CELTYPE
  6
BYLAYER
  9
$CECOLOR
 62
   256
  9
$CELTSCALE
 40
1.0
  9
$DISPSILH
 70
     0
  9
$DIMSCALE
 40
1.0
  9
$DIMASZ
 40
3.0
  9
$DIMEXO
 40
2.0
  9
$DIMDLI
 40
1.0
  9
$DIMRND
 40
0.0
  9
$DIMDLE
 40
0.0
  9
$DIMEXE
 40
1.0
  9
$DIMTP
 40
0.0
  9
$DIMTM
 40
0.0
  9
$DIMTXT
 40
1.75
  9
$DIMCEN
 40
1.0
  9
$DIMTSZ
 40
0.0
  9
$DIMTOL
 70
     0
  9
$DIMLIM
 70
     0
  9
$DIMTIH
 70
     1
  9
$DIMTOH
 70
     1
  9
$DIMSE1
 70
     0
  9
$DIMSE2
 70
     0
  9
$DIMTAD
 70
     0
  9
$DIMZIN
 70
     0
  9
$DIMBLK
  1

  9
$DIMASO
 70
     1
  9
$DIMSHO
 70
     1
  9
$DIMPOST
  1

  9
$DIMAPOST
  1

  9
$DIMALT
 70
     0
  9
$DIMALTD
 70
     2
  9
$DIMALTF
 40
25.4
  9
$DIMLFAC
 40
1.0
  9
$DIMTOFL
 70
     0
  9
$DIMTVP
 40
0.0
  9
$DIMTIX
 70
     0
  9
$DIMSOXD
 70
     0
  9
$DIMSAH
 70
     0
  9
$DIMBLK1
  1

  9
$DIMBLK2
  1

  9
$DIMSTYLE
  2
STANDARD
  9
$DIMCLRD
 70
     0
  9
$DIMCLRE
 70
     0
  9
$DIMCLRT
 70
     0
  9
$DIMTFAC
 40
1.0
  9
$DIMGAP
 40
1.0
  9
$DIMJUST
 70
     0
  9
$DIMSD1
 70
     0
  9
$DIMSD2
 70
     0
  9
$DIMTOLJ
 70
     1
  9
$DIMTZIN
 70
     0
  9
$DIMALTZ
 70
     0
  9
$DIMALTTZ
 70
     0
  9
$DIMUPT
 70
     0
  9
$DIMDEC
 70
     4
  9
$DIMTDEC
 70
     4
  9
$DIMALTU
 70
     2
  9
$DIMALTTD
 70
     2
  9
$DIMTXSTY
  7
WEB PAGE
  9
$DIMAUNIT
 70
     0
  9
$DIMADEC
 70
     4
  9
$DIMALTRND
 40
0.0
  9
$DIMAZIN
 70
     0
  9
$DIMDSEP
 70
    46
  9
$DIMATFIT
 70
     3
  9
$DIMFRAC
 70
     2
  9
$DIMLDRBLK
  1

  9
$DIMLUNIT
 70
     4
  9
$DIMLWD
 70
    -2
  9
$DIMLWE
 70
    -2
  9
$DIMTMOVE
 70
     0
  9
$DIMFXL
 40
1.0
  9
$DIMFXLON
 70
     0
  9
$DIMJOGANG
 40
0.7853981633974483
  9
$DIMTFILL
 70
     0
  9
$DIMTFILLCLR
 70
     0
  9
$DIMARCSYM
 70
     0
  9
$DIMLTYPE
  6

  9
$DIMLTEX1
  6

  9
$DIMLTEX2
  6

  9
$LUNITS
 70
     4
  9
$LUPREC
 70
     4
  9
$SKETCHINC
 40
0.1
  9
$FILLETRAD
 40
0.0
  9
$AUNITS
 70
     1
  9
$AUPREC
 70
     4
  9
$MENU
  1
acad
  9
$ELEVATION
 40
0.0
  9
$PELEVATION
 40
0.0
  9
$THICKNESS
 40
0.0
  9
$LIMCHECK
 70
     0
  9
$CHAMFERA
 40
0.0
  9
$CHAMFERB
 40
0.0
  9
$CHAMFERC
 40
0.0
  9
$CHAMFERD
 40
0.0
  9
$SKPOLY
 70
     0
  9
$TDCREATE
 40
2451029.636190972
  9
$TDUCREATE
 40
2451029.844524306
  9
$TDUPDATE
 40
2454105.455499664
  9
$TDUUPDATE
 40
2454105.663832998
  9
$TDINDWG
 40
3.1224637500
  9
$TDUSRTIMER
 40
3.1224637500
  9
$USRTIMER
 70
     1
  9
$ANGBASE
 50
0.0
  9
$ANGDIR
 70
     0
  9
$PDMODE
 70
     2
  9
$PDSIZE
 40
0.0
  9
$PLINEWID
 40
0.0
  9
$SPLFRAME
 70
     0
  9
$SPLINETYPE
 70
     6
  9
$SPLINESEGS
 70
     8
  9
$HANDSEED
  5
13553
  9
$SURFTAB1
 70
     6
  9
$SURFTAB2
 70
     6
  9
$SURFTYPE
 70
     6
  9
$SURFU
 70
     6
  9
$SURFV
 70
     6
  9
$UCSBASE
  2

  9
$UCSNAME
  2

  9
$UCSORG
 10
0.0
 20
0.0
 30
0.0
  9
$UCSXDIR
 10
1.0
 20
0.0
 30
0.0
  9
$UCSYDIR
 10
0.0
 20
1.0
 30
0.0
  9
$UCSORTHOREF
  2

  9
$UCSORTHOVIEW
 70
     0
  9
$UCSORGTOP
 10
0.0
 20
0.0
 30
0.0
  9
$UCSORGBOTTOM
 10
0.0
 20
0.0
 30
0.0
  9
$UCSORGLEFT
 10
0.0
 20
0.0
 30
0.0
  9
$UCSORGRIGHT
 10
0.0
 20
0.0
 30
0.0
  9
$UCSORGFRONT
 10
0.0
 20
0.0
 30
0.0
  9
$UCSORGBACK
 10
0.0
 20
0.0
 30
0.0
  9
$PUCSBASE
  2

  9
$PUCSNAME
  2

  9
$PUCSORG
 10
0.0
 20
0.0
 30
0.0
  9
$PUCSXDIR
 10
1.0
 20
0.0
 30
0.0
  9
$PUCSYDIR
 10
0.0
 20
1.0
 30
0.0
  9
$PUCSORTHOREF
  2

  9
$PUCSORTHOVIEW
 70
     0
  9
$PUCSORGTOP
 10
0.0
 20
0.0
 30
0.0
  9
$PUCSORGBOTTOM
 10
0.0
 20
0.0
 30
0.0
  9
$PUCSORGLEFT
 10
0.0
 20
0.0
 30
0.0
  9
$PUCSORGRIGHT
 10
0.0
 20
0.0
 30
0.0
  9
$PUCSORGFRONT
 10
0.0
 20
0.0
 30
0.0
  9
$PUCSORGBACK
 10
0.0
 20
0.0
 30
0.0
  9
$USERI1
 70
     0
  9
$USERI2
 70
     0
  9
$USERI3
 70
     0
  9
$USERI4
 70
     0
  9
$USERI5
 70
     0
  9
$USERR1
 40
0.0
  9
$USERR2
 40
0.0
  9
$USERR3
 40
0.0
  9
$USERR4
 40
0.0
  9
$USERR5
 40
0.0
  9
$WORLDVIEW
 70
     1
  9
$SHADEDGE
 70
     3
  9
$SHADEDIF
 70
    70
  9
$TILEMODE
 70
     1
  9
$MAXACTVP
 70
    16
  9
$PINSBASE
 10
0.0
 20
0.0
 30
0.0
  9
$PLIMCHECK
 70
     0
  9
$PEXTMIN
 10
0.2681964825884151
 20
0.3176937899962837
 30
-0.0015258207003583
  9
$PEXTMAX
 10
7.859520119462118
 20
9.517370100604626
 30
0.0000000349246037
  9
$PLIMMIN
 10
-0.1816021089943486
 20
-0.1150149669006446
  9
$PLIMMAX
 10
8.318397650709759
 20
10.88498479280346
  9
$UNITMODE
 70
     0
  9
$VISRETAIN
 70
     0
  9
$PLINEGEN
 70
     0
  9
$PSLTSCALE
 70
     1
  9
$TREEDEPTH
 70
  3020
  9
$CMLSTYLE
  2
STANDARD
  9
$CMLJUST
 70
     0
  9
$CMLSCALE
 40
1.0
  9
$PROXYGRAPHICS
 70
     1
  9
$MEASUREMENT
 70
     0
  9
$CELWEIGHT
370
    -1
  9
$ENDCAPS
280
     0
  9
$JOINSTYLE
280
     0
  9
$LWDISPLAY
290
     0
  9
$INSUNITS
 70
     1
  9
$HYPERLINKBASE
  1

  9
$STYLESHEET
  1

  9
$XEDIT
290
     1
  9
$CEPSNTYPE
380
     0
  9
$PSTYLEMODE
290
     1
  9
$FINGERPRINTGUID
  2
{EED38BEA-5B6B-467F-90D5-C3127D1C881D}
  9
$VERSIONGUID
  2
{DE49363C-6414-41D8-9CEA-641E49405C28}
  9
$EXTNAMES
290
     1
  9
$PSVPSCALE
 40
0.0
  9
$OLESTARTUP
290
     0
  9
$SORTENTS
280
    96
  9
$INDEXCTL
280
     0
  9
$HIDETEXT
280
     0
  9
$XCLIPFRAME
290
     0
  9
$HALOGAP
280
     0
  9
$OBSCOLOR
 70
   257
  9
$OBSLTYPE
280
     0
  9
$INTERSECTIONDISPLAY
280
     0
  9
$INTERSECTIONCOLOR
 70
   257
  9
$DIMASSOC
280
     1
  9
$PROJECTNAME
  1

  9
$CAMERADISPLAY
290
     0
  9
$LENSLENGTH
 40
50.0
  9
$CAMERAHEIGHT
 40
0.0
  9
$STEPSPERSEC
 40
2.0
  9
$STEPSIZE
 40
6.0
  9
$3DDWFPREC
 40
2.0
  9
$PSOLWIDTH
 40
0.25
  9
$PSOLHEIGHT
 40
4.0
  9
$LOFTANG1
 40
1.570796326794896
  9
$LOFTANG2
 40
1.570796326794896
  9
$LOFTMAG1
 40
0.0
  9
$LOFTMAG2
 40
0.0
  9
$LOFTPARAM
 70
     7
  9
$LOFTNORMALS
280
     1
  9
$LATITUDE
 40
37.795
  9
$LONGITUDE
 40
-122.394
  9
$NORTHDIRECTION
 40
0.0
  9
$TIMEZONE
 70
 -8000
  9
$LIGHTGLYPHDISPLAY
280
     1
  9
$TILEMODELIGHTSYNCH
280
     1
  9
$CMATERIAL
347
13321
  9
$SOLIDHIST
280
     1
  9
$SHOWHIST
280
     1
  9
$DWFFRAME
280
     2
  9
$DGNFRAME
280
     0
  9
$REALWORLDSCALE
290
     1
  9
$INTERFERECOLOR
 62
     1
  9
$INTERFEREOBJVS
345
1332E
  9
$INTERFEREVPVS
346
1332B
  9
$CSHADOW
280
     0
  9
$SHADOWPLANELOCATION
 40
0.0
  0
ENDSEC
  0
SECTION
  2
CLASSES
  0
CLASS
  1
DICTIONARYVAR
  2
AcDbDictionaryVar
  3
ObjectDBX Classes
 90
        0
 91
        3
280
     0
281
     0
  0
CLASS
  1
ACDBDICTIONARYWDFLT
  2
AcDbDictionaryWithDefault
  3
ObjectDBX Classes
 90
        0
 91
        1
280
     0
281
     0
  0
CLASS
  1
MATERIAL
  2
AcDbMaterial
  3
ObjectDBX Classes
 90
     1024
 91
        3
280
     0
281
     0
  0
CLASS
  1
VISUALSTYLE
  2
AcDbVisualStyle
  3
ObjectDBX Classes
 90
     4095
 91
       16
280
     0
281
     0
  0
CLASS
  1
TABLESTYLE
  2
AcDbTableStyle
  3
ObjectDBX Classes
 90
     4095
 91
        1
280
     0
281
     0
  0
CLASS
  1
SORTENTSTABLE
  2
AcDbSortentsTable
  3
ObjectDBX Classes
 90
        0
 91
        1
280
     0
281
     0
  0
ENDSEC
  0
SECTION
  2
TABLES
  0
TABLE
  2
VPORT
  5
8
102
{ACAD_XDICTIONARY
360
134CB
102
}
330
0
100
AcDbSymbolTable
 70
     1
  0
VPORT
  5
1331F
330
8
100
AcDbSymbolTableRecord
100
AcDbViewportTableRecord
  2
*Active
 70
     0
 10
0.0
 20
0.0
 11
1.0
 21
1.0
 12
162.3507737064518
 22
214.1271745571558
 13
0.0
 23
0.0
 14
1.0
 24
1.0
 15
0.25
 25
0.25
 16
0.0
 26
0.0
 36
1.0
 17
0.0
 27
0.0
 37
0.0
 40
241.573200263996
 41
1.544516129032257
 42
50.0
 43
0.0
 44
0.0
 50
0.0
 51
0.0
 71
     0
 72
   100
 73
     1
 74
     0
 75
     0
 76
     0
 77
     0
 78
     0
281
     0
 65
     1
110
0.0
120
0.0
130
0.0
111
1.0
121
0.0
131
0.0
112
0.0
122
1.0
132
0.0
 79
     0
146
0.0
348
1332A
 60
     3
 61
     5
292
     1
282
     1
141
0.0
142
0.0
 63
   250
421
  3355443
  0
ENDTAB
  0
TABLE
  2
LTYPE
  5
5
330
0
100
AcDbSymbolTable
 70
     7
  0
LTYPE
  5
11
330
5
100
AcDbSymbolTableRecord
100
AcDbLinetypeTableRecord
  2
BYBLOCK
 70
     0
  3

 72
    65
 73
     0
 40
0.0
  0
LTYPE
  5
12
330
5
100
AcDbSymbolTableRecord
100
AcDbLinetypeTableRecord
  2
BYLAYER
 70
     0
  3

 72
    65
 73
     0
 40
0.0
  0
LTYPE
  5
13
330
5
100
AcDbSymbolTableRecord
100
AcDbLinetypeTableRecord
  2
CONTINUOUS
 70
     0
  3
Solid line
 72
    65
 73
     0
 40
0.0
  0
LTYPE
  5
3A
330
5
100
AcDbSymbolTableRecord
100
AcDbLinetypeTableRecord
  2
HIDDEN
 70
     0
  3
__ __ __ __ __ __ __ __ __ __ __ __ __ __ __ __
 72
    65
 73
     2
 40
0.375
 49
0.25
 74
     0
 49
-0.125
 74
     0
  0
ENDTAB
  0
TABLE
  2
LAYER
  5
2
102
{ACAD_XDICTIONARY
360
13340
102
}
330
0
100
AcDbSymbolTable
 70
    38
  0
LAYER
  5
E
330
2
100
AcDbSymbolTableRecord
100
AcDbLayerTableRecord
  2
0
 70
     0
 62
     7
  6
CONTINUOUS
370
    -3
390
B579
347
13323
  0
LAYER
  5
41
330
2
100
AcDbSymbolTableRecord
100
AcDbLayerTableRecord
  2
BDR
 70
     0
 62
     7
  6
CONTINUOUS
370
    -3
390
B579
347
13323
  0
LAYER
  5
44
330
2
100
AcDbSymbolTableRecord
100
AcDbLayerTableRecord
  2
AME_FRZ
 70
     0
 62
     7
  6
CONTINUOUS
370
    -3
390
B579
347
13323
  0
LAYER
  5
45
330
2
100
AcDbSymbolTableRecord
100
AcDbLayerTableRecord
  2
ASHADE
 70
     0
 62
     7
  6
CONTINUOUS
370
    -3
390
B579
347
13323
  0
LAYER
  5
B91F
330
2
100
AcDbSymbolTableRecord
100
AcDbLayerTableRecord
  2
HATCH
 70
     0
 62
     4
  6
CONTINUOUS
370
    -3
390
B579
347
13323
  0
LAYER
  5
F047
330
2
100
AcDbSymbolTableRecord
100
AcDbLayerTableRecord
  2
Defpoints
 70
     0
 62
     7
  6
CONTINUOUS
290
     0
370
    -3
390
B579
347
13323
  0
LAYER
  5
F086
330
2
100
AcDbSymbolTableRecord
100
AcDbLayerTableRecord
  2
SECTION JOINTS
 70
     0
 62
     7
  6
CONTINUOUS
370
    25
390
B579
347
13323
  0
LAYER
  5
111E5
330
2
100
AcDbSymbolTableRecord
100
AcDbLayerTableRecord
  2
TEXT
 70
     0
 62
     7
  6
CONTINUOUS
370
    25
390
B579
347
13323
  0
LAYER
  5
117C7
330
2
100
AcDbSymbolTableRecord
100
AcDbLayerTableRecord
  2
FRAMING
 70
     0
 62
     7
  6
CONTINUOUS
370
    25
390
B579
347
13323
  0
ENDTAB
  0
TABLE
  2
STYLE
  5
3
330
0
100
AcDbSymbolTable
 70
     6
  0
STYLE
  5
F
330
3
100
AcDbSymbolTableRecord
100
AcDbTextStyleTableRecord
  2
STANDARD
 70
     0
 40
0.0
 41
1.0
 50
0.0
 71
     0
 42
2.0
  3
TIMES.TTF
  4

1001
ACAD
1000
Times New Roman
1071
       18
  0
STYLE
  5
1D21
330
3
100
AcDbSymbolTableRecord
100
AcDbTextStyleTableRecord
  2
SIMPLEX
 70
     0
 40
0.1
 41
0.6
 50
0.0
 71
     0
 42
0.1
  3
SIMPLEX.shx
  4

  0
STYLE
  5
10B94
330
3
100
AcDbSymbolTableRecord
100
AcDbTextStyleTableRecord
  2
WEB PAGE
 70
     0
 40
0.0
 41
1.0
 50
0.0
 71
     0
 42
2.0
  3
TIMES.TTF
  4

1001
ACAD
1000
Times New Roman
1071
       18
  0
ENDTAB
  0
TABLE
  2
VIEW
  5
6
330
0
100
AcDbSymbolTable
 70
     1
  0
ENDTAB
  0
TABLE
  2
UCS
  5
7
330
0
100
AcDbSymbolTable
 70
     0
  0
ENDTAB
  0
TABLE
  2
APPID
  5
9
330
0
100
AcDbSymbolTable
 70
     9
  0
APPID
  5
10
330
9
100
AcDbSymbolTableRecord
100
AcDbRegAppTableRecord
  2
ACAD
 70
     0
  0
APPID
  5
3F
330
9
100
AcDbSymbolTableRecord
100
AcDbRegAppTableRecord
  2
AME_SOL
 70
     0
  0
APPID
  5
40
330
9
100
AcDbSymbolTableRecord
100
AcDbRegAppTableRecord
  2
AVE_RENDER
 70
     0
  0
APPID
  5
71A7
330
9
100
AcDbSymbolTableRecord
100
AcDbRegAppTableRecord
  2
AVE_ENTITY_MATERIAL
 70
     0
  0
APPID
  5
71A8
330
9
100
AcDbSymbolTableRecord
100
AcDbRegAppTableRecord
  2
AVE_FINISH
 70
     0
  0
APPID
  5
71A9
330
9
100
AcDbSymbolTableRecord
100
AcDbRegAppTableRecord
  2
AVE_MATERIAL
 70
     0
  0
APPID
  5
71AA
330
9
100
AcDbSymbolTableRecord
100
AcDbRegAppTableRecord
  2
AVE_GLOBAL
 70
     0
  0
APPID
  5
123F8
330
9
100
AcDbSymbolTableRecord
100
AcDbRegAppTableRecord
  2
DCO15
 70
     0
  0
APPID
  5
1333F
330
9
100
AcDbSymbolTableRecord
100
AcDbRegAppTableRecord
  2
ACAD_PSEXT
 70
     0
  0
ENDTAB
  0
TABLE
  2
DIMSTYLE
  5
A
330
0
100
AcDbSymbolTable
 70
     1
100
AcDbDimStyleTable
 71
     1
340
190D
  0
DIMSTYLE
105
190D
102
{ACAD_REACTORS
330
11CDE
330
11CDF
330
11CE0
330
11CFE
330
11EA8
330
1205D
330
11CFD
330
11D00
330
11D1F
330
127F4
330
11CE1
102
}
330
A
100
AcDbSymbolTableRecord
100
AcDbDimStyleTableRecord
  2
STANDARD
 70
     0
 41
3.0
 42
2.0
 43
1.0
 44
1.0
140
1.75
141
1.0
147
1.0
179
     4
276
     2
277
     4
340
10B94
  0
ENDTAB
  0
TABLE
  2
BLOCK_RECORD
  5
1
330
0
100
AcDbSymbolTable
 70
   107
  0
BLOCK_RECORD
  5
17
330
1
100
AcDbSymbolTableRecord
100
AcDbBlockTableRecord
  2
*MODEL_SPACE
340
B57C
 70
     0
280
     1
281
     0
  0
BLOCK_RECORD
  5
14
330
1
100
AcDbSymbolTableRecord
100
AcDbBlockTableRecord
  2
*PAPER_SPACE
340
B57D
 70
     0
280
     1
281
     0
  0
BLOCK_RECORD
  5
20
330
1
100
AcDbSymbolTableRecord
100
AcDbBlockTableRecord
  2
AME_NIL
340
0
102
{BLKREFS
331
3374
331
3E3C
102
}
 70
     0
280
     1
281
     0
  0
BLOCK_RECORD
  5
21
330
1
100
AcDbSymbolTableRecord
100
AcDbBlockTableRecord
  2
AME_SOL
340
0
102
{BLKREFS
331
3375
331
3E3D
102
}
 70
     0
280
     1
281
     0
  0
BLOCK_RECORD
  5
22
330
1
100
AcDbSymbolTableRecord
100
AcDbBlockTableRecord
  2
AVE_RENDER
340
0
102
{BLKREFS
331
3376
331
3377
331
3378
331
3E3E
331
3E3F
331
3E40
331
120FE
331
120FF
331
12100
331
12101
331
12102
331
12103
331
12104
331
12105
102
}
 70
     0
280
     1
281
     0
  0
BLOCK_RECORD
  5
11D2A
330
1
100
AcDbSymbolTableRecord
100
AcDbBlockTableRecord
  2
*D64
340
0
 70
     0
280
     1
281
     0
  0
BLOCK_RECORD
  5
11D37
330
1
100
AcDbSymbolTableRecord
100
AcDbBlockTableRecord
  2
*D65
340
0
 70
     0
280
     1
281
     0
  0
BLOCK_RECORD
  5
11D44
330
1
100
AcDbSymbolTableRecord
100
AcDbBlockTableRecord
  2
*D66
340
0
 70
     0
280
     1
281
     0
  0
BLOCK_RECORD
  5
11D51
330
1
100
AcDbSymbolTableRecord
100
AcDbBlockTableRecord
  2
*D67
340
0
 70
     0
280
     1
281
     0
  0
BLOCK_RECORD
  5
11D5E
330
1
100
AcDbSymbolTableRecord
100
AcDbBlockTableRecord
  2
*D68
340
0
 70
     0
280
     1
281
     0
  0
BLOCK_RECORD
  5
11E49
330
1
100
AcDbSymbolTableRecord
100
AcDbBlockTableRecord
  2
WD-9-3-38
340
0
102
{BLKREFS
331
11E5B
102
}
 70
     1
280
     1
281
     0
  0
BLOCK_RECORD
  5
11EA9
330
1
100
AcDbSymbolTableRecord
100
AcDbBlockTableRecord
  2
*D71
340
0
 70
     0
280
     1
281
     0
  0
BLOCK_RECORD
  5
12034
330
1
100
AcDbSymbolTableRecord
100
AcDbBlockTableRecord
  2
A$C2D8E259A
340
0
102
{BLKREFS
331
12045
102
}
 70
     0
280
     1
281
     0
  0
BLOCK_RECORD
  5
1205E
330
1
100
AcDbSymbolTableRecord
100
AcDbBlockTableRecord
  2
*D73
340
0
 70
     0
280
     1
281
     0
  0
BLOCK_RECORD
  5
1222E
330
1
100
AcDbSymbolTableRecord
100
AcDbBlockTableRecord
  2
TRA130
340
0
102
{BLKREFS
331
12260
102
}
 70
     0
280
     1
281
     0
  0
BLOCK_RECORD
  5
1254A
330
1
100
AcDbSymbolTableRecord
100
AcDbBlockTableRecord
  2
A$C509D1A7E
340
0
102
{BLKREFS
331
12564
102
}
 70
     0
280
     1
281
     0
  0
BLOCK_RECORD
  5
125CF
330
1
100
AcDbSymbolTableRecord
100
AcDbBlockTableRecord
  2
A$C07F7408E
340
0
102
{BLKREFS
331
125F9
102
}
 70
     0
280
     1
281
     0
  0
BLOCK_RECORD
  5
12619
330
1
100
AcDbSymbolTableRecord
100
AcDbBlockTableRecord
  2
A$C73DC2C6A
340
0
102
{BLKREFS
331
1262C
102
}
 70
     0
280
     1
281
     0
  0
BLOCK_RECORD
  5
12687
330
1
100
AcDbSymbolTableRecord
100
AcDbBlockTableRecord
  2
A$C190E579F
340
0
102
{BLKREFS
331
126B7
102
}
 70
     0
280
     1
281
     0
  0
BLOCK_RECORD
  5
127F5
330
1
100
AcDbSymbolTableRecord
100
AcDbBlockTableRecord
  2
*D100
340
0
 70
     0
280
     1
281
     0
  0
ENDTAB
  0
ENDSEC
  0
SECTION
  2
BLOCKS
  0
BLOCK
  5
57
330
17
100
AcDbEntity
  8
0
100
AcDbBlockBegin
  2
*MODEL_SPACE
 70
     0
 10
0.0
 20
0.0
 30
0.0
  3
*MODEL_SPACE
  1

  0
ENDBLK
  5
58
330
17
100
AcDbEntity
  8
0
100
AcDbBlockEnd
  0
BLOCK
  5
55
330
14
100
AcDbEntity
 67
     1
  8
0
100
AcDbBlockBegin
  2
*PAPER_SPACE
 70
     0
 10
0.0
 20
0.0
 30
0.0
  3
*PAPER_SPACE
  1

  0
ENDBLK
  5
56
330
14
100
AcDbEntity
 67
     1
  8
0
100
AcDbBlockEnd
  0
BLOCK
  5
91E
330
20
100
AcDbEntity
  8
0
100
AcDbBlockBegin
  2
AME_NIL
 70
     0
 10
0.0
 20
0.0
 30
0.0
  3
AME_NIL
  1
AME_NIL
  0
ENDBLK
  5
91F
330
20
100
AcDbEntity
  8
0
100
AcDbBlockEnd
  0
BLOCK
  5
920
330
21
100
AcDbEntity
  8
0
100
AcDbBlockBegin
  2
AME_SOL
 70
     0
 10
0.0
 20
0.0
 30
0.0
  3
AME_SOL
  1
AME_SOL
  0
ENDBLK
  5
921
330
21
100
AcDbEntity
  8
0
100
AcDbBlockEnd
  0
BLOCK
  5
922
330
22
100
AcDbEntity
  8
0
100
AcDbBlockBegin
  2
AVE_RENDER
 70
     0
 10
0.0
 20
0.0
 30
0.0
  3
AVE_RENDER
  1
AVE_RENDER
  0
ENDBLK
  5
923
330
22
100
AcDbEntity
  8
0
100
AcDbBlockEnd
  0
BLOCK
  5
11D35
330
11D2A
100
AcDbEntity
  8
0
100
AcDbBlockBegin
  2
*D64
 70
     1
 10
0.0
 20
0.0
 30
0.0
  3
*D64
  1

  0
LINE
  5
12816
330
11D2A
100
AcDbEntity
  8
TEXT
 62
     0
370
    -2
100
AcDbLine
 10
132.2169295018095
 20
123.0362941793405
 30
0.0
 11
76.6733151244273
 21
123.0362941793405
 31
0.0
  0
LINE
  5
12817
330
11D2A
100
AcDbEntity
  8
TEXT
 62
     0
370
    -2
100
AcDbLine
 10
139.5919295018095
 20
256.5573891528887
 30
0.0
 11
76.67331512442733
 21
256.5573891528888
 31
0.0
  0
LINE
  5
12818
330
11D2A
100
AcDbEntity
  8
TEXT
 62
     0
370
    -2
100
AcDbLine
 10
77.6733151244273
 20
126.0362941793405
 30
0.0
 11
77.67331512442732
 21
199.4565655181477
 31
0.0
  0
LINE
  5
12819
330
11D2A
100
AcDbEntity
  8
TEXT
 62
     0
370
    -2
100
AcDbLine
 10
77.67331512442734
 20
253.5573891528887
 30
0.0
 11
77.67331512442732
 21
206.1232321848144
 31
0.0
  0
SOLID
  5
1281A
330
11D2A
100
AcDbEntity
  8
TEXT
 62
     0
100
AcDbTrace
 10
77.1733151244273
 20
126.0362941793405
 30
0.0
 11
78.17331512442731
 21
126.0362941793405
 31
0.0
 12
77.6733151244273
 22
123.0362941793405
 32
0.0
 13
77.6733151244273
 23
123.0362941793405
 33
0.0
  0
SOLID
  5
1281B
330
11D2A
100
AcDbEntity
  8
TEXT
 62
     0
100
AcDbTrace
 10
77.17331512442733
 20
253.5573891528887
 30
0.0
 11
78.17331512442733
 21
253.5573891528887
 31
0.0
 12
77.67331512442734
 22
256.5573891528888
 32
0.0
 13
77.67331512442734
 23
256.5573891528888
 33
0.0
  0
MTEXT
  5
1281C
330
11D2A
100
AcDbEntity
  8
TEXT
 62
     0
100
AcDbMText
 10
77.67331512442729
 20
202.7898988514811
 30
0.0
 40
1.75
 41
0.0
 46
0.0
 71
     5
 72
     1
  1
\A1;FLOOR TO\PSHAFT CENTER
  7
WEB PAGE
 73
     1
 44
1.0
  0
POINT
  5
1281D
330
11D2A
100
AcDbEntity
  8
Defpoints
 62
     0
100
AcDbPoint
 10
134.2169295018095
 20
123.0362941793405
 30
0.0
  0
POINT
  5
1281E
330
11D2A
100
AcDbEntity
  8
Defpoints
 62
     0
100
AcDbPoint
 10
141.5919295018095
 20
256.5573891528887
 30
0.0
  0
POINT
  5
1281F
330
11D2A
100
AcDbEntity
  8
Defpoints
 62
     0
100
AcDbPoint
 10
77.67331512442734
 20
256.5573891528888
 30
0.0
  0
ENDBLK
  5
11D36
330
11D2A
100
AcDbEntity
  8
0
100
AcDbBlockEnd
  0
BLOCK
  5
11D42
330
11D37
100
AcDbEntity
  8
0
100
AcDbBlockBegin
  2
*D65
 70
     1
 10
0.0
 20
0.0
 30
0.0
  3
*D65
  1

  0
LINE
  5
1280C
330
11D37
100
AcDbEntity
  8
TEXT
 62
     0
370
    -2
100
AcDbLine
 10
132.2169295018095
 20
123.0362941793405
 30
0.0
 11
55.45126231511268
 21
123.0362941793405
 31
0.0
  0
LINE
  5
1280D
330
11D37
100
AcDbEntity
  8
TEXT
 62
     0
370
    -2
100
AcDbLine
 10
136.2169295018095
 20
258.628848011267
 30
0.0
 11
55.45126231511272
 21
258.6288480112671
 31
0.0
  0
LINE
  5
1280E
330
11D37
100
AcDbEntity
  8
TEXT
 62
     0
370
    -2
100
AcDbLine
 10
56.45126231511269
 20
126.0362941793405
 30
0.0
 11
56.4512623151127
 21
178.0912897901557
 31
0.0
  0
LINE
  5
1280F
330
11D37
100
AcDbEntity
  8
TEXT
 62
     0
370
    -2
100
AcDbLine
 10
56.45126231511271
 20
255.628848011267
 30
0.0
 11
56.4512623151127
 21
184.7579564568223
 31
0.0
  0
SOLID
  5
12810
330
11D37
100
AcDbEntity
  8
TEXT
 62
     0
100
AcDbTrace
 10
55.95126231511269
 20
126.0362941793405
 30
0.0
 11
56.95126231511268
 21
126.0362941793405
 31
0.0
 12
56.45126231511269
 22
123.0362941793405
 32
0.0
 13
56.45126231511269
 23
123.0362941793405
 33
0.0
  0
SOLID
  5
12811
330
11D37
100
AcDbEntity
  8
TEXT
 62
     0
100
AcDbTrace
 10
55.95126231511271
 20
255.628848011267
 30
0.0
 11
56.95126231511271
 21
255.628848011267
 31
0.0
 12
56.45126231511271
 22
258.6288480112671
 32
0.0
 13
56.45126231511271
 23
258.6288480112671
 33
0.0
  0
MTEXT
  5
12812
330
11D37
100
AcDbEntity
  8
TEXT
 62
     0
100
AcDbMText
 10
56.45126231511267
 20
181.424623123489
 30
0.0
 40
1.75
 41
0.0
 46
0.0
 71
     5
 72
     1
  1
\A1;MINIMUM\PCEILING HEIGHT
  7
WEB PAGE
 73
     1
 44
1.0
  0
POINT
  5
12813
330
11D37
100
AcDbEntity
  8
Defpoints
 62
     0
100
AcDbPoint
 10
134.2169295018095
 20
123.0362941793405
 30
0.0
  0
POINT
  5
12814
330
11D37
100
AcDbEntity
  8
Defpoints
 62
     0
100
AcDbPoint
 10
138.2169295018095
 20
258.628848011267
 30
0.0
  0
POINT
  5
12815
330
11D37
100
AcDbEntity
  8
Defpoints
 62
     0
100
AcDbPoint
 10
56.45126231511271
 20
258.6288480112671
 30
0.0
  0
ENDBLK
  5
11D43
330
11D37
100
AcDbEntity
  8
0
100
AcDbBlockEnd
  0
BLOCK
  5
11D4F
330
11D44
100
AcDbEntity
  8
0
100
AcDbBlockBegin
  2
*D66
 70
     1
 10
0.0
 20
0.0
 30
0.0
  3
*D66
  1

  0
LINE
  5
127D6
330
11D44
100
AcDbEntity
  8
TEXT
 62
     0
370
    -2
100
AcDbLine
 10
207.4861505668555
 20
123.0362941793405
 30
0.0
 11
174.0501848453942
 21
123.0362941793405
 31
0.0
  0
LINE
  5
127D7
330
11D44
100
AcDbEntity
  8
TEXT
 62
     0
370
    -2
100
AcDbLine
 10
145.8187576132446
 20
234.53024560101
 30
0.0
 11
176.0501848453942
 21
234.53024560101
 31
0.0
  0
LINE
  5
127D8
330
11D44
100
AcDbEntity
  8
TEXT
 62
     0
370
    -2
100
AcDbLine
 10
175.0501848453941
 20
126.0362941793405
 30
0.0
 11
175.0501848453941
 21
170.379062324093
 31
0.0
  0
LINE
  5
127D9
330
11D44
100
AcDbEntity
  8
TEXT
 62
     0
370
    -2
100
AcDbLine
 10
175.0501848453942
 20
231.53024560101
 30
0.0
 11
175.0501848453941
 21
179.379062324093
 31
0.0
  0
SOLID
  5
127DA
330
11D44
100
AcDbEntity
  8
TEXT
 62
     0
100
AcDbTrace
 10
174.5501848453941
 20
126.0362941793405
 30
0.0
 11
175.5501848453941
 21
126.0362941793405
 31
0.0
 12
175.0501848453941
 22
123.0362941793405
 32
0.0
 13
175.0501848453941
 23
123.0362941793405
 33
0.0
  0
SOLID
  5
127DB
330
11D44
100
AcDbEntity
  8
TEXT
 62
     0
100
AcDbTrace
 10
174.5501848453942
 20
231.53024560101
 30
0.0
 11
175.5501848453942
 21
231.53024560101
 31
0.0
 12
175.0501848453942
 22
234.53024560101
 32
0.0
 13
175.0501848453942
 23
234.53024560101
 33
0.0
  0
MTEXT
  5
127DC
330
11D44
100
AcDbEntity
  8
TEXT
 62
     0
100
AcDbMText
 10
175.0501848453941
 20
174.879062324093
 30
0.0
 40
1.75
 41
0.0
 46
0.0
 71
     5
 72
     1
  1
\A1;\A1;VERTICAL TRACK\PDOOR HEIGHT-8-\S1/2;"
  7
WEB PAGE
 73
     1
 44
1.0
  0
POINT
  5
127DD
330
11D44
100
AcDbEntity
  8
Defpoints
 62
     0
100
AcDbPoint
 10
209.4861505668555
 20
123.0362941793405
 30
0.0
  0
POINT
  5
127DE
330
11D44
100
AcDbEntity
  8
Defpoints
 62
     0
100
AcDbPoint
 10
143.8187576132446
 20
234.53024560101
 30
0.0
  0
POINT
  5
127DF
330
11D44
100
AcDbEntity
  8
Defpoints
 62
     0
100
AcDbPoint
 10
175.0501848453942
 20
234.53024560101
 30
0.0
  0
ENDBLK
  5
11D50
330
11D44
100
AcDbEntity
  8
0
100
AcDbBlockEnd
  0
BLOCK
  5
11D5C
330
11D51
100
AcDbEntity
  8
0
100
AcDbBlockBegin
  2
*D67
 70
     1
 10
0.0
 20
0.0
 30
0.0
  3
*D67
  1

  0
LINE
  5
12995
330
11D51
100
AcDbEntity
  8
TEXT
 62
     0
370
    -2
100
AcDbLine
 10
132.2169295018095
 20
243.0362941793405
 30
0.0
 11
117.0575413775432
 21
243.0362941793405
 31
0.0
  0
LINE
  5
12996
330
11D51
100
AcDbEntity
  8
TEXT
 62
     0
370
    -2
100
AcDbLine
 10
132.2169295018095
 20
123.0362941793405
 30
0.0
 11
117.0575413775432
 21
123.0362941793405
 31
0.0
  0
LINE
  5
12997
330
11D51
100
AcDbEntity
  8
TEXT
 62
     0
370
    -2
100
AcDbLine
 10
118.0575413775432
 20
240.0362941793405
 30
0.0
 11
118.0575413775432
 21
186.3696275126739
 31
0.0
  0
LINE
  5
12998
330
11D51
100
AcDbEntity
  8
TEXT
 62
     0
370
    -2
100
AcDbLine
 10
118.0575413775432
 20
126.0362941793405
 30
0.0
 11
118.0575413775432
 21
179.7029608460072
 31
0.0
  0
SOLID
  5
12999
330
11D51
100
AcDbEntity
  8
TEXT
 62
     0
100
AcDbTrace
 10
117.5575413775432
 20
240.0362941793405
 30
0.0
 11
118.5575413775432
 21
240.0362941793405
 31
0.0
 12
118.0575413775432
 22
243.0362941793405
 32
0.0
 13
118.0575413775432
 23
243.0362941793405
 33
0.0
  0
SOLID
  5
1299A
330
11D51
100
AcDbEntity
  8
TEXT
 62
     0
100
AcDbTrace
 10
117.5575413775432
 20
126.0362941793405
 30
0.0
 11
118.5575413775432
 21
126.0362941793405
 31
0.0
 12
118.0575413775432
 22
123.0362941793405
 32
0.0
 13
118.0575413775432
 23
123.0362941793405
 33
0.0
  0
MTEXT
  5
1299B
330
11D51
100
AcDbEntity
  8
TEXT
 62
     0
100
AcDbMText
 10
118.0575413775432
 20
183.0362941793405
 30
0.0
 40
1.75
 41
0.0
 46
0.0
 71
     5
 72
     1
  1
\A1;OPENING\PHEIGHT
  7
WEB PAGE
 73
     1
 44
1.0
  0
POINT
  5
1299C
330
11D51
100
AcDbEntity
  8
Defpoints
 62
     0
100
AcDbPoint
 10
134.2169295018095
 20
243.0362941793405
 30
0.0
  0
POINT
  5
1299D
330
11D51
100
AcDbEntity
  8
Defpoints
 62
     0
100
AcDbPoint
 10
134.2169295018095
 20
123.0362941793405
 30
0.0
  0
POINT
  5
1299E
330
11D51
100
AcDbEntity
  8
Defpoints
 62
     0
100
AcDbPoint
 10
118.0575413775432
 20
123.0362941793405
 30
0.0
  0
ENDBLK
  5
11D5D
330
11D51
100
AcDbEntity
  8
0
100
AcDbBlockEnd
  0
BLOCK
  5
11D6A
330
11D5E
100
AcDbEntity
  8
0
100
AcDbBlockBegin
  2
*D68
 70
     1
 10
0.0
 20
0.0
 30
0.0
  3
*D68
  1

  0
LINE
  5
124CA
330
11D5E
100
AcDbEntity
  8
TEXT
 62
     0
370
    -2
100
AcDbLine
 10
132.2169295018095
 20
243.0362941793405
 30
0.0
 11
117.0575413775432
 21
243.0362941793405
 31
0.0
  0
LINE
  5
124CB
330
11D5E
100
AcDbEntity
  8
TEXT
 62
     0
370
    -2
100
AcDbLine
 10
136.2169295018095
 20
258.628848011267
 30
0.0
 11
117.0575413775432
 21
258.6288480112671
 31
0.0
  0
LINE
  5
124CC
330
11D5E
100
AcDbEntity
  8
TEXT
 62
     0
370
    -2
100
AcDbLine
 10
118.0575413775432
 20
246.0362941793405
 30
0.0
 11
118.0575413775432
 21
255.628848011267
 31
0.0
  0
LINE
  5
124CD
330
11D5E
100
AcDbEntity
  8
TEXT
 62
     0
370
    -2
100
AcDbLine
 10
118.0575413775432
 20
258.6288480112671
 30
0.0
 11
118.0575413775432
 21
272.3008621425022
 31
0.0
  0
LINE
  5
124CE
330
11D5E
100
AcDbEntity
  8
TEXT
 62
     0
370
    -2
100
AcDbLine
 10
118.0575413775432
 20
272.3008621425022
 30
0.0
 11
121.0575413775432
 21
272.3008621425022
 31
0.0
  0
SOLID
  5
124CF
330
11D5E
100
AcDbEntity
  8
TEXT
 62
     0
100
AcDbTrace
 10
117.5575413775432
 20
246.0362941793405
 30
0.0
 11
118.5575413775432
 21
246.0362941793405
 31
0.0
 12
118.0575413775432
 22
243.0362941793405
 32
0.0
 13
118.0575413775432
 23
243.0362941793405
 33
0.0
  0
SOLID
  5
124D0
330
11D5E
100
AcDbEntity
  8
TEXT
 62
     0
100
AcDbTrace
 10
117.5575413775432
 20
255.628848011267
 30
0.0
 11
118.5575413775432
 21
255.628848011267
 31
0.0
 12
118.0575413775432
 22
258.6288480112671
 32
0.0
 13
118.0575413775432
 23
258.6288480112671
 33
0.0
  0
MTEXT
  5
124D1
330
11D5E
100
AcDbEntity
  8
TEXT
 62
     0
100
AcDbMText
 10
128.9325413775432
 20
272.3008621425022
 30
0.0
 40
1.75
 41
0.0
 46
0.0
 71
     5
 72
     1
  1
\A1;MINIMUM\PHEADROOM
  7
WEB PAGE
 73
     1
 44
1.0
  0
POINT
  5
124D2
330
11D5E
100
AcDbEntity
  8
Defpoints
 62
     0
100
AcDbPoint
 10
134.2169295018095
 20
243.0362941793405
 30
0.0
  0
POINT
  5
124D3
330
11D5E
100
AcDbEntity
  8
Defpoints
 62
     0
100
AcDbPoint
 10
138.2169295018095
 20
258.628848011267
 30
0.0
  0
POINT
  5
124D4
330
11D5E
100
AcDbEntity
  8
Defpoints
 62
     0
100
AcDbPoint
 10
118.0575413775432
 20
258.6288480112671
 30
0.0
  0
ENDBLK
  5
11D6B
330
11D5E
100
AcDbEntity
  8
0
100
AcDbBlockEnd
  0
BLOCK
  5
11E59
330
11E49
100
AcDbEntity
  8
0
100
AcDbBlockBegin
  2
WD-9-3-38
 70
     0
 10
0.0
 20
0.0
 30
0.0
  3
WD-9-3-38
  1

  0
LINE
  5
11E4A
330
11E49
100
AcDbEntity
  8
0
100
AcDbLine
 10
0.0
 20
4.25
 30
0.0
 11
0.0
 21
0.0
 31
0.0
  0
LINE
  5
11E4B
330
11E49
100
AcDbEntity
  8
0
100
AcDbLine
 10
5.0
 20
4.25
 30
0.0
 11
5.0
 21
-2.0
 31
0.0
  0
LINE
  5
11E4C
330
11E49
100
AcDbEntity
  8
0
100
AcDbLine
 10
0.0
 20
0.0
 30
0.0
 11
2.25
 21
-0.0000000000000142
 31
0.0
  0
LINE
  5
11E4D
330
11E49
100
AcDbEntity
  8
0
100
AcDbLine
 10
4.4375
 20
-1.462500000000005
 30
0.0
 11
3.1875
 21
-1.462500000000005
 31
0.0
  0
LINE
  5
11E4E
330
11E49
100
AcDbEntity
  8
0
100
AcDbLine
 10
3.1875
 20
-1.837500000000005
 30
0.0
 11
4.4375
 21
-1.837500000000005
 31
0.0
  0
LINE
  5
11E4F
330
11E49
100
AcDbEntity
  8
0
100
AcDbLine
 10
5.0
 20
-2.0
 30
0.0
 11
2.25
 21
-2.0
 31
0.0
  0
LINE
  5
11E50
330
11E49
100
AcDbEntity
  8
0
100
AcDbLine
 10
2.25
 20
-2.0
 30
0.0
 11
2.25
 21
-1.837500000000019
 31
0.0
  0
LINE
  5
11E51
330
11E49
100
AcDbEntity
  8
0
100
AcDbLine
 10
2.25
 20
-1.462500000000019
 30
0.0
 11
2.25
 21
-0.0000000000000142
 31
0.0
  0
LINE
  5
11E52
330
11E49
100
AcDbEntity
  8
0
100
AcDbLine
 10
2.5
 20
-1.462500000000005
 30
0.0
 11
2.25
 21
-1.462500000000019
 31
0.0
  0
LINE
  5
11E53
330
11E49
100
AcDbEntity
  8
0
100
AcDbLine
 10
2.25
 20
-1.837500000000019
 30
0.0
 11
2.5
 21
-1.837500000000005
 31
0.0
  0
ARC
  5
11E54
330
11E49
100
AcDbEntity
  8
0
100
AcDbCircle
 10
3.1875
 20
-1.650000000000005
 30
0.0
 40
0.1875
100
AcDbArc
 50
90.0
 51
270.0
  0
ARC
  5
11E55
330
11E49
100
AcDbEntity
  8
0
100
AcDbCircle
 10
2.5
 20
-1.650000000000005
 30
0.0
 40
0.1875
100
AcDbArc
 50
270.0
 51
90.0
  0
ARC
  5
11E56
330
11E49
100
AcDbEntity
  8
0
100
AcDbCircle
 10
4.4375
 20
-1.650000000000005
 30
0.0
 40
0.1875
100
AcDbArc
 50
270.0
 51
90.0
  0
LINE
  5
11E57
330
11E49
100
AcDbEntity
  8
0
100
AcDbLine
 10
0.0
 20
4.25
 30
0.0
 11
5.0
 21
4.25
 31
0.0
  0
CIRCLE
  5
11E58
330
11E49
100
AcDbEntity
  8
0
100
AcDbCircle
 10
3.375
 20
2.599999999999994
 30
0.0
 40
0.5
  0
ENDBLK
  5
11E5A
330
11E49
100
AcDbEntity
  8
0
100
AcDbBlockEnd
  0
BLOCK
  5
11EB4
330
11EA9
100
AcDbEntity
  8
0
100
AcDbBlockBegin
  2
*D71
 70
     1
 10
0.0
 20
0.0
 30
0.0
  3
*D71
  1

  0
LINE
  5
12821
330
11EA9
100
AcDbEntity
  8
TEXT
 62
     0
370
    -2
100
AcDbLine
 10
140.7756608040905
 20
234.874889338956
 30
0.0
 11
140.7756608040905
 21
242.2407720156136
 31
0.0
  0
LINE
  5
12822
330
11EA9
100
AcDbEntity
  8
TEXT
 62
     0
370
    -2
100
AcDbLine
 10
260.8417609065538
 20
301.6737479711899
 30
0.0
 11
260.8417609065538
 21
240.2407720156136
 31
0.0
  0
LINE
  5
12823
330
11EA9
100
AcDbEntity
  8
TEXT
 62
     0
370
    -2
100
AcDbLine
 10
143.7756608040905
 20
241.2407720156136
 30
0.0
 11
190.8796927894504
 21
241.2407720156136
 31
0.0
  0
LINE
  5
12824
330
11EA9
100
AcDbEntity
  8
TEXT
 62
     0
370
    -2
100
AcDbLine
 10
257.8417609065537
 20
241.2407720156136
 30
0.0
 11
239.4630261227838
 21
241.2407720156136
 31
0.0
  0
SOLID
  5
12825
330
11EA9
100
AcDbEntity
  8
TEXT
 62
     0
100
AcDbTrace
 10
143.7756608040905
 20
241.7407720156136
 30
0.0
 11
143.7756608040905
 21
240.7407720156136
 31
0.0
 12
140.7756608040905
 22
241.2407720156136
 32
0.0
 13
140.7756608040905
 23
241.2407720156136
 33
0.0
  0
SOLID
  5
12826
330
11EA9
100
AcDbEntity
  8
TEXT
 62
     0
100
AcDbTrace
 10
257.8417609065537
 20
241.7407720156136
 30
0.0
 11
257.8417609065537
 21
240.7407720156136
 31
0.0
 12
260.8417609065538
 22
241.2407720156136
 32
0.0
 13
260.8417609065538
 23
241.2407720156136
 33
0.0
  0
MTEXT
  5
12827
330
11EA9
100
AcDbEntity
  8
TEXT
 62
     0
100
AcDbMText
 10
215.1713594561171
 20
241.2407720156136
 30
0.0
 40
1.75
 41
0.0
 46
0.0
 71
     5
 72
     1
  1
\A1;HORIZONTAL TRACK LENGTH\P(BACKROOM: DOOR HEIGHT + 21")
  7
WEB PAGE
 73
     1
 44
1.0
  0
POINT
  5
12828
330
11EA9
100
AcDbEntity
  8
Defpoints
 62
     0
100
AcDbPoint
 10
140.7756608040905
 20
232.874889338956
 30
0.0
  0
POINT
  5
12829
330
11EA9
100
AcDbEntity
  8
Defpoints
 62
     0
100
AcDbPoint
 10
260.8417609065538
 20
303.6737479711899
 30
0.0
  0
POINT
  5
1282A
330
11EA9
100
AcDbEntity
  8
Defpoints
 62
     0
100
AcDbPoint
 10
260.8417609065538
 20
241.2407720156136
 30
0.0
  0
ENDBLK
  5
11EB5
330
11EA9
100
AcDbEntity
  8
0
100
AcDbBlockEnd
  0
BLOCK
  5
12043
330
12034
100
AcDbEntity
  8
0
100
AcDbBlockBegin
  2
A$C2D8E259A
 70
     0
 10
0.0
 20
0.0
 30
0.0
  3
A$C2D8E259A
  1

  0
LINE
  5
12035
330
12034
100
AcDbEntity
  8
0
100
AcDbLine
 10
-0.0000004604032604
 20
2.095456975818166
 30
0.0
 11
0.9999995395967395
 21
2.095456975818166
 31
0.0
  0
LINE
  5
12036
330
12034
100
AcDbEntity
  8
0
100
AcDbLine
 10
0.0549995395967393
 20
2.040456975818166
 30
0.0
 11
0.9999995395967395
 21
2.040456975818166
 31
0.0
  0
LINE
  5
12037
330
12034
100
AcDbEntity
  8
0
100
AcDbLine
 10
0.8478670952251974
 20
0.3621827433166693
 30
0.0
 11
0.6627309988545634
 21
0.1415461353480936
 31
0.0
  0
LINE
  5
12038
330
12034
100
AcDbEntity
  8
0
100
AcDbLine
 10
0.8899995395967437
 20
0.3268294247839059
 30
0.0
 11
0.8478670952251974
 21
0.3621827433166658
 31
0.0
  0
LINE
  5
12039
330
12034
100
AcDbEntity
  8
0
100
AcDbLine
 10
0.2262781434198011
 20
0.2224495439404386
 30
0.0
 11
0.0549995395967393
 21
0.6071475867100134
 31
0.0
  0
LINE
  5
1203A
330
12034
100
AcDbEntity
  8
0
100
AcDbLine
 10
0.1751036101700158
 20
0.2021667940502745
 30
0.0
 11
-0.0000004604032569
 21
0.5954569758181663
 31
0.0
  0
ARC
  5
1203B
330
12034
100
AcDbEntity
  8
0
100
AcDbCircle
 10
0.4673896658592263
 20
0.3054569758181671
 30
0.0
 40
0.255
100
AcDbArc
 50
198.997042049035
 51
320.0
  0
LINE
  5
1203C
330
12034
100
AcDbEntity
  8
0
100
AcDbLine
 10
0.8899995395967366
 20
0.3268294247839059
 30
0.0
 11
0.7048634432261061
 21
0.1061928168153337
 31
0.0
  0
ARC
  5
1203D
330
12034
100
AcDbEntity
  8
0
100
AcDbCircle
 10
0.4673896658592263
 20
0.3054569758181671
 30
0.0
 40
0.31
100
AcDbArc
 50
199.4627615683172
 51
320.0
  0
LINE
  5
1203E
330
12034
100
AcDbEntity
  8
0
100
AcDbLine
 10
-0.0000004604032604
 20
1.184456975818165
 30
0.0
 11
0.0549995395967429
 21
1.184456975818165
 31
0.0
  0
LINE
  5
1203F
330
12034
100
AcDbEntity
  8
0
100
AcDbLine
 10
-0.0000004604032604
 20
1.456456975818166
 30
0.0
 11
0.0549995395967429
 21
1.456456975818166
 31
0.0
  0
LINE
  5
12040
330
12034
100
AcDbEntity
  8
0
100
AcDbLine
 10
0.0549995395967393
 20
0.6071475867100134
 30
0.0
 11
0.0549995395967393
 21
2.040456975818166
 31
0.0
  0
LINE
  5
12041
330
12034
100
AcDbEntity
  8
0
100
AcDbLine
 10
-0.0000004604032569
 20
0.5954569758181663
 30
0.0
 11
-0.0000004604032604
 21
2.095456975818166
 31
0.0
  0
LINE
  5
12042
330
12034
100
AcDbEntity
  8
0
100
AcDbLine
 10
0.9999995395967395
 20
2.095456975818166
 30
0.0
 11
0.9999995395967395
 21
2.040456975818166
 31
0.0
  0
ENDBLK
  5
12044
330
12034
100
AcDbEntity
  8
0
100
AcDbBlockEnd
  0
BLOCK
  5
1206B
330
1205E
100
AcDbEntity
  8
0
100
AcDbBlockBegin
  2
*D73
 70
     1
 10
0.0
 20
0.0
 30
0.0
  3
*D73
  1

  0
ARC
  5
132DC
330
1205E
100
AcDbEntity
  8
TEXT
 62
     0
370
    -2
100
AcDbCircle
 10
219.5381503781859
 20
213.6152231550802
 30
0.0
 40
5.663360582444527
100
AcDbArc
 50
118.5653662259092
 51
149.2826831129546
  0
ARC
  5
132DD
330
1205E
100
AcDbEntity
  8
TEXT
 62
     0
370
    -2
100
AcDbCircle
 10
219.5381503781859
 20
213.6152231550802
 30
0.0
 40
5.663360582444527
100
AcDbArc
 50
255.7173168870454
 51
286.4346337740908
  0
SOLID
  5
132DE
330
1205E
100
AcDbEntity
  8
TEXT
 62
     0
100
AcDbTrace
 10
215.1515144047845
 20
216.3756532434295
 30
0.0
 11
214.1872276405068
 21
216.6405136523975
 31
0.0
 12
213.8747897957415
 22
213.6152231550802
 32
0.0
 13
213.8747897957415
 23
213.6152231550802
 33
0.0
  0
SOLID
  5
132DF
330
1205E
100
AcDbEntity
  8
TEXT
 62
     0
100
AcDbTrace
 10
217.89368005048
 20
207.6923459759497
 30
0.0
 11
218.38824916926
 21
208.5614842772281
 31
0.0
 12
215.5335497060347
 22
209.610622482929
 32
0.0
 13
215.5335497060347
 23
209.610622482929
 33
0.0
  0
MTEXT
  5
132E0
330
1205E
100
AcDbEntity
  8
TEXT
 62
     0
100
AcDbMText
 10
214.2130908165982
 20
211.6871687594966
 30
0.0
 40
1.75
 41
0.0
 46
0.0
 71
     5
 72
     1
  1
\A1;45°
  7
WEB PAGE
 73
     1
 44
1.0
  0
POINT
  5
132E1
330
1205E
100
AcDbEntity
  8
Defpoints
 62
     0
100
AcDbPoint
 10
214.6335362429976
 20
210.7835428638579
 30
0.0
  0
POINT
  5
132E2
330
1205E
100
AcDbEntity
  8
Defpoints
 62
     0
100
AcDbPoint
 10
207.8059173311521
 20
201.8829901080464
 30
0.0
  0
POINT
  5
132E3
330
1205E
100
AcDbEntity
  8
Defpoints
 62
     0
100
AcDbPoint
 10
229.625635083974
 20
213.6152231550802
 30
0.0
  0
POINT
  5
132E4
330
1205E
100
AcDbEntity
  8
Defpoints
 62
     0
100
AcDbPoint
 10
207.8059173311521
 20
213.6152231550802
 30
0.0
  0
POINT
  5
132E5
330
1205E
100
AcDbEntity
  8
Defpoints
 62
     0
100
AcDbPoint
 10
219.5381503781859
 20
213.6152231550802
 30
0.0
  0
ENDBLK
  5
1206C
330
1205E
100
AcDbEntity
  8
0
100
AcDbBlockEnd
  0
BLOCK
  5
1225E
330
1222E
100
AcDbEntity
  8
0
100
AcDbBlockBegin
  2
TRA130
 70
     0
 10
0.0
 20
0.0
 30
0.0
  3
TRA130
  1

  0
LINE
  5
1222F
330
1222E
100
AcDbEntity
  8
0
100
AcDbLine
 10
-3.72981777385371
 20
-36.28738554814254
 30
0.0
 11
-3.72981777385371
 21
93.71261445185746
 31
0.0
  0
LINE
  5
12230
330
1222E
100
AcDbEntity
  8
0
100
AcDbLine
 10
-3.814954536643767
 20
-36.28738554814254
 30
0.0
 11
-3.814954536643767
 21
93.71261445185746
 31
0.0
  0
LINE
  5
12231
330
1222E
100
AcDbEntity
  8
0
100
AcDbLine
 10
0.7371287966894578
 20
88.71261445185757
 30
0.0
 11
-0.1443295366437951
 21
4.092614451857457
 31
0.0
  0
LINE
  5
12232
330
1222E
100
AcDbEntity
  8
0
100
AcDbLine
 10
-0.2042253699771663
 20
-1.657385548142542
 30
0.0
 11
-0.5649545366437679
 21
-36.28738554814254
 31
0.0
  0
LINE
  5
12233
330
1222E
100
AcDbEntity
  8
0
100
AcDbLine
 10
-3.814954536643767
 20
-36.28738554814254
 30
0.0
 11
-0.5649545366437679
 21
-36.28738554814254
 31
0.0
  0
ARC
  5
12234
330
1222E
100
AcDbEntity
  8
0
100
AcDbCircle
 10
-2.611603274675019
 20
-26.28738554814254
 30
0.0
 40
0.14085126196875
100
AcDbArc
 50
90.0
 51
270.0
  0
ARC
  5
12235
330
1222E
100
AcDbEntity
  8
0
100
AcDbCircle
 10
-0.890087850612474
 20
-26.28738554814254
 30
0.0
 40
0.14085126196875
100
AcDbArc
 50
270.0
 51
90.0
  0
LINE
  5
12236
330
1222E
100
AcDbEntity
  8
0
100
AcDbLine
 10
-2.611603274675019
 20
-26.14653428617379
 30
0.0
 11
-0.890087850612474
 21
-26.14653428617379
 31
0.0
  0
LINE
  5
12237
330
1222E
100
AcDbEntity
  8
0
100
AcDbLine
 10
-0.890087850612474
 20
-26.42823681011132
 30
0.0
 11
-2.611603274675019
 21
-26.42823681011132
 31
0.0
  0
LINE
  5
12238
330
1222E
100
AcDbEntity
  8
0
100
AcDbLine
 10
-2.002454536643767
 20
-1.657385548142542
 30
0.0
 11
-2.002454536643767
 21
4.092614451857457
 31
0.0
  0
ARC
  5
12239
330
1222E
100
AcDbEntity
  8
0
100
AcDbCircle
 10
-0.6400878506125878
 20
-2.287385548142538
 30
0.0
 40
0.14085126196875
100
AcDbArc
 50
270.0
 51
90.0
  0
LINE
  5
1223A
330
1222E
100
AcDbEntity
  8
0
100
AcDbLine
 10
-2.002454536643767
 20
-1.657385548142542
 30
0.0
 11
-0.2042253699771663
 21
-1.657385548142542
 31
0.0
  0
ARC
  5
1223B
330
1222E
100
AcDbEntity
  8
0
100
AcDbCircle
 10
-2.361603274675019
 20
-2.287385548142538
 30
0.0
 40
0.14085126196875
100
AcDbArc
 50
90.0
 51
270.0
  0
LINE
  5
1223C
330
1222E
100
AcDbEntity
  8
0
100
AcDbLine
 10
-2.361603274675019
 20
-2.146534286173817
 30
0.0
 11
-0.6400878506125878
 21
-2.146534286173817
 31
0.0
  0
LINE
  5
1223D
330
1222E
100
AcDbEntity
  8
0
100
AcDbLine
 10
-0.6400878506125878
 20
-2.428236810111286
 30
0.0
 11
-2.361603274675019
 21
-2.428236810111286
 31
0.0
  0
ARC
  5
1223E
330
1222E
100
AcDbEntity
  8
0
100
AcDbCircle
 10
-0.6400899971484364
 20
4.711836840157047
 30
0.0
 40
0.14085126196875
100
AcDbArc
 50
270.0
 51
90.0
  0
LINE
  5
1223F
330
1222E
100
AcDbEntity
  8
0
100
AcDbLine
 10
-2.002454536643767
 20
4.092614451857457
 30
0.0
 11
-0.1443295366437951
 21
4.092614451857457
 31
0.0
  0
ARC
  5
12240
330
1222E
100
AcDbEntity
  8
0
100
AcDbCircle
 10
-2.361605421210867
 20
4.711836840157047
 30
0.0
 40
0.14085126196875
100
AcDbArc
 50
90.0
 51
270.0
  0
LINE
  5
12241
330
1222E
100
AcDbEntity
  8
0
100
AcDbLine
 10
-2.361605421210867
 20
4.852688102125767
 30
0.0
 11
-0.6400899971484364
 21
4.852688102125767
 31
0.0
  0
LINE
  5
12242
330
1222E
100
AcDbEntity
  8
0
100
AcDbLine
 10
-0.6400899971484364
 20
4.570985578188299
 30
0.0
 11
-2.361605421210867
 21
4.570985578188299
 31
0.0
  0
LINE
  5
12243
330
1222E
100
AcDbEntity
  8
0
100
AcDbLine
 10
-0.3900878506124741
 20
21.5717318962918
 30
0.0
 11
-2.111603274675019
 21
21.5717318962918
 31
0.0
  0
LINE
  5
12244
330
1222E
100
AcDbEntity
  8
0
100
AcDbLine
 10
-2.111603274675019
 20
21.85343442022935
 30
0.0
 11
-0.3900878506124741
 21
21.85343442022935
 31
0.0
  0
ARC
  5
12245
330
1222E
100
AcDbEntity
  8
0
100
AcDbCircle
 10
-0.3900878506124741
 20
21.71258315826054
 30
0.0
 40
0.14085126196875
100
AcDbArc
 50
270.0
 51
90.0
  0
ARC
  5
12246
330
1222E
100
AcDbEntity
  8
0
100
AcDbCircle
 10
-2.111603274675019
 20
21.71258315826054
 30
0.0
 40
0.14085126196875
100
AcDbArc
 50
90.0
 51
270.0
  0
ARC
  5
12247
330
1222E
100
AcDbEntity
  8
0
100
AcDbCircle
 10
-0.1447592613107744
 20
45.71258315826054
 30
0.0
 40
0.14085126196875
100
AcDbArc
 50
270.0
 51
90.0
  0
LINE
  5
12248
330
1222E
100
AcDbEntity
  8
0
100
AcDbLine
 10
-1.866274685373319
 20
45.85343442022934
 30
0.0
 11
-0.1447592613107744
 21
45.85343442022934
 31
0.0
  0
LINE
  5
12249
330
1222E
100
AcDbEntity
  8
0
100
AcDbLine
 10
-0.1447592613107744
 20
45.57173189629179
 30
0.0
 11
-1.866274685373319
 21
45.57173189629179
 31
0.0
  0
ARC
  5
1224A
330
1222E
100
AcDbEntity
  8
0
100
AcDbCircle
 10
-1.866274685373319
 20
45.71258315826054
 30
0.0
 40
0.14085126196875
100
AcDbArc
 50
90.0
 51
270.0
  0
LINE
  5
1224B
330
1222E
100
AcDbEntity
  8
0
100
AcDbLine
 10
-1.59712813336765
 20
71.25968442022929
 30
0.0
 11
0.1243872906947807
 21
71.25968442022929
 31
0.0
  0
LINE
  5
1224C
330
1222E
100
AcDbEntity
  8
0
100
AcDbLine
 10
0.1243872906947807
 20
70.97798189629179
 30
0.0
 11
-1.59712813336765
 21
70.97798189629179
 31
0.0
  0
ARC
  5
1224D
330
1222E
100
AcDbEntity
  8
0
100
AcDbCircle
 10
0.1243872906947807
 20
71.11883315826054
 30
0.0
 40
0.14085126196875
100
AcDbArc
 50
270.0
 51
90.0
  0
ARC
  5
1224E
330
1222E
100
AcDbEntity
  8
0
100
AcDbCircle
 10
-1.59712813336765
 20
71.11883315826054
 30
0.0
 40
0.14085126196875
100
AcDbArc
 50
90.0
 51
270.0
  0
LINE
  5
1224F
330
1222E
100
AcDbEntity
  8
0
100
AcDbLine
 10
-1.59712813336765
 20
72.44718442022929
 30
0.0
 11
0.1243872906947807
 21
72.44718442022929
 31
0.0
  0
LINE
  5
12250
330
1222E
100
AcDbEntity
  8
0
100
AcDbLine
 10
0.1243872906947807
 20
72.16548189629179
 30
0.0
 11
-1.59712813336765
 21
72.16548189629179
 31
0.0
  0
ARC
  5
12251
330
1222E
100
AcDbEntity
  8
0
100
AcDbCircle
 10
0.1243872906947807
 20
72.30633315826054
 30
0.0
 40
0.14085126196875
100
AcDbArc
 50
270.0
 51
90.0
  0
ARC
  5
12252
330
1222E
100
AcDbEntity
  8
0
100
AcDbCircle
 10
-1.59712813336765
 20
72.30633315826054
 30
0.0
 40
0.14085126196875
100
AcDbArc
 50
90.0
 51
270.0
  0
LINE
  5
12253
330
1222E
100
AcDbEntity
  8
0
100
AcDbLine
 10
-1.939954536643767
 20
88.71261445185746
 30
0.0
 11
0.7371287966894578
 21
88.71261445185757
 31
0.0
  0
LINE
  5
12254
330
1222E
100
AcDbEntity
  8
0
100
AcDbLine
 10
-3.814954536643767
 20
93.71261445185746
 30
0.0
 11
-1.939954536643767
 21
93.71261445185746
 31
0.0
  0
ARC
  5
12255
330
1222E
100
AcDbEntity
  8
0
100
AcDbCircle
 10
-2.627454536643767
 20
93.21180996485749
 30
0.0
 40
0.187801682625
100
AcDbArc
 50
0.0
 51
180.0
  0
ARC
  5
12256
330
1222E
100
AcDbEntity
  8
0
100
AcDbCircle
 10
-2.627454536643767
 20
88.17401511115525
 30
0.0
 40
0.187801682625
100
AcDbArc
 50
180.0
 51
0.0
  0
ARC
  5
12257
330
1222E
100
AcDbEntity
  8
0
100
AcDbCircle
 10
-2.627454536643767
 20
90.30243418090526
 30
0.0
 40
0.187801682625
100
AcDbArc
 50
0.0
 51
180.0
  0
ARC
  5
12258
330
1222E
100
AcDbEntity
  8
0
100
AcDbCircle
 10
-2.627454536643767
 20
91.08339089510753
 30
0.0
 40
0.187801682625
100
AcDbArc
 50
180.0
 51
0.0
  0
LINE
  5
12259
330
1222E
100
AcDbEntity
  8
0
100
AcDbLine
 10
-2.815256219268917
 20
90.30243418090526
 30
0.0
 11
-2.815256219268917
 21
88.17401511115525
 31
0.0
  0
LINE
  5
1225A
330
1222E
100
AcDbEntity
  8
0
100
AcDbLine
 10
-2.815256219268917
 20
93.21180996485749
 30
0.0
 11
-2.815256219268917
 21
91.08339089510753
 31
0.0
  0
LINE
  5
1225B
330
1222E
100
AcDbEntity
  8
0
100
AcDbLine
 10
-2.439652854018845
 20
88.17401511115525
 30
0.0
 11
-2.439652854018845
 21
90.30243418090526
 31
0.0
  0
LINE
  5
1225C
330
1222E
100
AcDbEntity
  8
0
100
AcDbLine
 10
-2.439652854018845
 20
91.08339089510753
 30
0.0
 11
-2.439652854018845
 21
93.21180996485749
 31
0.0
  0
LINE
  5
1225D
330
1222E
100
AcDbEntity
  8
0
100
AcDbLine
 10
-1.939954536643767
 20
88.71261445185746
 30
0.0
 11
-1.939954536643767
 21
93.71261445185746
 31
0.0
  0
ENDBLK
  5
1225F
330
1222E
100
AcDbEntity
  8
0
100
AcDbBlockEnd
  0
BLOCK
  5
12562
330
1254A
100
AcDbEntity
  8
0
100
AcDbBlockBegin
  2
A$C509D1A7E
 70
     0
 10
0.0
 20
0.0
 30
0.0
  3
A$C509D1A7E
  1

  0
ARC
  5
1254B
330
1254A
100
AcDbEntity
  8
0
100
AcDbCircle
 10
18.5600000994693
 20
-0.0000000472581405
 30
0.0
 40
18.56
100
AcDbArc
 50
117.0000000000003
 51
180.0
  0
ARC
  5
1254C
330
1254A
100
AcDbEntity
  8
0
  6
HIDDEN
100
AcDbCircle
 10
18.5600000994693
 20
-0.0000000472581405
 30
0.0
 40
16.06
100
AcDbArc
 50
117.0000000000003
 51
180.0
  0
ARC
  5
1254D
330
1254A
100
AcDbEntity
  8
0
100
AcDbCircle
 10
18.5600000994693
 20
-0.0000000472581405
 30
0.0
 40
15.46
100
AcDbArc
 50
117.0000000000003
 51
180.0
  0
LINE
  5
1254E
330
1254A
100
AcDbEntity
  8
FRAMING
100
AcDbLine
 10
3.100000099469298
 20
-0.0000000472581405
 30
0.0
 11
0.0000000994693039
 21
-0.0000000472581405
 31
0.0
  0
LINE
  5
1254F
330
1254A
100
AcDbEntity
  8
0
100
AcDbLine
 10
118.7370057604072
 20
71.87310876163099
 30
0.0
 11
10.1339364243033
 21
16.53708104167799
 31
0.0
  0
LINE
  5
12550
330
1254A
100
AcDbEntity
  8
0
100
AcDbLine
 10
120.1443763095998
 20
69.11098853664703
 30
0.0
 11
11.54130697349589
 21
13.77496081669403
 31
0.0
  0
LINE
  5
12551
330
1254A
100
AcDbEntity
  8
0
  6
HIDDEN
100
AcDbLine
 10
119.8719820097561
 20
69.64559245115998
 30
0.0
 11
11.26891267365215
 21
14.3095647312071
 31
0.0
  0
CIRCLE
  5
12552
330
1254A
100
AcDbEntity
  8
0
100
AcDbCircle
 10
9.704935507433901
 20
15.60020536459063
 30
0.0
 40
0.136
  0
CIRCLE
  5
12553
330
1254A
100
AcDbEntity
  8
0
100
AcDbCircle
 10
10.59594203162226
 20
16.05419586433021
 30
0.0
 40
0.136
  0
CIRCLE
  5
12554
330
1254A
100
AcDbEntity
  8
0
100
AcDbCircle
 10
26.63405946701289
 20
24.22602485964205
 30
0.0
 40
0.136
  0
CIRCLE
  5
12555
330
1254A
100
AcDbEntity
  8
0
100
AcDbCircle
 10
27.52506599120124
 20
24.68001535938157
 30
0.0
 40
0.136
  0
CIRCLE
  5
12556
330
1254A
100
AcDbEntity
  8
0
100
AcDbCircle
 10
48.01821604753371
 20
35.12179685339118
 30
0.0
 40
0.136
  0
CIRCLE
  5
12557
330
1254A
100
AcDbEntity
  8
0
100
AcDbCircle
 10
48.90922257172206
 20
35.57578735313069
 30
0.0
 40
0.136
  0
CIRCLE
  5
12558
330
1254A
100
AcDbEntity
  8
0
100
AcDbCircle
 10
69.40237262805453
 20
46.01756884714029
 30
0.0
 40
0.136
  0
CIRCLE
  5
12559
330
1254A
100
AcDbEntity
  8
0
100
AcDbCircle
 10
70.29337915224289
 20
46.47155934687981
 30
0.0
 40
0.136
  0
CIRCLE
  5
1255A
330
1254A
100
AcDbEntity
  8
0
100
AcDbCircle
 10
90.78652920857541
 20
56.91334084088942
 30
0.0
 40
0.136
  0
CIRCLE
  5
1255B
330
1254A
100
AcDbEntity
  8
0
100
AcDbCircle
 10
91.67753573276376
 20
57.36733134062894
 30
0.0
 40
0.136
  0
CIRCLE
  5
1255C
330
1254A
100
AcDbEntity
  8
0
100
AcDbCircle
 10
112.1706857890962
 20
67.80911283463854
 30
0.0
 40
0.136
  0
CIRCLE
  5
1255D
330
1254A
100
AcDbEntity
  8
0
100
AcDbCircle
 10
113.0616923132846
 20
68.26310333437806
 30
0.0
 40
0.136
  0
LINE
  5
1255E
330
1254A
100
AcDbEntity
  8
0
100
AcDbLine
 10
120.1443763095998
 20
69.11098853664697
 30
0.0
 11
118.7370057604072
 21
71.87310876163099
 31
0.0
  0
CIRCLE
  5
1255F
330
1254A
100
AcDbEntity
  8
0
100
AcDbCircle
 10
118.4166853617713
 20
71.18015938237045
 30
0.0
 40
0.136
  0
CIRCLE
  5
12560
330
1254A
100
AcDbEntity
  8
0
100
AcDbCircle
 10
118.757178236576
 20
70.51190448922915
 30
0.0
 40
0.136
  0
CIRCLE
  5
12561
330
1254A
100
AcDbEntity
  8
0
100
AcDbCircle
 10
118.0055076059524
 20
70.55539314358998
 30
0.0
 40
0.2075
  0
ENDBLK
  5
12563
330
1254A
100
AcDbEntity
  8
0
100
AcDbBlockEnd
  0
BLOCK
  5
125F7
330
125CF
100
AcDbEntity
  8
0
100
AcDbBlockBegin
  2
A$C07F7408E
 70
     0
 10
0.0
 20
0.0
 30
0.0
  3
A$C07F7408E
  1

  0
LINE
  5
125D0
330
125CF
100
AcDbEntity
  8
0
 48
0.5
100
AcDbLine
 10
4.351204193801777
 20
111.4939516049353
 30
0.0
 11
3.189827259980575
 21
0.0000001832658825
 31
0.0
  0
LINE
  5
125D1
330
125CF
100
AcDbEntity
  8
0
 48
0.5
100
AcDbLine
 10
1.161377242814012
 20
111.5271784427729
 30
0.0
 11
0.0000003089928668
 21
0.0332270211034569
 31
0.0
  0
LINE
  5
125D2
330
125CF
100
AcDbEntity
  8
0
 48
0.5
100
AcDbLine
 10
3.101272002975747
 20
111.5069715257181
 30
0.0
 11
1.939895069154658
 21
0.0130201040486213
 31
0.0
  0
LINE
  5
125D3
330
125CF
100
AcDbEntity
  8
0
 48
0.5
100
AcDbLine
 10
0.0000003089928668
 20
0.0332270211034569
 30
0.0
 11
3.189827259980631
 21
0.0000001832658825
 31
0.0
  0
CIRCLE
  5
125D4
330
125CF
100
AcDbEntity
  8
0
 48
0.5
100
AcDbCircle
 10
1.076264611179624
 20
1.39709070631487
 30
0.0
 40
0.195
  0
CIRCLE
  5
125D5
330
125CF
100
AcDbEntity
  8
0
 48
0.5
100
AcDbCircle
 10
1.466170669853283
 20
0.6179872052256031
 30
0.0
 40
0.136
  0
CIRCLE
  5
125D6
330
125CF
100
AcDbEntity
  8
0
 48
0.5
100
AcDbCircle
 10
0.716211355357757
 20
0.6257991576952549
 30
0.0
 40
0.136
  0
ARC
  5
125D7
330
125CF
100
AcDbEntity
  8
0
 48
0.5
100
AcDbCircle
 10
0.9705084076315984
 20
10.63769353434566
 30
0.0
 40
0.136
100
AcDbArc
 50
359.4031999999998
 51
179.4031999999998
  0
ARC
  5
125D8
330
125CF
100
AcDbEntity
  8
0
 48
0.5
100
AcDbCircle
 10
0.9577176374546638
 20
9.409760150078312
 30
0.0
 40
0.136
100
AcDbArc
 50
179.4031999999998
 51
359.4031999999998
  0
LINE
  5
125D9
330
125CF
100
AcDbEntity
  8
0
 48
0.5
100
AcDbLine
 10
0.8345157852697298
 20
10.63911010172685
 30
0.0
 11
0.8217250150927384
 21
9.411176717459511
 31
0.0
  0
LINE
  5
125DA
330
125CF
100
AcDbEntity
  8
0
 48
0.5
100
AcDbLine
 10
1.10650102999341
 20
10.63627696696454
 30
0.0
 11
1.093710259816418
 21
9.408343582697199
 31
0.0
  0
LINE
  5
125DB
330
125CF
100
AcDbEntity
  8
0
 48
0.5
100
AcDbLine
 10
2.028319485799841
 20
35.14376570934266
 30
0.0
 11
2.046547374895737
 21
36.89367077649894
 31
0.0
  0
LINE
  5
125DC
330
125CF
100
AcDbEntity
  8
0
 48
0.5
100
AcDbLine
 10
0.9033805140565505
 20
35.15548363804712
 30
0.0
 11
0.9216084031524474
 21
36.90538870520339
 31
0.0
  0
ARC
  5
125DD
330
125CF
100
AcDbEntity
  8
0
 48
0.5
100
AcDbCircle
 10
1.2204908866604
 20
34.63639159820278
 30
0.0
 40
0.136
100
AcDbArc
 50
359.4031999999998
 51
179.4031999999998
  0
LINE
  5
125DE
330
125CF
100
AcDbEntity
  8
0
 48
0.5
100
AcDbLine
 10
0.9033805140565505
 20
35.15548363804712
 30
0.0
 11
2.028319485799841
 21
35.14376570934266
 31
0.0
  0
ARC
  5
125DF
330
125CF
100
AcDbEntity
  8
0
 48
0.5
100
AcDbCircle
 10
1.207700116483408
 20
33.40845821393541
 30
0.0
 40
0.136
100
AcDbArc
 50
179.4031999999998
 51
359.4031999999998
  0
LINE
  5
125E0
330
125CF
100
AcDbEntity
  8
0
 48
0.5
100
AcDbLine
 10
1.084498264298531
 20
34.63780816558398
 30
0.0
 11
1.07170749412154
 21
33.40987478131661
 31
0.0
  0
LINE
  5
125E1
330
125CF
100
AcDbEntity
  8
0
 48
0.5
100
AcDbLine
 10
1.356483509022211
 20
34.63497503082166
 30
0.0
 11
1.34369273884522
 21
33.40704164655429
 31
0.0
  0
LINE
  5
125E2
330
125CF
100
AcDbEntity
  8
0
 48
0.5
100
AcDbLine
 10
0.94379434816625
 20
39.0352731583707
 30
0.0
 11
2.06873331990954
 21
39.02355522966625
 31
0.0
  0
LINE
  5
125E3
330
125CF
100
AcDbEntity
  8
0
 48
0.5
100
AcDbLine
 10
0.9281704432269179
 20
37.53535452937962
 30
0.0
 11
2.053109414970208
 21
37.52363660067516
 31
0.0
  0
LINE
  5
125E4
330
125CF
100
AcDbEntity
  8
0
 48
0.5
100
AcDbLine
 10
0.9281704432269179
 20
37.53535452937962
 30
0.0
 11
0.94379434816625
 21
39.0352731583707
 31
0.0
  0
LINE
  5
125E5
330
125CF
100
AcDbEntity
  8
0
 48
0.5
100
AcDbLine
 10
2.053109414970208
 20
37.52363660067516
 30
0.0
 11
2.06873331990954
 21
39.02355522966625
 31
0.0
  0
LINE
  5
125E6
330
125CF
100
AcDbEntity
  8
0
 48
0.5
100
AcDbLine
 10
0.9216084031524474
 20
36.90538870520337
 30
0.0
 11
2.046547374895737
 21
36.89367077649894
 31
0.0
  0
ARC
  5
125E7
330
125CF
100
AcDbEntity
  8
0
 48
0.5
100
AcDbCircle
 10
1.470473365689144
 20
58.63508966205987
 30
0.0
 40
0.136
100
AcDbArc
 50
359.4031999999998
 51
179.4031999999998
  0
LINE
  5
125E8
330
125CF
100
AcDbEntity
  8
0
 48
0.5
100
AcDbLine
 10
1.334480743327276
 20
58.63650622944106
 30
0.0
 11
1.321689973150341
 21
57.40857284517369
 31
0.0
  0
LINE
  5
125E9
330
125CF
100
AcDbEntity
  8
0
 48
0.5
100
AcDbLine
 10
1.606465988050956
 20
58.63367309467875
 30
0.0
 11
1.593675217874022
 21
57.40573971041138
 31
0.0
  0
ARC
  5
125EA
330
125CF
100
AcDbEntity
  8
0
 48
0.5
100
AcDbCircle
 10
1.45768259551221
 20
57.40715627779252
 30
0.0
 40
0.136
100
AcDbArc
 50
179.4031999999998
 51
359.4031999999998
  0
ARC
  5
125EB
330
125CF
100
AcDbEntity
  8
0
 48
0.5
100
AcDbCircle
 10
1.720455844717946
 20
82.63378772591698
 30
0.0
 40
0.136
100
AcDbArc
 50
359.4031999999998
 51
179.4031999999998
  0
ARC
  5
125EC
330
125CF
100
AcDbEntity
  8
0
 48
0.5
100
AcDbCircle
 10
1.707665074540955
 20
81.40585434164961
 30
0.0
 40
0.136
100
AcDbArc
 50
179.4031999999998
 51
359.4031999999998
  0
LINE
  5
125ED
330
125CF
100
AcDbEntity
  8
0
 48
0.5
100
AcDbLine
 10
1.584463222356077
 20
82.63520429329815
 30
0.0
 11
1.571672452179086
 21
81.40727090903082
 31
0.0
  0
LINE
  5
125EE
330
125CF
100
AcDbEntity
  8
0
 48
0.5
100
AcDbLine
 10
1.856448467079758
 20
82.63237115853584
 30
0.0
 11
1.843657696902766
 21
81.40443777426851
 31
0.0
  0
CIRCLE
  5
125EF
330
125CF
100
AcDbEntity
  8
0
 48
0.5
100
AcDbCircle
 10
1.865089165227459
 20
110.9198156761718
 30
0.0
 40
0.136
  0
CIRCLE
  5
125F0
330
125CF
100
AcDbEntity
  8
0
 48
0.5
100
AcDbCircle
 10
2.615048479722986
 20
110.9120037237022
 30
0.0
 40
0.136
  0
LINE
  5
125F1
330
125CF
100
AcDbEntity
  8
0
 48
0.5
100
AcDbLine
 10
1.834445701384822
 20
106.6339023571553
 30
0.0
 11
1.821654931207888
 21
105.4059689728879
 31
0.0
  0
LINE
  5
125F2
330
125CF
100
AcDbEntity
  8
0
 48
0.5
100
AcDbLine
 10
2.106430946108503
 20
106.6310692223929
 30
0.0
 11
2.093640175931568
 21
105.4031358381256
 31
0.0
  0
ARC
  5
125F3
330
125CF
100
AcDbEntity
  8
0
 48
0.5
100
AcDbCircle
 10
1.957647553569756
 20
105.4045524055067
 30
0.0
 40
0.136
100
AcDbArc
 50
179.4031999999998
 51
359.4031999999998
  0
CIRCLE
  5
125F4
330
125CF
100
AcDbEntity
  8
0
 48
0.5
100
AcDbCircle
 10
2.208997719278727
 20
110.1411913081673
 30
0.0
 40
0.195
  0
ARC
  5
125F5
330
125CF
100
AcDbEntity
  8
0
 48
0.5
100
AcDbCircle
 10
1.970438323746748
 20
106.6324857897741
 30
0.0
 40
0.136
100
AcDbArc
 50
359.4031999999998
 51
179.4031999999998
  0
LINE
  5
125F6
330
125CF
100
AcDbEntity
  8
0
 48
0.5
100
AcDbLine
 10
1.161377242814069
 20
111.5271784427729
 30
0.0
 11
4.351204193801777
 21
111.4939516049353
 31
0.0
  0
ENDBLK
  5
125F8
330
125CF
100
AcDbEntity
  8
0
100
AcDbBlockEnd
  0
BLOCK
  5
12624
330
12619
100
AcDbEntity
  8
0
100
AcDbBlockBegin
  2
A$C73DC2C6A
 70
     0
 10
0.0
 20
0.0
 30
0.0
  3
A$C73DC2C6A
  1

  0
LINE
  5
1261A
330
12619
100
AcDbEntity
  8
0
100
AcDbLine
 10
0.000000041477648
 20
1.625000210335571
 30
0.0
 11
15.25288226494265
 21
1.625000210335571
 31
0.0
  0
LINE
  5
1261B
330
12619
100
AcDbEntity
  8
0
100
AcDbLine
 10
0.000000041477648
 20
0.0000002103355712
 30
0.0
 11
15.25288226494265
 21
0.0000002103355712
 31
0.0
  0
LINE
  5
1261C
330
12619
100
AcDbEntity
  8
0
100
AcDbLine
 10
0.000000041477648
 20
0.1030002103355798
 30
0.0
 11
15.25288226494265
 21
0.1030002103355798
 31
0.0
  0
LWPOLYLINE
  5
1261D
330
12619
100
AcDbEntity
  8
0
100
AcDbPolyline
 90
        4
 70
     1
 43
0.0
 10
6.373033806874474
 20
1.017500210335555
 10
8.623033806859353
 20
1.017500210335555
 42
-0.6078378199146741
 10
8.623033806874474
 20
0.6075002103355303
 10
6.373033806874644
 20
0.6075002103354735
 42
-0.6078378199146746
  0
LWPOLYLINE
  5
1261E
330
12619
100
AcDbEntity
  8
0
100
AcDbPolyline
 90
        4
 70
     1
 43
0.0
 10
0.3746067945560583
 20
1.017500210335555
 10
2.624606794540937
 20
1.017500210335555
 42
-0.6078378199146741
 10
2.624606794556058
 20
0.6075002103355303
 10
0.3746067945562288
 20
0.6075002103354735
 42
-0.6078378199146746
  0
LINE
  5
1261F
330
12619
100
AcDbEntity
  8
0
100
AcDbLine
 10
0.000000041477648
 20
1.625000210335571
 30
0.0
 11
0.000000041477648
 21
0.0000002103355712
 31
0.0
  0
LWPOLYLINE
  5
12620
330
12619
100
AcDbEntity
  8
0
100
AcDbPolyline
 90
        4
 70
     1
 43
0.0
 10
3.373820300716971
 20
1.017500210335555
 10
5.623820300701851
 20
1.017500210335555
 42
-0.6078378199146741
 10
5.623820300716971
 20
0.6075002103355303
 10
3.373820300717142
 20
0.6075002103354735
 42
-0.6078378199146746
  0
LWPOLYLINE
  5
12621
330
12619
100
AcDbEntity
  8
0
100
AcDbPolyline
 90
        4
 70
     1
 43
0.0
 10
9.372247313035387
 20
1.017500210335555
 10
11.62224731302027
 20
1.017500210335555
 42
-0.6078378199146741
 10
11.62224731303538
 20
0.6075002103355303
 10
9.372247313035558
 20
0.6075002103354735
 42
-0.6078378199146746
  0
LINE
  5
12622
330
12619
100
AcDbEntity
  8
0
100
AcDbLine
 10
15.25288226494265
 20
1.625000210335571
 30
0.0
 11
15.25288226494265
 21
0.0000002103355712
 31
0.0
  0
LWPOLYLINE
  5
12623
330
12619
100
AcDbEntity
  8
0
100
AcDbPolyline
 90
        4
 70
     1
 43
0.0
 10
12.37146081919289
 20
1.017500210335555
 10
14.62146081917777
 20
1.017500210335555
 42
-0.6078378199146741
 10
14.62146081919289
 20
0.6075002103355303
 10
12.37146081919306
 20
0.6075002103354735
 42
-0.6078378199146746
  0
ENDBLK
  5
12625
330
12619
100
AcDbEntity
  8
0
100
AcDbBlockEnd
  0
BLOCK
  5
126B5
330
12687
100
AcDbEntity
  8
0
100
AcDbBlockBegin
  2
A$C190E579F
 70
     0
 10
0.0
 20
0.0
 30
0.0
  3
A$C190E579F
  1

  0
LINE
  5
12688
330
12687
100
AcDbEntity
  8
0
100
AcDbLine
 10
120.9214673270851
 20
61.37781798955831
 30
0.0
 11
0.6355865616554297
 21
0.0891005247194699
 31
0.0
  0
LINE
  5
12689
330
12687
100
AcDbEntity
  8
0
100
AcDbLine
 10
120.2858806274497
 20
62.62522712342207
 30
0.0
 11
-0.0000001379799528
 21
1.336509658583224
 31
0.0
  0
LINE
  5
1268A
330
12687
100
AcDbEntity
  8
0
100
AcDbLine
 10
0.6809856116293532
 20
-0.0000001276993089
 30
0.0
 11
120.966866377059
 21
61.28871733713959
 31
0.0
  0
ARC
  5
1268B
330
12687
100
AcDbEntity
  8
0
100
AcDbCircle
 10
8.021350747593828
 20
4.649186970140078
 30
0.0
 40
0.195
100
AcDbArc
 50
296.9999999999988
 51
116.9999999999988
  0
LINE
  5
1268C
330
12687
100
AcDbEntity
  8
0
100
AcDbLine
 10
1.5066295442831
 20
1.110917104353575
 30
0.0
 11
0.7403639334809782
 21
0.720485274577527
 31
0.0
  0
ARC
  5
1268D
330
12687
100
AcDbEntity
  8
0
100
AcDbCircle
 10
1.41810139683389
 20
1.284663376570335
 30
0.0
 40
0.195
100
AcDbArc
 50
296.9999999999988
 51
116.9999999999988
  0
LINE
  5
1268E
330
12687
100
AcDbEntity
  8
0
100
AcDbLine
 10
0.5633076385825575
 20
1.067977819010991
 30
0.0
 11
1.329573249384679
 21
1.458409648787039
 31
0.0
  0
ARC
  5
1268F
330
12687
100
AcDbEntity
  8
0
100
AcDbCircle
 10
0.6518357860317679
 20
0.8942315467942307
 30
0.0
 40
0.195
100
AcDbArc
 50
116.9999999999988
 51
296.9999999999988
  0
LINE
  5
12690
330
12687
100
AcDbEntity
  8
0
100
AcDbLine
 10
-0.0000001379799528
 20
1.336509658583224
 30
0.0
 11
0.6809856116293532
 21
-0.0000001276993089
 31
0.0
  0
LINE
  5
12691
330
12687
100
AcDbEntity
  8
0
100
AcDbLine
 10
7.733874141835542
 20
4.283856707033237
 30
0.0
 11
8.109878895043038
 21
4.475440697923318
 31
0.0
  0
ARC
  5
12692
330
12687
100
AcDbEntity
  8
0
100
AcDbCircle
 10
5.025786813272588
 20
3.122870910015706
 30
0.0
 40
0.195
100
AcDbArc
 50
116.9999999999988
 51
296.9999999999988
  0
CIRCLE
  5
12693
330
12687
100
AcDbEntity
  8
0
100
AcDbCircle
 10
4.322782665687952
 20
2.764672405721228
 30
0.0
 40
0.195
  0
CIRCLE
  5
12694
330
12687
100
AcDbEntity
  8
0
100
AcDbCircle
 10
2.763521248358358
 20
1.970189031177028
 30
0.0
 40
0.195
  0
CIRCLE
  5
12695
330
12687
100
AcDbEntity
  8
0
100
AcDbCircle
 10
2.095266355217063
 20
1.629696156372347
 30
0.0
 40
0.195
  0
CIRCLE
  5
12696
330
12687
100
AcDbEntity
  8
0
100
AcDbCircle
 10
3.431776141499597
 20
2.310681905981709
 30
0.0
 40
0.195
  0
CIRCLE
  5
12697
330
12687
100
AcDbEntity
  8
0
100
AcDbCircle
 10
6.556875818191088
 20
3.622418164054181
 30
0.0
 40
0.078
  0
CIRCLE
  5
12698
330
12687
100
AcDbEntity
  8
0
100
AcDbCircle
 10
6.27086180335516
 20
4.183752274292885
 30
0.0
 40
0.078
  0
ARC
  5
12699
330
12687
100
AcDbEntity
  8
0
100
AcDbCircle
 10
5.401791566480085
 20
3.314454900905843
 30
0.0
 40
0.195
100
AcDbArc
 50
296.9999999999988
 51
116.9999999999988
  0
LINE
  5
1269A
330
12687
100
AcDbEntity
  8
0
100
AcDbLine
 10
5.114314960721799
 20
2.949124637799002
 30
0.0
 11
5.490319713929295
 21
3.140708628689083
 31
0.0
  0
LINE
  5
1269B
330
12687
100
AcDbEntity
  8
0
100
AcDbLine
 10
4.937258665823378
 20
3.296617182232466
 30
0.0
 11
5.313263419030874
 21
3.488201173122547
 31
0.0
  0
ARC
  5
1269C
330
12687
100
AcDbEntity
  8
0
100
AcDbCircle
 10
7.645345994386332
 20
4.457602979249941
 30
0.0
 40
0.195
100
AcDbArc
 50
116.9999999999988
 51
296.9999999999988
  0
CIRCLE
  5
1269D
330
12687
100
AcDbEntity
  8
0
100
AcDbCircle
 10
6.942341846801696
 20
4.099404474955463
 30
0.0
 40
0.195
  0
LINE
  5
1269E
330
12687
100
AcDbEntity
  8
0
100
AcDbLine
 10
7.556817846937121
 20
4.631349251466701
 30
0.0
 11
7.932822600144618
 21
4.822933242356782
 31
0.0
  0
CIRCLE
  5
1269F
330
12687
100
AcDbEntity
  8
0
100
AcDbCircle
 10
14.73864893344995
 20
8.071821347676518
 30
0.0
 40
0.1325
  0
CIRCLE
  5
126A0
330
12687
100
AcDbEntity
  8
0
100
AcDbCircle
 10
11.39737446774359
 20
6.369356973653225
 30
0.0
 40
0.195
  0
CIRCLE
  5
126A1
330
12687
100
AcDbEntity
  8
0
100
AcDbCircle
 10
9.61536141936682
 20
5.461375974174131
 30
0.0
 40
0.195
  0
CIRCLE
  5
126A2
330
12687
100
AcDbEntity
  8
0
100
AcDbCircle
 10
13.1793875161203
 20
7.277337973132318
 30
0.0
 40
0.195
  0
CIRCLE
  5
126A3
330
12687
100
AcDbEntity
  8
0
100
AcDbCircle
 10
19.19368155439179
 20
10.34177384637422
 30
0.0
 40
0.1325
  0
ARC
  5
126A4
330
12687
100
AcDbEntity
  8
0
100
AcDbCircle
 10
36.03147734524152
 20
18.92105931520234
 30
0.0
 40
0.1325
100
AcDbArc
 50
116.9999999999988
 51
296.9999999999988
  0
LINE
  5
126A5
330
12687
100
AcDbEntity
  8
0
100
AcDbLine
 10
36.27428742391555
 20
18.89606900319398
 30
0.0
 11
36.09163108645697
 21
18.80300095074739
 31
0.0
  0
LINE
  5
126A6
330
12687
100
AcDbEntity
  8
0
100
AcDbLine
 10
35.971323604026
 20
19.03911767965729
 30
0.0
 11
36.15397994148458
 21
19.13218573210389
 31
0.0
  0
ARC
  5
126A7
330
12687
100
AcDbEntity
  8
0
100
AcDbCircle
 10
36.21413368270004
 20
19.01412736764894
 30
0.0
 40
0.1325
100
AcDbArc
 50
296.9999999999988
 51
116.9999999999988
  0
LINE
  5
126A8
330
12687
100
AcDbEntity
  8
0
100
AcDbLine
 10
57.65844400443637
 20
29.79184099694311
 30
0.0
 11
57.47578766697779
 21
29.69877294449651
 31
0.0
  0
ARC
  5
126A9
330
12687
100
AcDbEntity
  8
0
100
AcDbCircle
 10
57.59829026322086
 20
29.90989936139806
 30
0.0
 40
0.1325
100
AcDbArc
 50
296.9999999999988
 51
116.9999999999988
  0
LINE
  5
126AA
330
12687
100
AcDbEntity
  8
0
100
AcDbLine
 10
57.35548018454682
 20
29.93488967340642
 30
0.0
 11
57.5381365220054
 21
30.02795772585301
 31
0.0
  0
ARC
  5
126AB
330
12687
100
AcDbEntity
  8
0
100
AcDbCircle
 10
57.41563392576233
 20
29.81683130895147
 30
0.0
 40
0.1325
100
AcDbArc
 50
116.9999999999988
 51
296.9999999999988
  0
LINE
  5
126AC
330
12687
100
AcDbEntity
  8
0
100
AcDbLine
 10
79.04260058495708
 20
40.68761299069217
 30
0.0
 11
78.85994424749856
 21
40.59454493824557
 31
0.0
  0
LINE
  5
126AD
330
12687
100
AcDbEntity
  8
0
100
AcDbLine
 10
78.73963676506758
 20
40.83066166715548
 30
0.0
 11
78.92229310252611
 21
40.92372971960208
 31
0.0
  0
ARC
  5
126AE
330
12687
100
AcDbEntity
  8
0
100
AcDbCircle
 10
78.79979050628304
 20
40.71260330270052
 30
0.0
 40
0.1325
100
AcDbArc
 50
116.9999999999988
 51
296.9999999999988
  0
ARC
  5
126AF
330
12687
100
AcDbEntity
  8
0
100
AcDbCircle
 10
78.98244684374162
 20
40.80567135514712
 30
0.0
 40
0.1325
100
AcDbArc
 50
296.9999999999988
 51
116.9999999999988
  0
ARC
  5
126B0
330
12687
100
AcDbEntity
  8
0
100
AcDbCircle
 10
100.3666034242625
 20
51.70144334889631
 30
0.0
 40
0.1325
100
AcDbArc
 50
296.9999999999988
 51
116.9999999999988
  0
ARC
  5
126B1
330
12687
100
AcDbEntity
  8
0
100
AcDbCircle
 10
100.183947086804
 20
51.60837529644971
 30
0.0
 40
0.1325
100
AcDbArc
 50
116.9999999999988
 51
296.9999999999988
  0
LINE
  5
126B2
330
12687
100
AcDbEntity
  8
0
100
AcDbLine
 10
100.426757165478
 20
51.5833849844413
 30
0.0
 11
100.2441008280195
 21
51.49031693199475
 31
0.0
  0
LINE
  5
126B3
330
12687
100
AcDbEntity
  8
0
100
AcDbLine
 10
100.1237933455885
 20
51.72643366090466
 30
0.0
 11
100.306449683047
 21
51.8195017133512
 31
0.0
  0
LINE
  5
126B4
330
12687
100
AcDbEntity
  8
0
100
AcDbLine
 10
120.966866377059
 20
61.28871733713959
 30
0.0
 11
120.2858806274497
 21
62.62522712342207
 31
0.0
  0
ENDBLK
  5
126B6
330
12687
100
AcDbEntity
  8
0
100
AcDbBlockEnd
  0
BLOCK
  5
12800
330
127F5
100
AcDbEntity
  8
0
100
AcDbBlockBegin
  2
*D100
 70
     1
 10
0.0
 20
0.0
 30
0.0
  3
*D100
  1

  0
LINE
  5
1282C
330
127F5
100
AcDbEntity
  8
TEXT
 62
     0
370
    -2
100
AcDbLine
 10
136.2169295018095
 20
253.0362941793405
 30
0.0
 11
96.32647935668877
 21
253.0362941793405
 31
0.0
  0
LINE
  5
1282D
330
127F5
100
AcDbEntity
  8
TEXT
 62
     0
370
    -2
100
AcDbLine
 10
132.2169295018095
 20
123.0362941793405
 30
0.0
 11
96.32647935668876
 21
123.0362941793405
 31
0.0
  0
LINE
  5
1282E
330
127F5
100
AcDbEntity
  8
TEXT
 62
     0
370
    -2
100
AcDbLine
 10
97.32647935668879
 20
250.0362941793405
 30
0.0
 11
97.32647935668877
 21
193.1612941793405
 31
0.0
  0
LINE
  5
1282F
330
127F5
100
AcDbEntity
  8
TEXT
 62
     0
370
    -2
100
AcDbLine
 10
97.32647935668875
 20
126.0362941793405
 30
0.0
 11
97.32647935668877
 21
182.9112941793405
 31
0.0
  0
SOLID
  5
12830
330
127F5
100
AcDbEntity
  8
TEXT
 62
     0
100
AcDbTrace
 10
96.82647935668878
 20
250.0362941793405
 30
0.0
 11
97.82647935668878
 21
250.0362941793405
 31
0.0
 12
97.32647935668879
 22
253.0362941793405
 32
0.0
 13
97.32647935668879
 23
253.0362941793405
 33
0.0
  0
SOLID
  5
12831
330
127F5
100
AcDbEntity
  8
TEXT
 62
     0
100
AcDbTrace
 10
96.82647935668875
 20
126.0362941793405
 30
0.0
 11
97.82647935668876
 21
126.0362941793405
 31
0.0
 12
97.32647935668875
 22
123.0362941793405
 32
0.0
 13
97.32647935668875
 23
123.0362941793405
 33
0.0
  0
MTEXT
  5
12832
330
127F5
100
AcDbEntity
  8
TEXT
 62
     0
100
AcDbMText
 10
97.32647935668873
 20
188.0362941793405
 30
0.0
 40
1.75
 41
0.0
 46
0.0
 71
     5
 72
     1
  1
\A1;3" TAPERED REVERSE\PANGLE\PDOOR HEIGHT+10"
  7
WEB PAGE
 73
     1
 44
1.0
  0
POINT
  5
12833
330
127F5
100
AcDbEntity
  8
Defpoints
 62
     0
100
AcDbPoint
 10
138.2169295018095
 20
253.0362941793405
 30
0.0
  0
POINT
  5
12834
330
127F5
100
AcDbEntity
  8
Defpoints
 62
     0
100
AcDbPoint
 10
134.2169295018095
 20
123.0362941793405
 30
0.0
  0
POINT
  5
12835
330
127F5
100
AcDbEntity
  8
Defpoints
 62
     0
100
AcDbPoint
 10
97.32647935668875
 20
123.0362941793405
 30
0.0
  0
ENDBLK
  5
12801
330
127F5
100
AcDbEntity
  8
0
100
AcDbBlockEnd
  0
ENDSEC
  0
SECTION
  2
ENTITIES
  0
INSERT
  5
3374
330
17
100
AcDbEntity
  8
AME_FRZ
100
AcDbBlockReference
  2
AME_NIL
 10
0.0
 20
0.0
 30
0.0
 41
24.609375
 42
24.609375
 43
24.609375
  0
INSERT
  5
3375
330
17
100
AcDbEntity
  8
AME_FRZ
100
AcDbBlockReference
  2
AME_SOL
 10
0.0
 20
0.0
 30
0.0
 41
24.609375
 42
24.609375
 43
24.609375
1001
AME_SOL
1000
R2.1
1000
AME2
1000
sq cm
1070
     3
1070
     0
1070
     3
1000
wire
1040
45.0
1000
U
1040
1.0
1000
cm
1000
gm
1000
MILD_STEEL
1070
    25
1000
CSG
1070
     1
1070
     3
1070
     3
1070
     3
1070
     0
1000
cu cm
1070
     1
1070
     0
1005
2D0D
  0
INSERT
  5
3376
330
17
100
AcDbEntity
  8
ASHADE
 62
     1
100
AcDbBlockReference
  2
AVE_RENDER
 10
0.0
 20
0.0
 30
0.0
 41
24.609375
 42
24.609375
 43
24.609375
1001
AVE_RENDER
1002
{
1070
     2
1000
Pref
1070
    30
1070
    20
1070
     0
1070
     0
1000

1070
    10
1070
     0
1070
    30
1040
1.0
1070
     1
1040
0.3
1040
0.7
1040
0.0
1040
10.0
1010
-1.0
1020
-1.0
1030
-1.0
1040
0.3
1070
    49
1002
}
  0
INSERT
  5
3377
330
17
100
AcDbEntity
  8
ASHADE
 62
     3
100
AcDbBlockReference
  2
AVE_RENDER
 10
0.0
 20
0.0
 30
0.0
 41
24.609375
 42
24.609375
 43
24.609375
1001
AVE_RENDER
1002
{
1070
     0
1000
Full Opt
1070
     0
1070
     1
1070
     1
1070
     1
1070
     0
1070
     0
1070
     0
1070
     1
1070
     1
1040
0.0001
1040
0.0001
1002
}
  0
INSERT
  5
3378
330
17
100
AcDbEntity
  8
ASHADE
 62
     4
100
AcDbBlockReference
  2
AVE_RENDER
 10
0.0
 20
0.0
 30
0.0
 41
24.609375
 42
24.609375
 43
24.609375
1001
AVE_RENDER
1002
{
1070
     0
1000
Quick Opt
1070
     0
1070
     1
1070
     1
1070
     1
1070
     0
1070
     0
1070
     1
1002
}
  0
INSERT
  5
3E3C
330
17
100
AcDbEntity
  8
AME_FRZ
100
AcDbBlockReference
  2
AME_NIL
 10
0.0
 20
0.0
 30
0.0
 41
34.993056
 42
34.993056
 43
34.993056
  0
INSERT
  5
3E3D
330
17
100
AcDbEntity
  8
AME_FRZ
100
AcDbBlockReference
  2
AME_SOL
 10
0.0
 20
0.0
 30
0.0
 41
34.993056
 42
34.993056
 43
34.993056
1001
AME_SOL
1000
R2.1
1000
AME2
1000
sq cm
1070
     3
1070
     0
1070
     3
1000
wire
1040
45.0
1000
U
1040
1.0
1000
cm
1000
gm
1000
MILD_STEEL
1070
    25
1000
CSG
1070
     1
1070
     3
1070
     3
1070
     3
1070
     0
1000
cu cm
1070
     1
1070
     0
1005
2D0D
  0
INSERT
  5
3E3E
330
17
100
AcDbEntity
  8
ASHADE
 62
     1
100
AcDbBlockReference
  2
AVE_RENDER
 10
0.0
 20
0.0
 30
0.0
 41
34.993056
 42
34.993056
 43
34.993056
1001
AVE_RENDER
1002
{
1070
     2
1000
Pref
1070
    30
1070
    20
1070
     0
1070
     0
1000

1070
    10
1070
     0
1070
    30
1040
1.0
1070
     1
1040
0.3
1040
0.7
1040
0.0
1040
10.0
1010
-1.0
1020
-1.0
1030
-1.0
1040
0.3
1070
    49
1002
}
  0
INSERT
  5
3E3F
330
17
100
AcDbEntity
  8
ASHADE
 62
     3
100
AcDbBlockReference
  2
AVE_RENDER
 10
0.0
 20
0.0
 30
0.0
 41
34.993056
 42
34.993056
 43
34.993056
1001
AVE_RENDER
1002
{
1070
     0
1000
Full Opt
1070
     0
1070
     1
1070
     1
1070
     1
1070
     0
1070
     0
1070
     0
1070
     1
1070
     1
1040
0.0001
1040
0.0001
1002
}
  0
INSERT
  5
3E40
330
17
100
AcDbEntity
  8
ASHADE
 62
     4
100
AcDbBlockReference
  2
AVE_RENDER
 10
0.0
 20
0.0
 30
0.0
 41
34.993056
 42
34.993056
 43
34.993056
1001
AVE_RENDER
1002
{
1070
     0
1000
Quick Opt
1070
     0
1070
     1
1070
     1
1070
     1
1070
     0
1070
     0
1070
     1
1002
}
  0
MTEXT
  5
405A
330
17
100
AcDbEntity
  8
BDR
100
AcDbMText
 10
353.0635595970848
 20
56.58463448330076
 30
0.0
 40
0.1
 41
37.627
 46
0.0
 71
     1
 72
     5
  1

  7
SIMPLEX
 73
     1
 44
1.0
  0
MTEXT
  5
8913
330
17
100
AcDbEntity
  8
BDR
100
AcDbMText
 10
877.3233813939555
 20
282.200335478095
 30
0.0
 40
3.0
 41
0.0
 46
0.0
 71
     4
 72
     1
  1
\A1;
 73
     1
 44
1.0
  0
MTEXT
  5
BB0D
330
17
100
AcDbEntity
  8
HATCH
 48
0.5
100
AcDbMText
 10
862.711853351133
 20
170.0626199810501
 30
0.0
 40
1.1
 41
0.0
 46
0.0
 71
     4
 72
     1
  1

 73
     1
 44
1.0
  0
MTEXT
  5
BD7C
330
17
100
AcDbEntity
  8
BDR
100
AcDbMText
 10
648.3700742151118
 20
223.690432353357
 30
0.0
 40
2.5
 41
0.0
 46
0.0
 71
     1
 72
     1
  1

 73
     1
 44
1.0
  0
MTEXT
  5
CE5A
330
17
100
AcDbEntity
  8
BDR
100
AcDbMText
 10
645.7641368582438
 20
217.5930814931963
 30
0.0
 40
2.5
 41
0.0
 46
0.0
 71
     1
 72
     1
  1

 73
     1
 44
1.0
  0
MTEXT
  5
D3E4
330
17
100
AcDbEntity
  8
0
100
AcDbMText
 10
393.5054431651311
 20
218.3654697964034
 30
0.0
 40
2.5
 41
0.0
 46
0.0
 71
     1
 72
     1
  1

 73
     1
 44
1.0
  0
MTEXT
  5
D891
330
17
100
AcDbEntity
  8
BDR
100
AcDbMText
 10
278.8170020773584
 20
330.6127380359346
 30
0.0
 40
2.5
 41
0.0
 46
0.0
 71
     1
 72
     1
  1

 73
     1
 44
1.0
  0
MTEXT
  5
D894
330
17
100
AcDbEntity
  8
BDR
100
AcDbMText
 10
282.4572809863948
 20
283.699790306357
 30
0.0
 40
2.5
 41
0.0
 46
0.0
 71
     1
 72
     1
  1

 73
     1
 44
1.0
  0
MTEXT
  5
D8BC
330
17
100
AcDbEntity
  8
BDR
100
AcDbMText
 10
280.6377852630108
 20
262.5297979250931
 30
0.0
 40
2.5
 41
0.0
 46
0.0
 71
     1
 72
     1
  1

 73
     1
 44
1.0
  0
MTEXT
  5
D8BE
330
17
100
AcDbEntity
  8
BDR
100
AcDbMText
 10
280.052229178619
 20
230.2002619872308
 30
0.0
 40
2.5
 41
0.0
 46
0.0
 71
     1
 72
     1
  1

 73
     1
 44
1.0
  0
MTEXT
  5
D8C2
330
17
100
AcDbEntity
  8
BDR
100
AcDbMText
 10
210.2931674542633
 20
331.4813092531851
 30
0.0
 40
2.5
 41
0.0
 46
0.0
 71
     9
 72
     1
  1

 73
     1
 44
1.0
  0
MTEXT
  5
DE82
330
17
100
AcDbEntity
  8
0
100
AcDbMText
 10
230.9601867147205
 20
186.4290317625283
 30
0.0
 40
3.5
 41
0.0
 46
0.0
 71
     1
 72
     1
  1

 73
     1
 44
1.0
  0
DIMENSION
  5
11CDE
330
17
100
AcDbEntity
  8
TEXT
100
AcDbDimension
  2
*D64
 10
77.67331512442734
 20
256.5573891528888
 30
0.0
 11
77.67331512442729
 21
202.7898988514811
 31
0.0
 70
   160
  1
FLOOR TO\PSHAFT CENTER
 71
     5
 42
133.5210949735482
 73
     0
 74
     0
 75
     0
  3
STANDARD
100
AcDbAlignedDimension
 13
134.2169295018095
 23
123.0362941793405
 33
0.0
 14
141.5919295018095
 24
256.5573891528887
 34
0.0
 50
90.0
100
AcDbRotatedDimension
1001
ACAD
1000
DSTYLE
1002
{
1070
    40
1040
1.0
1002
}
  0
DIMENSION
  5
11CDF
330
17
100
AcDbEntity
  8
TEXT
100
AcDbDimension
  2
*D65
 10
56.45126231511271
 20
258.6288480112671
 30
0.0
 11
56.45126231511267
 21
181.424623123489
 31
0.0
 70
   160
  1
MINIMUM\PCEILING HEIGHT
 71
     5
 42
135.5925538319265
 73
     0
 74
     0
 75
     0
  3
STANDARD
100
AcDbAlignedDimension
 13
134.2169295018095
 23
123.0362941793405
 33
0.0
 14
138.2169295018095
 24
258.628848011267
 34
0.0
 50
90.0
100
AcDbRotatedDimension
1001
ACAD
1000
DSTYLE
1002
{
1070
    40
1040
1.0
1002
}
  0
DIMENSION
  5
11CE0
330
17
100
AcDbEntity
  8
TEXT
100
AcDbDimension
  2
*D66
 10
175.0501848453942
 20
234.53024560101
 30
0.0
 11
175.0501848453941
 21
174.879062324093
 31
0.0
 70
   160
  1
\A1;VERTICAL TRACK\PDOOR HEIGHT-8-\S1/2;"
 71
     5
 42
111.4939514216694
 73
     0
 74
     0
 75
     0
  3
STANDARD
100
AcDbAlignedDimension
 13
209.4861505668555
 23
123.0362941793405
 33
0.0
 14
143.8187576132446
 24
234.53024560101
 34
0.0
 50
90.0
100
AcDbRotatedDimension
1001
ACAD
1000
DSTYLE
1002
{
1070
    40
1040
1.0
1002
}
  0
DIMENSION
  5
11CE1
330
17
100
AcDbEntity
  8
TEXT
100
AcDbDimension
  2
*D67
 10
118.0575413775432
 20
123.0362941793405
 30
0.0
 11
118.0575413775432
 21
183.0362941793405
 31
0.0
 70
    32
  1
OPENING\PHEIGHT
 71
     5
 42
120.0
 73
     0
 74
     0
 75
     0
  3
STANDARD
100
AcDbAlignedDimension
 13
134.2169295018095
 23
243.0362941793405
 33
0.0
 14
134.2169295018095
 24
123.0362941793405
 34
0.0
 50
90.0
100
AcDbRotatedDimension
  0
LINE
  5
11CE2
102
{ACAD_REACTORS
330
127C1
102
}
330
17
100
AcDbEntity
  8
BDR
100
AcDbLine
 10
134.2169295018095
 20
123.0362941793405
 30
0.0
 11
134.2169295018095
 21
261.0767949654207
 31
0.0
  0
LINE
  5
11CE3
102
{ACAD_REACTORS
330
127C1
102
}
330
17
100
AcDbEntity
  8
BDR
100
AcDbLine
 10
138.2169295018095
 20
123.0362941793405
 30
0.0
 11
138.2169295018095
 21
258.625591812861
 31
0.0
  0
LINE
  5
11CE5
330
17
100
AcDbEntity
  8
BDR
100
AcDbLine
 10
221.5803211345133
 20
123.0362941793405
 30
0.0
 11
134.2169295018095
 21
123.0362941793405
 31
0.0
  0
MTEXT
  5
11CF6
330
17
100
AcDbEntity
  8
TEXT
100
AcDbMText
 10
160.1681968774243
 20
239.8158559712949
 30
0.0
 40
1.75
 41
0.0
 46
0.0
 71
     1
 72
     1
  1
TAPERED REVERSE\PANGLE
  7
WEB PAGE
 73
     1
 44
1.0
  0
MTEXT
  5
11CF7
330
17
100
AcDbEntity
  8
TEXT
100
AcDbMText
 10
182.6484322905922
 20
244.5933658729507
 30
0.0
 40
1.75
 41
0.0
 46
0.0
 71
     6
 72
     1
  1
HORIZONTAL ANGLE
  7
WEB PAGE
 73
     1
 44
1.0
  0
LEADER
  5
11CFD
330
17
100
AcDbEntity
  8
TEXT
100
AcDbLeader
  3
STANDARD
 73
     0
 74
     0
 75
     1
 40
3.5
 76
     3
 10
144.8972043131814
 20
247.9631375755334
 30
0.0
 10
152.8854131009758
 20
244.5263340859293
 30
0.0
 10
155.8854131009758
 20
244.5263340859293
 30
0.0
213
-30.35839136054324
223
2.172941992376536
233
0.0
1001
ACAD
1000
DSTYLE
1002
{
1070
    40
1040
1.0
1070
   147
1040
3.0
1002
}
  0
DIMENSION
  5
11CFE
330
17
100
AcDbEntity
  8
TEXT
100
AcDbDimension
  2
*D68
 10
118.0575413775432
 20
258.6288480112671
 30
0.0
 11
128.9325413775432
 21
272.3008621425022
 31
0.0
 70
   160
  1
MINIMUM\PHEADROOM
 71
     5
 42
15.59255383192649
 73
     0
 74
     0
 75
     0
  3
STANDARD
100
AcDbAlignedDimension
 13
134.2169295018095
 23
243.0362941793405
 33
0.0
 14
138.2169295018095
 24
258.628848011267
 34
0.0
 50
90.0
100
AcDbRotatedDimension
1001
ACAD
1000
DSTYLE
1002
{
1070
    40
1040
1.0
1002
}
  0
LEADER
  5
11D00
330
17
100
AcDbEntity
  8
TEXT
100
AcDbLeader
  3
STANDARD
 73
     0
 40
3.5
 76
     2
 10
142.4003598063319
 20
238.5268855322792
 30
0.0
 10
159.230291098521
 20
238.5249681555553
 30
0.0
213
-28.01915490533588
223
-1.822965986319815
233
0.0
1001
ACAD
1000
DSTYLE
1002
{
1070
    40
1040
1.0
1070
   147
1040
3.0
1002
}
  0
LINE
  5
11D06
102
{ACAD_REACTORS
330
127C1
102
}
330
17
100
AcDbEntity
  8
BDR
100
AcDbLine
 10
138.2169295018095
 20
243.0362941793405
 30
0.0
 11
134.2169295018095
 21
243.0362941793405
 31
0.0
  0
LINE
  5
11D0E
330
17
100
AcDbEntity
  8
0
100
AcDbLine
 10
196.5606931348578
 20
272.8387044266974
 30
0.0
 11
195.0691554339286
 21
272.8387044266974
 31
0.0
  0
LINE
  5
11D0F
330
17
100
AcDbEntity
  8
0
100
AcDbLine
 10
195.0691554339286
 20
272.8387044266974
 30
0.0
 11
195.0691554339285
 21
287.5932477856828
 31
0.0
  0
LINE
  5
11D10
330
17
100
AcDbEntity
  8
0
100
AcDbLine
 10
195.1934900166838
 20
272.8387044266974
 30
0.0
 11
195.1934900166833
 21
287.6565994198486
 31
0.0
  0
LINE
  5
11D12
330
17
100
AcDbEntity
  8
0
100
AcDbLine
 10
196.5606931348576
 20
272.8387044266974
 30
0.0
 11
196.560693134858
 21
288.3532242031868
 31
0.0
  0
CIRCLE
  5
11D13
330
17
100
AcDbEntity
  8
0
100
AcDbCircle
 10
195.8149242843932
 20
279.4860470867834
 30
0.0
 40
0.2171678892550922
  0
CIRCLE
  5
11D14
330
17
100
AcDbEntity
  8
0
100
AcDbCircle
 10
195.8149242843932
 20
273.5079639814649
 30
0.0
 40
0.2171678892550922
  0
CIRCLE
  5
11D15
330
17
100
AcDbEntity
  8
0
100
AcDbCircle
 10
195.8149242843932
 20
275.5006583499044
 30
0.0
 40
0.2171678892550922
  0
CIRCLE
  5
11D16
330
17
100
AcDbEntity
  8
0
100
AcDbCircle
 10
195.8149242843932
 20
276.4946190738028
 30
0.0
 40
0.2171678892550922
  0
CIRCLE
  5
11D17
330
17
100
AcDbEntity
  8
0
100
AcDbCircle
 10
195.8149242843932
 20
274.5019247053633
 30
0.0
 40
0.2171678892550922
  0
CIRCLE
  5
11D18
330
17
100
AcDbEntity
  8
0
100
AcDbCircle
 10
195.8149242843932
 20
278.4873134422424
 30
0.0
 40
0.2171678892550922
  0
CIRCLE
  5
11D19
330
17
100
AcDbEntity
  8
0
100
AcDbCircle
 10
195.8149242843932
 20
277.4933527183439
 30
0.0
 40
0.2171678892550922
  0
MTEXT
  5
11D1B
330
17
100
AcDbEntity
  8
TEXT
100
AcDbMText
 10
232.4539940455156
 20
222.871562798987
 30
0.0
 40
1.75
 41
0.0
 46
0.0
 71
     4
 72
     1
  1
BACK AND INTERMEDIATE HANGERS\PSUPPLIED BY OTHERS
  7
WEB PAGE
 73
     1
 44
1.0
  0
LINE
  5
11D1C
330
17
100
AcDbEntity
  8
0
100
AcDbLine
 10
257.9550330109139
 20
303.4912708790772
 30
0.0
 11
257.9550330109139
 21
319.6352028249479
 31
0.0
  0
LINE
  5
11D1D
330
17
100
AcDbEntity
  8
0
100
AcDbLine
 10
258.0793675936691
 20
303.4912708790772
 30
0.0
 11
258.0793675936681
 21
319.6985544591135
 31
0.0
  0
LINE
  5
11D1E
330
17
100
AcDbEntity
  8
0
100
AcDbLine
 10
259.4465707118429
 20
303.4912708790772
 30
0.0
 11
259.4465707118434
 21
320.3951792424519
 31
0.0
  0
LEADER
  5
11D1F
330
17
100
AcDbEntity
  8
TEXT
100
AcDbLeader
  3
STANDARD
 73
     0
 74
     0
 75
     1
 40
3.5
 76
     3
 10
224.8389294414055
 20
216.1662960606621
 30
0.0
 10
228.7375860283412
 20
224.1706241143037
 30
0.0
 10
231.7375860283412
 20
224.1706241143037
 30
0.0
213
-30.73869949890218
223
37.29359984281018
233
0.0
1001
ACAD
1000
DSTYLE
1002
{
1070
    40
1040
1.0
1002
}
  0
LINE
  5
11D20
330
17
100
AcDbEntity
  8
0
100
AcDbLine
 10
259.4465707118431
 20
303.4912708790772
 30
0.0
 11
257.9550330109139
 21
303.4912708790772
 31
0.0
  0
CIRCLE
  5
11D21
330
17
100
AcDbEntity
  8
0
100
AcDbCircle
 10
258.7008018613785
 20
304.1605304338447
 30
0.0
 40
0.2075
  0
CIRCLE
  5
11D22
330
17
100
AcDbEntity
  8
0
100
AcDbCircle
 10
258.7008018613785
 20
307.1471855261825
 30
0.0
 40
0.2171678892550922
  0
CIRCLE
  5
11D23
330
17
100
AcDbEntity
  8
0
100
AcDbCircle
 10
258.7008018613785
 20
308.1459191707237
 30
0.0
 40
0.2171678892550922
  0
CIRCLE
  5
11D24
330
17
100
AcDbEntity
  8
0
100
AcDbCircle
 10
258.7008018613785
 20
309.139879894622
 30
0.0
 40
0.2171678892550922
  0
CIRCLE
  5
11D25
330
17
100
AcDbEntity
  8
0
100
AcDbCircle
 10
258.7008018613785
 20
305.154491157743
 30
0.0
 40
0.2171678892550922
  0
CIRCLE
  5
11D26
330
17
100
AcDbEntity
  8
0
100
AcDbCircle
 10
258.7008018613785
 20
306.1532248022842
 30
0.0
 40
0.2171678892550922
  0
CIRCLE
  5
11D27
330
17
100
AcDbEntity
  8
0
100
AcDbCircle
 10
258.7008018613785
 20
310.1386135391632
 30
0.0
 40
0.2171678892550922
  0
CIRCLE
  5
11D28
330
17
100
AcDbEntity
  8
0
100
AcDbCircle
 10
258.7008018613785
 20
311.0107962110721
 30
0.0
 40
0.2171678892550922
  0
INSERT
  5
11E5B
330
17
100
AcDbEntity
  8
FRAMING
100
AcDbBlockReference
  2
WD-9-3-38
 10
138.2169295018095
 20
253.9573891528888
 30
0.0
  0
CIRCLE
  5
11E86
330
17
100
AcDbEntity
  8
FRAMING
100
AcDbCircle
 10
141.5919295018095
 20
256.5573891528887
 30
0.0
 40
2.375
  0
DIMENSION
  5
11EA8
330
17
100
AcDbEntity
  8
TEXT
100
AcDbDimension
  2
*D71
 10
260.8417609065538
 20
241.2407720156136
 30
0.0
 11
215.1713594561171
 21
241.2407720156136
 31
0.0
 70
   160
  1
HORIZONTAL TRACK LENGTH\P(BACKROOM: DOOR HEIGHT + 21")
 71
     5
 42
120.0661001024632
 73
     0
 74
     0
 75
     0
  3
STANDARD
100
AcDbAlignedDimension
 13
140.7756608040905
 23
232.874889338956
 33
0.0
 14
260.8417609065538
 24
303.6737479711899
 34
0.0
100
AcDbRotatedDimension
  0
LWPOLYLINE
  5
12008
330
17
100
AcDbEntity
  8
FRAMING
100
AcDbPolyline
 90
        6
 70
     0
 43
0.0
 10
205.3059173311522
 20
213.6152231550802
 10
201.625635083974
 20
213.6152231550802
 10
201.625635083974
 20
216.1152231550802
 10
229.625635083974
 20
216.1152231550802
 10
229.625635083974
 20
213.6152231550802
 10
207.8059173311522
 20
213.6152231550802
  0
LWPOLYLINE
  5
1200A
330
17
100
AcDbEntity
  8
FRAMING
100
AcDbPolyline
 90
        2
 70
     0
 43
0.0
 10
207.8059173311522
 20
201.8829901080465
 10
219.538150378186
 20
213.6152231550802
  0
CIRCLE
  5
1200B
330
17
100
AcDbEntity
  8
FRAMING
100
AcDbCircle
 10
206.5559173311521
 20
192.8652231550802
 30
0.0
 40
0.5
  0
CIRCLE
  5
1200C
330
17
100
AcDbEntity
  8
FRAMING
100
AcDbCircle
 10
206.5559173311521
 20
194.8652231550802
 30
0.0
 40
0.5
  0
CIRCLE
  5
1200D
330
17
100
AcDbEntity
  8
FRAMING
100
AcDbCircle
 10
206.5559173311521
 20
196.8652231550802
 30
0.0
 40
0.5
  0
CIRCLE
  5
1200E
330
17
100
AcDbEntity
  8
FRAMING
100
AcDbCircle
 10
206.5559173311521
 20
198.8652231550802
 30
0.0
 40
0.5
  0
CIRCLE
  5
1200F
330
17
100
AcDbEntity
  8
FRAMING
100
AcDbCircle
 10
206.5559173311521
 20
200.8652231550802
 30
0.0
 40
0.5
  0
CIRCLE
  5
12010
330
17
100
AcDbEntity
  8
FRAMING
100
AcDbCircle
 10
206.5559173311521
 20
202.8652231550802
 30
0.0
 40
0.5
  0
CIRCLE
  5
12011
330
17
100
AcDbEntity
  8
FRAMING
100
AcDbCircle
 10
206.5559173311521
 20
204.8652231550802
 30
0.0
 40
0.5
  0
CIRCLE
  5
12012
330
17
100
AcDbEntity
  8
FRAMING
100
AcDbCircle
 10
206.5559173311521
 20
206.8652231550802
 30
0.0
 40
0.5
  0
CIRCLE
  5
12013
330
17
100
AcDbEntity
  8
FRAMING
100
AcDbCircle
 10
206.5559173311521
 20
208.8652231550802
 30
0.0
 40
0.5
  0
CIRCLE
  5
12014
330
17
100
AcDbEntity
  8
FRAMING
100
AcDbCircle
 10
206.5559173311521
 20
210.8652231550802
 30
0.0
 40
0.5
  0
CIRCLE
  5
12015
330
17
100
AcDbEntity
  8
FRAMING
100
AcDbCircle
 10
206.5559173311521
 20
212.8652231550802
 30
0.0
 40
0.5
  0
CIRCLE
  5
12016
330
17
100
AcDbEntity
  8
FRAMING
100
AcDbCircle
 10
206.5559173311521
 20
214.8652231550802
 30
0.0
 40
0.5
  0
CIRCLE
  5
12017
330
17
100
AcDbEntity
  8
FRAMING
100
AcDbCircle
 10
206.5559173311521
 20
214.8652231550802
 30
0.0
 40
0.5
  0
CIRCLE
  5
12018
330
17
100
AcDbEntity
  8
FRAMING
100
AcDbCircle
 10
208.5559173311521
 20
214.8652231550802
 30
0.0
 40
0.5
  0
CIRCLE
  5
12019
330
17
100
AcDbEntity
  8
FRAMING
100
AcDbCircle
 10
210.5559173311521
 20
214.8652231550802
 30
0.0
 40
0.5
  0
CIRCLE
  5
1201A
330
17
100
AcDbEntity
  8
FRAMING
100
AcDbCircle
 10
212.5559173311521
 20
214.8652231550802
 30
0.0
 40
0.5
  0
CIRCLE
  5
1201B
330
17
100
AcDbEntity
  8
FRAMING
100
AcDbCircle
 10
214.5559173311522
 20
214.8652231550802
 30
0.0
 40
0.5
  0
CIRCLE
  5
1201C
330
17
100
AcDbEntity
  8
FRAMING
100
AcDbCircle
 10
216.5559173311522
 20
214.8652231550802
 30
0.0
 40
0.5
  0
CIRCLE
  5
1201D
330
17
100
AcDbEntity
  8
FRAMING
100
AcDbCircle
 10
218.5559173311522
 20
214.8652231550802
 30
0.0
 40
0.5
  0
CIRCLE
  5
1201E
330
17
100
AcDbEntity
  8
FRAMING
100
AcDbCircle
 10
220.5559173311522
 20
214.8652231550802
 30
0.0
 40
0.5
  0
CIRCLE
  5
1201F
330
17
100
AcDbEntity
  8
FRAMING
100
AcDbCircle
 10
222.5559173311522
 20
214.8652231550802
 30
0.0
 40
0.5
  0
CIRCLE
  5
12020
330
17
100
AcDbEntity
  8
FRAMING
100
AcDbCircle
 10
224.5559173311522
 20
214.8652231550802
 30
0.0
 40
0.5
  0
CIRCLE
  5
12021
330
17
100
AcDbEntity
  8
FRAMING
100
AcDbCircle
 10
226.5559173311522
 20
214.8652231550802
 30
0.0
 40
0.5
  0
CIRCLE
  5
12022
330
17
100
AcDbEntity
  8
FRAMING
100
AcDbCircle
 10
228.5559173311522
 20
214.8652231550802
 30
0.0
 40
0.5
  0
CIRCLE
  5
12023
330
17
100
AcDbEntity
  8
FRAMING
100
AcDbCircle
 10
212.6564223945405
 20
204.9657282184685
 30
0.0
 40
0.5
  0
CIRCLE
  5
12024
330
17
100
AcDbEntity
  8
FRAMING
100
AcDbCircle
 10
211.2422088321674
 20
203.5515146560954
 30
0.0
 40
0.5
  0
CIRCLE
  5
12025
330
17
100
AcDbEntity
  8
FRAMING
100
AcDbCircle
 10
209.8279952697943
 20
202.1373010937224
 30
0.0
 40
0.5
  0
CIRCLE
  5
12026
330
17
100
AcDbEntity
  8
FRAMING
100
AcDbCircle
 10
208.4137817074212
 20
200.7230875313493
 30
0.0
 40
0.5
  0
CIRCLE
  5
12028
330
17
100
AcDbEntity
  8
FRAMING
100
AcDbCircle
 10
219.727490206406
 20
212.036796030334
 30
0.0
 40
0.5
  0
CIRCLE
  5
12029
330
17
100
AcDbEntity
  8
FRAMING
100
AcDbCircle
 10
218.3132766440329
 20
210.6225824679609
 30
0.0
 40
0.5
  0
CIRCLE
  5
1202A
330
17
100
AcDbEntity
  8
FRAMING
100
AcDbCircle
 10
216.8990630816598
 20
209.2083689055879
 30
0.0
 40
0.5
  0
CIRCLE
  5
1202B
330
17
100
AcDbEntity
  8
FRAMING
100
AcDbCircle
 10
215.4848495192867
 20
207.7941553432148
 30
0.0
 40
0.5
  0
CIRCLE
  5
1202C
330
17
100
AcDbEntity
  8
FRAMING
100
AcDbCircle
 10
214.0706359569136
 20
206.3799417808417
 30
0.0
 40
0.5
  0
CIRCLE
  5
1202D
330
17
100
AcDbEntity
  8
FRAMING
100
AcDbCircle
 10
222.5559173311522
 20
214.8652231550802
 30
0.0
 40
0.5
  0
ARC
  5
1202E
330
17
100
AcDbEntity
  8
FRAMING
100
AcDbCircle
 10
221.1417037687791
 20
213.4510095927071
 30
0.0
 40
0.5
100
AcDbArc
 50
160.8266638561468
 51
19.17333614385317
  0
CIRCLE
  5
12030
330
17
100
AcDbEntity
  8
FRAMING
100
AcDbCircle
 10
204.5559173311521
 20
214.8652231550802
 30
0.0
 40
0.5
  0
CIRCLE
  5
12032
330
17
100
AcDbEntity
  8
FRAMING
100
AcDbCircle
 10
202.5559173311521
 20
214.8652231550802
 30
0.0
 40
0.5
  0
ARC
  5
12033
330
17
100
AcDbEntity
  8
FRAMING
100
AcDbCircle
 10
205.585354582675
 20
197.894660406603
 30
0.0
 40
0.5
100
AcDbArc
 50
123.9779978142455
 51
236.0220021857545
  0
INSERT
  5
12045
330
17
100
AcDbEntity
  8
FRAMING
100
AcDbBlockReference
  2
A$C2D8E259A
 10
205.3059164103456
 20
192.1381299463221
 30
0.0
 41
-2.0
 42
2.0
 43
2.0
  0
LWPOLYLINE
  5
12046
330
17
100
AcDbEntity
  8
FRAMING
100
AcDbPolyline
 90
        3
 70
     0
 43
0.0
 10
205.3059173311522
 20
196.8619358662408
 10
204.0453902102494
 20
198.1224629871436
 10
205.3059173311522
 20
199.3829901080464
  0
LINE
  5
12047
330
17
100
AcDbEntity
  8
FRAMING
100
AcDbLine
 10
205.3059173311522
 20
215.8035189089617
 30
0.0
 11
207.8059173311522
 21
215.8035189089617
 31
0.0
  0
LINE
  5
12048
330
17
100
AcDbEntity
  8
FRAMING
100
AcDbLine
 10
207.8059173311522
 20
215.8035189089617
 30
0.0
 11
207.8059173311522
 21
191.8035189089616
 31
0.0
  0
LINE
  5
12049
330
17
100
AcDbEntity
  8
FRAMING
100
AcDbLine
 10
207.8059173311522
 20
191.8035189089616
 30
0.0
 11
205.3059173311522
 21
191.8035189089616
 31
0.0
  0
LINE
  5
1204A
330
17
100
AcDbEntity
  8
FRAMING
100
AcDbLine
 10
205.3059173311522
 20
191.8035189089616
 30
0.0
 11
205.3059173311522
 21
215.8035189089617
 31
0.0
  0
LINE
  5
1204B
330
17
100
AcDbEntity
  8
FRAMING
100
AcDbLine
 10
205.5988969614828
 20
191.8035189089616
 30
0.0
 11
205.5988969614828
 21
215.8035189089617
 31
0.0
  0
LWPOLYLINE
  5
1204C
330
17
100
AcDbEntity
  8
FRAMING
100
AcDbPolyline
 90
        2
 70
     0
 43
0.0
 10
223.0736842841186
 20
213.6152231550802
 10
207.8059173311522
 20
198.3474562021138
  0
DIMENSION
  5
1205D
330
17
100
AcDbEntity
  8
TEXT
100
AcDbDimension
  2
*D73
 10
219.538150378186
 20
213.6152231550802
 30
0.0
 11
214.2130908165982
 21
211.6871687594966
 31
0.0
 70
   162
 71
     5
 42
0.7853981633974465
 73
     0
 74
     0
 75
     0
  3
STANDARD
100
AcDb2LineAngularDimension
 13
229.625635083974
 23
213.6152231550802
 33
0.0
 14
207.8059173311522
 24
213.6152231550802
 34
0.0
 15
207.8059173311522
 25
201.8829901080465
 35
0.0
 16
214.6335362429976
 26
210.7835428638579
 36
0.0
1001
ACAD
1000
DSTYLE
1002
{
1070
   179
1070
     0
1002
}
  0
TEXT
  5
1208F
330
17
100
AcDbEntity
  8
TEXT
100
AcDbText
 10
118.1505734290828
 20
102.4239887196871
 30
0.0
 40
3.0
  1
%%USTANDARD LIFT FOLLOW THE ROOF PITCH
  7
WEB PAGE
 72
     1
 11
163.4933996727743
 21
102.4239887196871
 31
0.0
100
AcDbText
  0
TEXT
  5
12096
330
17
100
AcDbEntity
  8
TEXT
100
AcDbText
 10
212.8045998539096
 20
181.5595812266233
 30
0.0
 40
3.0
  1
%%USECTION A-A
  7
WEB PAGE
100
AcDbText
  0
TEXT
  5
12097
330
17
100
AcDbEntity
  8
TEXT
100
AcDbText
 10
202.7681809220212
 20
175.6530810391027
 30
0.0
 40
3.0
  1
%%USUPPORT HANGER DETAIL
  7
WEB PAGE
100
AcDbText
  0
INSERT
  5
12260
102
{ACAD_REACTORS
330
127C1
102
}
330
17
100
AcDbEntity
  8
FRAMING
100
AcDbBlockReference
  2
TRA130
 10
142.0318840384533
 20
159.323679727483
 30
0.0
  0
INSERT
  5
12564
330
17
100
AcDbEntity
  8
FRAMING
100
AcDbBlockReference
  2
A$C509D1A7E
 10
140.697384596954
 20
234.5627594345429
 30
0.0
  0
INSERT
  5
125F9
330
17
100
AcDbEntity
  8
FRAMING
100
AcDbBlockReference
  2
A$C07F7408E
 10
139.4675534194428
 20
123.0362939960746
 30
0.0
  0
INSERT
  5
1262C
330
17
100
AcDbEntity
  8
FRAMING
100
AcDbBlockReference
  2
A$C73DC2C6A
 10
138.3356610982439
 20
251.4948889425572
 30
0.0
  0
LINE
  5
12638
102
{ACAD_REACTORS
330
127C1
102
}
330
17
100
AcDbEntity
  8
FRAMING
100
AcDbLine
 10
138.2169295018095
 20
258.625591812861
 30
0.0
 11
263.6490259236452
 21
322.5364371232254
 31
0.0
  0
LINE
  5
12639
102
{ACAD_REACTORS
330
127C1
102
}
330
17
100
AcDbEntity
  8
FRAMING
100
AcDbLine
 10
134.2169295018095
 20
261.0767949654207
 30
0.0
 11
261.8330639246869
 21
326.1004632199789
 31
0.0
  0
LEADER
  5
1264E
330
17
100
AcDbEntity
  8
FRAMING
100
AcDbLeader
  3
STANDARD
 73
     0
 40
4.666666666666667
 41
40.91666666666667
 76
     3
 10
145.9621022514541
 20
253.1198891528927
 30
0.0
 10
151.3367984706523
 20
258.3442279601891
 30
0.0
 10
179.7674977246248
 20
258.3442279601891
 30
0.0
340
1264F
213
0.0
223
-0.875
233
0.0
1001
ACAD
1000
DSTYLE
1002
{
1070
   147
1040
1.0
1070
    77
1070
     0
1002
}
  0
MTEXT
  5
1264F
102
{ACAD_REACTORS
330
1264E
102
}
330
17
100
AcDbEntity
  8
FRAMING
100
AcDbMText
 10
180.7674977246248
 20
259.2192279601891
 30
0.0
 40
1.75
 41
0.0
 46
0.0
 71
     1
 72
     1
  1
COMMERCIAL HANGER IRON\PEND BEARING PLATE SUPPORT
  7
WEB PAGE
 73
     1
 44
1.0
  0
LINE
  5
12652
102
{ACAD_REACTORS
330
127C1
102
}
330
17
100
AcDbEntity
  8
FRAMING
100
AcDbLine
 10
261.8330639246869
 20
326.1004632199789
 30
0.0
 11
263.6490259236452
 21
322.5364371232254
 31
0.0
  0
INSERT
  5
126B7
330
17
100
AcDbEntity
  8
FRAMING
100
AcDbBlockReference
  2
A$C190E579F
 10
138.3366907435029
 20
243.4531149506758
 30
0.0
  0
CIRCLE
  5
126B8
330
17
100
AcDbEntity
  8
0
100
AcDbCircle
 10
195.8149242843932
 20
281.4787414552229
 30
0.0
 40
0.2171678892550922
  0
CIRCLE
  5
126B9
330
17
100
AcDbEntity
  8
0
100
AcDbCircle
 10
195.8149242843932
 20
280.4800078106818
 30
0.0
 40
0.2171678892550922
  0
CIRCLE
  5
126BA
330
17
100
AcDbEntity
  8
0
100
AcDbCircle
 10
195.8149242843932
 20
283.4714358236624
 30
0.0
 40
0.2171678892550922
  0
CIRCLE
  5
126BB
330
17
100
AcDbEntity
  8
0
100
AcDbCircle
 10
195.8149242843932
 20
282.4727021791214
 30
0.0
 40
0.2171678892550922
  0
CIRCLE
  5
126BC
330
17
100
AcDbEntity
  8
0
100
AcDbCircle
 10
195.8149242843932
 20
285.464130192102
 30
0.0
 40
0.2171678892550922
  0
CIRCLE
  5
126BD
330
17
100
AcDbEntity
  8
0
100
AcDbCircle
 10
195.8149242843932
 20
284.4653965475609
 30
0.0
 40
0.2171678892550922
  0
CIRCLE
  5
126BE
330
17
100
AcDbEntity
  8
0
100
AcDbCircle
 10
195.8149242843932
 20
287.4568245605415
 30
0.0
 40
0.2171678892550922
  0
CIRCLE
  5
126BF
330
17
100
AcDbEntity
  8
0
100
AcDbCircle
 10
195.8149242843932
 20
286.4580909160004
 30
0.0
 40
0.2171678892550922
  0
CIRCLE
  5
126C0
330
17
100
AcDbEntity
  8
0
100
AcDbCircle
 10
258.7008018613785
 20
312.0095298556133
 30
0.0
 40
0.2171678892550922
  0
CIRCLE
  5
126C1
330
17
100
AcDbEntity
  8
0
100
AcDbCircle
 10
258.7008018613785
 20
312.8817125275223
 30
0.0
 40
0.2171678892550922
  0
CIRCLE
  5
126C2
330
17
100
AcDbEntity
  8
0
100
AcDbCircle
 10
258.7008018613785
 20
313.8804461720634
 30
0.0
 40
0.2171678892550922
  0
CIRCLE
  5
126C3
330
17
100
AcDbEntity
  8
0
100
AcDbCircle
 10
258.7008018613785
 20
314.7526288439724
 30
0.0
 40
0.2171678892550922
  0
CIRCLE
  5
126C4
330
17
100
AcDbEntity
  8
0
100
AcDbCircle
 10
258.7008018613785
 20
315.7513624885136
 30
0.0
 40
0.2171678892550922
  0
CIRCLE
  5
126C5
330
17
100
AcDbEntity
  8
0
100
AcDbCircle
 10
258.7008018613785
 20
316.6235451604225
 30
0.0
 40
0.2171678892550922
  0
CIRCLE
  5
126C6
330
17
100
AcDbEntity
  8
0
100
AcDbCircle
 10
258.7008018613785
 20
317.6222788049637
 30
0.0
 40
0.2171678892550922
  0
CIRCLE
  5
126C7
330
17
100
AcDbEntity
  8
0
100
AcDbCircle
 10
258.7008018613785
 20
318.4944614768726
 30
0.0
 40
0.2171678892550922
  0
CIRCLE
  5
126C8
330
17
100
AcDbEntity
  8
0
100
AcDbCircle
 10
258.7008018613785
 20
319.4931951214138
 30
0.0
 40
0.2171678892550922
  0
LINE
  5
126F4
330
17
100
AcDbEntity
  8
SECTION JOINTS
100
AcDbLine
 10
271.5280776024682
 20
305.1349998689134
 30
0.0
 11
277.6404825695432
 21
308.6486970330698
 31
0.0
1001
ACAD
1000
DSTYLE
1002
{
1070
   147
1040
1.0
1070
    77
1070
     0
1002
}
  0
LINE
  5
126F5
330
17
100
AcDbEntity
  8
SECTION JOINTS
100
AcDbLine
 10
263.0806831693311
 20
333.9768303398674
 30
0.0
 11
277.6404825695432
 21
308.6486970330698
 31
0.0
1001
ACAD
1000
DSTYLE
1002
{
1070
   147
1040
1.0
1070
    77
1070
     0
1002
}
  0
TEXT
  5
126F6
330
17
100
AcDbEntity
  8
SECTION JOINTS
100
AcDbText
 10
266.5956984376714
 20
301.9317801739737
 30
0.0
 40
2.0
  1
A
  7
WEB PAGE
100
AcDbText
  0
SOLID
  5
126F7
330
17
100
AcDbEntity
  8
SECTION JOINTS
100
AcDbTrace
 10
271.2788919115983
 20
305.5684816925988
 30
0.0
 11
268.9271866603552
 21
303.639885723694
 31
0.0
 12
271.7772632933381
 22
304.7015180452279
 32
0.0
 13
271.7772632933381
 23
304.7015180452279
 33
0.0
1001
ACAD
1000
DSTYLE
1002
{
1070
   147
1040
1.0
1070
    77
1070
     0
1002
}
  0
LINE
  5
126F8
330
17
100
AcDbEntity
  8
SECTION JOINTS
100
AcDbLine
 10
256.9682782022562
 20
330.4631331757109
 30
0.0
 11
263.0806831693311
 21
333.9768303398674
 31
0.0
1001
ACAD
1000
DSTYLE
1002
{
1070
   147
1040
1.0
1070
    77
1070
     0
1002
}
  0
SOLID
  5
126F9
330
17
100
AcDbEntity
  8
SECTION JOINTS
100
AcDbTrace
 10
256.7190925113863
 20
330.8966149993964
 30
0.0
 11
254.3673872601432
 21
328.9680190304916
 31
0.0
 12
257.217463893126
 22
330.0296513520255
 32
0.0
 13
257.217463893126
 23
330.0296513520255
 33
0.0
1001
ACAD
1000
DSTYLE
1002
{
1070
   147
1040
1.0
1070
    77
1070
     0
1002
}
  0
TEXT
  5
126FA
330
17
100
AcDbEntity
  8
SECTION JOINTS
100
AcDbText
 10
252.1060321079724
 20
327.3207543193371
 30
0.0
 40
2.0
  1
A
  7
WEB PAGE
100
AcDbText
  0
TEXT
  5
126FF
330
17
100
AcDbEntity
  8
TEXT
100
AcDbText
 10
105.2951300260547
 20
95.24462947842534
 30
0.0
 40
3.0
  1
%%UTAPERED REVERSE ANGLE MOUNT TRACK SET DETAIL
  7
WEB PAGE
 72
     1
 11
163.4933996727743
 21
95.24462947842534
 31
0.0
100
AcDbText
  0
HATCH
  5
127C1
330
17
100
AcDbEntity
  8
FRAMING
100
AcDbHatch
 10
0.0
 20
0.0
 30
0.0
210
0.0
220
0.0
230
1.0
  2
ANSI31
 70
     0
 71
     1
 91
        1
 92
        7
 72
     0
 73
     1
 93
        7
 10
138.2169295018095
 20
253.0362941793405
 10
138.2169295018095
 20
258.625591812861
 10
263.6490259236452
 20
322.5364371232254
 10
261.8330639246869
 20
326.1004632199789
 10
134.2169295018095
 20
261.0767949654207
 10
134.2169295018095
 20
243.0362941793406
 10
138.2169295018095
 20
243.0362941793406
 97
        7
330
11CE3
330
12638
330
12652
330
12639
330
11CE2
330
11D06
330
12260
 75
     0
 76
     1
 52
0.0
 41
15.0
 77
     0
 78
     1
 53
45.0
 43
0.0
 44
0.0
 45
-1.325825214724776
 46
1.325825214724776
 79
     0
 47
0.2567162087339105
 98
        1
 10
136.7015805214869
 20
248.8106244746327
  0
DIMENSION
  5
127F4
330
17
100
AcDbEntity
  8
TEXT
100
AcDbDimension
  2
*D100
 10
97.32647935668875
 20
123.0362941793405
 30
0.0
 11
97.32647935668873
 21
188.0362941793405
 31
0.0
 70
    32
  1
3" TAPERED REVERSE\PANGLE\PDOOR HEIGHT+10"
 71
     5
 42
130.0
 73
     0
 74
     0
 75
     0
  3
STANDARD
100
AcDbAlignedDimension
 13
138.2169295018095
 23
253.0362941793405
 33
0.0
 14
134.2169295018095
 24
123.0362941793405
 34
0.0
 50
90.0
100
AcDbRotatedDimension
  0
MTEXT
  5
12A3F
330
17
100
AcDbEntity
  8
TEXT
100
AcDbMText
 10
136.0909162072198
 20
116.8431087121765
 30
0.0
 40
1.75
 41
0.0
 46
0.0
 71
     4
 72
     1
  1
NOTE: CONTACT ENGINEERING DEPARTMENT FOR HORIZONTAL\P      TRACK PITCH CUTTTING INSTRUCTIONS.
  7
WEB PAGE
 73
     1
 44
1.0
  0
MTEXT
  5
13378
330
17
100
AcDbEntity
  8
TEXT
100
AcDbMText
 10
203.4511122714128
 20
165.7775118592466
 30
0.0
 40
2.6
 41
37.3125
 46
0.0
 71
     2
 72
     5
  1
HEADROOM\PREQUIREMENTS
  7
WEB PAGE
 73
     1
 44
1.0
  0
LINE
  5
13379
330
17
100
AcDbEntity
  8
TEXT
100
AcDbLine
 10
183.8943927477972
 20
149.8848766018718
 30
0.0
 11
222.6000485417389
 21
149.8848766018718
 31
0.0
  0
LINE
  5
1337A
330
17
100
AcDbEntity
  8
TEXT
100
AcDbLine
 10
183.8943927477972
 20
156.7684864028401
 30
0.0
 11
222.6000485417389
 21
156.7684864028401
 31
0.0
  0
TEXT
  5
1337B
330
17
100
AcDbEntity
  8
TEXT
100
AcDbText
 10
188.2453397174268
 20
139.9056609135274
 30
0.0
 40
1.75
  1
16'3" - 18'
  7
WEB PAGE
 72
     1
 11
193.5445466388399
 21
139.9056609135274
 31
0.0
100
AcDbText
  0
TEXT
  5
1337C
330
17
100
AcDbEntity
  8
TEXT
100
AcDbText
 10
188.058481295964
 20
143.4114940917587
 30
0.0
 40
1.75
  1
12'3" - 16'
  7
WEB PAGE
 72
     1
 11
193.3576882173771
 21
143.4114940917587
 31
0.0
100
AcDbText
  0
TEXT
  5
1337D
330
17
100
AcDbEntity
  8
TEXT
100
AcDbText
 10
190.3711545038172
 20
147.1952364491893
 30
0.0
 40
1.75
  1
7' - 12'
  7
WEB PAGE
 72
     1
 11
193.8509670488785
 21
147.1952364491893
 31
0.0
100
AcDbText
  0
TEXT
  5
1337E
330
17
100
AcDbEntity
  8
TEXT
100
AcDbText
 10
188.9290877280934
 20
151.0377914183814
 30
0.0
 40
1.75
  1
HEIGHT
  7
WEB PAGE
 72
     1
 11
193.7368562933421
 21
151.0377914183814
 31
0.0
100
AcDbText
  0
TEXT
  5
1337F
330
17
100
AcDbEntity
  8
TEXT
100
AcDbText
 10
190.0646320683962
 20
154.0836303807533
 30
0.0
 40
1.75
  1
DOOR
  7
WEB PAGE
 72
     1
 11
193.7368562933421
 21
154.0836303807533
 31
0.0
100
AcDbText
  0
LINE
  5
13380
330
17
100
AcDbEntity
  8
TEXT
100
AcDbLine
 10
183.8943927477972
 20
156.7684864028401
 30
0.0
 11
183.8943927477972
 21
135.3504373979993
 31
0.0
  0
LINE
  5
13381
330
17
100
AcDbEntity
  8
TEXT
100
AcDbLine
 10
203.3411767262704
 20
156.7684864028401
 30
0.0
 11
203.3411767262704
 21
135.3504373979993
 31
0.0
  0
LINE
  5
13382
330
17
100
AcDbEntity
  8
TEXT
100
AcDbLine
 10
222.6000485417389
 20
156.7684864028401
 30
0.0
 11
222.6000485417389
 21
135.3504373979993
 31
0.0
  0
TEXT
  5
13383
330
17
100
AcDbEntity
  8
TEXT
100
AcDbText
 10
209.9875327953108
 20
147.1952364491893
 30
0.0
 40
1.75
  1
16-3/8"
  7
WEB PAGE
 72
     1
 11
213.8881276042509
 21
147.1952364491893
 31
0.0
100
AcDbText
  0
TEXT
  5
13384
330
17
100
AcDbEntity
  8
TEXT
100
AcDbText
 10
209.9875327953108
 20
139.9993364178954
 30
0.0
 40
1.75
  1
16-7/8"
  7
WEB PAGE
 72
     1
 11
213.8881276042509
 21
139.9993364178954
 31
0.0
100
AcDbText
  0
TEXT
  5
13385
330
17
100
AcDbEntity
  8
TEXT
100
AcDbText
 10
209.9875327953108
 20
143.6689980863889
 30
0.0
 40
1.75
  1
16-7/8"
  7
WEB PAGE
 72
     1
 11
213.8881276042509
 21
143.6689980863889
 31
0.0
100
AcDbText
  0
TEXT
  5
13386
330
17
100
AcDbEntity
  8
TEXT
100
AcDbText
 10
206.7208804428588
 20
154.0836303807533
 30
0.0
 40
1.75
  1
MINIMUM
  7
WEB PAGE
 72
     1
 11
212.8938256483383
 21
154.0836303807533
 31
0.0
100
AcDbText
  0
TEXT
  5
13387
330
17
100
AcDbEntity
  8
TEXT
100
AcDbText
 10
205.428883326781
 20
151.0377914183814
 30
0.0
 40
1.75
  1
HEADROOM
  7
WEB PAGE
 72
     1
 11
212.8938256483383
 21
151.0377914183814
 31
0.0
100
AcDbText
  0
LINE
  5
13388
330
17
100
AcDbEntity
  8
TEXT
100
AcDbLine
 10
222.6000485417389
 20
146.2512668009038
 30
0.0
 11
183.8943927477972
 21
146.2512668009037
 31
0.0
  0
LINE
  5
13389
330
17
100
AcDbEntity
  8
TEXT
100
AcDbLine
 10
222.6000485417389
 20
142.6176569999356
 30
0.0
 11
183.8943927477972
 21
142.6176569999356
 31
0.0
  0
LINE
  5
1338A
330
17
100
AcDbEntity
  8
TEXT
100
AcDbLine
 10
222.6000485417389
 20
138.9840471989675
 30
0.0
 11
183.8943927477972
 21
138.9840471989674
 31
0.0
  0
LINE
  5
1338B
330
17
100
AcDbEntity
  8
TEXT
100
AcDbLine
 10
183.8943927477972
 20
167.0070108665246
 30
0.0
 11
222.6000485417389
 21
167.0070108665245
 31
0.0
  0
LINE
  5
1338C
330
17
100
AcDbEntity
  8
TEXT
100
AcDbLine
 10
183.8943927477972
 20
156.7684864028401
 30
0.0
 11
183.8943927477972
 21
167.0070108665246
 31
0.0
  0
LINE
  5
1338D
330
17
100
AcDbEntity
  8
TEXT
100
AcDbLine
 10
222.6000485417389
 20
156.7684864028401
 30
0.0
 11
222.6000485417389
 21
167.0070108665245
 31
0.0
  0
LINE
  5
1338E
330
17
100
AcDbEntity
  8
TEXT
100
AcDbLine
 10
227.4972851359286
 20
156.7684864028401
 30
0.0
 11
274.851037132277
 21
156.7684864028401
 31
0.0
  0
LINE
  5
1338F
330
17
100
AcDbEntity
  8
TEXT
100
AcDbLine
 10
274.851037132277
 20
142.6176569999357
 30
0.0
 11
227.4972851359286
 21
142.6176569999356
 31
0.0
  0
LINE
  5
13390
330
17
100
AcDbEntity
  8
TEXT
100
AcDbLine
 10
274.851037132277
 20
146.2512668009038
 30
0.0
 11
227.4972851359286
 21
146.2512668009038
 31
0.0
  0
LINE
  5
13391
330
17
100
AcDbEntity
  8
TEXT
100
AcDbLine
 10
274.851037132277
 20
149.884876601872
 30
0.0
 11
227.4972851359286
 21
149.8848766018719
 31
0.0
  0
LINE
  5
13392
330
17
100
AcDbEntity
  8
TEXT
100
AcDbLine
 10
227.4972851359286
 20
167.0070108665246
 30
0.0
 11
274.851037132277
 21
167.0070108665245
 31
0.0
  0
LINE
  5
13393
330
17
100
AcDbEntity
  8
TEXT
100
AcDbLine
 10
227.4972851359286
 20
153.5184864028401
 30
0.0
 11
274.851037132277
 21
153.5184864028401
 31
0.0
  0
LINE
  5
13394
330
17
100
AcDbEntity
  8
TEXT
100
AcDbLine
 10
274.851037132277
 20
138.9840471989675
 30
0.0
 11
227.4972851359286
 21
138.9840471989675
 31
0.0
  0
LINE
  5
13395
330
17
100
AcDbEntity
  8
TEXT
100
AcDbLine
 10
227.4972851359286
 20
138.9840471989675
 30
0.0
 11
227.4972851359286
 21
156.7684864028401
 31
0.0
  0
TEXT
  5
13396
330
17
100
AcDbEntity
  8
TEXT
100
AcDbText
 10
187.6613265752336
 20
131.8548987226717
 30
0.0
 40
1.75
  1
* ADD 4" FOR OPERATOR.
  7
WEB PAGE
 72
     1
 11
203.2277469068847
 21
131.8548987226717
 31
0.0
100
AcDbText
  0
LINE
  5
13397
330
17
100
AcDbEntity
  8
TEXT
100
AcDbLine
 10
227.4972851359286
 20
156.7684864028401
 30
0.0
 11
227.4972851359286
 21
167.0070108665246
 31
0.0
  0
TEXT
  5
13398
330
17
100
AcDbEntity
  8
TEXT
100
AcDbText
 10
231.7403097230862
 20
154.1929184156208
 30
0.0
 40
1.75
  1
DRUM
  7
WEB PAGE
 72
     1
 11
235.6169319292866
 21
154.1929184156208
 31
0.0
100
AcDbText
  0
TEXT
  5
13399
330
17
100
AcDbEntity
  8
TEXT
100
AcDbText
 10
253.2137069522401
 20
154.1929184156208
 30
0.0
 40
1.75
  1
FORMULA
  7
WEB PAGE
 72
     1
 11
259.5311186321247
 21
154.1929184156208
 31
0.0
100
AcDbText
  0
LINE
  5
1339A
330
17
100
AcDbEntity
  8
TEXT
100
AcDbLine
 10
244.2112001319725
 20
156.7684864028401
 30
0.0
 11
244.2112001319725
 21
138.9840471989675
 31
0.0
  0
TEXT
  5
1339B
330
17
100
AcDbEntity
  8
TEXT
100
AcDbText
 10
230.6149672193868
 20
143.574737689207
 30
0.0
 40
1.75
  1
D525-216
  7
WEB PAGE
 72
     1
 11
235.8542426339505
 21
143.574737689207
 31
0.0
100
AcDbText
  0
TEXT
  5
1339C
330
17
100
AcDbEntity
  8
TEXT
100
AcDbText
 10
230.6149672193868
 20
139.7722591015513
 30
0.0
 40
1.75
  1
D800-384
  7
WEB PAGE
 72
     1
 11
235.8542426339505
 21
139.7722591015513
 31
0.0
100
AcDbText
  0
TEXT
  5
1339D
330
17
100
AcDbEntity
  8
TEXT
100
AcDbText
 10
231.2609657774256
 20
150.7061419667234
 30
0.0
 40
1.75
  1
D400-96
  7
WEB PAGE
 72
     1
 11
235.8542426339505
 21
150.7061419667234
 31
0.0
100
AcDbText
  0
TEXT
  5
1339E
330
17
100
AcDbEntity
  8
TEXT
100
AcDbText
 10
230.6149672193868
 20
147.219365517826
 30
0.0
 40
1.75
  1
D400-144
  7
WEB PAGE
 72
     1
 11
235.8542426339505
 21
147.219365517826
 31
0.0
100
AcDbText
  0
TEXT
  5
1339F
330
17
100
AcDbEntity
  8
TEXT
100
AcDbText
 10
249.9736204345761
 20
143.574737689207
 30
0.0
 40
1.75
  1
F= DH + 13-5/16"
  7
WEB PAGE
 72
     1
 11
259.5311186321247
 21
143.574737689207
 31
0.0
100
AcDbText
  0
TEXT
  5
133A0
330
17
100
AcDbEntity
  8
TEXT
100
AcDbText
 10
249.9736204345761
 20
139.7722591015513
 30
0.0
 40
1.75
  1
F= DH + 15-1/16"
  7
WEB PAGE
 72
     1
 11
259.5311186321247
 21
139.7722591015513
 31
0.0
100
AcDbText
  0
TEXT
  5
133A1
330
17
100
AcDbEntity
  8
TEXT
100
AcDbText
 10
249.9736204345761
 20
150.7061419667234
 30
0.0
 40
1.75
  1
F= DH + 13-5/16"
  7
WEB PAGE
 72
     1
 11
259.5311186321247
 21
150.7061419667234
 31
0.0
100
AcDbText
  0
TEXT
  5
133A2
330
17
100
AcDbEntity
  8
TEXT
100
AcDbText
 10
249.9736204345761
 20
147.219365517826
 30
0.0
 40
1.75
  1
F= DH + 13-5/16"
  7
WEB PAGE
 72
     1
 11
259.5311186321247
 21
147.219365517826
 31
0.0
100
AcDbText
  0
MTEXT
  5
133A3
330
17
100
AcDbEntity
  8
TEXT
100
AcDbMText
 10
251.1741611341027
 20
165.793533494355
 30
0.0
 40
2.6
 41
37.3125
 46
0.0
 71
     2
 72
     5
  1
FLOOR TO SHAFT\PCENTER DISTANCE
  7
WEB PAGE
 73
     1
 44
1.0
  0
LINE
  5
133A4
330
17
100
AcDbEntity
  8
TEXT
100
AcDbLine
 10
274.851037132277
 20
156.7684864028401
 30
0.0
 11
274.851037132277
 21
138.9840471989675
 31
0.0
  0
LINE
  5
133A5
330
17
100
AcDbEntity
  8
TEXT
100
AcDbLine
 10
274.851037132277
 20
156.7684864028401
 30
0.0
 11
274.851037132277
 21
167.0070108665245
 31
0.0
  0
TEXT
  5
133A6
330
17
100
AcDbEntity
  8
TEXT
100
AcDbText
 10
229.4296986464694
 20
135.0624421339398
 30
0.0
 40
1.75
  1
DH = DOOR HEIGHT
  7
WEB PAGE
 72
     1
 11
241.4620526479113
 21
135.0624421339398
 31
0.0
100
AcDbText
  0
LINE
  5
133A7
330
17
100
AcDbEntity
  8
TEXT
100
AcDbLine
 10
222.6000485417389
 20
135.3504373979993
 30
0.0
 11
183.8943927477972
 21
135.3504373979993
 31
0.0
  0
TEXT
  5
133A8
330
17
100
AcDbEntity
  8
TEXT
100
AcDbText
 10
188.2453397174268
 20
136.2720511125592
 30
0.0
 40
1.75
  1
18'3" - 20'
  7
WEB PAGE
 72
     1
 11
193.5445466388399
 21
136.2720511125592
 31
0.0
100
AcDbText
  0
TEXT
  5
133A9
330
17
100
AcDbEntity
  8
TEXT
100
AcDbText
 10
212.0687332278991
 20
136.3657266169272
 30
0.0
 40
1.75
  1
20"
  7
WEB PAGE
 72
     1
 11
213.8881276042509
 21
136.3657266169272
 31
0.0
100
AcDbText
  0
VIEWPORT
  5
C943
330
14
100
AcDbEntity
 67
     1
  8
0
100
AcDbViewport
 10
4.063858301025266
 20
4.917531945300455
 30
0.0
 40
14.31891222023641
 41
9.27080782847387
 68
     1
 69
     1
 12
4.063858301025266
 22
4.917531945300455
 13
0.0
 23
0.0
 14
0.5
 24
0.5
 15
0.5
 25
0.5
 16
0.0
 26
0.0
 36
1.0
 17
0.0
 27
0.0
 37
0.0
 42
50.0
 43
0.0
 44
0.0
 45
9.27080782847387
 50
0.0
 51
0.0
 72
   100
 90
    32800
  1

281
     0
 71
     1
 74
     0
110
0.0
120
0.0
130
0.0
111
1.0
121
0.0
131
0.0
112
0.0
122
1.0
132
0.0
 79
     0
146
0.0
170
     0
 61
     5
348
1332A
292
     1
282
     1
141
0.0
142
0.0
 63
   250
421
  3355443
  0
VIEWPORT
  5
132DB
330
14
100
AcDbEntity
 67
     1
  8
Defpoints
100
AcDbViewport
 10
4.063964137949307
 20
4.917430659034138
 30
0.0
 40
7.590788708524829
 41
9.199456118056858
 68
     2
 69
     2
 12
162.3542505227476
 22
214.1271745571558
 13
0.0
 23
0.0
 14
1.0
 24
1.0
 15
0.25
 25
0.25
 16
0.0
 26
0.0
 36
1.0
 17
0.0
 27
0.0
 37
0.0
 42
50.0
 43
0.0
 44
0.0
 45
284.6952113625329
 50
0.0
 51
0.0
 72
   100
 90
    32768
  1

281
     0
 71
     1
 74
     0
110
0.0
120
0.0
130
0.0
111
1.0
121
0.0
131
0.0
112
0.0
122
1.0
132
0.0
 79
     0
146
0.0
170
     0
 61
     5
348
1332A
292
     1
282
     1
141
0.0
142
0.0
 63
   250
421
  3355443
  0
ENDSEC
  0
SECTION
  2
OBJECTS
  0
DICTIONARY
  5
C
330
0
100
AcDbDictionary
281
     1
  3
ACAD_COLOR
350
13310
  3
ACAD_GROUP
350
D
  3
ACAD_LAYOUT
350
B57A
  3
ACAD_MATERIAL
350
1330F
  3
ACAD_MLINESTYLE
350
1A
  3
ACAD_PLOTSETTINGS
350
B57B
  3
ACAD_PLOTSTYLENAME
350
B578
  3
ACAD_TABLESTYLE
350
13335
  3
ACAD_VISUALSTYLE
350
13324
  3
AcadDim
350
12650
  3
ACDBVARIABLEDICTIONARY
350
59
  3
ASE_INDEX_DICTIONARY
350
123F7
  0
DICTIONARY
  5
134CB
330
8
100
AcDbDictionary
280
     1
281
     1
  0
DICTIONARY
  5
13340
330
2
100
AcDbDictionary
280
     1
281
     1
  3
ACAD_LAYERSTATES
360
13341
  0
DICTIONARY
  5
13310
102
{ACAD_REACTORS
330
C
102
}
330
C
100
AcDbDictionary
281
     1
  0
DICTIONARY
  5
D
102
{ACAD_REACTORS
330
C
102
}
330
C
100
AcDbDictionary
281
     1
  0
DICTIONARY
  5
B57A
102
{ACAD_REACTORS
330
C
102
}
330
C
100
AcDbDictionary
281
     1
  3
Layout1
350
B57D
  3
Model
350
B57C
  0
DICTIONARY
  5
1330F
102
{ACAD_REACTORS
330
C
102
}
330
C
100
AcDbDictionary
281
     1
  3
ByBlock
350
13322
  3
ByLayer
350
13321
  3
Global
350
13323
  0
DICTIONARY
  5
1A
102
{ACAD_REACTORS
330
C
102
}
330
C
100
AcDbDictionary
281
     1
  3
STANDARD
350
1B
  0
DICTIONARY
  5
B57B
102
{ACAD_REACTORS
330
C
102
}
330
C
100
AcDbDictionary
281
     1
  0
ACDBDICTIONARYWDFLT
  5
B578
102
{ACAD_REACTORS
330
C
102
}
330
C
100
AcDbDictionary
281
     1
  3
Normal
350
B579
100
AcDbDictionaryWithDefault
340
B579
  0
DICTIONARY
  5
13335
102
{ACAD_REACTORS
330
C
102
}
330
C
100
AcDbDictionary
281
     1
  3
Standard
350
13336
  0
DICTIONARY
  5
13324
102
{ACAD_REACTORS
330
C
102
}
330
C
100
AcDbDictionary
281
     1
  3
2dWireframe
350
1332A
  3
3D Hidden
350
1332C
  3
3dWireframe
350
1332B
  3
Basic
350
13329
  3
Brighten
350
13330
  3
ColorChange
350
13334
  3
Conceptual
350
1332D
  3
Dim
350
1332F
  3
Facepattern
350
13333
  3
Flat
350
13325
  3
FlatWithEdges
350
13326
  3
Gouraud
350
13327
  3
GouraudWithEdges
350
13328
  3
Linepattern
350
13332
  3
Realistic
350
1332E
  3
Thicken
350
13331
  0
XRECORD
  5
12650
102
{ACAD_REACTORS
330
C
102
}
330
C
100
AcDbXrecord
280
     1
 90
   990106
  3

 60
     0
 61
     0
 62
     1
 63
     3
 64
     0
 65
     0
 66
     0
 67
     3
 68
     1
 69
     0
 70
     0
 71
     0
 72
     0
 40
0.0
170
     0
340
1264F
  0
DICTIONARY
  5
59
102
{ACAD_REACTORS
330
C
102
}
330
C
100
AcDbDictionary
281
     1
  3
CTABLESTYLE
350
13525
  3
DIMADEC
350
5A
  3
SORTENTS
350
769A
  0
DICTIONARY
  5
123F7
102
{ACAD_REACTORS
330
C
102
}
330
C
100
AcDbDictionary
281
     1
  3
ASEBlockHierarchyIndexRecord
350
123F9
1001
DCO15
1040
1434891614.2
  0
DICTIONARY
  5
13341
102
{ACAD_REACTORS
330
13340
102
}
330
13340
100
AcDbDictionary
281
     1
  0
LAYOUT
  5
B57D
102
{ACAD_XDICTIONARY
360
1345F
102
}
102
{ACAD_REACTORS
330
B57A
102
}
330
B57A
100
AcDbPlotSettings
  1

  2
Adobe PDF
  4
Letter
  6

 40
3.174999952316284
 41
3.174999952316284
 42
3.175003051757812
 43
3.17498779296875
 44
215.8999938964844
 45
279.3999938964844
 46
4.318
 47
4.571999999999999
 48
0.0
 49
0.0
140
0.0
141
0.0
142
1.0
143
1.0
 70
   692
 72
     0
 73
     0
 74
     1
  7

 75
    16
147
1.0
 76
     1
 77
     2
 78
   300
148
-2.880306383859831
149
-4.825619793039908
100
AcDbLayout
  1
Layout1
 70
     1
 71
     1
 10
-0.1816021089943486
 20
-0.1150149669006446
 11
8.318397650709759
 21
10.88498479280346
 12
0.0
 22
0.0
 32
0.0
 14
0.2681964825884151
 24
0.3176937899962837
 34
-0.0015258207003583
 15
7.859520119462118
 25
9.517370100604626
 35
0.0000000349246037
146
0.0
 13
0.0
 23
0.0
 33
0.0
 16
1.0
 26
0.0
 36
0.0
 17
0.0
 27
1.0
 37
0.0
 76
     0
330
14
331
C943
  0
LAYOUT
  5
B57C
102
{ACAD_REACTORS
330
B57A
102
}
330
B57A
100
AcDbPlotSettings
  1

  2
PMKT1 Marketing HP-8100DN Laser
  4
Letter
  6

 40
4.233333110809326
 41
4.233341693878173
 42
4.233322143554687
 43
4.23333740234375
 44
215.8999938964844
 45
279.3999938964844
 46
0.0
 47
26.924
 48
139.3684830884462
 49
213.5442578355003
140
281.5818113799604
141
346.2220205485337
142
1.0
143
29.32321741870767
 70
 11956
 72
     0
 73
     1
 74
     1
  7

 75
     0
147
0.0341026697623576
 76
     0
 77
     2
 78
   300
148
-1175.852512049411
149
-2402.04853252504
100
AcDbLayout
  1
Model
 70
     1
 71
     0
 10
0.0
 20
0.0
 11
12.0
 21
9.0
 12
0.0
 22
0.0
 32
0.0
 14
0.0
 24
0.0
 34
0.0
 15
0.0
 25
0.0
 35
0.0
146
0.0
 13
0.0
 23
0.0
 33
0.0
 16
1.0
 26
0.0
 36
0.0
 17
0.0
 27
1.0
 37
0.0
 76
     0
330
17
331
1331F
  0
MATERIAL
  5
13322
102
{ACAD_REACTORS
330
1330F
102
}
330
1330F
100
AcDbMaterial
  1
ByBlock
  0
MATERIAL
  5
13321
102
{ACAD_REACTORS
330
1330F
102
}
330
1330F
100
AcDbMaterial
  1
ByLayer
  0
MATERIAL
  5
13323
102
{ACAD_REACTORS
330
1330F
102
}
330
1330F
100
AcDbMaterial
  1
Global
  0
MLINESTYLE
  5
1B
102
{ACAD_REACTORS
330
1A
102
}
330
1A
100
AcDbMlineStyle
  2
STANDARD
 70
     0
  3

 62
   256
 51
90.0
 52
90.0
 71
     2
 49
0.5
 62
   256
  6
BYLAYER
 49
-0.5
 62
   256
  6
BYLAYER
  0
ACDBPLACEHOLDER
  5
B579
102
{ACAD_REACTORS
330
B578
102
}
330
B578
  0
TABLESTYLE
  5
13336
102
{ACAD_REACTORS
330
13335
102
}
330
13335
100
AcDbTableStyle
  3
Standard
 70
     0
 71
     0
 40
0.06
 41
0.06
280
     0
281
     0
  7
STANDARD
140
0.18
170
     2
 62
     0
 63
     7
283
     0
 90
      512
 91
        0
  1

274
    -2
284
     1
 64
     0
275
    -2
285
     1
 65
     0
276
    -2
286
     1
 66
     0
277
    -2
287
     1
 67
     0
278
    -2
288
     1
 68
     0
279
    -2
289
     1
 69
     0
  7
STANDARD
140
0.25
170
     5
 62
     0
 63
     7
283
     0
 90
      512
 91
        0
  1

274
    -2
284
     1
 64
     0
275
    -2
285
     1
 65
     0
276
    -2
286
     1
 66
     0
277
    -2
287
     1
 67
     0
278
    -2
288
     1
 68
     0
279
    -2
289
     1
 69
     0
  7
STANDARD
140
0.18
170
     5
 62
     0
 63
     7
283
     0
 90
      512
 91
        0
  1

274
    -2
284
     1
 64
     0
275
    -2
285
     1
 65
     0
276
    -2
286
     1
 66
     0
277
    -2
287
     1
 67
     0
278
    -2
288
     1
 68
     0
279
    -2
289
     1
 69
     0
  0
VISUALSTYLE
  5
1332A
102
{ACAD_REACTORS
330
13324
102
}
330
13324
100
AcDbVisualStyle
  2
2dWireframe
 70
     4
 71
     0
 72
     2
 73
     0
 90
        0
 40
-0.6
 41
-30.0
 62
     5
 63
     7
421
 16777215
 74
     1
 91
        4
 64
     7
 65
   257
 75
     1
175
     1
 42
1.0
 92
        0
 66
   257
 43
1.0
 76
     1
 77
     6
 78
     2
 67
     7
 79
     5
170
     0
171
     0
290
     0
174
     0
 93
        1
 44
0.0
173
     0
291
     0
 45
0.0
  0
VISUALSTYLE
  5
1332C
102
{ACAD_REACTORS
330
13324
102
}
330
13324
100
AcDbVisualStyle
  2
3D Hidden
 70
     6
 71
     1
 72
     2
 73
     2
 90
        0
 40
-0.6
 41
-30.0
 62
     5
 63
     7
421
 16777215
 74
     2
 91
        2
 64
     7
 65
   257
 75
     2
175
     1
 42
40.0
 92
        0
 66
   257
 43
1.0
 76
     1
 77
     6
 78
     2
 67
     7
 79
     3
170
     0
171
     0
290
     0
174
     0
 93
        1
 44
0.0
173
     0
291
     0
 45
0.0
  0
VISUALSTYLE
  5
1332B
102
{ACAD_REACTORS
330
13324
102
}
330
13324
100
AcDbVisualStyle
  2
3dWireframe
 70
     5
 71
     0
 72
     2
 73
     0
 90
        0
 40
-0.6
 41
-30.0
 62
     5
 63
     7
421
 16777215
 74
     1
 91
        4
 64
     7
 65
   257
 75
     1
175
     1
 42
1.0
 92
        0
 66
   257
 43
1.0
 76
     1
 77
     6
 78
     2
 67
     7
 79
     5
170
     0
171
     0
290
     0
174
     0
 93
        1
 44
0.0
173
     0
291
     0
 45
0.0
  0
VISUALSTYLE
  5
13329
102
{ACAD_REACTORS
330
13324
102
}
330
13324
100
AcDbVisualStyle
  2
Basic
 70
     7
 71
     1
 72
     0
 73
     1
 90
        0
 40
-0.6
 41
-30.0
 62
     5
 63
     7
421
 16777215
 74
     0
 91
        4
 64
     7
 65
   257
 75
     1
175
     1
 42
1.0
 92
        8
 66
     7
 43
1.0
 76
     1
 77
     6
 78
     2
 67
     7
 79
     5
170
     0
171
     0
290
     0
174
     0
 93
        1
 44
0.0
173
     0
291
     1
 45
0.0
  0
VISUALSTYLE
  5
13330
102
{ACAD_REACTORS
330
13324
102
}
330
13324
100
AcDbVisualStyle
  2
Brighten
 70
    12
 71
     2
 72
     2
 73
     0
 90
        0
 40
-0.6
 41
-30.0
 62
     5
 63
     7
421
 16777215
 74
     1
 91
        4
 64
     7
 65
   257
 75
     1
175
     1
 42
1.0
 92
        8
 66
     7
 43
1.0
 76
     1
 77
     6
 78
     2
 67
     7
 79
     5
170
     0
171
     0
290
     0
174
     0
 93
        1
 44
50.0
173
     0
291
     1
 45
0.0
  0
VISUALSTYLE
  5
13334
102
{ACAD_REACTORS
330
13324
102
}
330
13324
100
AcDbVisualStyle
  2
ColorChange
 70
    16
 71
     2
 72
     2
 73
     3
 90
        0
 40
-0.6
 41
-30.0
 62
     5
 63
     8
421
  8421504
 74
     1
 91
        4
 64
     7
 65
   257
 75
     1
175
     1
 42
1.0
 92
        8
 66
     8
424
  8421504
 43
1.0
 76
     1
 77
     6
 78
     2
 67
     7
 79
     5
170
     0
171
     0
290
     0
174
     0
 93
        1
 44
0.0
173
     0
291
     1
 45
0.0
  0
VISUALSTYLE
  5
1332D
102
{ACAD_REACTORS
330
13324
102
}
330
13324
100
AcDbVisualStyle
  2
Conceptual
 70
     9
 71
     3
 72
     2
 73
     0
 90
        0
 40
-0.6
 41
-30.0
 62
     5
 63
     7
421
 16777215
 74
     2
 91
        2
 64
     7
 65
   257
 75
     1
175
     1
 42
40.0
 92
        8
 66
     7
 43
1.0
 76
     1
 77
     6
 78
     2
 67
     7
 79
     3
170
     0
171
     0
290
     0
174
     0
 93
        1
 44
0.0
173
     0
291
     0
 45
0.0
  0
VISUALSTYLE
  5
1332F
102
{ACAD_REACTORS
330
13324
102
}
330
13324
100
AcDbVisualStyle
  2
Dim
 70
    11
 71
     2
 72
     2
 73
     0
 90
        0
 40
-0.6
 41
-30.0
 62
     5
 63
     7
421
 16777215
 74
     1
 91
        4
 64
     7
 65
   257
 75
     1
175
     1
 42
1.0
 92
        8
 66
     7
 43
1.0
 76
     1
 77
     6
 78
     2
 67
     7
 79
     5
170
     0
171
     0
290
     0
174
     0
 93
        1
 44
-50.0
173
     0
291
     1
 45
0.0
  0
VISUALSTYLE
  5
13333
102
{ACAD_REACTORS
330
13324
102
}
330
13324
100
AcDbVisualStyle
  2
Facepattern
 70
    15
 71
     2
 72
     2
 73
     0
 90
        0
 40
-0.6
 41
-30.0
 62
     5
 63
     7
421
 16777215
 74
     1
 91
        4
 64
     7
 65
   257
 75
     1
175
     1
 42
1.0
 92
        8
 66
     7
 43
1.0
 76
     1
 77
     6
 78
     2
 67
     7
 79
     5
170
     0
171
     0
290
     0
174
     0
 93
        1
 44
0.0
173
     0
291
     1
 45
0.0
  0
VISUALSTYLE
  5
13325
102
{ACAD_REACTORS
330
13324
102
}
330
13324
100
AcDbVisualStyle
  2
Flat
 70
     0
 71
     2
 72
     1
 73
     1
 90
        2
 40
-0.6
 41
30.0
 62
     5
 63
     7
421
 16777215
 74
     0
 91
        4
 64
     7
 65
   257
 75
     1
175
     1
 42
1.0
 92
        8
 66
     7
 43
1.0
 76
     1
 77
     6
 78
     2
 67
     7
 79
     5
170
     0
171
     0
290
     0
174
     0
 93
       13
 44
0.0
173
     0
291
     1
 45
0.0
  0
VISUALSTYLE
  5
13326
102
{ACAD_REACTORS
330
13324
102
}
330
13324
100
AcDbVisualStyle
  2
FlatWithEdges
 70
     1
 71
     2
 72
     1
 73
     1
 90
        2
 40
-0.6
 41
30.0
 62
     5
 63
     7
421
 16777215
 74
     1
 91
        4
 64
     7
 65
   257
 75
     1
175
     1
 42
1.0
 92
        0
 66
   257
 43
1.0
 76
     1
 77
     6
 78
     2
 67
     7
 79
     5
170
     0
171
     0
290
     0
174
     0
 93
       13
 44
0.0
173
     0
291
     1
 45
0.0
  0
VISUALSTYLE
  5
13327
102
{ACAD_REACTORS
330
13324
102
}
330
13324
100
AcDbVisualStyle
  2
Gouraud
 70
     2
 71
     2
 72
     2
 73
     1
 90
        2
 40
-0.6
 41
30.0
 62
     5
 63
     7
421
 16777215
 74
     0
 91
        4
 64
     7
 65
   257
 75
     1
175
     1
 42
1.0
 92
        0
 66
     7
 43
1.0
 76
     1
 77
     6
 78
     2
 67
     7
 79
     5
170
     0
171
     0
290
     0
174
     0
 93
       13
 44
0.0
173
     0
291
     1
 45
0.0
  0
VISUALSTYLE
  5
13328
102
{ACAD_REACTORS
330
13324
102
}
330
13324
100
AcDbVisualStyle
  2
GouraudWithEdges
 70
     3
 71
     2
 72
     2
 73
     1
 90
        2
 40
-0.6
 41
30.0
 62
     5
 63
     7
421
 16777215
 74
     1
 91
        4
 64
     7
 65
   257
 75
     1
175
     1
 42
1.0
 92
        0
 66
   257
 43
1.0
 76
     1
 77
     6
 78
     2
 67
     7
 79
     5
170
     0
171
     0
290
     0
174
     0
 93
       13
 44
0.0
173
     0
291
     1
 45
0.0
  0
VISUALSTYLE
  5
13332
102
{ACAD_REACTORS
330
13324
102
}
330
13324
100
AcDbVisualStyle
  2
Linepattern
 70
    14
 71
     2
 72
     2
 73
     0
 90
        0
 40
-0.6
 41
-30.0
 62
     5
 63
     7
421
 16777215
 74
     1
 91
        4
 64
     7
 65
   257
 75
     7
175
     7
 42
1.0
 92
        8
 66
     7
 43
1.0
 76
     1
 77
     6
 78
     2
 67
     7
 79
     5
170
     0
171
     0
290
     0
174
     0
 93
        1
 44
0.0
173
     0
291
     1
 45
0.0
  0
VISUALSTYLE
  5
1332E
102
{ACAD_REACTORS
330
13324
102
}
330
13324
100
AcDbVisualStyle
  2
Realistic
 70
     8
 71
     2
 72
     2
 73
     0
 90
        0
 40
-0.6
 41
-30.0
 62
     5
 63
     7
421
 16777215
 74
     1
 91
        0
 64
     7
 65
   257
 75
     1
175
     1
 42
1.0
 92
        8
 66
     8
424
  7895160
 43
1.0
 76
     1
 77
     6
 78
     2
 67
     7
 79
     5
170
     0
171
     0
290
     0
174
     0
 93
       13
 44
0.0
173
     0
291
     0
 45
0.0
  0
VISUALSTYLE
  5
13331
102
{ACAD_REACTORS
330
13324
102
}
330
13324
100
AcDbVisualStyle
  2
Thicken
 70
    13
 71
     2
 72
     2
 73
     0
 90
        0
 40
-0.6
 41
-30.0
 62
     5
 63
     7
421
 16777215
 74
     1
 91
        4
 64
     7
 65
   257
 75
     1
175
     1
 42
1.0
 92
       12
 66
     7
 43
1.0
 76
     1
 77
     6
 78
     2
 67
     7
 79
     5
170
     0
171
     0
290
     0
174
     0
 93
        1
 44
0.0
173
     0
291
     1
 45
0.0
  0
DICTIONARYVAR
  5
13525
102
{ACAD_REACTORS
330
59
102
}
330
59
100
DictionaryVariables
280
     0
  1
STANDARD
  0
DICTIONARYVAR
  5
5A
102
{ACAD_REACTORS
330
59
102
}
330
59
100
DictionaryVariables
280
     0
  1
0
  0
DICTIONARYVAR
  5
769A
102
{ACAD_REACTORS
330
59
102
}
330
59
100
DictionaryVariables
280
     0
  1
96
  0
XRECORD
  5
123F9
102
{ACAD_REACTORS
330
123F7
102
}
330
123F7
100
AcDbXrecord
280
     1
330
3374
330
3375
330
3376
330
3377
330
3378
330
3E3C
330
3E3D
330
3E3E
330
3E3F
330
3E40
330
11E5B
330
12045
330
12260
330
0
330
0
330
0
330
0
330
0
330
0
330
0
330
0
330
0
330
D5DD
330
D5E3
330
D5E4
330
D5F9
330
E0B1
330
E140
330
E21C
330
E21D
330
E21E
330
E25E
330
E25F
330
E260
330
FB07
330
10013
330
10014
330
1001D
330
1138F
330
11390
330
11391
330
11392
330
11394
330
11395
330
11397
330
11398
330
11399
330
1139A
330
1139B
330
1139D
330
1139E
330
1139F
330
113F9
330
1140F
330
11412
330
11413
330
11414
330
11416
330
11417
330
11419
330
1141A
330
1141B
330
1141C
330
1141E
330
1141F
330
11420
330
11BC8
330
11BC9
330
11BCA
330
11BF7
330
11C05
330
120FE
330
120FF
330
12100
330
12101
330
12102
330
12103
330
12104
330
12105
330
12106
330
1219D
  0
DICTIONARY
  5
1345F
330
B57D
100
AcDbDictionary
280
     1
281
     1
  3
ADSK_XREC_LAYOUTTHUMBNAIL
360
13460
  0
XRECORD
  5
13460
102
{ACAD_REACTORS
330
1345F
102
}
330
1345F
100
AcDbXrecord
280
     1
310
280000006B0000008C0000000100080000000000103B0000000000000000000000010000000000000000000000000000FFFFFF000000000000000000000000000000000000000000000000000000000000000000330000006600000099000000CC000000FF00000000330000333300006633000099330000CC330000FF3300
310
0000660000336600006666000099660000CC660000FF66000000990000339900006699000099990000CC990000FF99000000CC000033CC000066CC000099CC0000CCCC0000FFCC000000FF000033FF000066FF000099FF0000CCFF0000FFFF000000003300330033006600330099003300CC003300FF003300003333003333
310
33006633330099333300CC333300FF33330000663300336633006666330099663300CC663300FF66330000993300339933006699330099993300CC993300FF99330000CC330033CC330066CC330099CC3300CCCC3300FFCC330000FF330033FF330066FF330099FF3300CCFF3300FFFF330000006600330066006600660099
310
006600CC006600FF00660000336600333366006633660099336600CC336600FF33660000666600336666006666660099666600CC666600FF66660000996600339966006699660099996600CC996600FF99660000CC660033CC660066CC660099CC6600CCCC6600FFCC660000FF660033FF660066FF660099FF6600CCFF6600
310
FFFF660000009900330099006600990099009900CC009900FF00990000339900333399006633990099339900CC339900FF33990000669900336699006666990099669900CC669900FF66990000999900339999006699990099999900CC999900FF99990000CC990033CC990066CC990099CC9900CCCC9900FFCC990000FF99
310
0033FF990066FF990099FF9900CCFF9900FFFF99000000CC003300CC006600CC009900CC00CC00CC00FF00CC000033CC003333CC006633CC009933CC00CC33CC00FF33CC000066CC003366CC006666CC009966CC00CC66CC00FF66CC000099CC003399CC006699CC009999CC00CC99CC00FF99CC0000CCCC0033CCCC0066CC
310
CC0099CCCC00CCCCCC00FFCCCC0000FFCC0033FFCC0066FFCC0099FFCC00CCFFCC00FFFFCC000000FF003300FF006600FF009900FF00CC00FF00FF00FF000033FF003333FF006633FF009933FF00CC33FF00FF33FF000066FF003366FF006666FF009966FF00CC66FF00FF66FF000099FF003399FF006699FF009999FF00CC
310
99FF00FF99FF0000CCFF0033CCFF0066CCFF0099CCFF00CCCCFF00FFCCFF0000FFFF0033FFFF0066FFFF0099FFFF00CCFFFF00FFFFFF00000000000D0D0D001A1A1A00282828003535350043434300505050005D5D5D006B6B6B00787878008686860093939300A1A1A100AEAEAE00BBBBBB00C9C9C900D6D6D600E4E4E400
310
F1F1F100FFFFFF0000000000000000000000000000000000000000000000000000000000000000000000000000000000F5F5F5F5F5F5F5F5F5F5F5F5F5F5F5F5F5F5F5F5F5F5F5F5F5F5F5F5F5F5F5F5F5F5F5F5F5F5F5F5F5F5F5F5F5F5F5F5F5F5F5F5F5F5F5F5F5F5F5F5F5F5F5F5F5F5F5F5F5F5F5F5F5F5F5F5F5F5F5
310
F5F5F5F5F5F5F5F5F5F5F5F5F5F5F5F5F5F5F5F5F5F5F5F5F5F5F5F5CDF5E2E2E2E2E2E2E2E2E2E2E2E2E2E2E2E2E2E2E2E2E2E2E2E2E2E2E2E2E2E2E2E2E2E2E2E2E2E2E2E2E2E2E2E2E2E2E2E2E2E2E2E2E2E2E2E2E2E2E2E2E2E2E2E2E2E2E2E2E2E2E2E2E2E2E2E2E2E2E2E2E2E2E2E2E2E2E2E2E2E2E2E2E2E2E2E2E2
310
E2E2E2E2E2E2E2E2E200F5E2F5F5F5F5F5F5F5F5F5E2E2E2E2E2E2E2E2E2F5F5F5F5F5F5F5F5F5F5F5F5F5F5F5F5E2E2E2E2E2E2E2E2E2E2F5F5F5F5F5F5F5F5F5F5F5F5F5F5F5F5E2E2E2E2E2E2E2E2E2E2F5F5F5F5F5F5F5F5F5F5F5F5F5F5F5F5E2E2E2E2E2E2E2E2E2F5F5F5F5F5F5F5F5F5E2CDF5E2F5E2E2E2E2E2E2
310
E2E2E2E2E2E2E2E2E2E2E2E2E2E2E2E2E2E2E2E2E2E2E2E2E2E2E2E2E2E2E2E2E2E2E2E2E2E2E2E2E2E2E2E2E2E2E2E2E2E2E2E2E2E2E2E2E2E2E2E2E2E2E2E2E2E2E2E2E2E2E2E2E2E2E2E2E2E2E2E2E2E2E2E2E2E2E2E2E2E2E2E2E2E2E2E2F5E200F5E2F5E2E2E2E2E2E2E2E2E2E2E2E2E2E2E2E2E2E2E2E2E2E2E2E2E2
310
E2E2E2E2E2E2E2E2E2E2E2E2E2E2E2E2E2E2E2E2E2E2E2E2E2E2E2E2E2E2E2E2E2E2E2E2E2E2E2E2E2E2E2E2E2E2E2E2E2E2E2E2E2E2E2E2E2E2E2E2E2E2E2E2E2E2E2E2E2E2E2E2E2E2E2E2E2F5E2CDF5E2F5E2E2E2E2E2E2E2E2E2E2E2E2E2E2E2E2E2E2E2E2E2E2E2E2E2E2E2E2E2E2E2E2E2E2E2E2E2E2E2E2E2E2E2E2
310
E2E2E2E2E2E2E2E2E2E2E2E2E2E2E2E2E2E2E2E2E2E2E2E2E2E2E2E2E2E2E2E2E2E2E2E2E2E2E2E2E2E2E2E2E2E2E2E2E2E2E2E2E2E2E2E2E2E2F5E200F5E2F5E2E2E2F5F5F5F5F5F5F5F5F5F5F5F5F5F5F5F5F5F5F5F5F5F5F5F5F5F5F5F5F5F5F5F5F5F5F5F5F5F5F5F5F5F5F5F5F5F5F5F5F5F5F5F5F5F5F5F5F5F5F5F5
310
F5F5F5F5F5F5F5F5F5F5F5F5F5F5F5F5F5F5F5F5F5F5F5F5F5F5F5F5F5F5F5F5F5F5F5F5E2E2E2F5E2CDF5E2F5E2E2E2F5E2E2E2E2E2E2E2E2E2E2E2E2E2E2E2E2E2E2E2E2E2E2E2E2E2E2E2E2E2E2E2E2E2E2E2E2E2E2E2E2E2E2E2E2E2E2E2E2E2E2E2E2E2E2E2E2E2E2E2E2E2E2E2E2E2E2E2E2E2E2E2E2E2E2E2E2E2E2
310
E2E2E2E2E2E2E2E2E2E2E2E2E2E2E2E2F5E2E2E2F5E200F5E2F5E2E2E2F5E2E2E2E2E2E2E2E2E2E2E2E2E2E2E2E2E2E2E2E2E2E2E2E2E2E2E2E2E2E2E2E2E2E2E2E2E2E2E2E2E2E2E2E2E2E2E2E2E2E2E2E2E2E2E2E2E2E2E2E2E2E2E2E2E2E2E2E2E2E2E2E2E2E2E2E2E2E2E2E2E2E2E2E2E2E2E2E2E2E2E2E2E2E2F5E2E2
310
E2F5E2CDF5E2F5E2E2E2F5E2E2E2E2E2E2E2E2E2E2E2E2E2E2E2E2E2E2E2E2E2E2E2E2E2E2E2E2E2E2E2E2E2E2E2E2E2E2E2E2E2E2E2E2E2E2E2E2E2E2E2E2E2E2E2E2E2E2E2E2E2E2E2E2E2E2E2E2E2E2E2E2E2E2E2E2E2E2E2E2E2E2E2E2E2E2E2E2E2E2E2E2E2E2F5E2E2E2F5E200F5E2F5E2E2E2F5E2E2E2E2E2E2E2E2
310
E2E2E2E2E2E2E2E2E2E2E2E2E2E2E2E2E2E2E2E2E2E2E2E2E2E2E2E2E2E2E2E2E2E2E2E2E2E2E2E2E2E2E2E2E2E2E2E2E2E2E2E2E2E2E2E2E2E2E2E2E2E2E2E2E2E2E2E2E2E2E2E2E2E2E2E2E2E2E2E2E2E2E2E2E2E2F5E2E2E2F5E2CDF5E2E2E2E2E2F5E2E2E2E2E2E2E2E2E2E2E2E2E2E2E2E2E2E2E2E2E2E2E2E2E2E2E2
310
E2E2E2E2E2E2E2E2E2E2E2E2E2E2E2E2E2E2E2E2E2E2E2E2E2E2E2E2E2E2E2E2E2E2E2E2E2E2E2E2E2E2E2E2E2E2E2E2E2E2E2E2E2E2E2E2E2E2E2E2E2E2E2E2E2E2E2F5E2E2E2E2E200F5E2E2E2E2E2F5E2E2E2E2E2E2E2E2E2E2E2E2E2E2E2E2E2E2E2E2E2E2E2E2E2E2E2E2E2E2E2E2E2E2E2E2E2E2E2E2E2E2E2E2E2E2
310
E2E2E2E2E2E2E2E2E2E2E2E2E2E2E2E2E2E2E2E2E2E2E2E2E2E2E2E2E2E2E2E2E2E2E2E2E2E2E2E2E2E2E2E2E2E2E2E2F5E2E2E2E2E2CDF5E2E2E2E2E2F5E2E2E2E2E2E2E2E2E2E2E2E2E2E2E2E2E2E2E2E2E2E2E2E2E2E2E2E2E2E2E2E2E2E2E2E2E2E2E2E2E2E2E2E2E2E2E2E2E2E2E2E2E2E2E2E2E2E2E2E2E2E2E2E2E2
310
E2E2E2E2E2E2E2E2E2E2E2E2E2E2E2E2E2E2E2E2E2E2E2E2E2E2E2E2E2F5E2E2E2E2E200F5E2E2E2E2E2F5E2E2E2E2E2E2E2E2E2E2E2E2E2E2E2E2E2E2E2E2E2E2E2E2E2E2E2E2E2E2E2E2E2E2E2E2E2E2E2E2E2E2E2E2E2E2E2E2E2E2E2E2E2E2E2E2E2E2E2E2E2E2E2E2E2E2E2E2E2E2E2E2E2E2E2E2E2E2E2E2E2E2E2E2
310
E2E2E2E2E2E2E2E2E2E2F5E2E2E2E2E2CDF5E2E2E2E2E2F5E2E2E2E2E2E2E2E2E2E2E2E2E2E2E2E2E2E2E2E2E2E2E2F5F5F5F5F5F5F5F5F5F5F5F5F5F5F5F5F5F5F5F5F5F5F5F5F5F5F5F5F5F5F5F5F5F5F5F5F5F5F5F5F5F5F5F5F5F5F5F5F5E2E2E2E2E2E2E2E2E2E2E2E2E2E2E2E2E2E2E2E2E2E2F5E2E2E2E2E200F5E2
310
E2E2E2E2F5E2E2E2E2E2E2E2E2E2E2E2E2E2E2E2E2E2E2E2E2E2E2E2F5F5F5F5F5F5F5F5F5F5F5F5F5F5F5F5F5F5F5F5F5F5F5F5F5F5F5F5F5F5F5F5F5F5F5F5F5F5F5F5F5F5F5F5F5F5F5F5E2E2E2E2E2E2E2E2E2E2E2E2E2E2E2E2E2E2E2E2E2E2E2F5E2E2E2E2E2CDF5E2E2E2E2E2F5E2E2E2E2E2E2E2E2E2E2E2E2E2E2
310
E2E2E2E2E2E2E2E2E2E2E2E2E2E2E2E2E2E2E2E2E2E2E2E2E2E2E2E2E2E2E2E2E2E2E2E2E2E2E2E2E2E2E2E2E2E2E2E2E2E2E2E2E2E2E2E2E2E2E2E2E2E2E2E2E2E2E2E2E2E2E2E2E2E2E2E2E2E2E2E2F5E2E2E2E2E200F5E2E2E2E2E2F5E2E2E2E2E2E2E2E2E2E2E2E2E2E2E2E2E2E2E2E2E2E2E2E2E2E2E2E2E2F5F5F5F5
310
F5F5F5F5F5F5F5F5F5F5F5F5F5F5F5F5F5F5F5F5F5F5F5F5F5F5F5F5F5F5F5F5F5E2E2E2E2E2E2E2E2E2E2E2E2E2E2E2E2E2E2E2E2E2E2E2E2E2E2E2E2F5E2E2E2E2E2CDF5E2E2E2E2E2F5E2E2E2E2E2E2E2E2E2E2E2E2E2E2E2E2E2E2E2E2E2E2E2E2E2E2E2E2E2F5F5F5F5F5F5F5F5F5F5F5F5F5F5F5F5F5F5F5F5F5F5F5
310
F5F5F5F5F5F5F5F5F5F5F5F5F5E2E2E2E2E2E2E2E2E2E2E2E2E2E2E2E2E2E2E2E2E2E2E2E2E2E2E2E2E2F5E2E2E2E2E200F5E2E2E2E2E2F5E2E2E2E2E2E2E2E2E2E2E2E2E2E2E2E2E2E2E2E2E2E2E2E2E2E2E2E2E2E2E2E2E2E2E2E2E2E2E2E2E2E2E2E2E2E2E2E2E2E2E2E2E2E2E2E2E2E2E2E2E2E2E2E2E2E2E2E2E2E2E2
310
E2E2E2E2E2E2E2E2E2E2E2E2E2E2E2E2E2E2E2E2E2E2E2F5E2E2E2E2E2CDF5E2F5E2E2E2F5E2E2E2E2E2E2E2E2E2E2E2E2E2E2E2E2E2E2E2E2E2E2E2E2E2E2E2E2E2E2E2E2E2E2E2E2E2E2E2E2E2E2E2E2E2E2E2E2E2E2E2E2E2E2E2E2E2E2E2E2E2E2E2E2E2E2E2E2E2E2E2E2E2E2E2E2E2E2E2E2E2E2E2E2E2E2E2E2E2E2
310
E2E2E2E2F5E2E2E2F5E200F5E2F5E2E2E2F5E2E2E2E2E2E2E2E2E2E2E2E2E2E2E2E2E2E2E2E2E2E2E2E2E2E2E2E2E2E2E2E2E2E2E2E2E2E2E2E2E2E2E2E2E2E2E2E2E2E2E2E2E2E2E2E2E2E2E2E2E2E2E2E2E2E2E2E2E2E2E2E2E2E2E2E2E2E2E2E2E2E2E2E2E2E2E2E2E2E2E2E2E2E2F5E2E2E2F5E2CDF5E2F5E2E2E2F5E2
310
E2E2E2E2E2E2E2E2E2E2E2E2E2E2E2E2E2E2E2E2E2E2E2E2E2E2E2E2E2E2E2E2E2E2E2F5F5F5F5F5F5F5F5F5F5F5F5F5F5F5F5F5F5F5F5F5F5E2E2E2E2E2E2E2E2E2E2E2E2E2E2E2E2E2E2E2E2E2E2E2E2E2E2E2E2E2E2E2E2E2E2E2E2F5E2E2E2F5E200F5E2F5E2E2E2F5E2E2E2E2E2E2E2E2E2E2E2E2E2E2E2E2E2E2E2E2
310
E2E2E2E2E2E2E2E2E2E2E2E2E2E2E2E2F5F5F5F5F5F5F5F5F5F5F5F5F5F5F5F5F5F5F5F5F5F5F5F5F5F5F5F5F5F5F5F5E2E2E2E2E2E2E2E2E2E2E2E2E2E2E2E2E2E2E2E2E2E2E2E2E2E2F5E2E2E2F5E2CDF5E2F5E2E2E2F5E2E2E2E2E2E2E2E2E2E2E2E2E2E2E2E2E2E2E2E2E2E2E2E2E2E2E2E2E2E2E2E2E2E2E2E2E2E2E2
310
E2E2E2E2E2E2E2E2E2E2E2E2E2E2E2E2E2E2E2E2E2E2E2E2E2E2E2E2E2E2E2E2E2E2E2E2E2E2E2E2E2E2E2E2E2E2E2E2E2E2E2E2E2E2E2F5E2E2E2F5E200F5E2F5E2E2E2F5E2E2E2F5F5F5F5F5F5F5F5F5F5F5F5F5F5F5F5F5F5F5F5F5F5F5F5F5F5F5F5F5F5F5F5F5F5F5F5F5F5F5F5F5F5F5F5F5F5F5F5F5F5F5F5F5F5F5
310
F5F5F5F5F5F5F5F5F5F5F5F5F5F5E2E2E2E2E2E2E2E2E2E2E2E2E2E2E2E2E2E2E2E2E2E2F5E2E2E2F5E2CDF5E2F5E2E2E2F5E2E2E2E2F5E2E2E2E2E2E2E2F5E2E2E2E2E2E2E2F5E2E2E2E2E2E2E2E2F5E2E2E2E2E2F5E2F5F5F5E2E2E2E2E2E2E2E2E2E2E2E2F5E2E2E2E2E2E2E2E2E2E2E2E2E2E2E2E2E2E2E2E2E2E2E2E2
310
E2E2E2E2E2E2E2E2E2E2E2E2E2E2E2E2E2F5E2E2E2F5E200F5E2F5E2E2E2F5E2E2E2F5F5E2E2E2E2E2E2E2F5E2E2E2E2E2E2E2F5E2E2E2E2E2E2E2F5F5E2E2E2E2E2F5E2F5F5F5E2E2E2E2E2E2E2E2E2E2E2F5F5E2E2E2E2E2E2E2E2E2E2E2E2E2E2E2E2E2E2E2E2E2E2E2E2E2E2E2E2E2E2E2E2E2E2E2E2E2E2E2E2E2F5E2
310
E2E2F5E233F5E2F5E2E2E2F5E2E2E2E2F5E2E2E2E2E2E2E2F5E2E2E2E2E2E2E2F5E2E2E2E2E2E2E2E2F5E2E2E2E2E2F5E2F5F5F5E2E2E2E2E2E2E2E2E2E2E2E2F5E2E2E2E2E2E2E2E2E2E2E2E2E2E2E2E2E2E2E2E2E2E2E2E2E2E2E2E2E2E2E2E2E2E2E2E2E2E2E2E2E2F5E2E2E2F5E20DF5E2F5E2E2E2F5E2E2E2E2F5E2E2
310
E2E2E2E2E2F5E2E2E2E2E2E2E2F5E2E2E2E2E2E2E2E2F5E2E2E2E2E2F5E2F5F5F5E2E2E2E2E2E2E2E2E2E2E2E2F5E2E2E2E2F5F5F5F5F5F5F5F5F5F5F5F5E2E2E2E2E2E2E2E2E2E2E2E2E2E2E2E2E2E2E2E2E2E2E2E2E2F5E2E2E2F5E200F5E2F5E2E2E2F5E2E2E2E2F5E2E2E2E2E2E2E2F5E2E2E2E2E2E2E2F5E2E2E2E2E2
310
E2E2E2F5E2E2E2E2E2F5E2F5F5F5E2E2E2E2E2E2E2E2E2E2E2E2F5E2E2F5F5F5F5F5F5F5F5F5F5F5F5F5F5F5F5F5E2E2F5F5F5F5F5F5F5F5F5F5E2E2E2E2E2E2E2E2E2E2F5E2E2E2F5E200F5E2F5E2E2E2F5E2E2E2E2F5E2E2E2E2E2E2E2F5E2E2E2E2E2E2E2F5E2E2E2E2E2E2E2E2F5E2E2E2E2E2F5E2F5F5F5E2E2E2E2E2
310
E2E2E2E2E2E2E2F5E2E2F5E2F5F5F5F5E2E2F5E2E2E2F5E2E2E2F5E2E2E2E2E2E2E2E2E2E2E2E2E2E2E2E2E2E2E2E2E2E2F5E2E2E2F5E233F5E2F5E2E2E2F5E2E2E2E2F5E2E2E2E2E2E2E2F5E2E2E2E2E2E2E2F5E2E2E2E2E2E2E2E2F5E2E2E2E2E2F5E2F5F5F5E2E2E2E2E2E2E2E2E2E2E2E2F5E2E2F5F5F5F5F5F5F5F5F5
310
F5F5F5F5F5F5F5F5E2F5F5F5F5F5F5F5F5F5F5F5F5F5F5F5F5F5F5F5F5E2F5E2E2E2F5E20DF5E2F5E2E2E2F5E2E2E2E2F5E2E2E2E2E2E2E2F5E2E2E2E2E2E2E2F5E2E2E2E2E2E2E2E2F5E2E2E2E2E2F5E2F5F5F5E2E2E2E2E2E2E2E2E2E2E2E2F5E2E2F5F5F5F5F5F5F5F5F5F5F5F5F5F5F5F5F5E2F5F5F5F5F5F5F5F5F5F5
310
F5F5F5F5F5F5F5F5F5F5E2F5E2E2E2F5E200F5E2F5E2E2E2F5E2E2E2E2F5E2E2E2E2E2E2E2F5E2E2E2E2E2E2E2F5E2E2E2E2E2E2E2E2F5E2E2E2E2E2F5E2F5F5F5E2E2E2E2E2E2E2E2E2E2E2E2F5E2E2F5E2F5F5F5F5E2E2F5E2E2F5F5F5E2E2F5E2F5F5F5F5F5E2E2F5E2F5F5F5F5F5F5F5F5E2E2F5E2F5E2E2E2F5E200F5
310
E2F5E2E2E2F5E2E2E2E2F5E2E2E2E2E2E2E2F5E2E2E2E2E2E2E2F5E2E2E2E2E2E2E2E2F5E2E2E2E2E2F5E2F5F5F5E2E2E2E2E2E2E2E2E2E2E2E2F5E2E2F5F5F5F5F5F5F5F5F5F5F5F5F5F5F5F5F5E2F5F5F5F5F5F5F5F5F5F5F5F5F5F5F5F5F5F5F5F5E2F5E2E2E2F5E233F5E2F5E2E2E2F5E2E2E2E2F5E2E2E2E2E2E2E2F5
310
E2E2E2E2E2E2E2F5E2E2E2E2E2E2E2E2F5E2E2E2E2E2F5E2F5F5F5E2E2E2E2E2E2E2E2E2E2E2E2F5E2E2F5F5F5F5F5F5F5F5F5F5F5F5F5F5F5F5F5E2F5F5F5F5F5F5F5F5F5F5F5F5F5F5F5F5F5F5F5F5E2F5E2E2E2F5E20DF5E2E2E2E2E2F5E2E2E2E2F5E2E2E2E2E2E2E2F5E2E2E2E2E2E2E2F5E2E2E2E2E2E2E2E2F5E2E2
310
E2E2E2F5E2F5F5F5E2E2E2E2E2E2E2E2E2E2E2E2F5E2E2F5E2F5F5F5F5E2E2F5F5F5F5F5F5F5E2F5E2F5E2E2E2E2E2E2F5E2E2E2E2E2E2E2E2E2E2E2F5E2F5E2E2E2E2E200F5E2E2E2E2E2F5E2E2E2E2F5E2E2E2E2E2E2E2F5E2E2E2E2E2E2E2F5E2E2E2E2E2E2E2E2F5E2E2E2E2E2F5E2F5F5F5E2E2E2E2E2E2E2E2E2E2E2
310
E2F5E2E2F5E2E2F5F5F5E2E2F5E2F5F5F5F5F5E2F5E2F5F5F5F5F5F5F5F5F5F5F5F5F5F5F5F5F5F5F5F5E2F5E2E2E2E2E200F5E2E2E2E2E2F5E2E2E2E2F5E2E2E2E2E2E2E2F5E2E2E2E2E2E2E2F5E2E2E2E2E2E2E2E2F5E2E2E2E2E2F5E2F5F5F5E2E2E2E2E2E2E2E2E2E2E2E2F5E2E2F5F5F5F5F5F5F5F5F5F5F5F5F5F5F5
310
F5F5E2F5F5F5F5F5F5F5F5F5F5F5F5F5F5F5F5F5F5F5F5E2F5E2E2E2E2E233F5E2E2E2E2E2F5E2E2E2E2F5E2E2E2E2E2E2E2F5E2E2E2E2E2E2E2F5E2E2E2E2E2E2E2E2F5E2E2E2E2E2F5E2F5F5F5E2E2E2E2E2E2E2E2E2E2E2E2F5E2E2F5E2F5F5F5F5F5F5F5F5F5F5F5F5E2E2F5E2F5E2F5F5F5F5F5F5F5F5F5F5F5F5F5F5
310
F5E2E2F5E2F5E2E2E2E2E20DF5E2E2E2E2E2F5E2E2E2E2F5E2E2E2E2E2E2E2F5E2E2E2E2E2E2E2F5E2E2E2E2E2E2E2E2F5E2E2E2E2E2F5E2F5F5F5E2E2E2E2E2E2E2E2E2E2E2E2F5E2E2F5E2E2E2F5F5F5F5F5F5F5F5F5E2E2E2F5E2F5E2E2F5F5F5F5F5F5F5F5F5F5F5F5F5E2E2E2F5E2F5E2E2E2E2E200F5E2E2E2E2E2F5
310
E2E2E2E2F5E2E2E2E2E2E2E2F5E2E2E2E2E2E2E2F5E2E2E2E2E2E2E2E2F5E2E2E2E2E2F5E2F5F5F5E2E2E2E2E2E2E2E2E2E2E2E2F5E2E2F5E2E2E2F5F5F5F5F5F5F5F5F5E2E2E2F5E2F5E2E2F5F5F5F5F5F5F5F5F5F5F5F5F5E2E2E2F5E2F5E2E2E2E2E200F5E2E2E2E2E2F5E2E2E2E2F5E2E2E2E2E2E2E2F5E2E2E2E2E2E2
310
E2F5E2E2E2E2E2E2E2E2F5E2E2E2E2E2F5E2F5F5F5E2E2E2E2E2E2E2E2E2E2E2E2F5E2E2F5F5F5F5F5F5F5F5F5F5F5F5F5F5F5F5F5E2F5F5F5F5F5F5F5F5F5F5F5F5F5F5F5F5F5F5F5F5E2F5E2E2E2E2E233F5E2E2E2E2E2F5E2E2E2E2F5E2E2E2E2E2E2E2F5E2E2E2E2E2E2E2F5E2E2E2E2E2E2E2E2F5E2E2E2E2E2F5E2F5
310
F5F5E2E2E2E2E2E2E2E2E2E2E2E2F5E2E2F5F5E2E2E2E2E2E2E2E2E2E2E2E2E2E2E2E2E2E2E2E2E2E2E2E2E2E2E2E2E2E2E2E2E2E2E2E2E2F5E2E2E2E2E27EF5E2E2E2E2E2F5E2E2E2E2F5E2E2E2E2E2E2E2F5E2E2E2E2E2E2E2F5E2E2E2E2E2E2E2E2F5E2E2E2E2E2F5E2F5F5F5E2E2E2E2E2E2E2F5F5F5F5F5F5F5F5F5F5
310
E2E2E2E2E2E2E2E2E2E2E2E2E2E2E2E2E2E2E2E2E2E2E2E2E2E2E2E2E2E2E2E2E2E2E2E2E2F5E2E2E2E2E27EF5E2E2E2E2E2F5E2E2E2E2F5E2E2E2E2E2E2E2F5E2E2E2E2E2E2E2F5E2E2E2E2E2E2E2E2F5E2E2E2E2E2F5E2F5F5F5E2E2E2E2E2E2E2E2E2E2E2E2E2E2E2F5F5E2E2E2E2E2E2F5F5F5F5F5F5F5F5F5F5F5F5F5
310
F5F5F5F5F5F5F5F5F5F5F5E2E2E2E2E2E2E2F5E2E2E2E2E200F5E2F5E2E2E2F5E2E2E2E2F5E2E2E2E2E2E2E2F5E2E2E2E2E2E2E2F5E2E2E2E2E2E2E2E2F5E2E2E2E2E2F5E2F5F5F5E2E2E2E2E2E2E2F5F5F5F5F5F5F5F5F5E2E2E2E2E2E2E2F5F5F5F5F5F5F5F5F5F5F5F5F5F5F5F5F5F5F5F5F5F5F5E2E2E2E2E2E2E2E2F5
310
E2E2E2F5E200F5E2F5E2E2E2F5F5F5F5F5F5F5F5F5E2E2E2E2F5E2E2E2E2E2E2E2F5E2E2E2E2E2E2F5F5F5E2E2E2E2E2F5E2F5F5F5E2E2E2E2E2E2E2E2E2E2E2E2F5E2E2E2E2E2E2E2E2E2E2E2E2E2E2E2E2E2E2E2E2E2E2E2E2E2E2E2E2E2E2E2E2E2E2E2E2E2E2E2E2E2F5E2E2E2F5E200F5E2F5E2E2E2F5E2F5F5F5F5F5
310
E2E2E2E2E2E2F5E2E2E2E2E2E2E2F5E2E2E2E2E2E2F5F5F5E2E2E2E2E2F5E2F5F5F5E2E2E2E2E2E2E2E2E2E2E2E2F5E2E2E2E2E2E2E2E2E2E2E2E2E2E2F5F5F5F5F5F5F5F5F5F5F5F5E2E2E2E2E2E2E2E2E2E2E2E2E2E2E2F5E2E2E2F5E200F5E2F5E2E2E2F5E2E2E2E2F5E2E2E2E2E2E2E2F5E2E2E2F5F5F5F5F5F5F5F5F5
310
E2F5F5F5F5F5E2E2E2E2F5E2F5F5F5E2E2E2E2E2E2E2E2E2E2E2E2F5E2E2E2E2E2E2E2E2E2E2E2E2E2E2F5F5F5F5F5F5F5F5F5F5F5E2E2E2E2E2E2E2E2E2E2E2E2E2E2E2E2F5E2E2E2F5E200F5E2F5E2E2E2F5E2E2E2E2F5E2E2E2E2E2E2E2F5E2E2E2E2E2F5F5F5F5E2E2E2E2E2E2E2F5E2E2E2E2E2F5E2F5F5F5E2E2E2E2
310
E2E2E2E2E2E2E2E2F5E2E2E2E2E2E2E2E2E2E2E2E2E2E2E2E2E2E2E2E2E2E2E2E2E2E2E2E2E2E2E2E2E2E2E2E2E2E2E2E2E2F5E2E2E2F5E200F5E2F5E2E2E2F5E2E2E2E2F5E2E2E2E2E2E2E2F5E2E2F5F5F5F5F5F5F5F5F5F5F5E2E2E2F5E2E2E2E2E2F5E2F5F5F5E2E2E2E2E2E2E2E2E2E2E2E2F5E2E2E2E2E2E2E2E2E2E2
310
E2E2E2E2E2E2E2E2E2E2E2E2E2E2E2E2E2E2E2E2E2E2E2E2E2E2E2E2E2E2E2F5E2E2E2F5E200F5E2F5E2E2E2F5E2E2E2E2F5E2E2E2E2E2E2E2F5E2E2E2E2E2E2E2E2E2E2E2E2E2E2E2E2F5E2E2E2E2E2F5E2F5F5F5E2E2E2E2E2E2E2E2E2E2E2E2F5E2E2E2E2E2E2E2E2E2E2F5F5F5E2E2E2E2E2E2E2E2E2E2E2E2E2E2E2E2
310
E2E2E2E2E2E2E2E2E2E2E2E2F5E2E2E2F5E200F5E2F5E2E2E2F5E2E2E2E2F5E2E2E2E2E2E2E2F5E2E2E2E2E2E2E2F5E2E2E2E2E2E2E2E2F5E2E2E2E2E2F5E2F5F5F5E2E2E2E2E2E2E2E2E2E2E2E2F5E2E2E2E2E2E2E2E2E2E2E2F5F5E2E2E2E2E2E2E2E2E2E2E2E2E2E2E2E2E2E2E2E2E2E2E2E2E2E2E2E2F5E2E2E2F5E200
310
F5E2F5E2E2E2F5E2E2E2E2F5E2E2E2E2E2E2E2F5E2E2E2E2E2E2E2F5E2E2E2E2E2E2E2E2F5E2E2E2E2E2F5E2F5F5F5E2E2E2E2E2E2E2E2E2E2E2E2F5E2E2E2E2E2E2E2E2E2E2F5F5F5E2E2E2E2E2E2E2E2E2E2E2E2E2E2E2E2E2E2E2E2E2E2E2E2E2E2E2E2F5E2E2E2F5E200F5E2F5E2E2E2F5E2E2E2E2F5E2E2E2F5F5F5F5
310
F5F5F5F5E2E2E2E2F5E2E2E2E2E2E2E2E2F5E2E2E2E2E2F5E2F5F5F5E2E2E2E2E2E2E2E2E2E2E2E2F5E2E2E2E2E2E2E2E2E2E2F5F5F5E2E2E2E2E2E2E2E2E2E2E2E2E2E2E2E2E2E2E2E2E2E2E2E2E2E2E2E2F5E2E2E2F5E200F5E2F5E2E2E2F5E2E2E2E2F5E2E2E2E2E2F5F5F5F5F5E2E2E2E2E2F5E2E2E2E2E2E2E2E2F5E2
310
E2E2E2E2F5E2F5F5F5E2E2E2E2E2E2E2E2E2E2E2E2F5E2E2E2E2E2E2E2E2E2E2E2F5F5F5E2E2E2E2E2E2E2E2E2E2E2E2E2E2E2E2E2E2E2E2E2E2E2E2E2E2E2F5E2E2E2F5E242F5E2F5E2E2E2F5E2E2E2E2F5E2E2E2E2E2F5F5F5F5F5E2E2E2E2E2F5E2E2E2E2E2E2E2E2F5E2E2E2E2E2F5E2F5F5F5E2E2E2E2E2E2E2E2E2E2
310
E2E2F5E2E2E2E2E2E2E2E2E2E2E2F5F5F5F5E2E2E2E2E2E2E2E2E2E2E2E2E2E2E2E2E2E2E2E2E2E2E2E2E2E2F5E2E2E2F5E200F5E2F5E2E2E2F5E2E2E2E2F5E2E2E2E2E2E2E2F5E2E2E2E2E2E2E2F5E2E2E2E2E2E2E2E2F5E2E2E2E2E2F5E2F5F5F5E2E2E2E2E2E2E2E2E2E2E2E2F5E2E2E2E2E2E2E2E2E2E2E2F5F5E2F5F5
310
F5E2E2E2E2E2E2E2E2E2E2E2E2E2E2E2E2E2E2E2E2E2E2E2E2F5E2E2E2F5E2CDF5E2F5E2E2E2F5E2E2E2E2F5E2E2E2E2E2E2E2F5E2E2E2E2E2E2E2F5E2E2E2E2E2E2E2E2F5E2E2E2E2E2F5E2F5F5F5E2E2E2E2E2E2E2E2E2E2E2E2F5E2E2E2E2E2E2E2E2E2E2E2F5F5E2F5F5F5F5E2E2E2E2E2E2E2E2E2E2E2E2E2E2E2E2E2
310
E2E2E2E2E2E2F5E2E2E2F5E200F5E2F5E2E2E2F5E2E2E2E2F5E2E2E2E2E2E2E2F5E2E2E2E2E2E2E2F5E2E2E2E2E2E2E2E2F5E2E2E2E2E2F5E2F5F5F5E2E2E2E2E2E2E2E2E2E2E2E2F5E2E2E2E2E2E2E2E2E2E2E2F5F5E2F5F5F5F5E2E2E2E2E2E2E2E2E2E2E2E2E2E2E2E2E2E2E2E2E2E2E2F5E2E2E2F5E2CDF5E2F5E2E2E2
310
F5E2E2E2E2F5E2E2E2E2E2E2E2F5E2E2E2E2E2E2E2F5E2E2E2E2E2E2E2E2F5E2E2E2E2E2F5E2F5F5F5E2E2E2E2E2E2E2E2E2E2E2E2F5E2E2E2E2E2E2E2E2E2F5F5F5F5F5F5F5F5F5F5F5F5F5E2E2E2E2E2E2E2E2E2E2E2E2E2E2E2E2E2E2E2F5E2E2E2F5E200F5E2F5E2E2E2F5E2E2E2E2F5E2E2E2E2E2E2E2F5E2E2E2E2E2
310
E2E2F5E2E2E2E2E2E2E2E2F5E2E2E2E2E2F5E2F5F5F5E2E2E2E2E2E2E2E2E2E2E2E2F5E2E2E2E2E2E2E2E2E2F5F5F5F5F5F5F5F5F5F5F5F5F5E2E2E2E2E2E2E2E2E2E2E2E2E2E2E2E2E2E2E2F5E2E2E2F5E2CDF5E2E2E2E2E2F5E2E2E2E2F5E2E2E2E2E2E2E2F5E2E2E2E2E2E2E2F5E2E2E2E2E2E2E2E2F5E2E2E2E2E2F5E2
310
F5F5F5E2E2E2E2E2E2E2E2E2E2E2E2F5E2E2E2E2E2E2E2E2E2E2E2E2E2E2E2E2F5E2E2F5F5E2F5F5F5F5F5F5F5F5F5F5F5E2E2E2E2E2E2E2E2F5E2E2E2E2E200F5E2E2E2E2E2F5E2E2E2E2F5E2E2E2E2E2E2E2F5E2E2E2E2E2E2E2F5E2E2E2E2E2E2E2E2F5E2E2E2E2E2F5E2F5F5F5E2E2E2E2E2E2E2E2E2E2E2E2F5E2E2E2
310
E2E2E2E2E2E2E2E2E2E2E2E2E2E2E2E2E2F5E2F5F5F5F5F5F5F5F5F5F5F5E2E2E2E2E2E2E2E2F5E2E2E2E2E2CDF5E2E2E2E2E2F5E2E2E2E2F5E2E2E2E2E2E2E2F5E2E2E2E2E2E2E2F5E2E2E2E2E2E2E2E2F5E2E2E2E2E2F5E2F5F5F5E2E2E2E2E2E2E2E2E2E2E2E2F5E2E2E2E2E2E2E2E2E2E2E2E2E2E2E2E2E2E2E2E2F5F5
310
F5F5F5F5F5F5F5F5F5F5F5F5F5F5F5F5F5F5F5F5E2E2E2E2E200F5E2E2E2E2E2F5E2E2E2E2F5E2E2E2E2E2E2E2F5E2E2E2E2E2E2E2F5E2E2E2E2E2E2E2E2F5E2E2E2E2E2F5E2F5F5F5E2E2E2E2E2E2E2E2E2E2E2E2F5E2E2E2E2E2E2E2E2E2E2E2E2E2E2E2E2E2E2E2E2E2E2E2E2E2E2E2E2E2E2E2E2E2E2E2E2E2E2E2E2E2
310
F5E2E2E2E2E2CDF5E2E2E2E2E2F5E2E2E2E2F5E2E2E2E2E2E2E2F5E2E2E2E2E2E2E2F5E2E2E2E2E2E2E2E2F5E2E2E2E2E2F5E2F5F5F5E2E2E2E2E2E2E2E2E2E2E2E2F5E2E2E2E2E2E2E2E2E2E2E2E2E2E2E2E2E2E2E2E2E2E2E2E2E2E2E2E2E2E2E2E2E2E2E2E2E2E2E2E2E2F5E2E2E2E2E200F5E2E2E2E2E2F5E2E2E2E2F5
310
E2E2E2E2E2E2E2F5E2E2E2E2E2E2E2F5E2E2E2E2E2E2E2E2F5E2E2E2E2E2F5E2F5F5F5E2E2E2E2E2E2E2E2E2E2E2F5F5E2E2E2E2E2E2E2E2E2E2E2E2E2E2E2E2E2E2E2E2E2E2E2E2E2E2E2E2E2E2E2E2E2E2E2E2E2E2E2E2E2F5E2E2E2E2E2CDF5E2E2E2E2E2F5E2E2E2E2F5E2E2E2E2E2E2E2F5E2E2E2E2E2E2E2F5E2E2E2
310
E2E2E2E2E2F5E2E2E2E2E2F5E2F5F5F5F5F5F5F5F5F5F5F5F5F5F5F5F5E2E2E2E2E2E2E2E2E2E2E2E2E2E2E2E2E2E2E2E2E2E2E2E2E2E2E2E2E2E2E2E2E2E2E2E2E2E2E2E2E2F5E2E2E2E2E200F5E2E2E2E2E2F5E2E2E2E2F5E2E2E2E2E2E2E2F5E2E2E2E2E2E2E2F5E2E2E2E2E2E2E2E2F5E2E2E2E2E2F5E2F5F5F5E2E2E2
310
E2E2E2F5F5F5F5F5F5F5F5F5E2E2E2E2E2E2E2E2E2E2E2E2E2E2E2E2E2E2E2E2E2E2E2E2E2E2E2E2E2E2E2E2E2E2E2E2E2E2E2F5E2E2E2E2E2CDF5E2E2E2E2E2F5E2E2E2E2F5E2E2E2E2E2E2E2F5E2E2E2E2E2E2E2F5E2E2E2E2E2E2E2F5F5E2E2E2E2E2F5E2F5F5F5F5F5F5F5F5F5F5F5F5F5F5F5F5F5F5E2E2E2E2F5F5F5
310
F5F5F5F5F5F5F5F5F5F5F5F5F5F5E2E2E2E2E2E2E2E2E2E2F5E2E2E2E2E2E2E2F5E2E2E2E2E200F5E2F5E2E2E2F5E2E2E2E2F5E2E2E2E2E2E2E2F5E2E2E2E2E2E2E2F5E2E2E2E2E2E2E2E2F5E2E2E2E2E2F5E2F5F5F5F5F5F5F5F5F5F5F5F5F5F5F5F5F5F5F5F5F5F5E2F5F5F5F5F5F5F5F5F5F5F5F5F5F5F5E2E2E2F5F5F5
310
F5F5F5F5F5F5E2E2E2E2E2E2E2F5E2E2E2F5E2CDF5E2F5E2E2E2F5E2E2E2E2F5E2E2E2E2E2E2E2F5E2E2E2E2E2E2E2F5E2E2E2E2E2E2E2F5F5F5F5F5F5F5F5F5F5F5F5F5F5E2F5F5F5F5F5F5F5F5F5F5F5F5E2E2E2E2E2E2E2E2E2E2E2E2E2E2E2E2E2E2E2E2E2E2E2E2E2E2E2E2E2E2E2F5E2E2E2E2E2E2E2F5E2E2E2F5E2
310
00F5E2F5E2E2E2F5E2E2E2E2F5E2E2E2E2E2E2E2F5E2E2E2E2E2E2E2F5E2E2E2E2E2E2E2F5F5E2E2E2E2E2F5F5F5F5F5F5F5F5E2E2E2E2E2E2E2E2E2E2E2E2E2E2E2E2E2E2E2E2E2E2E2E2E2E2E2E2E2E2E2E2E2E2E2E2E2E2E2E2E2E2E2F5E2E2E2E2E2E2E2F5E2E2E2F5E2CDF5E2F5E2E2E2F5E2E2E2E2F5E2E2E2E2E2E2
310
E2F5E2E2E2E2E2E2E2F5E2E2E2E2E2E2E2E2F5E2E2E2E2E2F5F5F5F5F5F5F5F5E2E2E2E2E2E2E2E2E2E2E2E2E2E2E2E2E2E2E2E2E2E2E2E2E2E2E2E2E2E2E2E2E2E2E2E2E2E2E2E2E2E2E2F5E2E2E2E2E2E2E2F5E2E2E2F5E200F5E2F5E2E2E2F5E2E2E2E2F5E2E2E2E2E2E2E2F5E2E2E2E2E2E2E2F5E2E2E2E2E2E2E2E2F5
310
E2E2E2E2E2F5F5F5F5F5F5F5F5F5F5E2E2E2E2E2E2E2E2E2E2E2E2E2E2E2E2E2E2E2E2E2E2E2E2E2E2E2E2E2E2E2E2E2E2E2E2E2E2E2E2E2F5E2E2E2E2E2E2E2F5E2E2E2F5E20DF5E2F5E2E2E2F5E2E2E2E2F5E2E2E2E2E2E2E2F5E2E2E2E2E2E2E2F5F5F5F5F5F5F5F5F5F5F5F5F5F5F5F5F5F5F5F5F5F5F5F5F5F5F5E2E2
310
E2E2E2E2E2F5F5F5F5F5F5F5F5F5F5F5F5F5F5F5E2E2E2E2E2E2E2E2E2E2E2E2E2E2E2E2E2F5E2E2E2E2E2E2E2F5E2E2E2F5E200F5E2F5E2E2E2F5E2E2E2F5F5E2E2E2E2E2E2E2F5F5F5F5F5F5F5F5F5F5F5F5F5F5F5F5F5F5F5F5F5F5F5F5F5F5F5F5E2F5E2E2E2F5F5F5F5E2E2E2E2E2F5F5F5F5F5F5F5F5F5F5F5F5F5F5
310
F5E2E2E2E2E2E2E2E2E2E2E2E2E2E2E2E2E2F5E2E2E2E2E2E2E2F5E2E2E2F5E2CDF5E2F5E2E2E2F5E2E2E2F5F5F5F5F5F5F5F5F5F5F5F5F5F5F5F5F5F5F5F5F5F5F5F5F5F5F5F5F5F5F5F5F5F5F5F5F5E2E2F5F5F5F5F5F5F5F5F5F5F5F5F5E2E2E2E2E2E2E2E2E2E2E2E2E2E2E2E2E2E2E2E2E2E2E2E2E2E2E2E2E2E2E2F5
310
E2E2E2E2E2E2E2F5E2E2E2F5E200F5E2F5E2E2E2F5E2E2E2E2E2E2E2E2E2E2E2E2E2E2E2E2E2E2E2E2E2E2E2E2E2E2E2E2E2F5E2E2E2E2E2F5F5F5F5F5F5E2E2E2E2E2E2E2E2F5F5F5F5E2E2E2E2E2E2E2E2E2E2E2E2E2E2E2E2E2E2E2E2E2E2E2E2E2E2E2E2E2E2E2E2E2F5E2E2E2E2E2E2E2F5E2E2E2F5E2CDF5E2F5E2E2
310
E2F5E2E2E2E2E2E2E2E2E2E2E2E2E2E2E2E2E2E2E2E2E2E2E2E2E2E2E2E2E2F5E2E2E2E2E2E2F5F5F5E2F5F5E2E2E2E2E2E2E2E2E2F5F5F5F5E2E2E2E2E2E2E2E2E2E2E2E2E2E2E2E2E2E2E2E2E2E2E2E2E2E2E2E2E2E2E2F5E2E2E2E2E2E2E2F5E2E2E2F5E200F5E2F5E2E2E2F5E2E2E2E2E2E2E2E2E2E2E2E2E2E2E2E2E2
310
E2E2E2E2E2E2E2E2E2E2E2E2F5E2E2E2E2E2E2E2E2F5F5F5E2F5F5E2E2E2E2E2E2E2E2E2F5F5F5F5E2E2E2E2E2E2E2E2E2E2E2E2E2E2E2E2E2E2E2E2E2E2E2E2E2E2E2E2E2F5E2E2E2E2E2E2E2F5E2E2E2F5E2CDF5E2F5E2E2E2F5E2E2E2E2E2E2E2E2E2E2E2E2E2E2E2E2E2E2E2E2E2E2E2E2E2E2E2E2E2F5F5F5F5F5F5F5
310
E2E2E2E2F5F5E2F5F5F5E2E2E2E2E2E2E2E2E2F5F5F5F5E2E2E2E2E2E2E2E2E2E2E2E2E2E2E2E2E2E2E2E2E2E2E2E2E2E2E2F5E2E2E2E2E2E2E2F5E2E2E2F5E200F5E2F5E2E2E2F5E2E2E2E2E2E2E2E2E2E2E2E2E2E2E2E2E2E2E2E2E2E2E2E2E2E2E2E2E2F5F5F5F5F5F5E2E2E2E2E2E2E2F5F5F5F5F5F5E2E2E2E2E2E2E2
310
E2E2F5F5F5F5E2E2E2E2E2E2E2E2E2E2E2E2E2E2E2E2E2E2E2E2E2E2E2E2E2F5E2E2E2E2E2E2E2F5E2E2E2F5E2CDF5E2F5E2E2E2F5E2E2E2E2E2E2E2E2E2E2E2E2E2E2E2E2E2E2E2E2E2E2E2E2E2E2E2E2E2E2F5F5F5F5F5E2E2E2E2E2E2E2E2E2F5F5F5F5F5F5E2E2E2E2E2E2E2E2E2F5F5F5F5E2E2E2E2E2E2E2E2E2E2E2
310
E2E2E2E2E2E2E2E2E2E2E2E2F5E2E2E2E2E2E2E2F5E2E2E2F5E200F5E2F5E2E2E2F5E2E2E2E2E2E2E2E2E2E2E2E2E2E2E2E2E2E2E2E2E2E2E2E2E2E2E2E2E2E2E2E2E2E2E2E2E2E2E2E2E2E2E2E2E2E2F5F5F5F5F5F5E2E2E2E2E2E2E2E2F5F5F5F5F5E2E2E2E2E2E2E2E2E2E2E2E2E2E2E2E2E2E2E2E2E2F5E2E2E2E2E2E2
310
E2F5E2E2E2F5E2CDF5E2F5E2E2E2F5E2E2E2E2E2E2E2E2E2E2E2E2E2E2E2E2E2E2E2E2E2E2E2E2E2E2E2E2E2E2E2E2E2E2E2E2E2E2E2E2E2E2E2E2E2E2E2E2F5F5F5F5F5F5E2E2E2E2E2E2F5E2E2F5F5F5F5E2E2E2E2E2E2E2E2E2E2E2E2E2E2E2E2E2E2E2F5E2E2E2E2E2E2E2F5E2E2E2F5E200F5E2F5E2E2E2F5E2E2E2E2
310
E2E2E2E2E2E2E2E2E2E2E2E2E2E2E2E2E2E2E2E2E2E2E2E2E2E2E2E2E2E2E2E2E2E2E2E2E2E2E2E2E2E2E2E2E2E2F5F5E2F5F5F5E2E2E2E2F5E2E2E2E2F5F5F5F5E2E2E2E2E2E2E2E2E2E2E2E2E2E2E2E2E2F5E2E2E2E2E2E2E2F5E2E2E2F5E2CDF5E2E2E2E2E2F5E2E2E2E2E2E2E2E2E2E2E2E2E2E2E2E2E2E2E2E2E2E2E2
310
E2E2E2E2E2E2E2E2E2E2E2E2E2E2E2E2E2E2E2E2E2E2E2E2E2E2E2E2E2F5F5E2F5F5F5E2E2F5E2E2E2E2E2E2F5F5F5F5E2E2E2E2E2E2E2E2E2E2E2E2E2E2E2F5E2E2E2E2E2E2E2F5E2E2E2E2E200F5E2E2E2E2E2F5E2E2E2E2E2E2E2E2E2E2E2E2E2E2E2E2E2E2E2E2E2E2E2E2E2E2E2E2E2E2E2E2E2E2E2E2E2E2E2E2E2E2
310
E2E2E2E2E2E2E2E2E2E2E2E2F5F5F5F5F5F5F5E2E2E2E2E2E2E2E2F5F5F5F5E2E2E2E2E2E2E2E2E2E2E2E2E2F5E2E2E2E2E2E2E2F5E2E2E2E2E2CDF5E2E2E2E2E2F5E2E2E2E2E2E2E2E2E2E2E2E2E2E2E2E2E2E2E2E2E2E2E2E2E2E2E2E2E2E2E2E2E2E2E2E2E2E2E2E2E2E2E2E2E2E2E2E2E2E2E2E2E2E2E2E2F5F5F5F5F5
310
F5E2E2E2E2E2E2E2E2E2F5F5F5F5E2E2E2E2E2E2E2E2E2E2E2F5E2E2E2E2E2E2E2F5E2E2E2E2E200F5E2E2E2E2E2F5E2E2E2E2E2E2E2E2E2E2E2E2E2E2E2E2E2E2E2E2E2E2E2E2E2E2E2E2E2E2E2E2E2E2E2E2E2E2E2E2E2E2E2E2E2E2E2E2E2E2E2E2E2E2E2E2E2E2F5F5F5E2F5F5E2E2E2E2E2E2E2E2E2F5F5F5F5E2E2E2
310
E2E2E2E2E2E2F5E2E2E2E2E2E2E2F5E2E2E2E2E2CDF5E2E2E2E2E2F5E2E2E2E2E2E2E2E2E2E2E2E2E2E2E2E2E2E2E2E2E2E2E2E2E2E2E2E2E2E2E2E2E2E2E2E2E2E2E2E2E2E2E2E2E2E2E2E2E2E2E2E2E2E2E2E2E2E2E2E2F5F5F5F5F5F5E2E2E2E2E2E2E2E2E2F5F5F5F5E2E2E2E2E2E2E2F5E2E2E2E2E2E2E2F5E2E2E2E2
310
E200F5E2E2E2E2E2F5E2E2E2E2E2E2E2E2E2E2E2E2E2E2E2E2E2E2E2E2E2E2E2E2E2E2E2E2E2E2E2E2E2E2E2E2E2E2E2E2E2E2E2E2E2E2E2E2E2E2E2E2E2E2E2E2E2E2E2E2E2E2F5F5F5F5F5F5E2E2E2E2E2E2E2E2E2F5F5F5F5E2E2E2E2E2F5E2E2E2E2E2E2E2F5E2E2E2E2E2CDF5E2E2E2E2E2F5E2E2E2E2E2E2E2E2E2E2
310
E2E2E2E2E2E2E2E2E2E2E2E2E2E2E2E2E2E2E2E2E2E2E2E2E2E2E2E2E2E2E2E2E2E2E2E2E2E2E2E2E2E2E2E2E2E2E2E2E2E2E2E2E2E2F5F5F5F5F5F5E2E2E2E2E2E2E2E2E2F5F5F5F5E2E2E2F5E2E2F5F5E2E2E2F5E2E2E2E2E200F5E2E2E2E2E2F5E2E2E2E2E2E2E2E2E2E2E2E2E2E2E2E2E2E2E2E2E2E2E2E2E2E2E2E2E2
310
E2E2E2E2E2E2E2E2E2E2E2E2E2E2E2E2E2E2E2E2E2E2E2E2E2E2E2E2E2E2E2E2E2E2E2E2E2F5F5F5F5F5F5E2E2E2E2E2E2E2E2E2F5F5F5F5E2F5E2E2F5F5E2E2E2F5E2E2E2E2E2CDF5E2E2E2E2E2F5E2E2E2E2E2E2E2E2E2E2E2E2E2E2E2E2E2E2E2E2E2E2E2E2E2E2E2E2E2E2E2E2E2E2E2E2E2E2E2E2E2E2E2E2E2E2E2E2
310
E2E2E2E2E2E2E2E2E2E2E2E2E2E2E2E2E2E2E2E2F5F5F5F5F5F5E2E2E2E2E2E2E2E2E2F5F5F5F5E2E2E2F5F5E2E2F5E2E2E2E2E200F5E2E2E2E2E2F5E2E2E2E2E2E2E2E2E2E2E2E2E2E2E2E2E2E2E2E2E2E2E2E2E2E2E2E2E2E2E2E2E2E2E2E2E2E2E2E2E2E2E2E2E2E2E2E2E2E2E2E2E2E2E2E2E2E2E2E2E2E2E2E2E2E2E2
310
E2E2E2F5F5F5F5F5F5E2E2E2E2E2E2E2E2E2F5F5E2E2E2E2F5E2E2F5E2E2E2E2E2CDF5E2F5E2E2E2F5E2E2E2E2E2E2E2E2E2E2E2E2E2E2E2E2E2E2E2E2E2E2E2E2E2E2E2E2E2E2E2E2E2E2E2E2E2E2E2E2E2E2E2E2E2E2E2E2E2E2E2E2E2E2E2E2E2E2E2E2E2E2E2E2E2E2E2E2E2E2E2E2F5F5E2F5F5F5E2E2E2E2E2E2E2F5
310
F5E2E2E2E2E2F5F5F5E2E2E2F5E200F5E2F5E2E2E2F5E2E2E2E2E2E2E2E2E2E2E2E2E2E2E2E2E2E2E2E2E2E2E2E2E2E2E2E2E2E2E2E2E2E2E2E2E2E2E2E2E2E2E2E2E2E2E2E2E2E2E2E2E2E2E2E2E2E2E2E2E2E2E2E2E2E2E2E2E2E2E2E2E2E2F5F5E2F5F5F5E2E2E2E2E2F5F5E2E2E2E2E2F5E2F5E2E2E2F5E2CDF5E2F5E2
310
E2E2F5E2E2E2E2E2E2E2E2E2E2E2E2E2E2E2E2E2E2E2E2E2E2E2E2E2E2E2E2E2E2E2E2E2E2E2E2E2E2E2E2E2E2E2E2E2E2E2E2E2E2E2E2E2E2E2E2E2E2E2E2E2E2E2E2E2E2E2E2E2E2E2E2E2E2E2E2F5F5F5F5F5F5E2E2E2F5F5E2E2E2E2E2F5E2F5E2E2E2F5E200F5E2F5E2E2E2F5E2E2E2E2E2E2E2E2E2E2E2E2E2E2E2E2
310
E2E2E2E2E2E2E2E2E2E2E2E2E2E2E2E2E2E2E2E2E2E2E2E2E2E2E2E2E2E2E2E2E2E2E2E2E2E2E2E2E2E2E2E2E2E2E2E2E2E2E2E2E2E2E2E2E2E2E2E2E2E2F5F5F5F5F5F5E2F5F5E2E2E2E2F5E2E2F5E2E2E2F5E2CDF5E2F5E2E2E2F5E2E2E2E2E2E2E2E2E2E2E2E2E2E2E2E2E2E2E2E2E2E2E2E2E2E2E2E2E2E2E2E2E2E2E2
310
E2E2E2E2E2E2E2E2E2E2E2E2E2E2E2E2E2E2E2E2E2E2E2E2E2E2E2E2E2E2E2E2E2E2E2E2E2E2E2E2E2E2E2E2E2F5F5F5F5F5F5F5E2E2E2E2F5E2E2F5E2E2E2F5E200F5E2F5E2E2E2F5E2E2E2E2E2E2E2E2E2E2E2E2E2E2E2E2E2E2E2E2E2E2E2E2E2E2E2E2E2E2E2E2E2E2E2E2E2E2E2E2E2E2E2E2E2E2E2E2E2E2E2E2E2E2
310
E2E2E2E2E2E2E2E2E2E2E2E2E2E2E2E2E2E2E2E2E2E2E2E2E2E2E2E2F5F5F5F5F5F5E2E2F5E2E2E2F5E2E2E2F5E2CDF5E2F5E2E2E2F5E2E2E2E2E2E2E2E2E2E2E2E2E2E2E2E2E2E2E2E2E2E2E2E2E2E2E2E2E2E2E2E2E2E2E2E2E2E2E2E2E2E2E2E2E2E2E2E2E2E2E2E2E2E2E2E2E2E2E2E2E2E2E2E2E2E2E2E2E2E2E2E2E2
310
E2E2E2E2E2E2E2E2E2E2F5F5F5F5F5F5F5E2E2E2E2F5E2E2E2F5E200F5E2F5E2E2E2F5E2E2E2E2E2E2E2E2E2E2E2E2E2E2E2E2E2E2E2E2E2E2E2E2E2E2E2E2E2E2E2E2E2E2E2E2E2E2E2E2E2E2E2E2E2E2E2E2E2E2E2E2E2E2E2E2E2E2E2E2E2E2E2E2E2E2E2E2E2E2E2E2E2E2E2E2E2E2E2E2E2E2E2F5F5E2F5F5E2F5E2E2
310
E2E2F5E2E2E2F5E2CDF5E2F5E2E2E2F5E2E2E2E2E2E2E2E2E2E2E2E2E2E2E2E2E2E2E2E2E2E2E2E2E2E2E2E2E2E2E2E2E2E2E2E2E2E2E2E2E2E2E2E2E2E2E2E2E2E2E2E2E2E2E2E2E2E2E2E2E2E2E2E2E2E2E2E2E2E2E2E2E2E2E2E2E2E2E2E2E2E2E2E2F5E2E2E2F5E2E2E2E2E2F5E2E2E2F5E200F5E2F5E2E2E2F5E2E2E2
310
E2E2E2E2E2E2E2E2E2E2E2E2E2E2E2E2E2E2E2E2E2E2E2E2E2E2E2E2E2E2E2E2E2E2E2E2E2E2E2E2E2E2E2E2E2E2E2E2E2E2E2E2E2E2E2E2E2E2E2E2E2E2E2E2E2E2E2E2E2E2E2E2E2E2E2E2E2E2E2E2E2E2F5E2E2F5E2E2E2E2E2F5E2E2E2F5E2CDF5E2F5E2E2E2F5E2E2E2E2E2E2E2E2E2E2E2E2E2E2E2E2E2E2E2E2E2E2
310
E2E2E2E2E2E2E2E2E2E2E2E2E2E2E2E2E2E2E2E2E2E2E2E2E2E2E2E2E2E2E2E2E2E2E2E2E2E2E2E2E2E2E2E2E2E2E2E2E2E2E2E2E2E2E2E2E2E2E2E2E2E2E2E2F5F5E2E2E2E2E2E2F5E2E2E2F5E200F5E2F5E2E2E2F5E2E2E2E2E2E2E2E2E2E2E2E2E2E2E2E2E2E2E2E2E2E2E2E2E2E2E2E2E2E2E2E2E2E2E2E2E2E2E2E2E2
310
E2E2E2E2E2E2E2E2E2E2E2E2E2E2E2E2E2E2E2E2E2E2E2E2E2E2E2E2E2E2E2E2E2E2E2E2E2E2E2E2E2E2E2E2E2E2E2E2E2E2E2E2E2F5E2E2E2F5E2CDF5E2F5E2E2E2F5E2E2E2E2E2E2E2E2E2E2E2E2E2E2E2E2E2E2E2E2E2E2E2E2E2E2E2E2E2E2E2E2E2E2E2E2E2E2E2E2E2E2E2E2E2E2E2E2E2E2E2E2E2E2E2E2E2E2E2E2
310
E2E2E2E2E2E2E2E2E2E2E2E2E2E2E2E2E2E2E2E2E2E2E2E2E2E2E2E2E2E2E2E2E2E2F5E2E2E2F5E200F5E2F5E2E2E2F5E2E2E2E2E2E2E2E2E2E2E2E2E2E2E2E2E2E2E2E2E2E2E2E2E2E2E2E2E2E2E2E2E2E2E2E2E2E2E2E2E2E2E2E2E2E2E2E2E2E2E2E2E2E2E2E2E2E2E2E2E2E2E2E2E2E2E2E2E2E2E2E2E2E2E2E2E2E2E2
310
E2E2E2E2E2E2E2E2E2E2E2E2E2E2E2F5E2E2E2F5E2CDF5E2F5E2E2E2F5E2E2E2E2E2E2E2E2E2E2E2E2E2E2E2E2E2E2E2E2E2E2E2E2E2E2E2E2E2E2E2E2E2E2E2E2E2E2E2E2E2E2E2E2E2E2E2E2E2E2E2E2E2E2E2E2E2E2E2E2E2E2E2E2E2E2E2E2E2E2E2E2E2E2E2E2E2E2E2E2E2E2E2E2E2E2E2E2E2E2E2E2E2E2F5E2E2E2
310
F5E200F5E2F5E2E2E2F5E2E2E2E2E2E2E2E2E2E2E2E2E2E2E2E2E2E2E2E2E2E2E2E2E2E2E2E2E2E2E2E2E2E2E2E2E2E2E2E2E2E2E2E2E2E2E2E2E2E2E2E2E2E2E2E2E2E2E2E2E2E2E2E2E2E2E2E2E2E2E2E2E2E2E2E2E2E2E2E2E2E2E2E2E2E2E2E2E2E2E2E2E2E2F5E2E2E2F5E200F5E2F5E2E2E2F5E2E2E2E2E2E2E2E2E2
310
E2E2E2E2E2E2E2E2E2E2E2E2E2E2E2E2E2E2E2E2E2E2E2E2E2E2E2E2E2E2E2E2E2E2E2E2E2E2E2E2E2E2E2E2E2E2E2E2E2E2E2E2E2E2E2E2E2E2E2E2E2E2E2E2E2E2E2E2E2E2E2E2E2E2E2E2E2E2E2E2E2E2E2E2E2F5E2E2E2F5E200F5E2E2E2E2E2F5E2E2E2E2E2E2E2E2E2E2E2E2E2E2E2E2E2E2E2E2E2E2E2E2E2E2E2E2
310
E2E2E2E2E2E2E2E2E2E2E2E2E2E2E2E2E2E2E2E2E2E2E2E2E2E2E2E2E2E2E2E2E2E2E2E2E2E2E2E2E2E2E2E2E2E2E2E2E2E2E2E2E2E2E2E2E2E2E2E2E2E2E2E2E2E2F5E2E2E2E2E233F5E2E2E2E2E2F5E2E2E2E2E2E2E2E2E2E2E2E2E2E2E2E2E2E2E2E2E2E2E2E2E2E2E2E2E2E2E2E2E2E2E2E2E2E2E2E2E2E2E2E2E2E2E2
310
E2E2E2E2E2E2E2E2E2E2E2E2E2E2E2E2E2E2E2E2E2E2E2E2E2E2E2E2E2E2E2E2E2E2E2E2E2E2E2E2E2E2E2E2E2E2E2F5E2E2E2E2E20FF5E2E2E2E2E2F5E2E2E2E2E2E2E2E2E2E2E2E2E2E2E2E2E2E2E2E2E2E2E2E2E2E2E2E2E2E2E2E2E2E2E2E2E2E2E2E2E2E2E2E2E2E2E2E2E2E2E2E2E2E2E2E2E2E2E2E2E2E2E2E2E2E2
310
E2E2E2E2E2E2E2E2E2E2E2E2E2E2E2E2E2E2E2E2E2E2E2E2E2E2E2E2F5E2E2E2E2E200F5E2E2E2E2E2F5F5F5F5F5F5F5F5F5F5F5F5F5F5F5F5F5F5F5F5F5F5F5F5F5F5F5F5F5F5F5F5F5F5F5F5F5F5F5F5F5F5F5F5F5F5F5F5F5F5F5F5F5F5F5F5F5F5F5F5F5F5F5F5F5F5F5F5F5F5F5F5F5F5F5F5F5F5F5F5F5F5F5F5F5F5
310
F5F5F5F5F5F5F5F5F5F5E2E2E2E2E200F5E2E2E2E2E2E2E2E2E2E2E2E2E2E2E2E2E2E2E2E2E2E2E2E2E2E2E2E2E2E2E2E2E2E2E2E2E2E2E2E2E2E2E2E2E2E2E2E2E2E2E2E2E2E2E2E2E2E2E2E2E2E2E2E2E2E2E2E2E2E2E2E2E2E2E2E2E2E2E2E2E2E2E2E2E2E2E2E2E2E2E2E2E2E2E2E2E2E2E2E2E2E2E2E2E2E233F5E2E2
310
E2E2E2E2E2E2E2E2E2E2E2E2E2E2E2E2E2E2E2E2E2E2E2E2E2E2E2E2E2E2E2E2E2E2E2E2E2E2E2E2E2E2E2E2E2E2E2E2E2E2E2E2E2E2E2E2E2E2E2E2E2E2E2E2E2E2E2E2E2E2E2E2E2E2E2E2E2E2E2E2E2E2E2E2E2E2E2E2E2E2E2E2E2E2E2E2E2E2E2E2E2E2E2E20FF5E2E2E2E2E2E2E2E2E2E2E2E2E2E2E2E2E2E2E2E2E2
310
E2E2E2E2E2E2E2E2E2E2E2E2E2E2E2E2E2E2E2E2E2E2E2E2E2E2E2E2E2E2E2E2E2E2E2E2E2E2E2E2E2E2E2E2E2E2E2E2E2E2E2E2E2E2E2E2E2E2E2E2E2E2E2E2E2E2E2E2E2E2E2E2E2E2E2E2E2E2E2E2E2E2E2E2E200F5E2E2E2E2E2E2E2E2E2E2E2E2E2E2E2E2E2E2E2E2E2E2E2E2E2E2E2E2E2E2E2E2E2E2E2E2E2E2E2E2
310
E2E2E2E2E2E2E2E2E2E2E2E2E2E2E2E2E2E2E2E2E2E2E2E2E2E2E2E2E2E2E2E2E2E2E2E2E2E2E2E2E2E2E2E2E2E2E2E2E2E2E2E2E2E2E2E2E2E2E2E2E2E2E2E2E2E200F5E2E2E2E2E2E2E2E2E2E2E2E2E2E2E2E2E2E2E2E2E2E2E2E2E2E2E2E2E2E2E2E2E2E2E2E2E2E2E2E2E2E2E2E2E2E2E2E2E2E2E2E2E2E2E2E2E2E2E2
310
E2E2E2E2E2E2E2E2E2E2E2E2E2E2E2E2E2E2E2E2E2E2E2E2E2E2E2E2E2E2E2E2E2E2E2E2E2E2E2E2E2E2E2E2E2E2E233F5E2E2E2E2E2E2E2E2E2E2E2E2E2E2E2E2E2E2E2E2E2E2E2E2E2E2E2E2E2E2E2E2E2E2E2E2E2E2E2E2E2E2E2E2E2E2E2E2E2E2E2E2E2E2E2E2E2E2E2E2E2E2E2E2E2E2E2E2E2E2E2E2E2E2E2E2E2E2
310
E2E2E2E2E2E2E2E2E2E2E2E2E2E2E2E2E2E2E2E2E2E2E2E2E2E2E2E20FF5E2F5E2E2E2E2E2E2E2E2E2E2E2E2E2E2E2E2E2E2E2E2E2E2E2E2E2E2E2E2E2E2E2E2E2E2E2E2E2E2E2E2E2E2E2E2E2E2E2E2E2E2E2E2E2E2E2E2E2E2E2E2E2E2E2E2E2E2E2E2E2E2E2E2E2E2E2E2E2E2E2E2E2E2E2E2E2E2E2E2E2E2E2E2E2E2E2
310
E2E2E2E2E2E2E2F5E200F5E2F5E2E2E2E2E2E2E2E2E2E2E2E2E2E2E2E2E2E2E2E2E2E2E2E2E2E2E2E2E2E2E2E2E2E2E2E2E2E2E2E2E2E2E2E2E2E2E2E2E2E2E2E2E2E2E2E2E2E2E2E2E2E2E2E2E2E2E2E2E2E2E2E2E2E2E2E2E2E2E2E2E2E2E2E2E2E2E2E2E2E2E2E2E2E2E2E2E2E2E2E2E2E2F5E200F5E2F5E2E2E2E2E2E2
310
E2E2E2E2E2E2E2E2E2E2E2E2E2E2E2E2E2E2E2E2E2E2E2E2E2E2E2E2E2E2E2E2E2E2E2E2E2E2E2E2E2E2E2E2E2E2E2E2E2E2E2E2E2E2E2E2E2E2E2E2E2E2E2E2E2E2E2E2E2E2E2E2E2E2E2E2E2E2E2E2E2E2E2E2E2E2E2E2E2E2E2E2E2E2E2E2F5E233F5E2F5E2E2E2E2E2E2E2E2E2E2E2E2E2E2E2E2E2E2E2E2E2E2E2E2E2
310
E2E2E2E2E2E2E2E2E2E2E2E2E2E2E2E2E2E2E2E2E2E2E2E2E2E2E2E2E2E2E2E2E2E2E2E2E2E2E2E2E2E2E2E2E2E2E2E2E2E2E2E2E2E2E2E2E2E2E2E2E2E2E2E2E2E2E2E2E2E2E2E2E2E2E2E2E2F5E20FF5E2F5E2E2E2E2E2E2E2E2E2E2E2E2E2E2E2E2E2E2E2E2E2E2E2E2E2E2E2E2E2E2E2E2E2E2E2E2E2E2E2E2E2E2E2E2
310
E2E2E2E2E2E2E2E2E2E2E2E2E2E2E2E2E2E2E2E2E2E2E2E2E2E2E2E2E2E2E2E2E2E2E2E2E2E2E2E2E2E2E2E2E2E2E2E2E2E2E2E2E2E2E2E2E2E2F5E200F5E2F5E2E2E2E2E2E2E2E2E2E2E2E2E2E2E2E2E2E2E2E2E2E2E2E2E2E2E2E2E2E2E2E2E2E2E2E2E2E2E2E2E2E2E2E2E2E2E2E2E2E2E2E2E2E2E2E2E2E2E2E2E2E2E2
310
E2E2E2E2E2E2E2E2E2E2E2E2E2E2E2E2E2E2E2E2E2E2E2E2E2E2E2E2E2E2E2E2E2E2E2E2E2E2E2F5E200F5E2F5E2E2E2E2E2E2E2E2E2E2E2E2E2E2E2E2E2E2E2E2E2E2E2E2E2E2E2E2E2E2E2E2E2E2E2E2E2E2E2E2E2E2E2E2E2E2E2E2E2E2E2E2E2E2E2E2E2E2E2E2E2E2E2E2E2E2E2E2E2E2E2E2E2E2E2E2E2E2E2E2E2E2
310
E2E2E2E2E2E2E2E2E2E2E2E2E2E2E2E2E2E2E2E2F5E27EF5E2F5E2E2E2E2E2E2E2E2E2E2E2E2E2E2E2E2E2E2E2E2E2E2E2E2E2E2E2E2E2E2E2E2E2E2E2E2E2E2E2E2E2E2E2E2E2E2E2E2E2E2E2E2E2E2E2E2E2E2E2E2E2E2E2E2E2E2E2E2E2E2E2E2E2E2E2E2E2E2E2E2E2E2E2E2E2E2E2E2E2E2E2E2E2E2E2E2E2E2E2E2E2
310
E2F5E27EF5E2F5F5F5F5F5F5F5F5F5E2E2E2E2E2E2E2E2E2F5F5F5F5F5F5F5F5F5F5F5F5F5F5F5F5E2E2E2E2E2E2E2E2E2E2F5F5F5F5F5F5F5F5F5F5F5F5F5F5F5F5E2E2E2E2E2E2E2E2E2E2F5F5F5F5F5F5F5F5F5F5F5F5F5F5F5F5E2E2E2E2E2E2E2E2E2F5F5F5F5F5F5F5F5F5E2E2F5E2E2E2E2E2E2E2E2E2E2E2E2E2E2
310
E2E2E2E2E2E2E2E2E2E2E2E2E2E2E2E2E2E2E2E2E2E2E2E2E2E2E2E2E2E2E2E2E2E2E2E2E2E2E2E2E2E2E2E2E2E2E2E2E2E2E2E2E2E2E2E2E2E2E2E2E2E2E2E2E2E2E2E2E2E2E2E2E2E2E2E2E2E2E2E2E2E2E2E2E2E2E2E2E2E2E2E2F5F5F5F5F5F5F5F5F5F5F5F5F5F5F5F5F5F5F5F5F5F5F5F5F5F5F5F5F5F5F5F5F5F5F5
310
F5F5F5F5F5F5F5F5F5F5F5F5F5F5F5F5F5F5F5F5F5F5F5F5F5F5F5F5F5F5F5F5F5F5F5F5F5F5F5F5F5F5F5F5F5F5F5F5F5F5F5F5F5F5F5F5F5F5F5F5F5F5F5F5F5F5F5F5F5F5F5F5F501EFEFEFEFEFEFEFEFEFEFEFEFEFEFEFEFEFEFEFEFEFEFEFEFEFEFEFEFEFEFEFEFEFEFEFEFEFEFEFEFEFEFEFEFEFEFEFEFEFEFEFEFEF
310
EFEFEFEFEFEFEFEFEFEFEFEFEFEFEFEFEFEFEFEFEFEFEFEFEFEFEFEFEFEFEFEFEFEFEFEFEFEFEFEFEFEFEFEFEFEFEFEFEFEFEFEFEFEF01
  0
ENDSEC
  0
EOF
