  0
SECTION
  2
HEADER
  9
$ACADVER
  1
AC1021
  9
$ACADMAINTVER
 70
     1
  9
$DWGCODEPAGE
  3
ANSI_1252
  9
$LASTSAVEDBY
  1
RSutcliffe
  9
$INSBASE
 10
0.0
 20
0.0
 30
0.0
  9
$EXTMIN
 10
51.06641275605977
 20
94.48786871701519
 30
-0.0015258207003583
  9
$EXTMAX
 10
278.8295026707243
 20
333.0579194516208
 30
0.0000000349246037
  9
$LIMMIN
 10
0.0
 20
0.0
  9
$LIMMAX
 10
17.0
 20
11.0
  9
$ORTHOMODE
 70
     1
  9
$REGENMODE
 70
     1
  9
$FILLMODE
 70
     1
  9
$QTEXTMODE
 70
     0
  9
$MIRRTEXT
 70
     1
  9
$LTSCALE
 40
20.0
  9
$ATTMODE
 70
     1
  9
$TEXTSIZE
 40
2.0
  9
$TRACEWID
 40
0.05
  9
$TEXTSTYLE
  7
WEB PAGE
  9
$CLAYER
  8
0
  9
$CELTYPE
  6
BYLAYER
  9
$CECOLOR
 62
   256
  9
$CELTSCALE
 40
1.0
  9
$DISPSILH
 70
     0
  9
$DIMSCALE
 40
1.0
  9
$DIMASZ
 40
3.0
  9
$DIMEXO
 40
2.0
  9
$DIMDLI
 40
1.0
  9
$DIMRND
 40
0.0
  9
$DIMDLE
 40
0.0
  9
$DIMEXE
 40
1.0
  9
$DIMTP
 40
0.0
  9
$DIMTM
 40
0.0
  9
$DIMTXT
 40
1.75
  9
$DIMCEN
 40
1.0
  9
$DIMTSZ
 40
0.0
  9
$DIMTOL
 70
     0
  9
$DIMLIM
 70
     0
  9
$DIMTIH
 70
     1
  9
$DIMTOH
 70
     1
  9
$DIMSE1
 70
     0
  9
$DIMSE2
 70
     0
  9
$DIMTAD
 70
     0
  9
$DIMZIN
 70
     0
  9
$DIMBLK
  1

  9
$DIMASO
 70
     1
  9
$DIMSHO
 70
     1
  9
$DIMPOST
  1

  9
$DIMAPOST
  1

  9
$DIMALT
 70
     0
  9
$DIMALTD
 70
     2
  9
$DIMALTF
 40
25.4
  9
$DIMLFAC
 40
1.0
  9
$DIMTOFL
 70
     0
  9
$DIMTVP
 40
0.0
  9
$DIMTIX
 70
     0
  9
$DIMSOXD
 70
     0
  9
$DIMSAH
 70
     0
  9
$DIMBLK1
  1

  9
$DIMBLK2
  1

  9
$DIMSTYLE
  2
STANDARD
  9
$DIMCLRD
 70
     0
  9
$DIMCLRE
 70
     0
  9
$DIMCLRT
 70
     0
  9
$DIMTFAC
 40
1.0
  9
$DIMGAP
 40
1.0
  9
$DIMJUST
 70
     0
  9
$DIMSD1
 70
     0
  9
$DIMSD2
 70
     0
  9
$DIMTOLJ
 70
     1
  9
$DIMTZIN
 70
     0
  9
$DIMALTZ
 70
     0
  9
$DIMALTTZ
 70
     0
  9
$DIMUPT
 70
     0
  9
$DIMDEC
 70
     4
  9
$DIMTDEC
 70
     4
  9
$DIMALTU
 70
     2
  9
$DIMALTTD
 70
     2
  9
$DIMTXSTY
  7
WEB PAGE
  9
$DIMAUNIT
 70
     0
  9
$DIMADEC
 70
     0
  9
$DIMALTRND
 40
0.0
  9
$DIMAZIN
 70
     0
  9
$DIMDSEP
 70
    46
  9
$DIMATFIT
 70
     3
  9
$DIMFRAC
 70
     2
  9
$DIMLDRBLK
  1

  9
$DIMLUNIT
 70
     4
  9
$DIMLWD
 70
    -2
  9
$DIMLWE
 70
    -2
  9
$DIMTMOVE
 70
     0
  9
$DIMFXL
 40
1.0
  9
$DIMFXLON
 70
     0
  9
$DIMJOGANG
 40
0.7853981633974483
  9
$DIMTFILL
 70
     0
  9
$DIMTFILLCLR
 70
     0
  9
$DIMARCSYM
 70
     0
  9
$DIMLTYPE
  6

  9
$DIMLTEX1
  6

  9
$DIMLTEX2
  6

  9
$LUNITS
 70
     4
  9
$LUPREC
 70
     4
  9
$SKETCHINC
 40
0.1
  9
$FILLETRAD
 40
0.0
  9
$AUNITS
 70
     1
  9
$AUPREC
 70
     4
  9
$MENU
  1
acad
  9
$ELEVATION
 40
0.0
  9
$PELEVATION
 40
0.0
  9
$THICKNESS
 40
0.0
  9
$LIMCHECK
 70
     0
  9
$CHAMFERA
 40
0.0
  9
$CHAMFERB
 40
0.0
  9
$CHAMFERC
 40
0.0
  9
$CHAMFERD
 40
0.0
  9
$SKPOLY
 70
     0
  9
$TDCREATE
 40
2451029.636190972
  9
$TDUCREATE
 40
2451029.844524306
  9
$TDUPDATE
 40
2454105.456196829
  9
$TDUUPDATE
 40
2454105.664530162
  9
$TDINDWG
 40
3.1211921991
  9
$TDUSRTIMER
 40
3.1211921991
  9
$USRTIMER
 70
     1
  9
$ANGBASE
 50
0.0
  9
$ANGDIR
 70
     0
  9
$PDMODE
 70
     2
  9
$PDSIZE
 40
0.0
  9
$PLINEWID
 40
0.0
  9
$SPLFRAME
 70
     0
  9
$SPLINETYPE
 70
     6
  9
$SPLINESEGS
 70
     8
  9
$HANDSEED
  5
13039
  9
$SURFTAB1
 70
     6
  9
$SURFTAB2
 70
     6
  9
$SURFTYPE
 70
     6
  9
$SURFU
 70
     6
  9
$SURFV
 70
     6
  9
$UCSBASE
  2

  9
$UCSNAME
  2

  9
$UCSORG
 10
0.0
 20
0.0
 30
0.0
  9
$UCSXDIR
 10
1.0
 20
0.0
 30
0.0
  9
$UCSYDIR
 10
0.0
 20
1.0
 30
0.0
  9
$UCSORTHOREF
  2

  9
$UCSORTHOVIEW
 70
     0
  9
$UCSORGTOP
 10
0.0
 20
0.0
 30
0.0
  9
$UCSORGBOTTOM
 10
0.0
 20
0.0
 30
0.0
  9
$UCSORGLEFT
 10
0.0
 20
0.0
 30
0.0
  9
$UCSORGRIGHT
 10
0.0
 20
0.0
 30
0.0
  9
$UCSORGFRONT
 10
0.0
 20
0.0
 30
0.0
  9
$UCSORGBACK
 10
0.0
 20
0.0
 30
0.0
  9
$PUCSBASE
  2

  9
$PUCSNAME
  2

  9
$PUCSORG
 10
0.0
 20
0.0
 30
0.0
  9
$PUCSXDIR
 10
1.0
 20
0.0
 30
0.0
  9
$PUCSYDIR
 10
0.0
 20
1.0
 30
0.0
  9
$PUCSORTHOREF
  2

  9
$PUCSORTHOVIEW
 70
     0
  9
$PUCSORGTOP
 10
0.0
 20
0.0
 30
0.0
  9
$PUCSORGBOTTOM
 10
0.0
 20
0.0
 30
0.0
  9
$PUCSORGLEFT
 10
0.0
 20
0.0
 30
0.0
  9
$PUCSORGRIGHT
 10
0.0
 20
0.0
 30
0.0
  9
$PUCSORGFRONT
 10
0.0
 20
0.0
 30
0.0
  9
$PUCSORGBACK
 10
0.0
 20
0.0
 30
0.0
  9
$USERI1
 70
     0
  9
$USERI2
 70
     0
  9
$USERI3
 70
     0
  9
$USERI4
 70
     0
  9
$USERI5
 70
     0
  9
$USERR1
 40
0.0
  9
$USERR2
 40
0.0
  9
$USERR3
 40
0.0
  9
$USERR4
 40
0.0
  9
$USERR5
 40
0.0
  9
$WORLDVIEW
 70
     1
  9
$SHADEDGE
 70
     3
  9
$SHADEDIF
 70
    70
  9
$TILEMODE
 70
     1
  9
$MAXACTVP
 70
    16
  9
$PINSBASE
 10
0.0
 20
0.0
 30
0.0
  9
$PLIMCHECK
 70
     0
  9
$PEXTMIN
 10
0.1513182456113795
 20
0.1315364679948932
 30
0.0
  9
$PEXTMAX
 10
7.949166179425024
 20
10.41007467751136
 30
0.0
  9
$PLIMMIN
 10
-0.1827343500762752
 20
-0.1587514363294437
  9
$PLIMMAX
 10
8.317265409627832
 20
10.84124832337466
  9
$UNITMODE
 70
     0
  9
$VISRETAIN
 70
     0
  9
$PLINEGEN
 70
     0
  9
$PSLTSCALE
 70
     1
  9
$TREEDEPTH
 70
  3020
  9
$CMLSTYLE
  2
STANDARD
  9
$CMLJUST
 70
     0
  9
$CMLSCALE
 40
1.0
  9
$PROXYGRAPHICS
 70
     1
  9
$MEASUREMENT
 70
     0
  9
$CELWEIGHT
370
    -1
  9
$ENDCAPS
280
     0
  9
$JOINSTYLE
280
     0
  9
$LWDISPLAY
290
     0
  9
$INSUNITS
 70
     1
  9
$HYPERLINKBASE
  1

  9
$STYLESHEET
  1

  9
$XEDIT
290
     1
  9
$CEPSNTYPE
380
     0
  9
$PSTYLEMODE
290
     1
  9
$FINGERPRINTGUID
  2
{EED38BEA-5B6B-467F-90D5-C3127D1C881D}
  9
$VERSIONGUID
  2
{6886564B-684E-49FC-8026-917FC758E38A}
  9
$EXTNAMES
290
     1
  9
$PSVPSCALE
 40
0.0
  9
$OLESTARTUP
290
     0
  9
$SORTENTS
280
    96
  9
$INDEXCTL
280
     0
  9
$HIDETEXT
280
     0
  9
$XCLIPFRAME
290
     0
  9
$HALOGAP
280
     0
  9
$OBSCOLOR
 70
   257
  9
$OBSLTYPE
280
     0
  9
$INTERSECTIONDISPLAY
280
     0
  9
$INTERSECTIONCOLOR
 70
   257
  9
$DIMASSOC
280
     1
  9
$PROJECTNAME
  1

  9
$CAMERADISPLAY
290
     0
  9
$LENSLENGTH
 40
50.0
  9
$CAMERAHEIGHT
 40
0.0
  9
$STEPSPERSEC
 40
2.0
  9
$STEPSIZE
 40
6.0
  9
$3DDWFPREC
 40
2.0
  9
$PSOLWIDTH
 40
0.25
  9
$PSOLHEIGHT
 40
4.0
  9
$LOFTANG1
 40
1.570796326794896
  9
$LOFTANG2
 40
1.570796326794896
  9
$LOFTMAG1
 40
0.0
  9
$LOFTMAG2
 40
0.0
  9
$LOFTPARAM
 70
     7
  9
$LOFTNORMALS
280
     1
  9
$LATITUDE
 40
37.795
  9
$LONGITUDE
 40
-122.394
  9
$NORTHDIRECTION
 40
0.0
  9
$TIMEZONE
 70
 -8000
  9
$LIGHTGLYPHDISPLAY
280
     1
  9
$TILEMODELIGHTSYNCH
280
     1
  9
$CMATERIAL
347
12E09
  9
$SOLIDHIST
280
     1
  9
$SHOWHIST
280
     1
  9
$DWFFRAME
280
     2
  9
$DGNFRAME
280
     0
  9
$REALWORLDSCALE
290
     1
  9
$INTERFERECOLOR
 62
     1
  9
$INTERFEREOBJVS
345
12E16
  9
$INTERFEREVPVS
346
12E13
  9
$CSHADOW
280
     0
  9
$SHADOWPLANELOCATION
 40
0.0
  0
ENDSEC
  0
SECTION
  2
CLASSES
  0
CLASS
  1
DICTIONARYVAR
  2
AcDbDictionaryVar
  3
ObjectDBX Classes
 90
        0
 91
        3
280
     0
281
     0
  0
CLASS
  1
ACDBDICTIONARYWDFLT
  2
AcDbDictionaryWithDefault
  3
ObjectDBX Classes
 90
        0
 91
        1
280
     0
281
     0
  0
CLASS
  1
MATERIAL
  2
AcDbMaterial
  3
ObjectDBX Classes
 90
     1024
 91
        3
280
     0
281
     0
  0
CLASS
  1
VISUALSTYLE
  2
AcDbVisualStyle
  3
ObjectDBX Classes
 90
     4095
 91
       16
280
     0
281
     0
  0
CLASS
  1
TABLESTYLE
  2
AcDbTableStyle
  3
ObjectDBX Classes
 90
     4095
 91
        1
280
     0
281
     0
  0
CLASS
  1
SORTENTSTABLE
  2
AcDbSortentsTable
  3
ObjectDBX Classes
 90
        0
 91
        1
280
     0
281
     0
  0
ENDSEC
  0
SECTION
  2
TABLES
  0
TABLE
  2
VPORT
  5
8
102
{ACAD_XDICTIONARY
360
12FA6
102
}
330
0
100
AcDbSymbolTable
 70
     1
  0
VPORT
  5
12E06
330
8
100
AcDbSymbolTableRecord
100
AcDbViewportTableRecord
  2
*Active
 70
     0
 10
0.0
 20
0.0
 11
1.0
 21
1.0
 12
164.947957713392
 22
213.772894084318
 13
0.0
 23
0.0
 14
1.0
 24
1.0
 15
0.25
 25
0.25
 16
0.0
 26
0.0
 36
1.0
 17
0.0
 27
0.0
 37
0.0
 40
240.4146645289453
 41
1.544516129032257
 42
50.0
 43
0.0
 44
0.0
 50
0.0
 51
0.0
 71
     0
 72
   100
 73
     1
 74
     0
 75
     0
 76
     0
 77
     0
 78
     0
281
     0
 65
     1
110
0.0
120
0.0
130
0.0
111
1.0
121
0.0
131
0.0
112
0.0
122
1.0
132
0.0
 79
     0
146
0.0
348
12E12
 60
     3
 61
     5
292
     1
282
     1
141
0.0
142
0.0
 63
   250
421
  3355443
  0
ENDTAB
  0
TABLE
  2
LTYPE
  5
5
330
0
100
AcDbSymbolTable
 70
     6
  0
LTYPE
  5
11
330
5
100
AcDbSymbolTableRecord
100
AcDbLinetypeTableRecord
  2
BYBLOCK
 70
     0
  3

 72
    65
 73
     0
 40
0.0
  0
LTYPE
  5
12
330
5
100
AcDbSymbolTableRecord
100
AcDbLinetypeTableRecord
  2
BYLAYER
 70
     0
  3

 72
    65
 73
     0
 40
0.0
  0
LTYPE
  5
13
330
5
100
AcDbSymbolTableRecord
100
AcDbLinetypeTableRecord
  2
CONTINUOUS
 70
     0
  3
Solid line
 72
    65
 73
     0
 40
0.0
  0
LTYPE
  5
3A
330
5
100
AcDbSymbolTableRecord
100
AcDbLinetypeTableRecord
  2
HIDDEN
 70
     0
  3
__ __ __ __ __ __ __ __ __ __ __ __ __ __ __ __
 72
    65
 73
     2
 40
0.375
 49
0.25
 74
     0
 49
-0.125
 74
     0
  0
ENDTAB
  0
TABLE
  2
LAYER
  5
2
102
{ACAD_XDICTIONARY
360
12E25
102
}
330
0
100
AcDbSymbolTable
 70
    38
  0
LAYER
  5
E
330
2
100
AcDbSymbolTableRecord
100
AcDbLayerTableRecord
  2
0
 70
     0
 62
     7
  6
CONTINUOUS
370
    -3
390
B579
347
12E0B
  0
LAYER
  5
41
330
2
100
AcDbSymbolTableRecord
100
AcDbLayerTableRecord
  2
BDR
 70
     0
 62
     7
  6
CONTINUOUS
370
    -3
390
B579
347
12E0B
  0
LAYER
  5
43
330
2
100
AcDbSymbolTableRecord
100
AcDbLayerTableRecord
  2
5
 70
     0
 62
     7
  6
CONTINUOUS
370
    -3
390
B579
347
12E0B
  0
LAYER
  5
44
330
2
100
AcDbSymbolTableRecord
100
AcDbLayerTableRecord
  2
AME_FRZ
 70
     0
 62
     7
  6
CONTINUOUS
370
    -3
390
B579
347
12E0B
  0
LAYER
  5
45
330
2
100
AcDbSymbolTableRecord
100
AcDbLayerTableRecord
  2
ASHADE
 70
     0
 62
     7
  6
CONTINUOUS
370
    -3
390
B579
347
12E0B
  0
LAYER
  5
B91F
330
2
100
AcDbSymbolTableRecord
100
AcDbLayerTableRecord
  2
HATCH
 70
     0
 62
     4
  6
CONTINUOUS
370
    -3
390
B579
347
12E0B
  0
LAYER
  5
F047
330
2
100
AcDbSymbolTableRecord
100
AcDbLayerTableRecord
  2
Defpoints
 70
     0
 62
     7
  6
CONTINUOUS
290
     0
370
    -3
390
B579
347
12E0B
  0
LAYER
  5
F086
330
2
100
AcDbSymbolTableRecord
100
AcDbLayerTableRecord
  2
SECTION JOINTS
 70
     0
 62
     7
  6
CONTINUOUS
370
    25
390
B579
347
12E0B
  0
LAYER
  5
111E5
330
2
100
AcDbSymbolTableRecord
100
AcDbLayerTableRecord
  2
TEXT
 70
     0
 62
     7
  6
CONTINUOUS
370
    25
390
B579
347
12E0B
  0
LAYER
  5
117C7
330
2
100
AcDbSymbolTableRecord
100
AcDbLayerTableRecord
  2
FRAMING
 70
     0
 62
     7
  6
CONTINUOUS
370
    25
390
B579
347
12E0B
  0
LAYER
  5
119C9
330
2
100
AcDbSymbolTableRecord
100
AcDbLayerTableRecord
  2
OUTSIDE
 70
     0
 62
     7
  6
CONTINUOUS
370
    -3
390
B579
347
12E0B
  0
LAYER
  5
11C8D
330
2
100
AcDbSymbolTableRecord
100
AcDbLayerTableRecord
  2
HIDDEN
 70
     0
 62
     2
  6
HIDDEN
370
    -3
390
B579
347
12E0B
  0
LAYER
  5
1210A
330
2
100
AcDbSymbolTableRecord
100
AcDbLayerTableRecord
  2
REVERSE-ANGLE
 70
     0
 62
     4
  6
CONTINUOUS
370
    -3
390
B579
347
12E0B
  0
LAYER
  5
1210C
330
2
100
AcDbSymbolTableRecord
100
AcDbLayerTableRecord
  2
JAMB
 70
     0
 62
     1
  6
CONTINUOUS
370
    -3
390
B579
347
12E0B
  0
LAYER
  5
1210D
330
2
100
AcDbSymbolTableRecord
100
AcDbLayerTableRecord
  2
UPPER-ANGLE
 70
     0
 62
     7
  6
CONTINUOUS
370
    -3
390
B579
347
12E0B
  0
ENDTAB
  0
TABLE
  2
STYLE
  5
3
330
0
100
AcDbSymbolTable
 70
     6
  0
STYLE
  5
F
330
3
100
AcDbSymbolTableRecord
100
AcDbTextStyleTableRecord
  2
STANDARD
 70
     0
 40
0.0
 41
1.0
 50
0.0
 71
     0
 42
2.0
  3
TIMES.TTF
  4

1001
ACAD
1000
Times New Roman
1071
       18
  0
STYLE
  5
1D21
330
3
100
AcDbSymbolTableRecord
100
AcDbTextStyleTableRecord
  2
SIMPLEX
 70
     0
 40
0.1
 41
0.6
 50
0.0
 71
     0
 42
0.1
  3
SIMPLEX.shx
  4

  0
STYLE
  5
10B94
330
3
100
AcDbSymbolTableRecord
100
AcDbTextStyleTableRecord
  2
WEB PAGE
 70
     0
 40
0.0
 41
1.0
 50
0.0
 71
     0
 42
2.0
  3
TIMES.TTF
  4

1001
ACAD
1000
Times New Roman
1071
       18
  0
ENDTAB
  0
TABLE
  2
VIEW
  5
6
330
0
100
AcDbSymbolTable
 70
     1
  0
ENDTAB
  0
TABLE
  2
UCS
  5
7
330
0
100
AcDbSymbolTable
 70
     0
  0
ENDTAB
  0
TABLE
  2
APPID
  5
9
330
0
100
AcDbSymbolTable
 70
     7
  0
APPID
  5
10
330
9
100
AcDbSymbolTableRecord
100
AcDbRegAppTableRecord
  2
ACAD
 70
     0
  0
APPID
  5
3F
330
9
100
AcDbSymbolTableRecord
100
AcDbRegAppTableRecord
  2
AME_SOL
 70
     0
  0
APPID
  5
40
330
9
100
AcDbSymbolTableRecord
100
AcDbRegAppTableRecord
  2
AVE_RENDER
 70
     0
  0
APPID
  5
71A7
330
9
100
AcDbSymbolTableRecord
100
AcDbRegAppTableRecord
  2
AVE_ENTITY_MATERIAL
 70
     0
  0
APPID
  5
71A8
330
9
100
AcDbSymbolTableRecord
100
AcDbRegAppTableRecord
  2
AVE_FINISH
 70
     0
  0
APPID
  5
71A9
330
9
100
AcDbSymbolTableRecord
100
AcDbRegAppTableRecord
  2
AVE_MATERIAL
 70
     0
  0
APPID
  5
71AA
330
9
100
AcDbSymbolTableRecord
100
AcDbRegAppTableRecord
  2
AVE_GLOBAL
 70
     0
  0
ENDTAB
  0
TABLE
  2
DIMSTYLE
  5
A
330
0
100
AcDbSymbolTable
 70
     2
100
AcDbDimStyleTable
 71
     1
340
190D
  0
DIMSTYLE
105
190D
102
{ACAD_REACTORS
330
11CDE
330
11CDF
330
11CE0
330
11CE1
330
11CFE
330
11CFD
330
11D00
330
11D1F
330
11EA8
330
1205D
330
1233F
330
1243D
102
}
330
A
100
AcDbSymbolTableRecord
100
AcDbDimStyleTableRecord
  2
STANDARD
 70
     0
 41
3.0
 42
2.0
 43
1.0
 44
1.0
140
1.75
141
1.0
147
1.0
276
     2
277
     4
340
10B94
  0
ENDTAB
  0
TABLE
  2
BLOCK_RECORD
  5
1
330
0
100
AcDbSymbolTable
 70
    93
  0
BLOCK_RECORD
  5
17
330
1
100
AcDbSymbolTableRecord
100
AcDbBlockTableRecord
  2
*MODEL_SPACE
340
B57C
 70
     0
280
     1
281
     0
  0
BLOCK_RECORD
  5
14
330
1
100
AcDbSymbolTableRecord
100
AcDbBlockTableRecord
  2
*PAPER_SPACE
340
B57D
 70
     0
280
     1
281
     0
  0
BLOCK_RECORD
  5
20
330
1
100
AcDbSymbolTableRecord
100
AcDbBlockTableRecord
  2
AME_NIL
340
0
102
{BLKREFS
331
3374
331
3E3C
102
}
 70
     0
280
     1
281
     0
  0
BLOCK_RECORD
  5
21
330
1
100
AcDbSymbolTableRecord
100
AcDbBlockTableRecord
  2
AME_SOL
340
0
102
{BLKREFS
331
3375
331
3E3D
102
}
 70
     0
280
     1
281
     0
  0
BLOCK_RECORD
  5
22
330
1
100
AcDbSymbolTableRecord
100
AcDbBlockTableRecord
  2
AVE_RENDER
340
0
102
{BLKREFS
331
3376
331
3377
331
3378
331
3E3E
331
3E3F
331
3E40
331
120FE
331
120FF
331
12100
331
12101
331
12102
331
12103
331
12104
331
12105
102
}
 70
     0
280
     1
281
     0
  0
BLOCK_RECORD
  5
11D2A
330
1
100
AcDbSymbolTableRecord
100
AcDbBlockTableRecord
  2
*D64
340
0
 70
     0
280
     1
281
     0
  0
BLOCK_RECORD
  5
11D37
330
1
100
AcDbSymbolTableRecord
100
AcDbBlockTableRecord
  2
*D65
340
0
 70
     0
280
     1
281
     0
  0
BLOCK_RECORD
  5
11D44
330
1
100
AcDbSymbolTableRecord
100
AcDbBlockTableRecord
  2
*D66
340
0
 70
     0
280
     1
281
     0
  0
BLOCK_RECORD
  5
11D51
330
1
100
AcDbSymbolTableRecord
100
AcDbBlockTableRecord
  2
*D67
340
0
 70
     0
280
     1
281
     0
  0
BLOCK_RECORD
  5
11D5E
330
1
100
AcDbSymbolTableRecord
100
AcDbBlockTableRecord
  2
*D68
340
0
 70
     0
280
     1
281
     0
  0
BLOCK_RECORD
  5
11E49
330
1
100
AcDbSymbolTableRecord
100
AcDbBlockTableRecord
  2
WD-9-3-38
340
0
102
{BLKREFS
331
11E5B
102
}
 70
     1
280
     1
281
     0
  0
BLOCK_RECORD
  5
11EA9
330
1
100
AcDbSymbolTableRecord
100
AcDbBlockTableRecord
  2
*D71
340
0
 70
     0
280
     1
281
     0
  0
BLOCK_RECORD
  5
12034
330
1
100
AcDbSymbolTableRecord
100
AcDbBlockTableRecord
  2
A$C2D8E259A
340
0
102
{BLKREFS
331
12045
102
}
 70
     0
280
     1
281
     0
  0
BLOCK_RECORD
  5
1205E
330
1
100
AcDbSymbolTableRecord
100
AcDbBlockTableRecord
  2
*D73
340
0
 70
     0
280
     1
281
     0
  0
BLOCK_RECORD
  5
1210F
330
1
100
AcDbSymbolTableRecord
100
AcDbBlockTableRecord
  2
2RA-129
340
0
102
{BLKREFS
331
12148
102
}
 70
     0
280
     1
281
     0
  0
BLOCK_RECORD
  5
12149
330
1
100
AcDbSymbolTableRecord
100
AcDbBlockTableRecord
  2
t-4
340
0
102
{BLKREFS
331
12158
102
}
 70
     0
280
     1
281
     0
  0
BLOCK_RECORD
  5
12159
330
1
100
AcDbSymbolTableRecord
100
AcDbBlockTableRecord
  2
t-5
340
0
102
{BLKREFS
331
12168
102
}
 70
     0
280
     1
281
     0
  0
BLOCK_RECORD
  5
12169
330
1
100
AcDbSymbolTableRecord
100
AcDbBlockTableRecord
  2
t-6
340
0
102
{BLKREFS
331
12178
102
}
 70
     0
280
     1
281
     0
  0
BLOCK_RECORD
  5
12179
330
1
100
AcDbSymbolTableRecord
100
AcDbBlockTableRecord
  2
t-7
340
0
102
{BLKREFS
331
12188
102
}
 70
     0
280
     1
281
     0
  0
BLOCK_RECORD
  5
12189
330
1
100
AcDbSymbolTableRecord
100
AcDbBlockTableRecord
  2
A$C5DFD450B
340
0
102
{BLKREFS
331
1219D
102
}
 70
     0
280
     1
281
     0
  0
BLOCK_RECORD
  5
1219C
330
1
100
AcDbSymbolTableRecord
100
AcDbBlockTableRecord
  2
RASPLT-10
340
0
102
{BLKREFS
331
121A0
102
}
 70
     0
280
     1
281
     0
  0
BLOCK_RECORD
  5
121E0
330
1
100
AcDbSymbolTableRecord
100
AcDbBlockTableRecord
  2
A$C3F6E7505
340
0
102
{BLKREFS
331
1221C
102
}
 70
     0
280
     1
281
     0
  0
BLOCK_RECORD
  5
12237
330
1
100
AcDbSymbolTableRecord
100
AcDbBlockTableRecord
  2
A$C3C365376
340
0
102
{BLKREFS
331
1226B
331
122E1
102
}
 70
     0
280
     1
281
     0
  0
BLOCK_RECORD
  5
12257
330
1
100
AcDbSymbolTableRecord
100
AcDbBlockTableRecord
  2
A$C73DC2C6A
340
0
102
{BLKREFS
331
1226D
331
122E3
102
}
 70
     0
280
     1
281
     0
  0
BLOCK_RECORD
  5
122E7
330
1
100
AcDbSymbolTableRecord
100
AcDbBlockTableRecord
  2
A$C50016EAA
340
0
102
{BLKREFS
331
12317
102
}
 70
     0
280
     1
281
     0
  0
BLOCK_RECORD
  5
1243E
330
1
100
AcDbSymbolTableRecord
100
AcDbBlockTableRecord
  2
*D88
340
0
 70
     0
280
     1
281
     0
  0
ENDTAB
  0
ENDSEC
  0
SECTION
  2
BLOCKS
  0
BLOCK
  5
57
330
17
100
AcDbEntity
  8
0
100
AcDbBlockBegin
  2
*MODEL_SPACE
 70
     0
 10
0.0
 20
0.0
 30
0.0
  3
*MODEL_SPACE
  1

  0
ENDBLK
  5
58
330
17
100
AcDbEntity
  8
0
100
AcDbBlockEnd
  0
BLOCK
  5
55
330
14
100
AcDbEntity
 67
     1
  8
0
100
AcDbBlockBegin
  2
*PAPER_SPACE
 70
     0
 10
0.0
 20
0.0
 30
0.0
  3
*PAPER_SPACE
  1

  0
ENDBLK
  5
56
330
14
100
AcDbEntity
 67
     1
  8
0
100
AcDbBlockEnd
  0
BLOCK
  5
91E
330
20
100
AcDbEntity
  8
0
100
AcDbBlockBegin
  2
AME_NIL
 70
     0
 10
0.0
 20
0.0
 30
0.0
  3
AME_NIL
  1
AME_NIL
  0
ENDBLK
  5
91F
330
20
100
AcDbEntity
  8
0
100
AcDbBlockEnd
  0
BLOCK
  5
920
330
21
100
AcDbEntity
  8
0
100
AcDbBlockBegin
  2
AME_SOL
 70
     0
 10
0.0
 20
0.0
 30
0.0
  3
AME_SOL
  1
AME_SOL
  0
ENDBLK
  5
921
330
21
100
AcDbEntity
  8
0
100
AcDbBlockEnd
  0
BLOCK
  5
922
330
22
100
AcDbEntity
  8
0
100
AcDbBlockBegin
  2
AVE_RENDER
 70
     0
 10
0.0
 20
0.0
 30
0.0
  3
AVE_RENDER
  1
AVE_RENDER
  0
ENDBLK
  5
923
330
22
100
AcDbEntity
  8
0
100
AcDbBlockEnd
  0
BLOCK
  5
11D35
330
11D2A
100
AcDbEntity
  8
0
100
AcDbBlockBegin
  2
*D64
 70
     1
 10
0.0
 20
0.0
 30
0.0
  3
*D64
  1

  0
LINE
  5
1245F
330
11D2A
100
AcDbEntity
  8
TEXT
 62
     0
370
    -2
100
AcDbLine
 10
132.2169295018095
 20
123.0362941793405
 30
0.0
 11
76.87781104861348
 21
123.0362941793405
 31
0.0
  0
LINE
  5
12460
330
11D2A
100
AcDbEntity
  8
TEXT
 62
     0
370
    -2
100
AcDbLine
 10
139.5919295018095
 20
255.753848011267
 30
0.0
 11
76.8778110486135
 21
255.753848011267
 31
0.0
  0
LINE
  5
12461
330
11D2A
100
AcDbEntity
  8
TEXT
 62
     0
370
    -2
100
AcDbLine
 10
77.87781104861348
 20
126.0362941793405
 30
0.0
 11
77.87781104861349
 21
199.4565655181477
 31
0.0
  0
LINE
  5
12462
330
11D2A
100
AcDbEntity
  8
TEXT
 62
     0
370
    -2
100
AcDbLine
 10
77.87781104861351
 20
252.753848011267
 30
0.0
 11
77.87781104861349
 21
206.1232321848144
 31
0.0
  0
SOLID
  5
12463
330
11D2A
100
AcDbEntity
  8
TEXT
 62
     0
100
AcDbTrace
 10
77.37781104861348
 20
126.0362941793405
 30
0.0
 11
78.37781104861348
 21
126.0362941793405
 31
0.0
 12
77.87781104861348
 22
123.0362941793405
 32
0.0
 13
77.87781104861348
 23
123.0362941793405
 33
0.0
  0
SOLID
  5
12464
330
11D2A
100
AcDbEntity
  8
TEXT
 62
     0
100
AcDbTrace
 10
77.37781104861351
 20
252.753848011267
 30
0.0
 11
78.37781104861351
 21
252.753848011267
 31
0.0
 12
77.87781104861351
 22
255.753848011267
 32
0.0
 13
77.87781104861351
 23
255.753848011267
 33
0.0
  0
MTEXT
  5
12465
330
11D2A
100
AcDbEntity
  8
TEXT
 62
     0
100
AcDbMText
 10
77.87781104861347
 20
202.7898988514811
 30
0.0
 40
1.75
 41
0.0
 46
0.0
 71
     5
 72
     1
  1
\A1;FLOOR TO\PSHAFT CENTER
  7
WEB PAGE
 73
     1
 44
1.0
  0
POINT
  5
12466
330
11D2A
100
AcDbEntity
  8
Defpoints
 62
     0
100
AcDbPoint
 10
134.2169295018095
 20
123.0362941793405
 30
0.0
  0
POINT
  5
12467
330
11D2A
100
AcDbEntity
  8
Defpoints
 62
     0
100
AcDbPoint
 10
141.5919295018095
 20
255.753848011267
 30
0.0
  0
POINT
  5
12468
330
11D2A
100
AcDbEntity
  8
Defpoints
 62
     0
100
AcDbPoint
 10
77.87781104861351
 20
255.753848011267
 30
0.0
  0
ENDBLK
  5
11D36
330
11D2A
100
AcDbEntity
  8
0
100
AcDbBlockEnd
  0
BLOCK
  5
11D42
330
11D37
100
AcDbEntity
  8
0
100
AcDbBlockBegin
  2
*D65
 70
     1
 10
0.0
 20
0.0
 30
0.0
  3
*D65
  1

  0
LINE
  5
12469
330
11D37
100
AcDbEntity
  8
TEXT
 62
     0
370
    -2
100
AcDbLine
 10
132.2169295018095
 20
123.0362941793405
 30
0.0
 11
60.38033843914924
 21
123.0362941793405
 31
0.0
  0
LINE
  5
1246A
330
11D37
100
AcDbEntity
  8
TEXT
 62
     0
370
    -2
100
AcDbLine
 10
136.2169295018095
 20
257.8220506712392
 30
0.0
 11
60.38033843914927
 21
257.8220506712393
 31
0.0
  0
LINE
  5
1246B
330
11D37
100
AcDbEntity
  8
TEXT
 62
     0
370
    -2
100
AcDbLine
 10
61.38033843914924
 20
126.0362941793405
 30
0.0
 11
61.38033843914925
 21
178.0912897901557
 31
0.0
  0
LINE
  5
1246C
330
11D37
100
AcDbEntity
  8
TEXT
 62
     0
370
    -2
100
AcDbLine
 10
61.38033843914927
 20
254.8220506712393
 30
0.0
 11
61.38033843914925
 21
184.7579564568223
 31
0.0
  0
SOLID
  5
1246D
330
11D37
100
AcDbEntity
  8
TEXT
 62
     0
100
AcDbTrace
 10
60.88033843914924
 20
126.0362941793405
 30
0.0
 11
61.88033843914924
 21
126.0362941793405
 31
0.0
 12
61.38033843914924
 22
123.0362941793405
 32
0.0
 13
61.38033843914924
 23
123.0362941793405
 33
0.0
  0
SOLID
  5
1246E
330
11D37
100
AcDbEntity
  8
TEXT
 62
     0
100
AcDbTrace
 10
60.88033843914927
 20
254.8220506712393
 30
0.0
 11
61.88033843914927
 21
254.8220506712393
 31
0.0
 12
61.38033843914927
 22
257.8220506712393
 32
0.0
 13
61.38033843914927
 23
257.8220506712393
 33
0.0
  0
MTEXT
  5
1246F
330
11D37
100
AcDbEntity
  8
TEXT
 62
     0
100
AcDbMText
 10
61.38033843914922
 20
181.424623123489
 30
0.0
 40
1.75
 41
0.0
 46
0.0
 71
     5
 72
     1
  1
\A1;MINIMUM\PCEILING HEIGHT
  7
WEB PAGE
 73
     1
 44
1.0
  0
POINT
  5
12470
330
11D37
100
AcDbEntity
  8
Defpoints
 62
     0
100
AcDbPoint
 10
134.2169295018095
 20
123.0362941793405
 30
0.0
  0
POINT
  5
12471
330
11D37
100
AcDbEntity
  8
Defpoints
 62
     0
100
AcDbPoint
 10
138.2169295018095
 20
257.8220506712392
 30
0.0
  0
POINT
  5
12472
330
11D37
100
AcDbEntity
  8
Defpoints
 62
     0
100
AcDbPoint
 10
61.38033843914927
 20
257.8220506712393
 30
0.0
  0
ENDBLK
  5
11D43
330
11D37
100
AcDbEntity
  8
0
100
AcDbBlockEnd
  0
BLOCK
  5
11D4F
330
11D44
100
AcDbEntity
  8
0
100
AcDbBlockBegin
  2
*D66
 70
     1
 10
0.0
 20
0.0
 30
0.0
  3
*D66
  1

  0
LINE
  5
1241F
330
11D44
100
AcDbEntity
  8
TEXT
 62
     0
370
    -2
100
AcDbLine
 10
207.4861505668555
 20
123.0362941793405
 30
0.0
 11
174.0501848453942
 21
123.0362941793405
 31
0.0
  0
LINE
  5
12420
330
11D44
100
AcDbEntity
  8
TEXT
 62
     0
370
    -2
100
AcDbLine
 10
144.7782259511818
 20
235.0280241008174
 30
0.0
 11
176.0501848453942
 21
235.0280241008174
 31
0.0
  0
LINE
  5
12421
330
11D44
100
AcDbEntity
  8
TEXT
 62
     0
370
    -2
100
AcDbLine
 10
175.0501848453941
 20
126.0362941793405
 30
0.0
 11
175.0501848453941
 21
171.379062324093
 31
0.0
  0
LINE
  5
12422
330
11D44
100
AcDbEntity
  8
TEXT
 62
     0
370
    -2
100
AcDbLine
 10
175.0501848453942
 20
232.0280241008175
 30
0.0
 11
175.0501848453941
 21
178.379062324093
 31
0.0
  0
SOLID
  5
12423
330
11D44
100
AcDbEntity
  8
TEXT
 62
     0
100
AcDbTrace
 10
174.5501848453941
 20
126.0362941793405
 30
0.0
 11
175.5501848453941
 21
126.0362941793405
 31
0.0
 12
175.0501848453941
 22
123.0362941793405
 32
0.0
 13
175.0501848453941
 23
123.0362941793405
 33
0.0
  0
SOLID
  5
12424
330
11D44
100
AcDbEntity
  8
TEXT
 62
     0
100
AcDbTrace
 10
174.5501848453942
 20
232.0280241008175
 30
0.0
 11
175.5501848453942
 21
232.0280241008175
 31
0.0
 12
175.0501848453942
 22
235.0280241008174
 32
0.0
 13
175.0501848453942
 23
235.0280241008174
 33
0.0
  0
MTEXT
  5
12425
330
11D44
100
AcDbEntity
  8
TEXT
 62
     0
100
AcDbMText
 10
175.0501848453941
 20
174.879062324093
 30
0.0
 40
1.75
 41
0.0
 46
0.0
 71
     5
 72
     1
  1
\A1;VERTICAL TRACK\PDOOR HEIGHT-8"
  7
WEB PAGE
 73
     1
 44
1.0
  0
POINT
  5
12426
330
11D44
100
AcDbEntity
  8
Defpoints
 62
     0
100
AcDbPoint
 10
209.4861505668555
 20
123.0362941793405
 30
0.0
  0
POINT
  5
12427
330
11D44
100
AcDbEntity
  8
Defpoints
 62
     0
100
AcDbPoint
 10
142.7782259511818
 20
235.0280241008174
 30
0.0
  0
POINT
  5
12428
330
11D44
100
AcDbEntity
  8
Defpoints
 62
     0
100
AcDbPoint
 10
175.0501848453942
 20
235.0280241008174
 30
0.0
  0
ENDBLK
  5
11D50
330
11D44
100
AcDbEntity
  8
0
100
AcDbBlockEnd
  0
BLOCK
  5
11D5C
330
11D51
100
AcDbEntity
  8
0
100
AcDbBlockBegin
  2
*D67
 70
     1
 10
0.0
 20
0.0
 30
0.0
  3
*D67
  1

  0
LINE
  5
120D5
330
11D51
100
AcDbEntity
  8
TEXT
 62
     0
370
    -2
100
AcDbLine
 10
132.2169295018095
 20
243.0362941793405
 30
0.0
 11
117.0575413775432
 21
243.0362941793405
 31
0.0
  0
LINE
  5
120D6
330
11D51
100
AcDbEntity
  8
TEXT
 62
     0
370
    -2
100
AcDbLine
 10
132.2169295018095
 20
123.0362941793405
 30
0.0
 11
117.0575413775432
 21
123.0362941793405
 31
0.0
  0
LINE
  5
120D7
330
11D51
100
AcDbEntity
  8
TEXT
 62
     0
370
    -2
100
AcDbLine
 10
118.0575413775432
 20
240.0362941793405
 30
0.0
 11
118.0575413775432
 21
186.3696275126739
 31
0.0
  0
LINE
  5
120D8
330
11D51
100
AcDbEntity
  8
TEXT
 62
     0
370
    -2
100
AcDbLine
 10
118.0575413775432
 20
126.0362941793405
 30
0.0
 11
118.0575413775432
 21
179.7029608460072
 31
0.0
  0
SOLID
  5
120D9
330
11D51
100
AcDbEntity
  8
TEXT
 62
     0
100
AcDbTrace
 10
117.5575413775432
 20
240.0362941793405
 30
0.0
 11
118.5575413775432
 21
240.0362941793405
 31
0.0
 12
118.0575413775432
 22
243.0362941793405
 32
0.0
 13
118.0575413775432
 23
243.0362941793405
 33
0.0
  0
SOLID
  5
120DA
330
11D51
100
AcDbEntity
  8
TEXT
 62
     0
100
AcDbTrace
 10
117.5575413775432
 20
126.0362941793405
 30
0.0
 11
118.5575413775432
 21
126.0362941793405
 31
0.0
 12
118.0575413775432
 22
123.0362941793405
 32
0.0
 13
118.0575413775432
 23
123.0362941793405
 33
0.0
  0
MTEXT
  5
120DB
330
11D51
100
AcDbEntity
  8
TEXT
 62
     0
100
AcDbMText
 10
118.0575413775432
 20
183.0362941793405
 30
0.0
 40
1.75
 41
0.0
 46
0.0
 71
     5
 72
     1
  1
\A1;OPENING\PHEIGHT
  7
WEB PAGE
 73
     1
 44
1.0
  0
POINT
  5
120DC
330
11D51
100
AcDbEntity
  8
Defpoints
 62
     0
100
AcDbPoint
 10
134.2169295018095
 20
243.0362941793405
 30
0.0
  0
POINT
  5
120DD
330
11D51
100
AcDbEntity
  8
Defpoints
 62
     0
100
AcDbPoint
 10
134.2169295018095
 20
123.0362941793405
 30
0.0
  0
POINT
  5
120DE
330
11D51
100
AcDbEntity
  8
Defpoints
 62
     0
100
AcDbPoint
 10
118.0575413775432
 20
123.0362941793405
 30
0.0
  0
ENDBLK
  5
11D5D
330
11D51
100
AcDbEntity
  8
0
100
AcDbBlockEnd
  0
BLOCK
  5
11D6A
330
11D5E
100
AcDbEntity
  8
0
100
AcDbBlockBegin
  2
*D68
 70
     1
 10
0.0
 20
0.0
 30
0.0
  3
*D68
  1

  0
LINE
  5
1226F
330
11D5E
100
AcDbEntity
  8
TEXT
 62
     0
370
    -2
100
AcDbLine
 10
132.2169295018095
 20
243.0362941793405
 30
0.0
 11
117.0575413775432
 21
243.0362941793405
 31
0.0
  0
LINE
  5
12270
330
11D5E
100
AcDbEntity
  8
TEXT
 62
     0
370
    -2
100
AcDbLine
 10
136.2169295018095
 20
257.8220506712392
 30
0.0
 11
117.0575413775432
 21
257.8220506712393
 31
0.0
  0
LINE
  5
12271
330
11D5E
100
AcDbEntity
  8
TEXT
 62
     0
370
    -2
100
AcDbLine
 10
118.0575413775432
 20
246.0362941793405
 30
0.0
 11
118.0575413775432
 21
254.8220506712393
 31
0.0
  0
LINE
  5
12272
330
11D5E
100
AcDbEntity
  8
TEXT
 62
     0
370
    -2
100
AcDbLine
 10
118.0575413775432
 20
257.8220506712393
 30
0.0
 11
118.0575413775432
 21
272.3008621425022
 31
0.0
  0
LINE
  5
12273
330
11D5E
100
AcDbEntity
  8
TEXT
 62
     0
370
    -2
100
AcDbLine
 10
118.0575413775432
 20
272.3008621425022
 30
0.0
 11
121.0575413775432
 21
272.3008621425022
 31
0.0
  0
SOLID
  5
12274
330
11D5E
100
AcDbEntity
  8
TEXT
 62
     0
100
AcDbTrace
 10
117.5575413775432
 20
246.0362941793405
 30
0.0
 11
118.5575413775432
 21
246.0362941793405
 31
0.0
 12
118.0575413775432
 22
243.0362941793405
 32
0.0
 13
118.0575413775432
 23
243.0362941793405
 33
0.0
  0
SOLID
  5
12275
330
11D5E
100
AcDbEntity
  8
TEXT
 62
     0
100
AcDbTrace
 10
117.5575413775432
 20
254.8220506712393
 30
0.0
 11
118.5575413775432
 21
254.8220506712393
 31
0.0
 12
118.0575413775432
 22
257.8220506712393
 32
0.0
 13
118.0575413775432
 23
257.8220506712393
 33
0.0
  0
MTEXT
  5
12276
330
11D5E
100
AcDbEntity
  8
TEXT
 62
     0
100
AcDbMText
 10
128.9325413775432
 20
272.3008621425022
 30
0.0
 40
1.75
 41
0.0
 46
0.0
 71
     5
 72
     1
  1
\A1;MINIMUM\PHEADROOM
  7
WEB PAGE
 73
     1
 44
1.0
  0
POINT
  5
12277
330
11D5E
100
AcDbEntity
  8
Defpoints
 62
     0
100
AcDbPoint
 10
134.2169295018095
 20
243.0362941793405
 30
0.0
  0
POINT
  5
12278
330
11D5E
100
AcDbEntity
  8
Defpoints
 62
     0
100
AcDbPoint
 10
138.2169295018095
 20
257.8220506712392
 30
0.0
  0
POINT
  5
12279
330
11D5E
100
AcDbEntity
  8
Defpoints
 62
     0
100
AcDbPoint
 10
118.0575413775432
 20
257.8220506712393
 30
0.0
  0
ENDBLK
  5
11D6B
330
11D5E
100
AcDbEntity
  8
0
100
AcDbBlockEnd
  0
BLOCK
  5
11E59
330
11E49
100
AcDbEntity
  8
0
100
AcDbBlockBegin
  2
WD-9-3-38
 70
     0
 10
0.0
 20
0.0
 30
0.0
  3
WD-9-3-38
  1

  0
LINE
  5
11E4A
330
11E49
100
AcDbEntity
  8
0
100
AcDbLine
 10
0.0
 20
4.25
 30
0.0
 11
0.0
 21
0.0
 31
0.0
  0
LINE
  5
11E4B
330
11E49
100
AcDbEntity
  8
0
100
AcDbLine
 10
5.0
 20
4.25
 30
0.0
 11
5.0
 21
-2.0
 31
0.0
  0
LINE
  5
11E4C
330
11E49
100
AcDbEntity
  8
0
100
AcDbLine
 10
0.0
 20
0.0
 30
0.0
 11
2.25
 21
-0.0000000000000142
 31
0.0
  0
LINE
  5
11E4D
330
11E49
100
AcDbEntity
  8
0
100
AcDbLine
 10
4.4375
 20
-1.462500000000005
 30
0.0
 11
3.1875
 21
-1.462500000000005
 31
0.0
  0
LINE
  5
11E4E
330
11E49
100
AcDbEntity
  8
0
100
AcDbLine
 10
3.1875
 20
-1.837500000000005
 30
0.0
 11
4.4375
 21
-1.837500000000005
 31
0.0
  0
LINE
  5
11E4F
330
11E49
100
AcDbEntity
  8
0
100
AcDbLine
 10
5.0
 20
-2.0
 30
0.0
 11
2.25
 21
-2.0
 31
0.0
  0
LINE
  5
11E50
330
11E49
100
AcDbEntity
  8
0
100
AcDbLine
 10
2.25
 20
-2.0
 30
0.0
 11
2.25
 21
-1.837500000000019
 31
0.0
  0
LINE
  5
11E51
330
11E49
100
AcDbEntity
  8
0
100
AcDbLine
 10
2.25
 20
-1.462500000000019
 30
0.0
 11
2.25
 21
-0.0000000000000142
 31
0.0
  0
LINE
  5
11E52
330
11E49
100
AcDbEntity
  8
0
100
AcDbLine
 10
2.5
 20
-1.462500000000005
 30
0.0
 11
2.25
 21
-1.462500000000019
 31
0.0
  0
LINE
  5
11E53
330
11E49
100
AcDbEntity
  8
0
100
AcDbLine
 10
2.25
 20
-1.837500000000019
 30
0.0
 11
2.5
 21
-1.837500000000005
 31
0.0
  0
ARC
  5
11E54
330
11E49
100
AcDbEntity
  8
0
100
AcDbCircle
 10
3.1875
 20
-1.650000000000005
 30
0.0
 40
0.1875
100
AcDbArc
 50
90.0
 51
270.0
  0
ARC
  5
11E55
330
11E49
100
AcDbEntity
  8
0
100
AcDbCircle
 10
2.5
 20
-1.650000000000005
 30
0.0
 40
0.1875
100
AcDbArc
 50
270.0
 51
90.0
  0
ARC
  5
11E56
330
11E49
100
AcDbEntity
  8
0
100
AcDbCircle
 10
4.4375
 20
-1.650000000000005
 30
0.0
 40
0.1875
100
AcDbArc
 50
270.0
 51
90.0
  0
LINE
  5
11E57
330
11E49
100
AcDbEntity
  8
0
100
AcDbLine
 10
0.0
 20
4.25
 30
0.0
 11
5.0
 21
4.25
 31
0.0
  0
CIRCLE
  5
11E58
330
11E49
100
AcDbEntity
  8
0
100
AcDbCircle
 10
3.375
 20
2.599999999999994
 30
0.0
 40
0.5
  0
ENDBLK
  5
11E5A
330
11E49
100
AcDbEntity
  8
0
100
AcDbBlockEnd
  0
BLOCK
  5
11EB4
330
11EA9
100
AcDbEntity
  8
0
100
AcDbBlockBegin
  2
*D71
 70
     1
 10
0.0
 20
0.0
 30
0.0
  3
*D71
  1

  0
LINE
  5
12473
330
11EA9
100
AcDbEntity
  8
TEXT
 62
     0
370
    -2
100
AcDbLine
 10
140.6533828685875
 20
237.0538480112669
 30
0.0
 11
140.6533828685875
 21
243.5301141835794
 31
0.0
  0
LINE
  5
12474
330
11EA9
100
AcDbEntity
  8
TEXT
 62
     0
370
    -2
100
AcDbLine
 10
258.5097990135659
 20
301.5085881640447
 30
0.0
 11
258.5097990135659
 21
241.5301141835794
 31
0.0
  0
LINE
  5
12475
330
11EA9
100
AcDbEntity
  8
TEXT
 62
     0
370
    -2
100
AcDbLine
 10
143.6533828685875
 20
242.5301141835794
 30
0.0
 11
192.9871221409782
 21
242.5301141835794
 31
0.0
  0
LINE
  5
12476
330
11EA9
100
AcDbEntity
  8
TEXT
 62
     0
370
    -2
100
AcDbLine
 10
255.509799013566
 20
242.5301141835794
 30
0.0
 11
238.4037888076449
 21
242.5301141835794
 31
0.0
  0
SOLID
  5
12477
330
11EA9
100
AcDbEntity
  8
TEXT
 62
     0
100
AcDbTrace
 10
143.6533828685875
 20
243.0301141835794
 30
0.0
 11
143.6533828685875
 21
242.0301141835794
 31
0.0
 12
140.6533828685875
 22
242.5301141835794
 32
0.0
 13
140.6533828685875
 23
242.5301141835794
 33
0.0
  0
SOLID
  5
12478
330
11EA9
100
AcDbEntity
  8
TEXT
 62
     0
100
AcDbTrace
 10
255.509799013566
 20
243.0301141835794
 30
0.0
 11
255.509799013566
 21
242.0301141835794
 31
0.0
 12
258.5097990135659
 22
242.5301141835794
 32
0.0
 13
258.5097990135659
 23
242.5301141835794
 33
0.0
  0
MTEXT
  5
12479
330
11EA9
100
AcDbEntity
  8
TEXT
 62
     0
100
AcDbMText
 10
215.6954554743116
 20
242.5301141835794
 30
0.0
 40
1.75
 41
0.0
 46
0.0
 71
     5
 72
     1
  1
\A1;HORIZONTAL TRACK LENGTH\P(BACKROOM: DOOR HEIGHT+18")
  7
WEB PAGE
 73
     1
 44
1.0
  0
POINT
  5
1247A
330
11EA9
100
AcDbEntity
  8
Defpoints
 62
     0
100
AcDbPoint
 10
140.6533828685875
 20
235.0538480112669
 30
0.0
  0
POINT
  5
1247B
330
11EA9
100
AcDbEntity
  8
Defpoints
 62
     0
100
AcDbPoint
 10
258.5097990135659
 20
303.5085881640447
 30
0.0
  0
POINT
  5
1247C
330
11EA9
100
AcDbEntity
  8
Defpoints
 62
     0
100
AcDbPoint
 10
258.5097990135659
 20
242.5301141835794
 30
0.0
  0
ENDBLK
  5
11EB5
330
11EA9
100
AcDbEntity
  8
0
100
AcDbBlockEnd
  0
BLOCK
  5
12043
330
12034
100
AcDbEntity
  8
0
100
AcDbBlockBegin
  2
A$C2D8E259A
 70
     0
 10
0.0
 20
0.0
 30
0.0
  3
A$C2D8E259A
  1

  0
LINE
  5
12035
330
12034
100
AcDbEntity
  8
0
100
AcDbLine
 10
-0.0000004604032604
 20
2.095456975818166
 30
0.0
 11
0.9999995395967395
 21
2.095456975818166
 31
0.0
  0
LINE
  5
12036
330
12034
100
AcDbEntity
  8
0
100
AcDbLine
 10
0.0549995395967393
 20
2.040456975818166
 30
0.0
 11
0.9999995395967395
 21
2.040456975818166
 31
0.0
  0
LINE
  5
12037
330
12034
100
AcDbEntity
  8
0
100
AcDbLine
 10
0.8478670952251974
 20
0.3621827433166693
 30
0.0
 11
0.6627309988545634
 21
0.1415461353480936
 31
0.0
  0
LINE
  5
12038
330
12034
100
AcDbEntity
  8
0
100
AcDbLine
 10
0.8899995395967437
 20
0.3268294247839059
 30
0.0
 11
0.8478670952251974
 21
0.3621827433166658
 31
0.0
  0
LINE
  5
12039
330
12034
100
AcDbEntity
  8
0
100
AcDbLine
 10
0.2262781434198011
 20
0.2224495439404386
 30
0.0
 11
0.0549995395967393
 21
0.6071475867100134
 31
0.0
  0
LINE
  5
1203A
330
12034
100
AcDbEntity
  8
0
100
AcDbLine
 10
0.1751036101700158
 20
0.2021667940502745
 30
0.0
 11
-0.0000004604032569
 21
0.5954569758181663
 31
0.0
  0
ARC
  5
1203B
330
12034
100
AcDbEntity
  8
0
100
AcDbCircle
 10
0.4673896658592263
 20
0.3054569758181671
 30
0.0
 40
0.255
100
AcDbArc
 50
198.997042049035
 51
320.0
  0
LINE
  5
1203C
330
12034
100
AcDbEntity
  8
0
100
AcDbLine
 10
0.8899995395967366
 20
0.3268294247839059
 30
0.0
 11
0.7048634432261061
 21
0.1061928168153337
 31
0.0
  0
ARC
  5
1203D
330
12034
100
AcDbEntity
  8
0
100
AcDbCircle
 10
0.4673896658592263
 20
0.3054569758181671
 30
0.0
 40
0.31
100
AcDbArc
 50
199.4627615683172
 51
320.0
  0
LINE
  5
1203E
330
12034
100
AcDbEntity
  8
0
100
AcDbLine
 10
-0.0000004604032604
 20
1.184456975818165
 30
0.0
 11
0.0549995395967429
 21
1.184456975818165
 31
0.0
  0
LINE
  5
1203F
330
12034
100
AcDbEntity
  8
0
100
AcDbLine
 10
-0.0000004604032604
 20
1.456456975818166
 30
0.0
 11
0.0549995395967429
 21
1.456456975818166
 31
0.0
  0
LINE
  5
12040
330
12034
100
AcDbEntity
  8
0
100
AcDbLine
 10
0.0549995395967393
 20
0.6071475867100134
 30
0.0
 11
0.0549995395967393
 21
2.040456975818166
 31
0.0
  0
LINE
  5
12041
330
12034
100
AcDbEntity
  8
0
100
AcDbLine
 10
-0.0000004604032569
 20
0.5954569758181663
 30
0.0
 11
-0.0000004604032604
 21
2.095456975818166
 31
0.0
  0
LINE
  5
12042
330
12034
100
AcDbEntity
  8
0
100
AcDbLine
 10
0.9999995395967395
 20
2.095456975818166
 30
0.0
 11
0.9999995395967395
 21
2.040456975818166
 31
0.0
  0
ENDBLK
  5
12044
330
12034
100
AcDbEntity
  8
0
100
AcDbBlockEnd
  0
BLOCK
  5
1206B
330
1205E
100
AcDbEntity
  8
0
100
AcDbBlockBegin
  2
*D73
 70
     1
 10
0.0
 20
0.0
 30
0.0
  3
*D73
  1

  0
ARC
  5
124FF
330
1205E
100
AcDbEntity
  8
TEXT
 62
     0
370
    -2
100
AcDbCircle
 10
212.4903703104452
 20
220.3671558778753
 30
0.0
 40
5.663360582444576
100
AcDbArc
 50
118.5653662259096
 51
149.2826831129548
  0
ARC
  5
12500
330
1205E
100
AcDbEntity
  8
TEXT
 62
     0
370
    -2
100
AcDbCircle
 10
212.4903703104452
 20
220.3671558778753
 30
0.0
 40
5.663360582444576
100
AcDbArc
 50
255.7173168870451
 51
286.4346337740903
  0
SOLID
  5
12501
330
1205E
100
AcDbEntity
  8
TEXT
 62
     0
100
AcDbTrace
 10
208.1037343370437
 20
223.1275859662245
 30
0.0
 11
207.1394475727659
 21
223.3924463751926
 31
0.0
 12
206.8270097280005
 22
220.3671558778753
 32
0.0
 13
206.8270097280005
 23
220.3671558778753
 33
0.0
  0
SOLID
  5
12502
330
1205E
100
AcDbEntity
  8
TEXT
 62
     0
100
AcDbTrace
 10
210.8458999827392
 20
214.4442786987448
 30
0.0
 11
211.3404691015192
 21
215.3134170000232
 31
0.0
 12
208.485769638294
 22
216.3625552057242
 32
0.0
 13
208.485769638294
 23
216.3625552057242
 33
0.0
  0
MTEXT
  5
12503
330
1205E
100
AcDbEntity
  8
TEXT
 62
     0
100
AcDbMText
 10
207.1653107488574
 20
218.4391014822917
 30
0.0
 40
1.75
 41
0.0
 46
0.0
 71
     5
 72
     1
  1
\A1;45°
  7
WEB PAGE
 73
     1
 44
1.0
  0
POINT
  5
12504
330
1205E
100
AcDbEntity
  8
Defpoints
 62
     0
100
AcDbPoint
 10
207.5857561752567
 20
217.535475586653
 30
0.0
  0
POINT
  5
12505
330
1205E
100
AcDbEntity
  8
Defpoints
 62
     0
100
AcDbPoint
 10
200.7581372634113
 20
208.6349228308415
 30
0.0
  0
POINT
  5
12506
330
1205E
100
AcDbEntity
  8
Defpoints
 62
     0
100
AcDbPoint
 10
222.5778550162332
 20
220.3671558778752
 30
0.0
  0
POINT
  5
12507
330
1205E
100
AcDbEntity
  8
Defpoints
 62
     0
100
AcDbPoint
 10
200.7581372634113
 20
220.3671558778753
 30
0.0
  0
POINT
  5
12508
330
1205E
100
AcDbEntity
  8
Defpoints
 62
     0
100
AcDbPoint
 10
212.4903703104451
 20
220.3671558778752
 30
0.0
  0
ENDBLK
  5
1206C
330
1205E
100
AcDbEntity
  8
0
100
AcDbBlockEnd
  0
BLOCK
  5
12146
330
1210F
100
AcDbEntity
  8
0
100
AcDbBlockBegin
  2
2RA-129
 70
     0
 10
0.0
 20
0.0
 30
0.0
  3
2RA-129
  1

  0
LINE
  5
12110
330
1210F
100
AcDbEntity
  8
JAMB
 62
     7
100
AcDbLine
 10
-5.217125552899135
 20
88.74279650577301
 30
0.0
 11
-5.217125552899156
 21
-40.25720349422698
 31
0.0
  0
LINE
  5
12111
330
1210F
100
AcDbEntity
  8
REVERSE-ANGLE
 62
     7
100
AcDbLine
 10
-5.217125552899162
 20
-40.25720349422698
 30
0.0
 11
-5.217125552899178
 21
88.74279650577301
 31
0.0
  0
LINE
  5
12112
330
1210F
100
AcDbEntity
  8
REVERSE-ANGLE
 62
     7
100
AcDbLine
 10
-5.117125552899167
 20
-40.25720349422698
 30
0.0
 11
-5.117125552899183
 21
88.74279650577301
 31
0.0
  0
LINE
  5
12113
330
1210F
100
AcDbEntity
  8
REVERSE-ANGLE
 62
     7
100
AcDbLine
 10
-3.592125552899176
 20
-28.75720349422699
 30
0.0
 11
-3.592125552899162
 21
-7.757203494226985
 31
0.0
  0
CIRCLE
  5
12114
330
1210F
100
AcDbEntity
  8
REVERSE-ANGLE
 62
     7
100
AcDbCircle
 10
-4.44212555289917
 20
-31.007203494227
 30
0.0
 40
0.1325
  0
LINE
  5
12115
330
1210F
100
AcDbEntity
  8
REVERSE-ANGLE
 62
     7
100
AcDbLine
 10
-4.012125552899163
 20
-31.75720349422699
 30
0.0
 11
-4.012125552899163
 21
-28.75720349422699
 31
0.0
  0
LINE
  5
12116
330
1210F
100
AcDbEntity
  8
REVERSE-ANGLE
 62
     7
100
AcDbLine
 10
-4.012125552899163
 20
-31.75720349422699
 30
0.0
 11
-3.592125552899162
 21
-31.75720349422699
 31
0.0
  0
LINE
  5
12117
330
1210F
100
AcDbEntity
  8
REVERSE-ANGLE
 62
     7
100
AcDbLine
 10
-5.217125552899162
 20
-30.06470349422699
 30
0.0
 11
-5.117125552899167
 21
-30.06470349422699
 31
0.0
  0
LINE
  5
12118
330
1210F
100
AcDbEntity
  8
REVERSE-ANGLE
 62
     7
100
AcDbLine
 10
-5.217125552899162
 20
-30.44970349422698
 30
0.0
 11
-5.117125552899167
 21
-30.44970349422698
 31
0.0
  0
LINE
  5
12119
330
1210F
100
AcDbEntity
  8
REVERSE-ANGLE
 62
     7
100
AcDbLine
 10
-4.012125552899163
 20
-28.75720349422699
 30
0.0
 11
-3.592125552899162
 21
-28.75720349422699
 31
0.0
  0
CIRCLE
  5
1211A
330
1210F
100
AcDbEntity
  8
REVERSE-ANGLE
 62
     7
100
AcDbCircle
 10
-4.44212555289917
 20
-29.50720349422699
 30
0.0
 40
0.1325
  0
LINE
  5
1211B
330
1210F
100
AcDbEntity
  8
REVERSE-ANGLE
 62
     7
100
AcDbLine
 10
-3.592125552899176
 20
-4.757203494226978
 30
0.0
 11
-3.592125552899167
 21
16.24279650577301
 31
0.0
  0
LINE
  5
1211C
330
1210F
100
AcDbEntity
  8
REVERSE-ANGLE
 62
     7
100
AcDbLine
 10
-5.217125552899162
 20
-6.44970349422698
 30
0.0
 11
-5.117125552899167
 21
-6.44970349422698
 31
0.0
  0
LINE
  5
1211D
330
1210F
100
AcDbEntity
  8
REVERSE-ANGLE
 62
     7
100
AcDbLine
 10
-5.217125552899162
 20
-6.064703494226989
 30
0.0
 11
-5.117125552899167
 21
-6.064703494226989
 31
0.0
  0
LINE
  5
1211E
330
1210F
100
AcDbEntity
  8
REVERSE-ANGLE
 62
     7
100
AcDbLine
 10
-4.012125552899163
 20
-4.757203494226985
 30
0.0
 11
-3.592125552899162
 21
-4.757203494226985
 31
0.0
  0
LINE
  5
1211F
330
1210F
100
AcDbEntity
  8
REVERSE-ANGLE
 62
     7
100
AcDbLine
 10
-4.012125552899163
 20
-7.757203494226985
 30
0.0
 11
-3.592125552899162
 21
-7.757203494226985
 31
0.0
  0
LINE
  5
12120
330
1210F
100
AcDbEntity
  8
REVERSE-ANGLE
 62
     7
100
AcDbLine
 10
-4.012125552899163
 20
-7.757203494226985
 30
0.0
 11
-4.012125552899163
 21
-4.757203494226985
 31
0.0
  0
CIRCLE
  5
12121
330
1210F
100
AcDbEntity
  8
REVERSE-ANGLE
 62
     7
100
AcDbCircle
 10
-4.44212555289917
 20
-7.007203494226985
 30
0.0
 40
0.1325
  0
CIRCLE
  5
12122
330
1210F
100
AcDbEntity
  8
REVERSE-ANGLE
 62
     7
100
AcDbCircle
 10
-4.44212555289917
 20
-5.507203494226985
 30
0.0
 40
0.1325
  0
LINE
  5
12123
330
1210F
100
AcDbEntity
  8
UPPER-ANGLE
100
AcDbLine
 10
-5.217125552899162
 20
-40.25720349422698
 30
0.0
 11
-3.592125552899184
 21
-40.25720349422698
 31
0.0
  0
LINE
  5
12124
330
1210F
100
AcDbEntity
  8
UPPER-ANGLE
100
AcDbLine
 10
-3.592125552899184
 20
-40.25720349422698
 30
0.0
 11
-3.592125552899162
 21
-31.75720349422699
 31
0.0
  0
LINE
  5
12125
330
1210F
100
AcDbEntity
  8
UPPER-ANGLE
100
AcDbLine
 10
-5.217125552899098
 20
88.74279650577301
 30
0.0
 11
-3.59212555289912
 21
88.74279650577301
 31
0.0
  0
CIRCLE
  5
12126
330
1210F
100
AcDbEntity
  8
REVERSE-ANGLE
 62
     7
100
AcDbCircle
 10
-4.44212555289917
 20
18.49279650577301
 30
0.0
 40
0.1325
  0
CIRCLE
  5
12127
330
1210F
100
AcDbEntity
  8
REVERSE-ANGLE
 62
     7
100
AcDbCircle
 10
-4.44212555289917
 20
16.99279650577301
 30
0.0
 40
0.1325
  0
LINE
  5
12128
330
1210F
100
AcDbEntity
  8
REVERSE-ANGLE
 62
     7
100
AcDbLine
 10
-5.217125552899162
 20
17.93529650577301
 30
0.0
 11
-5.117125552899167
 21
17.93529650577301
 31
0.0
  0
LINE
  5
12129
330
1210F
100
AcDbEntity
  8
REVERSE-ANGLE
 62
     7
100
AcDbLine
 10
-5.217125552899162
 20
17.55029650577302
 30
0.0
 11
-5.117125552899167
 21
17.55029650577302
 31
0.0
  0
LINE
  5
1212A
330
1210F
100
AcDbEntity
  8
REVERSE-ANGLE
 62
     7
100
AcDbLine
 10
-4.012125552899163
 20
16.24279650577301
 30
0.0
 11
-3.592125552899161
 21
16.24279650577301
 31
0.0
  0
LINE
  5
1212B
330
1210F
100
AcDbEntity
  8
REVERSE-ANGLE
 62
     7
100
AcDbLine
 10
-4.012125552899163
 20
19.24279650577301
 30
0.0
 11
-3.592125552899161
 21
19.24279650577301
 31
0.0
  0
LINE
  5
1212C
330
1210F
100
AcDbEntity
  8
REVERSE-ANGLE
 62
     7
100
AcDbLine
 10
-4.012125552899163
 20
16.24279650577301
 30
0.0
 11
-4.012125552899163
 21
19.24279650577301
 31
0.0
  0
LINE
  5
1212D
330
1210F
100
AcDbEntity
  8
REVERSE-ANGLE
 62
     7
100
AcDbLine
 10
-4.012125552899163
 20
40.24279650577301
 30
0.0
 11
-4.012125552899163
 21
43.24279650577302
 31
0.0
  0
CIRCLE
  5
1212E
330
1210F
100
AcDbEntity
  8
REVERSE-ANGLE
 62
     7
100
AcDbCircle
 10
-4.44212555289917
 20
40.99279650577301
 30
0.0
 40
0.1325
  0
CIRCLE
  5
1212F
330
1210F
100
AcDbEntity
  8
REVERSE-ANGLE
 62
     7
100
AcDbCircle
 10
-4.44212555289917
 20
42.49279650577301
 30
0.0
 40
0.1325
  0
LINE
  5
12130
330
1210F
100
AcDbEntity
  8
REVERSE-ANGLE
 62
     7
100
AcDbLine
 10
-5.217125552899162
 20
41.55029650577302
 30
0.0
 11
-5.117125552899167
 21
41.55029650577302
 31
0.0
  0
LINE
  5
12131
330
1210F
100
AcDbEntity
  8
REVERSE-ANGLE
 62
     7
100
AcDbLine
 10
-5.217125552899162
 20
41.93529650577301
 30
0.0
 11
-5.117125552899167
 21
41.93529650577301
 31
0.0
  0
LINE
  5
12132
330
1210F
100
AcDbEntity
  8
REVERSE-ANGLE
 62
     7
100
AcDbLine
 10
-4.012125552899163
 20
40.24279650577301
 30
0.0
 11
-3.592125552899161
 21
40.24279650577301
 31
0.0
  0
LINE
  5
12133
330
1210F
100
AcDbEntity
  8
REVERSE-ANGLE
 62
     7
100
AcDbLine
 10
-4.012125552899163
 20
43.24279650577302
 30
0.0
 11
-3.592125552899161
 21
43.24279650577302
 31
0.0
  0
CIRCLE
  5
12134
330
1210F
100
AcDbEntity
  8
REVERSE-ANGLE
 62
     7
100
AcDbCircle
 10
-4.44212555289917
 20
72.49279650577303
 30
0.0
 40
0.1325
  0
CIRCLE
  5
12135
330
1210F
100
AcDbEntity
  8
REVERSE-ANGLE
 62
     7
100
AcDbCircle
 10
-4.44212555289917
 20
70.99279650577303
 30
0.0
 40
0.1325
  0
LINE
  5
12136
330
1210F
100
AcDbEntity
  8
REVERSE-ANGLE
 62
     7
100
AcDbLine
 10
-5.217125552899162
 20
65.93529650577301
 30
0.0
 11
-5.117125552899167
 21
65.93529650577301
 31
0.0
  0
LINE
  5
12137
330
1210F
100
AcDbEntity
  8
REVERSE-ANGLE
 62
     7
100
AcDbLine
 10
-5.217125552899162
 20
65.55029650577302
 30
0.0
 11
-5.117125552899167
 21
65.55029650577302
 31
0.0
  0
LINE
  5
12138
330
1210F
100
AcDbEntity
  8
REVERSE-ANGLE
 62
     7
100
AcDbLine
 10
-4.012125552899163
 20
70.24279650577303
 30
0.0
 11
-4.012125552899163
 21
73.24279650577302
 31
0.0
  0
LINE
  5
12139
330
1210F
100
AcDbEntity
  8
REVERSE-ANGLE
 62
     7
100
AcDbLine
 10
-4.012125552899163
 20
70.24279650577303
 30
0.0
 11
-3.592125552899161
 21
70.24279650577303
 31
0.0
  0
LINE
  5
1213A
330
1210F
100
AcDbEntity
  8
REVERSE-ANGLE
 62
     7
100
AcDbLine
 10
-4.012125552899163
 20
73.24279650577302
 30
0.0
 11
-3.592125552899161
 21
73.24279650577302
 31
0.0
  0
LINE
  5
1213B
330
1210F
100
AcDbEntity
  8
REVERSE-ANGLE
 62
     7
100
AcDbLine
 10
-3.592125552899144
 20
73.24279650577304
 30
0.0
 11
-3.592125552899138
 21
88.74279650577301
 31
0.0
  0
LINE
  5
1213C
330
1210F
100
AcDbEntity
  8
REVERSE-ANGLE
 62
     7
100
AcDbLine
 10
-3.592125552899155
 20
43.24279650577302
 30
0.0
 11
-3.592125552899146
 21
70.24279650577303
 31
0.0
  0
LINE
  5
1213D
330
1210F
100
AcDbEntity
  8
REVERSE-ANGLE
 62
     7
100
AcDbLine
 10
-3.592125552899166
 20
19.24279650577301
 30
0.0
 11
-3.592125552899156
 21
40.24279650577301
 31
0.0
  0
LINE
  5
1213E
330
1210F
100
AcDbEntity
  8
UPPER-ANGLE
100
AcDbLine
 10
-4.364071095616969
 20
83.495296505773
 30
0.0
 11
-4.364071095616969
 21
84.610296505773
 31
0.0
  0
LINE
  5
1213F
330
1210F
100
AcDbEntity
  8
UPPER-ANGLE
100
AcDbLine
 10
-3.979071095616968
 20
83.495296505773
 30
0.0
 11
-3.979071095616968
 21
84.610296505773
 31
0.0
  0
ARC
  5
12140
330
1210F
100
AcDbEntity
  8
UPPER-ANGLE
100
AcDbCircle
 10
-4.171571095616968
 20
88.260296505773
 30
0.0
 40
0.1925000000000002
100
AcDbArc
 50
0.0
 51
180.0
  0
ARC
  5
12141
330
1210F
100
AcDbEntity
  8
UPPER-ANGLE
100
AcDbCircle
 10
-4.171571095616968
 20
87.14529650577302
 30
0.0
 40
0.1925000000000002
100
AcDbArc
 50
180.0
 51
0.0
  0
ARC
  5
12142
330
1210F
100
AcDbEntity
  8
UPPER-ANGLE
100
AcDbCircle
 10
-4.171571095616968
 20
83.495296505773
 30
0.0
 40
0.1925000000000002
100
AcDbArc
 50
180.0
 51
0.0
  0
ARC
  5
12143
330
1210F
100
AcDbEntity
  8
UPPER-ANGLE
100
AcDbCircle
 10
-4.171571095616968
 20
84.610296505773
 30
0.0
 40
0.1925000000000002
100
AcDbArc
 50
0.0
 51
180.0
  0
LINE
  5
12144
330
1210F
100
AcDbEntity
  8
UPPER-ANGLE
100
AcDbLine
 10
-4.364071095616969
 20
87.14529650577302
 30
0.0
 11
-4.364071095616969
 21
88.260296505773
 31
0.0
  0
LINE
  5
12145
330
1210F
100
AcDbEntity
  8
UPPER-ANGLE
100
AcDbLine
 10
-3.979071095616969
 20
87.14529650577302
 30
0.0
 11
-3.979071095616968
 21
88.260296505773
 31
0.0
  0
ENDBLK
  5
12147
330
1210F
100
AcDbEntity
  8
0
100
AcDbBlockEnd
  0
BLOCK
  5
12156
330
12149
100
AcDbEntity
  8
0
100
AcDbBlockBegin
  2
t-4
 70
     0
 10
0.0
 20
0.0
 30
0.0
  3
t-4
  1

  0
LINE
  5
1214A
330
12149
100
AcDbEntity
  8
OUTSIDE
100
AcDbLine
 10
-0.4375
 20
1.9375
 30
0.0
 11
2.4375
 21
1.9375
 31
0.0
  0
ARC
  5
1214B
330
12149
100
AcDbEntity
  8
OUTSIDE
100
AcDbCircle
 10
0.890625
 20
0.71875
 30
0.0
 40
0.140625
100
AcDbArc
 50
90.0
 51
270.0
  0
LINE
  5
1214C
330
12149
100
AcDbEntity
  8
OUTSIDE
100
AcDbLine
 10
2.4375
 20
-0.5
 30
0.0
 11
-0.4375
 21
-0.5
 31
0.0
  0
LINE
  5
1214D
330
12149
100
AcDbEntity
  8
OUTSIDE
100
AcDbLine
 10
-0.4375
 20
-0.5
 30
0.0
 11
-0.4375
 21
1.9375
 31
0.0
  0
LINE
  5
1214E
330
12149
100
AcDbEntity
  8
OUTSIDE
100
AcDbLine
 10
0.4375
 20
-0.5
 30
0.0
 11
0.4375
 21
1.9375
 31
0.0
  0
TEXT
  5
1214F
330
12149
100
AcDbEntity
  8
OUTSIDE
100
AcDbText
 10
0.1023293143974229
 20
0.6536125580388159
 30
0.0
 40
0.2355474917550282
  1
4
 50
90.0
100
AcDbText
  0
CIRCLE
  5
12150
330
12149
100
AcDbEntity
  8
OUTSIDE
100
AcDbCircle
 10
0.0
 20
0.0
 30
0.0
 40
0.15625
  0
CIRCLE
  5
12151
330
12149
100
AcDbEntity
  8
OUTSIDE
100
AcDbCircle
 10
0.0
 20
1.5
 30
0.0
 40
0.15625
  0
LINE
  5
12152
330
12149
100
AcDbEntity
  8
OUTSIDE
100
AcDbLine
 10
2.4375
 20
1.9375
 30
0.0
 11
2.4375
 21
-0.5
 31
0.0
  0
ARC
  5
12153
330
12149
100
AcDbEntity
  8
OUTSIDE
100
AcDbCircle
 10
1.984375
 20
0.71875
 30
0.0
 40
0.140625
100
AcDbArc
 50
270.0
 51
90.0
  0
LINE
  5
12154
330
12149
100
AcDbEntity
  8
OUTSIDE
100
AcDbLine
 10
0.890625
 20
0.578125
 30
0.0
 11
1.984375
 21
0.578125
 31
0.0
  0
LINE
  5
12155
330
12149
100
AcDbEntity
  8
OUTSIDE
100
AcDbLine
 10
0.890625
 20
0.859375
 30
0.0
 11
1.984375
 21
0.859375
 31
0.0
  0
ENDBLK
  5
12157
330
12149
100
AcDbEntity
  8
0
100
AcDbBlockEnd
  0
BLOCK
  5
12166
330
12159
100
AcDbEntity
  8
0
100
AcDbBlockBegin
  2
t-5
 70
     0
 10
0.0
 20
0.0
 30
0.0
  3
t-5
  1

  0
LINE
  5
1215A
330
12159
100
AcDbEntity
  8
OUTSIDE
100
AcDbLine
 10
2.6875
 20
-0.5
 30
0.0
 11
-0.4375
 21
-0.5
 31
0.0
  0
LINE
  5
1215B
330
12159
100
AcDbEntity
  8
OUTSIDE
100
AcDbLine
 10
-0.4375
 20
1.9375
 30
0.0
 11
2.6875
 21
1.9375
 31
0.0
  0
LINE
  5
1215C
330
12159
100
AcDbEntity
  8
OUTSIDE
100
AcDbLine
 10
-0.4375
 20
-0.5
 30
0.0
 11
-0.4375
 21
1.9375
 31
0.0
  0
LINE
  5
1215D
330
12159
100
AcDbEntity
  8
OUTSIDE
100
AcDbLine
 10
0.4375
 20
-0.5
 30
0.0
 11
0.4375
 21
1.9375
 31
0.0
  0
CIRCLE
  5
1215E
330
12159
100
AcDbEntity
  8
OUTSIDE
100
AcDbCircle
 10
0.0
 20
1.5
 30
0.0
 40
0.15625
  0
CIRCLE
  5
1215F
330
12159
100
AcDbEntity
  8
OUTSIDE
100
AcDbCircle
 10
0.0
 20
0.0
 30
0.0
 40
0.15625
  0
TEXT
  5
12160
330
12159
100
AcDbEntity
  8
OUTSIDE
100
AcDbText
 10
0.1023293143974229
 20
0.6536125580388159
 30
0.0
 40
0.2355474917550282
  1
5
 50
90.0
100
AcDbText
  0
ARC
  5
12161
330
12159
100
AcDbEntity
  8
OUTSIDE
100
AcDbCircle
 10
1.140625
 20
0.71875
 30
0.0
 40
0.140625
100
AcDbArc
 50
90.0
 51
270.0
  0
ARC
  5
12162
330
12159
100
AcDbEntity
  8
OUTSIDE
100
AcDbCircle
 10
2.234375
 20
0.71875
 30
0.0
 40
0.140625
100
AcDbArc
 50
270.0
 51
90.0
  0
LINE
  5
12163
330
12159
100
AcDbEntity
  8
OUTSIDE
100
AcDbLine
 10
1.140625
 20
0.578125
 30
0.0
 11
2.234375
 21
0.578125
 31
0.0
  0
LINE
  5
12164
330
12159
100
AcDbEntity
  8
OUTSIDE
100
AcDbLine
 10
1.140625
 20
0.859375
 30
0.0
 11
2.234375
 21
0.859375
 31
0.0
  0
LINE
  5
12165
330
12159
100
AcDbEntity
  8
OUTSIDE
100
AcDbLine
 10
2.6875
 20
1.9375
 30
0.0
 11
2.6875
 21
-0.5
 31
0.0
  0
ENDBLK
  5
12167
330
12159
100
AcDbEntity
  8
0
100
AcDbBlockEnd
  0
BLOCK
  5
12176
330
12169
100
AcDbEntity
  8
0
100
AcDbBlockBegin
  2
t-6
 70
     0
 10
0.0
 20
0.0
 30
0.0
  3
t-6
  1

  0
LINE
  5
1216A
330
12169
100
AcDbEntity
  8
OUTSIDE
100
AcDbLine
 10
2.9375
 20
-0.5
 30
0.0
 11
2.9375
 21
1.9375
 31
0.0
  0
LINE
  5
1216B
330
12169
100
AcDbEntity
  8
OUTSIDE
100
AcDbLine
 10
0.4375
 20
-0.5
 30
0.0
 11
0.4375
 21
1.9375
 31
0.0
  0
LINE
  5
1216C
330
12169
100
AcDbEntity
  8
OUTSIDE
100
AcDbLine
 10
-0.4375
 20
-0.5
 30
0.0
 11
-0.4375
 21
1.9375
 31
0.0
  0
TEXT
  5
1216D
330
12169
100
AcDbEntity
  8
OUTSIDE
100
AcDbText
 10
0.1023293143974229
 20
0.6536125580388159
 30
0.0
 40
0.2355474917550282
  1
6
 50
90.0
100
AcDbText
  0
ARC
  5
1216E
330
12169
100
AcDbEntity
  8
OUTSIDE
100
AcDbCircle
 10
1.390625
 20
0.71875
 30
0.0
 40
0.140625
100
AcDbArc
 50
90.0
 51
270.0
  0
ARC
  5
1216F
330
12169
100
AcDbEntity
  8
OUTSIDE
100
AcDbCircle
 10
2.484375
 20
0.71875
 30
0.0
 40
0.140625
100
AcDbArc
 50
270.0
 51
90.0
  0
LINE
  5
12170
330
12169
100
AcDbEntity
  8
OUTSIDE
100
AcDbLine
 10
2.9375
 20
-0.5
 30
0.0
 11
-0.4375
 21
-0.5
 31
0.0
  0
CIRCLE
  5
12171
330
12169
100
AcDbEntity
  8
OUTSIDE
100
AcDbCircle
 10
0.0
 20
0.0
 30
0.0
 40
0.15625
  0
LINE
  5
12172
330
12169
100
AcDbEntity
  8
OUTSIDE
100
AcDbLine
 10
1.390625
 20
0.578125
 30
0.0
 11
2.484375
 21
0.578125
 31
0.0
  0
LINE
  5
12173
330
12169
100
AcDbEntity
  8
OUTSIDE
100
AcDbLine
 10
-0.4375
 20
1.9375
 30
0.0
 11
2.9375
 21
1.9375
 31
0.0
  0
CIRCLE
  5
12174
330
12169
100
AcDbEntity
  8
OUTSIDE
100
AcDbCircle
 10
0.0
 20
1.5
 30
0.0
 40
0.15625
  0
LINE
  5
12175
330
12169
100
AcDbEntity
  8
OUTSIDE
100
AcDbLine
 10
1.390625
 20
0.859375
 30
0.0
 11
2.484375
 21
0.859375
 31
0.0
  0
ENDBLK
  5
12177
330
12169
100
AcDbEntity
  8
0
100
AcDbBlockEnd
  0
BLOCK
  5
12186
330
12179
100
AcDbEntity
  8
0
100
AcDbBlockBegin
  2
t-7
 70
     0
 10
0.0
 20
0.0
 30
0.0
  3
t-7
  1

  0
LINE
  5
1217A
330
12179
100
AcDbEntity
  8
OUTSIDE
100
AcDbLine
 10
1.640625
 20
0.578125
 30
0.0
 11
2.734375
 21
0.578125
 31
0.0
  0
LINE
  5
1217B
330
12179
100
AcDbEntity
  8
OUTSIDE
100
AcDbLine
 10
1.640625
 20
0.859375
 30
0.0
 11
2.734375
 21
0.859375
 31
0.0
  0
LINE
  5
1217C
330
12179
100
AcDbEntity
  8
OUTSIDE
100
AcDbLine
 10
3.1875
 20
-0.5
 30
0.0
 11
-0.4375
 21
-0.5
 31
0.0
  0
LINE
  5
1217D
330
12179
100
AcDbEntity
  8
OUTSIDE
100
AcDbLine
 10
-0.4375
 20
1.9375
 30
0.0
 11
3.1875
 21
1.9375
 31
0.0
  0
ARC
  5
1217E
330
12179
100
AcDbEntity
  8
OUTSIDE
100
AcDbCircle
 10
1.640625
 20
0.71875
 30
0.0
 40
0.140625
100
AcDbArc
 50
90.0
 51
270.0
  0
TEXT
  5
1217F
330
12179
100
AcDbEntity
  8
OUTSIDE
100
AcDbText
 10
0.1023293143974229
 20
0.6536125580388159
 30
0.0
 40
0.2355474917550282
  1
7
 50
90.0
100
AcDbText
  0
CIRCLE
  5
12180
330
12179
100
AcDbEntity
  8
OUTSIDE
100
AcDbCircle
 10
0.0
 20
0.0
 30
0.0
 40
0.15625
  0
CIRCLE
  5
12181
330
12179
100
AcDbEntity
  8
OUTSIDE
100
AcDbCircle
 10
0.0
 20
1.5
 30
0.0
 40
0.15625
  0
LINE
  5
12182
330
12179
100
AcDbEntity
  8
OUTSIDE
100
AcDbLine
 10
0.4375
 20
-0.5
 30
0.0
 11
0.4375
 21
1.9375
 31
0.0
  0
LINE
  5
12183
330
12179
100
AcDbEntity
  8
OUTSIDE
100
AcDbLine
 10
-0.4375
 20
-0.5
 30
0.0
 11
-0.4375
 21
1.9375
 31
0.0
  0
ARC
  5
12184
330
12179
100
AcDbEntity
  8
OUTSIDE
100
AcDbCircle
 10
2.734375
 20
0.71875
 30
0.0
 40
0.140625
100
AcDbArc
 50
270.0
 51
90.0
  0
LINE
  5
12185
330
12179
100
AcDbEntity
  8
OUTSIDE
100
AcDbLine
 10
3.1875
 20
-0.5
 30
0.0
 11
3.1875
 21
1.9375
 31
0.0
  0
ENDBLK
  5
12187
330
12179
100
AcDbEntity
  8
0
100
AcDbBlockEnd
  0
BLOCK
  5
1219A
330
12189
100
AcDbEntity
  8
0
100
AcDbBlockBegin
  2
A$C5DFD450B
 70
     0
 10
0.0
 20
0.0
 30
0.0
  3
A$C5DFD450B
  1

  0
LINE
  5
1218A
330
12189
100
AcDbEntity
  8
OUTSIDE
100
AcDbLine
 10
4.249999232383288
 20
2.374999854020416
 30
0.0
 11
-0.0000007676167115
 21
2.374999854020416
 31
0.0
  0
LINE
  5
1218B
330
12189
100
AcDbEntity
  8
OUTSIDE
100
AcDbLine
 10
4.249999232383288
 20
-0.000000145979584
 30
0.0
 11
-0.0000007676167115
 21
-0.000000145979584
 31
0.0
  0
LINE
  5
1218C
330
12189
100
AcDbEntity
  8
OUTSIDE
100
AcDbLine
 10
3.869374232383393
 20
1.921624854020478
 30
0.0
 11
1.910624232383213
 21
1.92162485402045
 31
0.0
  0
LINE
  5
1218D
330
12189
100
AcDbEntity
  8
OUTSIDE
100
AcDbLine
 10
3.869374232383393
 20
1.640374854020478
 30
0.0
 11
1.910624232383213
 21
1.64037485402045
 31
0.0
  0
LINE
  5
1218E
330
12189
100
AcDbEntity
  8
OUTSIDE
100
AcDbLine
 10
3.869374232383393
 20
0.4543748540204433
 30
0.0
 11
1.910624232383213
 21
0.4543748540204149
 31
0.0
  0
LINE
  5
1218F
330
12189
100
AcDbEntity
  8
OUTSIDE
100
AcDbLine
 10
3.869374232383393
 20
0.7356248540204433
 30
0.0
 11
1.910624232383213
 21
0.7356248540204149
 31
0.0
  0
TEXT
  5
12190
330
12189
100
AcDbEntity
  8
OUTSIDE
100
AcDbText
 10
1.578058710696495
 20
0.954305879579806
 30
0.0
 40
0.2912332314499508
  1
10
 50
90.0
100
AcDbText
  0
ARC
  5
12191
330
12189
100
AcDbEntity
  8
OUTSIDE
100
AcDbCircle
 10
1.910624232383213
 20
1.780999854020421
 30
0.0
 40
0.1406249999999567
100
AcDbArc
 50
90.0
 51
270.0
  0
ARC
  5
12192
330
12189
100
AcDbEntity
  8
OUTSIDE
100
AcDbCircle
 10
1.910624232383213
 20
0.5949998540203865
 30
0.0
 40
0.1406249999999567
100
AcDbArc
 50
90.0
 51
270.0
  0
LINE
  5
12193
330
12189
100
AcDbEntity
  8
OUTSIDE
100
AcDbLine
 10
0.9999992323832884
 20
2.374999854020416
 30
0.0
 11
0.9999992323832884
 21
-0.000000145979584
 31
0.0
  0
LINE
  5
12194
330
12189
100
AcDbEntity
  8
OUTSIDE
100
AcDbLine
 10
-0.0000007676167115
 20
2.374999854020416
 30
0.0
 11
-0.0000007676167115
 21
-0.000000145979584
 31
0.0
  0
CIRCLE
  5
12195
330
12189
100
AcDbEntity
  8
OUTSIDE
100
AcDbCircle
 10
0.4999992323832885
 20
0.4374998540204161
 30
0.0
 40
0.15625
  0
CIRCLE
  5
12196
330
12189
100
AcDbEntity
  8
OUTSIDE
100
AcDbCircle
 10
0.4999992323832885
 20
1.937499854020416
 30
0.0
 40
0.15625
  0
ARC
  5
12197
330
12189
100
AcDbEntity
  8
OUTSIDE
100
AcDbCircle
 10
3.869374232383393
 20
0.5949998540203865
 30
0.0
 40
0.1406249999999567
100
AcDbArc
 50
270.0
 51
90.0
  0
ARC
  5
12198
330
12189
100
AcDbEntity
  8
OUTSIDE
100
AcDbCircle
 10
3.869374232383393
 20
1.780999854020421
 30
0.0
 40
0.1406249999999567
100
AcDbArc
 50
270.0
 51
90.0
  0
LINE
  5
12199
330
12189
100
AcDbEntity
  8
OUTSIDE
100
AcDbLine
 10
4.249999232383288
 20
2.374999854020416
 30
0.0
 11
4.249999232383288
 21
-0.000000145979584
 31
0.0
  0
ENDBLK
  5
1219B
330
12189
100
AcDbEntity
  8
0
100
AcDbBlockEnd
  0
BLOCK
  5
1219E
330
1219C
100
AcDbEntity
  8
0
100
AcDbBlockBegin
  2
RASPLT-10
 70
     0
 10
0.0
 20
0.0
 30
0.0
  3
RASPLT-10
  1

  0
INSERT
  5
1219D
330
1219C
100
AcDbEntity
  8
BDR
100
AcDbBlockReference
  2
A$C5DFD450B
 10
-0.4999992323832885
 20
-0.4374998540204161
 30
0.0
  0
ENDBLK
  5
1219F
330
1219C
100
AcDbEntity
  8
0
100
AcDbBlockEnd
  0
BLOCK
  5
1221A
330
121E0
100
AcDbEntity
  8
0
100
AcDbBlockBegin
  2
A$C3F6E7505
 70
     0
 10
0.0
 20
0.0
 30
0.0
  3
A$C3F6E7505
  1

  0
LINE
  5
121E1
330
121E0
100
AcDbEntity
  8
5
 62
     7
100
AcDbLine
 10
-0.0000001156382368
 20
0.0258240784121142
 30
0.0
 11
1.36107187041577
 21
112.0175536080912
 31
0.0
  0
LINE
  5
121E2
330
121E0
100
AcDbEntity
  8
5
 62
     7
100
AcDbLine
 10
3.485914953010173
 20
111.9917296976417
 30
0.0
 11
2.124842966956094
 21
0.0000001679626109
 31
0.0
  0
LINE
  5
121E3
330
121E0
100
AcDbEntity
  8
HIDDEN
 62
     7
100
AcDbLine
 10
3.04844725953481
 20
111.9970463850869
 30
0.0
 11
1.687375273480796
 21
0.0053168554079264
 31
0.0
  0
LINE
  5
121E4
330
121E0
100
AcDbEntity
  8
0
100
AcDbLine
 10
2.124842966956094
 20
0.0000001679626109
 30
0.0
 11
-0.0000001156382368
 21
0.0258240784121142
 31
0.0
  0
CIRCLE
  5
121E5
330
121E0
100
AcDbEntity
  8
5
 62
     7
100
AcDbCircle
 10
1.194628307235035
 20
0.6051492213700556
 30
0.0
 40
0.1405
  0
CIRCLE
  5
121E6
330
121E0
100
AcDbEntity
  8
5
 62
     7
100
AcDbCircle
 10
0.4446836898487448
 20
0.6142635427051744
 30
0.0
 40
0.1405
  0
CIRCLE
  5
121E7
330
121E0
100
AcDbEntity
  8
5
 62
     7
100
AcDbCircle
 10
0.827630422088788
 20
1.265857925942754
 30
0.0
 40
0.203
  0
CIRCLE
  5
121E8
330
121E0
100
AcDbEntity
  8
5
 62
     7
100
AcDbCircle
 10
0.8873526187947575
 20
9.265722894129311
 30
0.0
 40
0.1405
  0
CIRCLE
  5
121E9
330
121E0
100
AcDbEntity
  8
5
 62
     7
100
AcDbCircle
 10
0.9055812614651657
 20
10.76561212890178
 30
0.0
 40
0.1405
  0
ARC
  5
121EA
330
121E0
100
AcDbEntity
  8
5
 62
     7
100
AcDbCircle
 10
0.899757210131959
 20
10.28639751839202
 30
0.0
 40
0.1355
100
AcDbArc
 50
359.3036999999985
 51
179.3036999999984
  0
ARC
  5
121EB
330
121E0
100
AcDbEntity
  8
5
 62
     7
100
AcDbCircle
 10
0.8931766701279642
 20
9.744937504639068
 30
0.0
 40
0.1355
100
AcDbArc
 50
179.3036999999984
 51
359.3036999999985
  0
LINE
  5
121EC
330
121E0
100
AcDbEntity
  8
5
 62
     7
100
AcDbLine
 10
1.035247204339789
 20
10.28475086433749
 30
0.0
 11
1.028666664335794
 21
9.743290850584543
 31
0.0
  0
LINE
  5
121ED
330
121E0
100
AcDbEntity
  8
5
 62
     7
100
AcDbLine
 10
0.7576866759202474
 20
9.746584158693707
 30
0.0
 11
0.7642672159241855
 21
10.28804417244654
 31
0.0
  0
CIRCLE
  5
121EE
330
121E0
100
AcDbEntity
  8
5
 62
     7
100
AcDbCircle
 10
1.470669184246531
 20
57.26217840684896
 30
0.0
 40
0.1405
  0
ARC
  5
121EF
330
121E0
100
AcDbEntity
  8
5
 62
     7
100
AcDbCircle
 10
1.576949439686821
 20
32.07152667813622
 30
0.0
 40
0.0625
100
AcDbArc
 50
359.3036999999985
 51
89.30370000000007
  0
ARC
  5
121F0
330
121E0
100
AcDbEntity
  8
5
 62
     7
100
AcDbCircle
 10
1.563277957684029
 20
30.9466097520569
 30
0.0
 40
0.0625
100
AcDbArc
 50
269.3037
 51
359.3036999999985
  0
LINE
  5
121F1
330
121E0
100
AcDbEntity
  8
5
 62
     7
100
AcDbLine
 10
1.639444824468974
 20
32.07076715135836
 30
0.0
 11
1.625773342466239
 21
30.94585022527892
 31
0.0
  0
CIRCLE
  5
121F2
330
121E0
100
AcDbEntity
  8
5
 62
     7
100
AcDbCircle
 10
1.107201250527971
 20
29.42073951603104
 30
0.0
 40
0.1325
  0
LINE
  5
121F3
330
121E0
100
AcDbEntity
  8
5
 62
     7
100
AcDbLine
 10
1.326524489232106
 20
33.74144326188818
 30
0.0
 11
1.333105029236101
 21
34.28290327564102
 31
0.0
  0
LINE
  5
121F4
330
121E0
100
AcDbEntity
  8
5
 62
     7
100
AcDbLine
 10
1.062125040820554
 20
34.28619658375018
 30
0.0
 11
1.055544500816559
 21
33.74473656999735
 31
0.0
  0
ARC
  5
121F5
330
121E0
100
AcDbEntity
  8
5
 62
     7
100
AcDbCircle
 10
0.7020140527361676
 20
32.08216005302731
 30
0.0
 40
0.0625
100
AcDbArc
 50
89.30370000000007
 51
179.3036999999984
  0
ARC
  5
121F6
330
121E0
100
AcDbEntity
  8
5
 62
     7
100
AcDbCircle
 10
1.191034495024275
 20
33.74308991594271
 30
0.0
 40
0.1355
100
AcDbArc
 50
179.3036999999984
 51
359.3036999999985
  0
CIRCLE
  5
121F7
330
121E0
100
AcDbEntity
  8
5
 62
     7
100
AcDbCircle
 10
1.143658535868674
 20
32.42051798557597
 30
0.0
 40
0.1325
  0
CIRCLE
  5
121F8
330
121E0
100
AcDbEntity
  8
5
 62
     7
100
AcDbCircle
 10
1.185210443691069
 20
33.26387530543295
 30
0.0
 40
0.1405
  0
LINE
  5
121F9
330
121E0
100
AcDbEntity
  8
5
 62
     7
100
AcDbLine
 10
1.577708966464747
 20
32.13402206291843
 30
0.0
 11
0.7027735795140373
 21
32.14465543780952
 31
0.0
  0
CIRCLE
  5
121FA
330
121E0
100
AcDbEntity
  8
5
 62
     7
100
AcDbCircle
 10
1.20343908636142
 20
34.76376454020542
 30
0.0
 40
0.1405
  0
ARC
  5
121FB
330
121E0
100
AcDbEntity
  8
5
 62
     7
100
AcDbCircle
 10
1.19761503502827
 20
34.28454992969566
 30
0.0
 40
0.1355
100
AcDbArc
 50
359.3036999999985
 51
179.3036999999984
  0
CIRCLE
  5
121FC
330
121E0
100
AcDbEntity
  8
5
 62
     7
100
AcDbCircle
 10
1.182395616786045
 20
35.60788260208321
 30
0.0
 40
0.1325
  0
ARC
  5
121FD
330
121E0
100
AcDbEntity
  8
5
 62
     7
100
AcDbCircle
 10
0.6883425707333757
 20
30.95724312694799
 30
0.0
 40
0.0625
100
AcDbArc
 50
179.3036999999984
 51
269.3037
  0
CIRCLE
  5
121FE
330
121E0
100
AcDbEntity
  8
5
 62
     7
100
AcDbCircle
 10
1.121633474551465
 20
30.60825181950824
 30
0.0
 40
0.1325
  0
LINE
  5
121FF
330
121E0
100
AcDbEntity
  8
5
 62
     7
100
AcDbLine
 10
1.562518430906045
 20
30.88411436727469
 30
0.0
 11
0.6875830439554492
 21
30.89474774216578
 31
0.0
  0
LINE
  5
12200
330
121E0
100
AcDbEntity
  8
5
 62
     7
100
AcDbLine
 10
0.6395186679539578
 20
32.0829195798053
 30
0.0
 11
0.6258471859511659
 21
30.95800265372586
 31
0.0
  0
ARC
  5
12201
330
121E0
100
AcDbEntity
  8
5
 62
     7
100
AcDbCircle
 10
1.624040099918552
 20
35.94624053463187
 30
0.0
 40
0.0625
100
AcDbArc
 50
269.3037
 51
359.3036999999985
  0
LINE
  5
12202
330
121E0
100
AcDbEntity
  8
5
 62
     7
100
AcDbLine
 10
1.63847110869927
 20
37.1336528454934
 30
0.0
 11
0.7635357217486743
 21
37.14428622038437
 31
0.0
  0
LINE
  5
12203
330
121E0
100
AcDbEntity
  8
5
 62
     7
100
AcDbLine
 10
0.6866093281858028
 20
35.95763343630082
 30
0.0
 11
0.7002808101885947
 21
37.08255036238015
 31
0.0
  0
ARC
  5
12204
330
121E0
100
AcDbEntity
  8
5
 62
     7
100
AcDbCircle
 10
0.7627761949706909
 20
37.08179083560228
 30
0.0
 40
0.0625
100
AcDbArc
 50
89.30370000000007
 51
179.3036999999984
  0
ARC
  5
12205
330
121E0
100
AcDbEntity
  8
5
 62
     7
100
AcDbCircle
 10
0.7491047129679558
 20
35.95687390952296
 30
0.0
 40
0.0625
100
AcDbArc
 50
179.3036999999984
 51
269.3037
  0
CIRCLE
  5
12206
330
121E0
100
AcDbEntity
  8
5
 62
     7
100
AcDbCircle
 10
1.204420678103197
 20
37.42014876815094
 30
0.0
 40
0.1325
  0
CIRCLE
  5
12207
330
121E0
100
AcDbEntity
  8
5
 62
     7
100
AcDbCircle
 10
1.218852902126805
 20
38.60766107162815
 30
0.0
 40
0.1325
  0
LINE
  5
12208
330
121E0
100
AcDbEntity
  8
5
 62
     7
100
AcDbLine
 10
1.623280573140625
 20
35.88374514984966
 30
0.0
 11
0.7483451861899724
 21
35.89437852474075
 31
0.0
  0
LINE
  5
12209
330
121E0
100
AcDbEntity
  8
5
 62
     7
100
AcDbLine
 10
1.686535484700762
 20
35.94548100785388
 30
0.0
 11
1.700206966703554
 21
37.07039793393332
 31
0.0
  0
ARC
  5
1220A
330
121E0
100
AcDbEntity
  8
5
 62
     7
100
AcDbCircle
 10
1.637711581921344
 20
37.07115746071119
 30
0.0
 40
0.0625
100
AcDbArc
 50
359.3036999999985
 51
89.30370000000007
  0
CIRCLE
  5
1220B
330
121E0
100
AcDbEntity
  8
5
 62
     7
100
AcDbCircle
 10
1.488897826916826
 20
58.76206764162154
 30
0.0
 40
0.1405
  0
ARC
  5
1220C
330
121E0
100
AcDbEntity
  8
5
 62
     7
100
AcDbCircle
 10
1.483073775583733
 20
58.28285303111167
 30
0.0
 40
0.1355
100
AcDbArc
 50
359.3036999999985
 51
179.3036999999984
  0
LINE
  5
1220D
330
121E0
100
AcDbEntity
  8
5
 62
     7
100
AcDbLine
 10
1.611983229787512
 20
57.7397463633043
 30
0.0
 11
1.618563769791563
 21
58.28120637705715
 31
0.0
  0
LINE
  5
1220E
330
121E0
100
AcDbEntity
  8
5
 62
     7
100
AcDbLine
 10
1.347583781375959
 20
58.28449968516631
 30
0.0
 11
1.341003241371964
 21
57.74303967141335
 31
0.0
  0
ARC
  5
1220F
330
121E0
100
AcDbEntity
  8
5
 62
     7
100
AcDbCircle
 10
1.476493235579738
 20
57.74139301735883
 30
0.0
 40
0.1355
100
AcDbArc
 50
179.3036999999984
 51
359.3036999999985
  0
CIRCLE
  5
12210
330
121E0
100
AcDbEntity
  8
5
 62
     7
100
AcDbCircle
 10
1.76232746697233
 20
81.26040616320878
 30
0.0
 40
0.1405
  0
CIRCLE
  5
12211
330
121E0
100
AcDbEntity
  8
5
 62
     7
100
AcDbCircle
 10
1.780556109642738
 20
82.76029539798125
 30
0.0
 40
0.1405
  0
ARC
  5
12212
330
121E0
100
AcDbEntity
  8
5
 62
     7
100
AcDbCircle
 10
1.768151518305479
 20
81.73962077371854
 30
0.0
 40
0.1355
100
AcDbArc
 50
179.3036999999984
 51
359.3036999999985
  0
LINE
  5
12213
330
121E0
100
AcDbEntity
  8
5
 62
     7
100
AcDbLine
 10
1.90364151251331
 20
81.73797411966402
 30
0.0
 11
1.910222052517362
 21
82.27943413341696
 31
0.0
  0
LINE
  5
12214
330
121E0
100
AcDbEntity
  8
5
 62
     7
100
AcDbLine
 10
1.639242064101814
 20
82.28272744152603
 30
0.0
 11
1.632661524097819
 21
81.74126742777318
 31
0.0
  0
ARC
  5
12215
330
121E0
100
AcDbEntity
  8
5
 62
     7
100
AcDbCircle
 10
1.774732058309531
 20
82.28108078747149
 30
0.0
 40
0.1355
100
AcDbArc
 50
359.3036999999985
 51
179.3036999999984
  0
CIRCLE
  5
12216
330
121E0
100
AcDbEntity
  8
5
 62
     7
100
AcDbCircle
 10
2.158321337025569
 20
110.7577720643342
 30
0.0
 40
0.203
  0
LINE
  5
12217
330
121E0
100
AcDbEntity
  8
0
100
AcDbLine
 10
3.485914953010173
 20
111.9917296976417
 30
0.0
 11
1.36107187041577
 21
112.0175536080912
 31
0.0
  0
CIRCLE
  5
12218
330
121E0
100
AcDbEntity
  8
5
 62
     7
100
AcDbCircle
 10
1.791323451879321
 20
111.4184807689069
 30
0.0
 40
0.1405
  0
CIRCLE
  5
12219
330
121E0
100
AcDbEntity
  8
5
 62
     7
100
AcDbCircle
 10
2.541268069265555
 20
111.4093664475718
 30
0.0
 40
0.1405
  0
ENDBLK
  5
1221B
330
121E0
100
AcDbEntity
  8
0
100
AcDbBlockEnd
  0
BLOCK
  5
12255
330
12237
100
AcDbEntity
  8
0
100
AcDbBlockBegin
  2
A$C3C365376
 70
     0
 10
0.0
 20
0.0
 30
0.0
  3
A$C3C365376
  1

  0
LINE
  5
12238
330
12237
100
AcDbEntity
  8
0
100
AcDbLine
 10
117.8564162033925
 20
68.4547399640642
 30
0.0
 11
10.54130693244073
 21
13.77496067523876
 31
0.0
  0
LINE
  5
12239
330
12237
100
AcDbEntity
  8
0
  6
HIDDEN
100
AcDbLine
 10
117.5840219035487
 20
68.98934387857721
 30
0.0
 11
10.26891263259699
 21
14.3095645897518
 31
0.0
  0
ARC
  5
1223A
330
12237
100
AcDbEntity
  8
0
100
AcDbCircle
 10
17.56000005841414
 20
-0.0000001887134431
 30
0.0
 40
15.46
100
AcDbArc
 50
117.0000000000003
 51
180.0
  0
ARC
  5
1223B
330
12237
100
AcDbEntity
  8
0
100
AcDbCircle
 10
17.56000005841414
 20
-0.0000001887134431
 30
0.0
 40
17.56
100
AcDbArc
 50
117.0000000000003
 51
180.0
  0
ARC
  5
1223C
330
12237
100
AcDbEntity
  8
0
  6
HIDDEN
100
AcDbCircle
 10
17.56000005841414
 20
-0.0000001887134431
 30
0.0
 40
16.06
100
AcDbArc
 50
117.0000000000003
 51
180.0
  0
CIRCLE
  5
1223D
330
12237
100
AcDbEntity
  8
0
100
AcDbCircle
 10
6.646739689966466
 20
13.23838039697907
 30
0.0
 40
0.136
  0
CIRCLE
  5
1223E
330
12237
100
AcDbEntity
  8
0
100
AcDbCircle
 10
7.591206605606117
 20
13.71961032670299
 30
0.0
 40
0.25
  0
CIRCLE
  5
1223F
330
12237
100
AcDbEntity
  8
0
100
AcDbCircle
 10
11.1017723109083
 20
15.5083328956768
 30
0.0
 40
0.136
  0
LINE
  5
12240
330
12237
100
AcDbEntity
  8
FRAMING
100
AcDbLine
 10
2.100000058414224
 20
-0.0000001887134431
 30
0.0
 11
0.0000000584140878
 21
-0.0000001887134431
 31
0.0
  0
CIRCLE
  5
12241
330
12237
100
AcDbEntity
  8
0
100
AcDbCircle
 10
0.4398259673837118
 20
0.5999998112865228
 30
0.0
 40
0.136
  0
CIRCLE
  5
12242
330
12237
100
AcDbEntity
  8
0
100
AcDbCircle
 10
1.189825967383683
 20
0.5999998112864944
 30
0.0
 40
0.136
  0
ARC
  5
12243
330
12237
100
AcDbEntity
  8
0
  6
HIDDEN
100
AcDbCircle
 10
17.56000005841417
 20
-0.0000001887134431
 30
0.0
 40
16.06
100
AcDbArc
 50
178.9296554388587
 51
179.0210950958157
  0
LINE
  5
12244
330
12237
100
AcDbEntity
  8
0
100
AcDbLine
 10
116.9030361539394
 20
70.32585366485981
 30
0.0
 11
9.587926882987687
 21
15.64607437603436
 31
0.0
  0
CIRCLE
  5
12245
330
12237
100
AcDbEntity
  8
0
100
AcDbCircle
 10
28.03089627048729
 20
24.13415239072819
 30
0.0
 40
0.136
  0
CIRCLE
  5
12246
330
12237
100
AcDbEntity
  8
0
100
AcDbCircle
 10
28.03089627048729
 20
24.13415239072819
 30
0.0
 40
0.136
  0
CIRCLE
  5
12247
330
12237
100
AcDbEntity
  8
0
100
AcDbCircle
 10
49.41505285100811
 20
35.02992438447731
 30
0.0
 40
0.136
  0
CIRCLE
  5
12248
330
12237
100
AcDbEntity
  8
0
100
AcDbCircle
 10
49.41505285100811
 20
35.02992438447731
 30
0.0
 40
0.136
  0
CIRCLE
  5
12249
330
12237
100
AcDbEntity
  8
0
100
AcDbCircle
 10
70.79920943152893
 20
45.92569637822643
 30
0.0
 40
0.136
  0
CIRCLE
  5
1224A
330
12237
100
AcDbEntity
  8
0
100
AcDbCircle
 10
70.79920943152893
 20
45.92569637822643
 30
0.0
 40
0.136
  0
CIRCLE
  5
1224B
330
12237
100
AcDbEntity
  8
0
100
AcDbCircle
 10
85.50081708063704
 20
53.41653962392896
 30
0.0
 40
0.136
  0
CIRCLE
  5
1224C
330
12237
100
AcDbEntity
  8
0
100
AcDbCircle
 10
85.50081708063704
 20
53.41653962392896
 30
0.0
 40
0.136
  0
CIRCLE
  5
1224D
330
12237
100
AcDbEntity
  8
0
100
AcDbCircle
 10
92.18336601204976
 20
56.82146837197556
 30
0.0
 40
0.136
  0
CIRCLE
  5
1224E
330
12237
100
AcDbEntity
  8
0
100
AcDbCircle
 10
92.18336601204976
 20
56.82146837197556
 30
0.0
 40
0.136
  0
CIRCLE
  5
1224F
330
12237
100
AcDbEntity
  8
0
100
AcDbCircle
 10
116.5681880593118
 20
69.66141649437318
 30
0.0
 40
0.136
  0
LINE
  5
12250
330
12237
100
AcDbEntity
  8
0
100
AcDbLine
 10
117.8564162033925
 20
68.4547399640642
 30
0.0
 11
116.9030361539394
 21
70.32585366485981
 31
0.0
  0
CIRCLE
  5
12251
330
12237
100
AcDbEntity
  8
0
100
AcDbCircle
 10
113.7902742236177
 20
67.83073799065957
 30
0.0
 40
0.136
  0
CIRCLE
  5
12252
330
12237
100
AcDbEntity
  8
0
100
AcDbCircle
 10
113.7902742236177
 20
67.83073799065957
 30
0.0
 40
0.136
  0
CIRCLE
  5
12253
330
12237
100
AcDbEntity
  8
0
100
AcDbCircle
 10
116.9086809341164
 20
68.99316160123189
 30
0.0
 40
0.136
  0
CIRCLE
  5
12254
330
12237
100
AcDbEntity
  8
0
100
AcDbCircle
 10
116.157010303493
 20
69.03665025559283
 30
0.0
 40
0.2075
  0
ENDBLK
  5
12256
330
12237
100
AcDbEntity
  8
0
100
AcDbBlockEnd
  0
BLOCK
  5
12262
330
12257
100
AcDbEntity
  8
0
100
AcDbBlockBegin
  2
A$C73DC2C6A
 70
     0
 10
0.0
 20
0.0
 30
0.0
  3
A$C73DC2C6A
  1

  0
LINE
  5
12258
330
12257
100
AcDbEntity
  8
0
100
AcDbLine
 10
0.000000041477648
 20
1.625000210335571
 30
0.0
 11
15.25288226494265
 21
1.625000210335571
 31
0.0
  0
LINE
  5
12259
330
12257
100
AcDbEntity
  8
0
100
AcDbLine
 10
0.000000041477648
 20
0.0000002103355712
 30
0.0
 11
15.25288226494265
 21
0.0000002103355712
 31
0.0
  0
LINE
  5
1225A
330
12257
100
AcDbEntity
  8
0
100
AcDbLine
 10
0.000000041477648
 20
0.1030002103355798
 30
0.0
 11
15.25288226494265
 21
0.1030002103355798
 31
0.0
  0
LWPOLYLINE
  5
1225B
330
12257
100
AcDbEntity
  8
0
100
AcDbPolyline
 90
        4
 70
     1
 43
0.0
 10
6.373033806874474
 20
1.017500210335555
 10
8.623033806859353
 20
1.017500210335555
 42
-0.6078378199146741
 10
8.623033806874474
 20
0.6075002103355303
 10
6.373033806874644
 20
0.6075002103354735
 42
-0.6078378199146746
  0
LWPOLYLINE
  5
1225C
330
12257
100
AcDbEntity
  8
0
100
AcDbPolyline
 90
        4
 70
     1
 43
0.0
 10
0.3746067945560583
 20
1.017500210335555
 10
2.624606794540937
 20
1.017500210335555
 42
-0.6078378199146741
 10
2.624606794556058
 20
0.6075002103355303
 10
0.3746067945562288
 20
0.6075002103354735
 42
-0.6078378199146746
  0
LINE
  5
1225D
330
12257
100
AcDbEntity
  8
0
100
AcDbLine
 10
0.000000041477648
 20
1.625000210335571
 30
0.0
 11
0.000000041477648
 21
0.0000002103355712
 31
0.0
  0
LWPOLYLINE
  5
1225E
330
12257
100
AcDbEntity
  8
0
100
AcDbPolyline
 90
        4
 70
     1
 43
0.0
 10
3.373820300716971
 20
1.017500210335555
 10
5.623820300701851
 20
1.017500210335555
 42
-0.6078378199146741
 10
5.623820300716971
 20
0.6075002103355303
 10
3.373820300717142
 20
0.6075002103354735
 42
-0.6078378199146746
  0
LWPOLYLINE
  5
1225F
330
12257
100
AcDbEntity
  8
0
100
AcDbPolyline
 90
        4
 70
     1
 43
0.0
 10
9.372247313035387
 20
1.017500210335555
 10
11.62224731302027
 20
1.017500210335555
 42
-0.6078378199146741
 10
11.62224731303538
 20
0.6075002103355303
 10
9.372247313035558
 20
0.6075002103354735
 42
-0.6078378199146746
  0
LINE
  5
12260
330
12257
100
AcDbEntity
  8
0
100
AcDbLine
 10
15.25288226494265
 20
1.625000210335571
 30
0.0
 11
15.25288226494265
 21
0.0000002103355712
 31
0.0
  0
LWPOLYLINE
  5
12261
330
12257
100
AcDbEntity
  8
0
100
AcDbPolyline
 90
        4
 70
     1
 43
0.0
 10
12.37146081919289
 20
1.017500210335555
 10
14.62146081917777
 20
1.017500210335555
 42
-0.6078378199146741
 10
14.62146081919289
 20
0.6075002103355303
 10
12.37146081919306
 20
0.6075002103354735
 42
-0.6078378199146746
  0
ENDBLK
  5
12263
330
12257
100
AcDbEntity
  8
0
100
AcDbBlockEnd
  0
BLOCK
  5
12315
330
122E7
100
AcDbEntity
  8
0
100
AcDbBlockBegin
  2
A$C50016EAA
 70
     0
 10
0.0
 20
0.0
 30
0.0
  3
A$C50016EAA
  1

  0
LINE
  5
122E8
330
122E7
100
AcDbEntity
  8
0
100
AcDbLine
 10
117.6128614486177
 20
61.26325591506475
 30
0.0
 11
0.0000002557549692
 21
1.336509949440994
 31
0.0
  0
LINE
  5
122E9
330
122E7
100
AcDbEntity
  8
0
100
AcDbLine
 10
118.2484481482531
 20
60.01584678120102
 30
0.0
 11
0.6355869553904086
 21
0.0891008155772681
 31
0.0
  0
LINE
  5
122EA
330
122E7
100
AcDbEntity
  8
0
100
AcDbLine
 10
0.680986005364332
 20
0.000000163158461
 30
0.0
 11
118.293847198227
 21
59.92674612878222
 31
0.0
  0
ARC
  5
122EB
330
122E7
100
AcDbEntity
  8
0
100
AcDbCircle
 10
0.6518361797667467
 20
0.8942318376520148
 30
0.0
 40
0.195
100
AcDbArc
 50
117.0000000000017
 51
297.0000000000018
  0
LINE
  5
122EC
330
122E7
100
AcDbEntity
  8
0
100
AcDbLine
 10
0.0000002557549692
 20
1.336509949440994
 30
0.0
 11
0.680986005364332
 21
0.000000163158461
 31
0.0
  0
ARC
  5
122ED
330
122E7
100
AcDbEntity
  8
0
100
AcDbCircle
 10
7.645346388121197
 20
4.457603270107952
 30
0.0
 40
0.195
100
AcDbArc
 50
117.0000000000017
 51
297.0000000000018
  0
LINE
  5
122EE
330
122E7
100
AcDbEntity
  8
0
100
AcDbLine
 10
7.733874535570407
 20
4.283856997891234
 30
0.0
 11
8.109879288777904
 21
4.475440988781343
 31
0.0
  0
CIRCLE
  5
122EF
330
122E7
100
AcDbEntity
  8
0
100
AcDbCircle
 10
6.942342240536561
 20
4.099404765813432
 30
0.0
 40
0.195
  0
LINE
  5
122F0
330
122E7
100
AcDbEntity
  8
0
100
AcDbLine
 10
1.506629938018079
 20
1.110917395211387
 30
0.0
 11
0.7403643272159571
 21
0.7204855654352969
 31
0.0
  0
LINE
  5
122F1
330
122E7
100
AcDbEntity
  8
0
100
AcDbLine
 10
0.5633080323175364
 20
1.067978109868732
 30
0.0
 11
1.329573643119601
 21
1.458409939644823
 31
0.0
  0
CIRCLE
  5
122F2
330
122E7
100
AcDbEntity
  8
0
100
AcDbCircle
 10
2.763521642093223
 20
1.970189322034855
 30
0.0
 40
0.195
  0
CIRCLE
  5
122F3
330
122E7
100
AcDbEntity
  8
0
100
AcDbCircle
 10
2.095266748951985
 20
1.629696447230173
 30
0.0
 40
0.195
  0
ARC
  5
122F4
330
122E7
100
AcDbEntity
  8
0
100
AcDbCircle
 10
1.418101790568869
 20
1.284663667428105
 30
0.0
 40
0.195
100
AcDbArc
 50
297.0000000000018
 51
117.0000000000017
  0
CIRCLE
  5
122F5
330
122E7
100
AcDbEntity
  8
0
100
AcDbCircle
 10
3.431776535234519
 20
2.310682196839536
 30
0.0
 40
0.195
  0
CIRCLE
  5
122F6
330
122E7
100
AcDbEntity
  8
0
100
AcDbCircle
 10
6.556876211925953
 20
3.622418454912164
 30
0.0
 40
0.078
  0
CIRCLE
  5
122F7
330
122E7
100
AcDbEntity
  8
0
100
AcDbCircle
 10
6.270862197090025
 20
4.183752565150811
 30
0.0
 40
0.078
  0
ARC
  5
122F8
330
122E7
100
AcDbEntity
  8
0
100
AcDbCircle
 10
5.40179196021495
 20
3.314455191763741
 30
0.0
 40
0.195
100
AcDbArc
 50
297.0000000000018
 51
117.0000000000017
  0
CIRCLE
  5
122F9
330
122E7
100
AcDbEntity
  8
0
100
AcDbCircle
 10
4.322783059422874
 20
2.764672696579111
 30
0.0
 40
0.195
  0
ARC
  5
122FA
330
122E7
100
AcDbEntity
  8
0
100
AcDbCircle
 10
5.025787207007454
 20
3.122871200873632
 30
0.0
 40
0.195
100
AcDbArc
 50
117.0000000000017
 51
297.0000000000018
  0
LINE
  5
122FB
330
122E7
100
AcDbEntity
  8
0
100
AcDbLine
 10
5.114315354456664
 20
2.949124928656914
 30
0.0
 11
5.490320107664217
 21
3.140708919547023
 31
0.0
  0
LINE
  5
122FC
330
122E7
100
AcDbEntity
  8
0
100
AcDbLine
 10
4.937259059558243
 20
3.29661747309035
 30
0.0
 11
5.31326381276574
 21
3.488201463980459
 31
0.0
  0
CIRCLE
  5
122FD
330
122E7
100
AcDbEntity
  8
0
100
AcDbCircle
 10
9.615361813101628
 20
5.461376265032157
 30
0.0
 40
0.195
  0
ARC
  5
122FE
330
122E7
100
AcDbEntity
  8
0
100
AcDbCircle
 10
8.021351141328693
 20
4.649187260998061
 30
0.0
 40
0.195
100
AcDbArc
 50
297.0000000000018
 51
117.0000000000017
  0
LINE
  5
122FF
330
122E7
100
AcDbEntity
  8
0
100
AcDbLine
 10
7.556818240671987
 20
4.63134954232467
 30
0.0
 11
7.932822993879483
 21
4.822933533214794
 31
0.0
  0
CIRCLE
  5
12300
330
122E7
100
AcDbEntity
  8
0
100
AcDbCircle
 10
11.39737486147834
 20
6.369357264511307
 30
0.0
 40
0.195
  0
CIRCLE
  5
12301
330
122E7
100
AcDbEntity
  8
0
100
AcDbCircle
 10
13.17938790985505
 20
7.277338263990458
 30
0.0
 40
0.195
  0
CIRCLE
  5
12302
330
122E7
100
AcDbEntity
  8
0
100
AcDbCircle
 10
14.73864932718464
 20
8.071821638534714
 30
0.0
 40
0.1325
  0
CIRCLE
  5
12303
330
122E7
100
AcDbEntity
  8
0
100
AcDbCircle
 10
19.19368194812642
 20
10.34177413723259
 30
0.0
 40
0.1325
  0
ARC
  5
12304
330
122E7
100
AcDbEntity
  8
0
100
AcDbCircle
 10
36.03147773897592
 20
18.92105960606119
 30
0.0
 40
0.1325
100
AcDbArc
 50
117.0000000000017
 51
297.0000000000018
  0
LINE
  5
12305
330
122E7
100
AcDbEntity
  8
0
100
AcDbLine
 10
36.27428781764991
 20
18.89606929405283
 30
0.0
 11
36.09163148019138
 21
18.80300124160624
 31
0.0
  0
LINE
  5
12306
330
122E7
100
AcDbEntity
  8
0
100
AcDbLine
 10
35.97132399776041
 20
19.03911797051614
 30
0.0
 11
36.15398033521894
 21
19.13218602296271
 31
0.0
  0
ARC
  5
12307
330
122E7
100
AcDbEntity
  8
0
100
AcDbCircle
 10
36.21413407643445
 20
19.01412765850779
 30
0.0
 40
0.1325
100
AcDbArc
 50
297.0000000000018
 51
117.0000000000017
  0
LINE
  5
12308
330
122E7
100
AcDbEntity
  8
0
100
AcDbLine
 10
57.35548057828089
 20
29.93488996426592
 30
0.0
 11
57.53813691573942
 21
30.02795801671252
 31
0.0
  0
LINE
  5
12309
330
122E7
100
AcDbEntity
  8
0
100
AcDbLine
 10
57.65844439817044
 20
29.79184128780261
 30
0.0
 11
57.47578806071186
 21
29.69877323535602
 31
0.0
  0
ARC
  5
1230A
330
122E7
100
AcDbEntity
  8
0
100
AcDbCircle
 10
57.59829065695493
 20
29.90989965225756
 30
0.0
 40
0.1325
100
AcDbArc
 50
297.0000000000018
 51
117.0000000000017
  0
ARC
  5
1230B
330
122E7
100
AcDbEntity
  8
0
100
AcDbCircle
 10
57.4156343194964
 20
29.81683159981097
 30
0.0
 40
0.1325
100
AcDbArc
 50
117.0000000000017
 51
297.0000000000018
  0
LINE
  5
1230C
330
122E7
100
AcDbEntity
  8
0
100
AcDbLine
 10
79.04260097869081
 20
40.68761328155233
 30
0.0
 11
78.85994464123223
 21
40.59454522910576
 31
0.0
  0
LINE
  5
1230D
330
122E7
100
AcDbEntity
  8
0
100
AcDbLine
 10
78.73963715880131
 20
40.83066195801566
 30
0.0
 11
78.92229349625984
 21
40.92373001046223
 31
0.0
  0
ARC
  5
1230E
330
122E7
100
AcDbEntity
  8
0
100
AcDbCircle
 10
78.79979090001677
 20
40.71260359356071
 30
0.0
 40
0.1325
100
AcDbArc
 50
117.0000000000017
 51
297.0000000000018
  0
ARC
  5
1230F
330
122E7
100
AcDbEntity
  8
0
100
AcDbCircle
 10
78.9824472374753
 20
40.80567164600728
 30
0.0
 40
0.1325
100
AcDbArc
 50
297.0000000000018
 51
117.0000000000017
  0
ARC
  5
12310
330
122E7
100
AcDbEntity
  8
0
100
AcDbCircle
 10
100.1839474805373
 20
51.60837558731055
 30
0.0
 40
0.1325
100
AcDbArc
 50
117.0000000000017
 51
297.0000000000018
  0
ARC
  5
12311
330
122E7
100
AcDbEntity
  8
0
100
AcDbCircle
 10
100.3666038179959
 20
51.70144363975712
 30
0.0
 40
0.1325
100
AcDbArc
 50
297.0000000000018
 51
117.0000000000017
  0
LINE
  5
12312
330
122E7
100
AcDbEntity
  8
0
100
AcDbLine
 10
100.4267575592114
 20
51.58338527530216
 30
0.0
 11
100.2441012217529
 21
51.4903172228556
 31
0.0
  0
LINE
  5
12313
330
122E7
100
AcDbEntity
  8
0
100
AcDbLine
 10
100.1237937393218
 20
51.7264339517655
 30
0.0
 11
100.3064500767804
 21
51.81950200421207
 31
0.0
  0
LINE
  5
12314
330
122E7
100
AcDbEntity
  8
0
100
AcDbLine
 10
118.293847198227
 20
59.92674612878224
 30
0.0
 11
117.6128614486176
 21
61.26325591506478
 31
0.0
  0
ENDBLK
  5
12316
330
122E7
100
AcDbEntity
  8
0
100
AcDbBlockEnd
  0
BLOCK
  5
12449
330
1243E
100
AcDbEntity
  8
0
100
AcDbBlockBegin
  2
*D88
 70
     1
 10
0.0
 20
0.0
 30
0.0
  3
*D88
  1

  0
LINE
  5
1247D
330
1243E
100
AcDbEntity
  8
TEXT
 62
     0
370
    -2
100
AcDbLine
 10
132.2169295018095
 20
123.0362941793405
 30
0.0
 11
97.32620547692908
 21
123.0362941793405
 31
0.0
  0
LINE
  5
1247E
330
1243E
100
AcDbEntity
  8
TEXT
 62
     0
370
    -2
100
AcDbLine
 10
136.2169295018096
 20
252.0362941793405
 30
0.0
 11
97.3262054769291
 21
252.0362941793405
 31
0.0
  0
LINE
  5
1247F
330
1243E
100
AcDbEntity
  8
TEXT
 62
     0
370
    -2
100
AcDbLine
 10
98.32620547692908
 20
126.0362941793405
 30
0.0
 11
98.3262054769291
 21
182.4112941793405
 31
0.0
  0
LINE
  5
12480
330
1243E
100
AcDbEntity
  8
TEXT
 62
     0
370
    -2
100
AcDbLine
 10
98.32620547692911
 20
249.0362941793405
 30
0.0
 11
98.3262054769291
 21
192.6612941793405
 31
0.0
  0
SOLID
  5
12481
330
1243E
100
AcDbEntity
  8
TEXT
 62
     0
100
AcDbTrace
 10
97.82620547692907
 20
126.0362941793405
 30
0.0
 11
98.82620547692908
 21
126.0362941793405
 31
0.0
 12
98.32620547692908
 22
123.0362941793405
 32
0.0
 13
98.32620547692908
 23
123.0362941793405
 33
0.0
  0
SOLID
  5
12482
330
1243E
100
AcDbEntity
  8
TEXT
 62
     0
100
AcDbTrace
 10
97.82620547692911
 20
249.0362941793405
 30
0.0
 11
98.8262054769291
 21
249.0362941793405
 31
0.0
 12
98.32620547692911
 22
252.0362941793405
 32
0.0
 13
98.32620547692911
 23
252.0362941793405
 33
0.0
  0
MTEXT
  5
12483
330
1243E
100
AcDbEntity
  8
TEXT
 62
     0
100
AcDbMText
 10
98.32620547692906
 20
187.5362941793405
 30
0.0
 40
1.75
 41
0.0
 46
0.0
 71
     5
 72
     1
  1
\A1;2" CLIP STYLE\PREVERSE ANGLE\PDOOR HEIGHT+9"
  7
WEB PAGE
 73
     1
 44
1.0
  0
POINT
  5
12484
330
1243E
100
AcDbEntity
  8
Defpoints
 62
     0
100
AcDbPoint
 10
134.2169295018095
 20
123.0362941793405
 30
0.0
  0
POINT
  5
12485
330
1243E
100
AcDbEntity
  8
Defpoints
 62
     0
100
AcDbPoint
 10
138.2169295018096
 20
252.0362941793405
 30
0.0
  0
POINT
  5
12486
330
1243E
100
AcDbEntity
  8
Defpoints
 62
     0
100
AcDbPoint
 10
98.32620547692911
 20
252.0362941793405
 30
0.0
  0
ENDBLK
  5
1244A
330
1243E
100
AcDbEntity
  8
0
100
AcDbBlockEnd
  0
ENDSEC
  0
SECTION
  2
ENTITIES
  0
INSERT
  5
3374
330
17
100
AcDbEntity
  8
AME_FRZ
100
AcDbBlockReference
  2
AME_NIL
 10
0.0
 20
0.0
 30
0.0
 41
24.609375
 42
24.609375
 43
24.609375
  0
INSERT
  5
3375
330
17
100
AcDbEntity
  8
AME_FRZ
100
AcDbBlockReference
  2
AME_SOL
 10
0.0
 20
0.0
 30
0.0
 41
24.609375
 42
24.609375
 43
24.609375
1001
AME_SOL
1000
R2.1
1000
AME2
1000
sq cm
1070
     3
1070
     0
1070
     3
1000
wire
1040
45.0
1000
U
1040
1.0
1000
cm
1000
gm
1000
MILD_STEEL
1070
    25
1000
CSG
1070
     1
1070
     3
1070
     3
1070
     3
1070
     0
1000
cu cm
1070
     1
1070
     0
1005
2D0D
  0
INSERT
  5
3376
330
17
100
AcDbEntity
  8
ASHADE
 62
     1
100
AcDbBlockReference
  2
AVE_RENDER
 10
0.0
 20
0.0
 30
0.0
 41
24.609375
 42
24.609375
 43
24.609375
1001
AVE_RENDER
1002
{
1070
     2
1000
Pref
1070
    30
1070
    20
1070
     0
1070
     0
1000

1070
    10
1070
     0
1070
    30
1040
1.0
1070
     1
1040
0.3
1040
0.7
1040
0.0
1040
10.0
1010
-1.0
1020
-1.0
1030
-1.0
1040
0.3
1070
    49
1002
}
  0
INSERT
  5
3377
330
17
100
AcDbEntity
  8
ASHADE
 62
     3
100
AcDbBlockReference
  2
AVE_RENDER
 10
0.0
 20
0.0
 30
0.0
 41
24.609375
 42
24.609375
 43
24.609375
1001
AVE_RENDER
1002
{
1070
     0
1000
Full Opt
1070
     0
1070
     1
1070
     1
1070
     1
1070
     0
1070
     0
1070
     0
1070
     1
1070
     1
1040
0.0001
1040
0.0001
1002
}
  0
INSERT
  5
3378
330
17
100
AcDbEntity
  8
ASHADE
 62
     4
100
AcDbBlockReference
  2
AVE_RENDER
 10
0.0
 20
0.0
 30
0.0
 41
24.609375
 42
24.609375
 43
24.609375
1001
AVE_RENDER
1002
{
1070
     0
1000
Quick Opt
1070
     0
1070
     1
1070
     1
1070
     1
1070
     0
1070
     0
1070
     1
1002
}
  0
INSERT
  5
3E3C
330
17
100
AcDbEntity
  8
AME_FRZ
100
AcDbBlockReference
  2
AME_NIL
 10
0.0
 20
0.0
 30
0.0
 41
34.993056
 42
34.993056
 43
34.993056
  0
INSERT
  5
3E3D
330
17
100
AcDbEntity
  8
AME_FRZ
100
AcDbBlockReference
  2
AME_SOL
 10
0.0
 20
0.0
 30
0.0
 41
34.993056
 42
34.993056
 43
34.993056
1001
AME_SOL
1000
R2.1
1000
AME2
1000
sq cm
1070
     3
1070
     0
1070
     3
1000
wire
1040
45.0
1000
U
1040
1.0
1000
cm
1000
gm
1000
MILD_STEEL
1070
    25
1000
CSG
1070
     1
1070
     3
1070
     3
1070
     3
1070
     0
1000
cu cm
1070
     1
1070
     0
1005
2D0D
  0
INSERT
  5
3E3E
330
17
100
AcDbEntity
  8
ASHADE
 62
     1
100
AcDbBlockReference
  2
AVE_RENDER
 10
0.0
 20
0.0
 30
0.0
 41
34.993056
 42
34.993056
 43
34.993056
1001
AVE_RENDER
1002
{
1070
     2
1000
Pref
1070
    30
1070
    20
1070
     0
1070
     0
1000

1070
    10
1070
     0
1070
    30
1040
1.0
1070
     1
1040
0.3
1040
0.7
1040
0.0
1040
10.0
1010
-1.0
1020
-1.0
1030
-1.0
1040
0.3
1070
    49
1002
}
  0
INSERT
  5
3E3F
330
17
100
AcDbEntity
  8
ASHADE
 62
     3
100
AcDbBlockReference
  2
AVE_RENDER
 10
0.0
 20
0.0
 30
0.0
 41
34.993056
 42
34.993056
 43
34.993056
1001
AVE_RENDER
1002
{
1070
     0
1000
Full Opt
1070
     0
1070
     1
1070
     1
1070
     1
1070
     0
1070
     0
1070
     0
1070
     1
1070
     1
1040
0.0001
1040
0.0001
1002
}
  0
INSERT
  5
3E40
330
17
100
AcDbEntity
  8
ASHADE
 62
     4
100
AcDbBlockReference
  2
AVE_RENDER
 10
0.0
 20
0.0
 30
0.0
 41
34.993056
 42
34.993056
 43
34.993056
1001
AVE_RENDER
1002
{
1070
     0
1000
Quick Opt
1070
     0
1070
     1
1070
     1
1070
     1
1070
     0
1070
     0
1070
     1
1002
}
  0
MTEXT
  5
405A
330
17
100
AcDbEntity
  8
BDR
100
AcDbMText
 10
353.0635595970848
 20
56.58463448330076
 30
0.0
 40
0.1
 41
37.627
 46
0.0
 71
     1
 72
     5
  1

  7
SIMPLEX
 73
     1
 44
1.0
  0
MTEXT
  5
8913
330
17
100
AcDbEntity
  8
BDR
100
AcDbMText
 10
877.3233813939555
 20
282.200335478095
 30
0.0
 40
3.0
 41
0.0
 46
0.0
 71
     4
 72
     1
  1
\A1;
 73
     1
 44
1.0
  0
MTEXT
  5
BB0D
330
17
100
AcDbEntity
  8
HATCH
 48
0.5
100
AcDbMText
 10
862.711853351133
 20
170.0626199810501
 30
0.0
 40
1.1
 41
0.0
 46
0.0
 71
     4
 72
     1
  1

 73
     1
 44
1.0
  0
MTEXT
  5
BD7C
330
17
100
AcDbEntity
  8
BDR
100
AcDbMText
 10
648.3700742151118
 20
223.690432353357
 30
0.0
 40
2.5
 41
0.0
 46
0.0
 71
     1
 72
     1
  1

 73
     1
 44
1.0
  0
MTEXT
  5
CE5A
330
17
100
AcDbEntity
  8
BDR
100
AcDbMText
 10
645.7641368582438
 20
217.5930814931963
 30
0.0
 40
2.5
 41
0.0
 46
0.0
 71
     1
 72
     1
  1

 73
     1
 44
1.0
  0
MTEXT
  5
D3E4
330
17
100
AcDbEntity
  8
0
100
AcDbMText
 10
393.5054431651311
 20
218.3654697964034
 30
0.0
 40
2.5
 41
0.0
 46
0.0
 71
     1
 72
     1
  1

 73
     1
 44
1.0
  0
MTEXT
  5
D891
330
17
100
AcDbEntity
  8
BDR
100
AcDbMText
 10
278.8170020773584
 20
330.6127380359346
 30
0.0
 40
2.5
 41
0.0
 46
0.0
 71
     1
 72
     1
  1

 73
     1
 44
1.0
  0
MTEXT
  5
D894
330
17
100
AcDbEntity
  8
BDR
100
AcDbMText
 10
282.4572809863948
 20
283.699790306357
 30
0.0
 40
2.5
 41
0.0
 46
0.0
 71
     1
 72
     1
  1

 73
     1
 44
1.0
  0
MTEXT
  5
D8BC
330
17
100
AcDbEntity
  8
BDR
100
AcDbMText
 10
280.6377852630108
 20
262.5297979250931
 30
0.0
 40
2.5
 41
0.0
 46
0.0
 71
     1
 72
     1
  1

 73
     1
 44
1.0
  0
MTEXT
  5
D8BE
330
17
100
AcDbEntity
  8
BDR
100
AcDbMText
 10
280.052229178619
 20
230.2002619872308
 30
0.0
 40
2.5
 41
0.0
 46
0.0
 71
     1
 72
     1
  1

 73
     1
 44
1.0
  0
MTEXT
  5
D8C2
330
17
100
AcDbEntity
  8
BDR
100
AcDbMText
 10
210.2931674542633
 20
331.4813092531851
 30
0.0
 40
2.5
 41
0.0
 46
0.0
 71
     9
 72
     1
  1

 73
     1
 44
1.0
  0
MTEXT
  5
DE82
330
17
100
AcDbEntity
  8
0
100
AcDbMText
 10
230.9601867147205
 20
186.4290317625283
 30
0.0
 40
3.5
 41
0.0
 46
0.0
 71
     1
 72
     1
  1

 73
     1
 44
1.0
  0
DIMENSION
  5
11CDE
330
17
100
AcDbEntity
  8
TEXT
100
AcDbDimension
  2
*D64
 10
77.87781104861351
 20
255.753848011267
 30
0.0
 11
77.87781104861347
 21
202.7898988514811
 31
0.0
 70
   160
  1
FLOOR TO\PSHAFT CENTER
 71
     5
 42
132.7175538319264
 73
     0
 74
     0
 75
     0
  3
STANDARD
100
AcDbAlignedDimension
 13
134.2169295018095
 23
123.0362941793405
 33
0.0
 14
141.5919295018095
 24
255.753848011267
 34
0.0
 50
90.0
100
AcDbRotatedDimension
1001
ACAD
1000
DSTYLE
1002
{
1070
    40
1040
1.0
1002
}
  0
DIMENSION
  5
11CDF
330
17
100
AcDbEntity
  8
TEXT
100
AcDbDimension
  2
*D65
 10
61.38033843914927
 20
257.8220506712393
 30
0.0
 11
61.38033843914922
 21
181.424623123489
 31
0.0
 70
   160
  1
MINIMUM\PCEILING HEIGHT
 71
     5
 42
134.7857564918987
 73
     0
 74
     0
 75
     0
  3
STANDARD
100
AcDbAlignedDimension
 13
134.2169295018095
 23
123.0362941793405
 33
0.0
 14
138.2169295018095
 24
257.8220506712392
 34
0.0
 50
90.0
100
AcDbRotatedDimension
1001
ACAD
1000
DSTYLE
1002
{
1070
    40
1040
1.0
1002
}
  0
DIMENSION
  5
11CE0
330
17
100
AcDbEntity
  8
TEXT
100
AcDbDimension
  2
*D66
 10
175.0501848453942
 20
235.0280241008174
 30
0.0
 11
175.0501848453941
 21
174.879062324093
 31
0.0
 70
   160
  1
VERTICAL TRACK\PDOOR HEIGHT-8"
 71
     5
 42
111.9917299214769
 73
     0
 74
     0
 75
     0
  3
STANDARD
100
AcDbAlignedDimension
 13
209.4861505668555
 23
123.0362941793405
 33
0.0
 14
142.7782259511818
 24
235.0280241008174
 34
0.0
 50
90.0
100
AcDbRotatedDimension
1001
ACAD
1000
DSTYLE
1002
{
1070
    40
1040
1.0
1002
}
  0
DIMENSION
  5
11CE1
330
17
100
AcDbEntity
  8
TEXT
100
AcDbDimension
  2
*D67
 10
118.0575413775432
 20
123.0362941793405
 30
0.0
 11
118.0575413775432
 21
183.0362941793405
 31
0.0
 70
    32
  1
OPENING\PHEIGHT
 71
     5
 42
120.0
 73
     0
 74
     0
 75
     0
  3
STANDARD
100
AcDbAlignedDimension
 13
134.2169295018095
 23
243.0362941793405
 33
0.0
 14
134.2169295018095
 24
123.0362941793405
 34
0.0
 50
90.0
100
AcDbRotatedDimension
1001
ACAD
1000
DSTYLE
1002
{
1070
    40
1040
1.0
1002
}
  0
LINE
  5
11CE2
102
{ACAD_REACTORS
330
123F9
102
}
330
17
100
AcDbEntity
  8
BDR
100
AcDbLine
 10
134.2169295018095
 20
123.0362941793405
 30
0.0
 11
134.2169295018095
 21
260.273253823799
 31
0.0
  0
LINE
  5
11CE3
102
{ACAD_REACTORS
330
123F9
102
}
330
17
100
AcDbEntity
  8
BDR
100
AcDbLine
 10
138.2169295018095
 20
123.0362941793405
 30
0.0
 11
138.2169295018095
 21
257.8220506712392
 31
0.0
  0
LINE
  5
11CE5
330
17
100
AcDbEntity
  8
BDR
100
AcDbLine
 10
221.5803211345133
 20
123.0362941793405
 30
0.0
 11
134.2169295018095
 21
123.0362941793405
 31
0.0
  0
LINE
  5
11CE7
330
17
100
AcDbEntity
  8
BDR
100
AcDbLine
 10
143.2690223512286
 20
135.9017747485227
 30
0.0
 11
145.9563921309725
 21
137.8070675453008
 31
0.0
  0
SOLID
  5
11CE8
330
17
100
AcDbEntity
  8
BDR
100
AcDbTrace
 10
143.5582067749237
 20
135.4938870567593
 30
0.0
 11
142.9798379275332
 21
136.3096624402861
 31
0.0
 12
140.8216962006481
 22
134.1666682063514
 32
0.0
 13
140.8216962006481
 23
134.1666682063514
 33
0.0
  0
MTEXT
  5
11CE9
330
17
100
AcDbEntity
  8
TEXT
100
AcDbMText
 10
149.9938929532877
 20
137.040685061373
 30
0.0
 40
1.75
 41
0.0
 46
0.0
 71
     7
 72
     1
  1
TRACK CLIPS
  7
WEB PAGE
 73
     1
 44
1.0
  0
LINE
  5
11CEA
330
17
100
AcDbEntity
  8
TEXT
100
AcDbLine
 10
145.9563921309725
 20
137.8070675453008
 30
0.0
 11
148.9563921309725
 21
137.8070675453008
 31
0.0
  0
MTEXT
  5
11CF6
330
17
100
AcDbEntity
  8
TEXT
100
AcDbMText
 10
157.0663653248458
 20
240.3369547434022
 30
0.0
 40
1.75
 41
0.0
 46
0.0
 71
     1
 72
     1
  1
REVERSE ANGLE
  7
WEB PAGE
 73
     1
 44
1.0
  0
MTEXT
  5
11CF7
330
17
100
AcDbEntity
  8
TEXT
100
AcDbMText
 10
183.1133513972731
 20
246.6053473124685
 30
0.0
 40
1.75
 41
0.0
 46
0.0
 71
     6
 72
     1
  1
HORIZONTAL ANGLE
  7
WEB PAGE
 73
     1
 44
1.0
  0
LEADER
  5
11CFD
330
17
100
AcDbEntity
  8
TEXT
100
AcDbLeader
  3
STANDARD
 73
     0
 40
3.5
 76
     2
 10
143.3793752921564
 20
246.5133617297966
 30
0.0
 10
156.3503322076567
 20
246.5383155254471
 30
0.0
213
-30.35839136054324
223
2.172941992376536
233
0.0
1001
ACAD
1000
DSTYLE
1002
{
1070
    40
1040
1.0
1070
   147
1040
3.0
1002
}
  0
DIMENSION
  5
11CFE
330
17
100
AcDbEntity
  8
TEXT
100
AcDbDimension
  2
*D68
 10
118.0575413775432
 20
257.8220506712393
 30
0.0
 11
128.9325413775432
 21
272.3008621425022
 31
0.0
 70
   160
  1
MINIMUM\PHEADROOM
 71
     5
 42
14.78575649189875
 73
     0
 74
     0
 75
     0
  3
STANDARD
100
AcDbAlignedDimension
 13
134.2169295018095
 23
243.0362941793405
 33
0.0
 14
138.2169295018095
 24
257.8220506712392
 34
0.0
 50
90.0
100
AcDbRotatedDimension
1001
ACAD
1000
DSTYLE
1002
{
1070
    40
1040
1.0
1002
}
  0
LEADER
  5
11D00
330
17
100
AcDbEntity
  8
TEXT
100
AcDbLeader
  3
STANDARD
 73
     0
 40
3.5
 76
     2
 10
139.2985282537535
 20
239.0479843043865
 30
0.0
 10
156.1284595459425
 20
239.0460669276625
 30
0.0
213
-28.01915490533588
223
-1.822965986319815
233
0.0
1001
ACAD
1000
DSTYLE
1002
{
1070
    40
1040
1.0
1070
   147
1040
3.0
1002
}
  0
LINE
  5
11D06
102
{ACAD_REACTORS
330
123F9
102
}
330
17
100
AcDbEntity
  8
BDR
100
AcDbLine
 10
138.2169295018095
 20
243.0362941793405
 30
0.0
 11
134.2169295018095
 21
243.0362941793405
 31
0.0
  0
LINE
  5
11D0E
330
17
100
AcDbEntity
  8
0
100
AcDbLine
 10
196.5442936580307
 20
271.8915871095965
 30
0.0
 11
195.0527559571014
 21
271.8915871095965
 31
0.0
  0
LINE
  5
11D0F
330
17
100
AcDbEntity
  8
0
100
AcDbLine
 10
195.0527559571014
 20
271.8915871095965
 30
0.0
 11
195.0527559571014
 21
286.7813506932593
 31
0.0
  0
LINE
  5
11D10
330
17
100
AcDbEntity
  8
0
100
AcDbLine
 10
195.1770905398566
 20
271.8915871095965
 30
0.0
 11
195.1770905398562
 21
286.8447023274252
 31
0.0
  0
LINE
  5
11D12
330
17
100
AcDbEntity
  8
0
100
AcDbLine
 10
196.5442936580305
 20
271.8915871095965
 30
0.0
 11
196.5442936580308
 21
287.5413271107633
 31
0.0
  0
CIRCLE
  5
11D13
330
17
100
AcDbEntity
  8
0
100
AcDbCircle
 10
195.7985248075661
 20
278.5389297696824
 30
0.0
 40
0.2171678892550922
  0
CIRCLE
  5
11D14
330
17
100
AcDbEntity
  8
0
100
AcDbCircle
 10
195.7985248075661
 20
272.5608466643639
 30
0.0
 40
0.2171678892550922
  0
CIRCLE
  5
11D15
330
17
100
AcDbEntity
  8
0
100
AcDbCircle
 10
195.7985248075661
 20
274.5535410328034
 30
0.0
 40
0.2171678892550922
  0
CIRCLE
  5
11D16
330
17
100
AcDbEntity
  8
0
100
AcDbCircle
 10
195.7985248075661
 20
275.5475017567019
 30
0.0
 40
0.2171678892550922
  0
CIRCLE
  5
11D17
330
17
100
AcDbEntity
  8
0
100
AcDbCircle
 10
195.7985248075661
 20
273.5548073882624
 30
0.0
 40
0.2171678892550922
  0
CIRCLE
  5
11D18
330
17
100
AcDbEntity
  8
0
100
AcDbCircle
 10
195.7985248075661
 20
277.5401961251414
 30
0.0
 40
0.2171678892550922
  0
CIRCLE
  5
11D19
330
17
100
AcDbEntity
  8
0
100
AcDbCircle
 10
195.7985248075661
 20
276.5462354012429
 30
0.0
 40
0.2171678892550922
  0
MTEXT
  5
11D1B
330
17
100
AcDbEntity
  8
TEXT
100
AcDbMText
 10
225.4062139777748
 20
229.623495521782
 30
0.0
 40
1.75
 41
0.0
 46
0.0
 71
     4
 72
     1
  1
BACK AND INTERMEDIATE HANGERS\PSUPPLIED BY OTHERS
  7
WEB PAGE
 73
     1
 44
1.0
  0
LINE
  5
11D1C
330
17
100
AcDbEntity
  8
0
100
AcDbLine
 10
256.1313853157891
 20
303.4869113264092
 30
0.0
 11
256.1313853157891
 21
317.9024667717484
 31
0.0
  0
LINE
  5
11D1D
330
17
100
AcDbEntity
  8
0
100
AcDbLine
 10
256.2557198985443
 20
303.4869113264092
 30
0.0
 11
256.2557198985434
 21
317.965818405914
 31
0.0
  0
LINE
  5
11D1E
330
17
100
AcDbEntity
  8
0
100
AcDbLine
 10
257.6229230167181
 20
303.4869113264092
 30
0.0
 11
257.6229230167185
 21
318.6624431892524
 31
0.0
  0
LEADER
  5
11D1F
330
17
100
AcDbEntity
  8
TEXT
100
AcDbLeader
  3
STANDARD
 73
     0
 74
     0
 75
     1
 40
3.5
 76
     3
 10
217.7911493736647
 20
222.9182287834571
 30
0.0
 10
221.6898059606003
 20
230.9225568370987
 30
0.0
 10
224.6898059606003
 20
230.9225568370987
 30
0.0
213
-30.73869949890218
223
37.29359984281018
233
0.0
1001
ACAD
1000
DSTYLE
1002
{
1070
    40
1040
1.0
1002
}
  0
LINE
  5
11D20
330
17
100
AcDbEntity
  8
0
100
AcDbLine
 10
257.6229230167184
 20
303.4869113264092
 30
0.0
 11
256.1313853157891
 21
303.4869113264092
 31
0.0
  0
CIRCLE
  5
11D21
330
17
100
AcDbEntity
  8
0
100
AcDbCircle
 10
256.8771541662537
 20
304.1561708811766
 30
0.0
 40
0.2075
  0
CIRCLE
  5
11D22
330
17
100
AcDbEntity
  8
0
100
AcDbCircle
 10
256.8771541662537
 20
307.1428259735145
 30
0.0
 40
0.2171678892550922
  0
CIRCLE
  5
11D23
330
17
100
AcDbEntity
  8
0
100
AcDbCircle
 10
256.8771541662537
 20
308.1415596180557
 30
0.0
 40
0.2171678892550922
  0
CIRCLE
  5
11D24
330
17
100
AcDbEntity
  8
0
100
AcDbCircle
 10
256.8771541662537
 20
309.135520341954
 30
0.0
 40
0.2171678892550922
  0
CIRCLE
  5
11D25
330
17
100
AcDbEntity
  8
0
100
AcDbCircle
 10
256.8771541662537
 20
305.150131605075
 30
0.0
 40
0.2171678892550922
  0
CIRCLE
  5
11D26
330
17
100
AcDbEntity
  8
0
100
AcDbCircle
 10
256.8771541662537
 20
306.1488652496162
 30
0.0
 40
0.2171678892550922
  0
CIRCLE
  5
11D27
330
17
100
AcDbEntity
  8
0
100
AcDbCircle
 10
256.8771541662537
 20
310.1342539864952
 30
0.0
 40
0.2171678892550922
  0
CIRCLE
  5
11D28
330
17
100
AcDbEntity
  8
0
100
AcDbCircle
 10
256.8771541662537
 20
311.0064366584041
 30
0.0
 40
0.2171678892550922
  0
INSERT
  5
11E5B
330
17
100
AcDbEntity
  8
FRAMING
100
AcDbBlockReference
  2
WD-9-3-38
 10
138.2169295018095
 20
253.153848011267
 30
0.0
  0
CIRCLE
  5
11E86
330
17
100
AcDbEntity
  8
FRAMING
100
AcDbCircle
 10
141.5919295018095
 20
255.753848011267
 30
0.0
 40
2.375
  0
DIMENSION
  5
11EA8
330
17
100
AcDbEntity
  8
TEXT
100
AcDbDimension
  2
*D71
 10
258.5097990135659
 20
242.5301141835794
 30
0.0
 11
215.6954554743116
 21
242.5301141835794
 31
0.0
 70
   160
  1
HORIZONTAL TRACK LENGTH\P(BACKROOM: DOOR HEIGHT+18")
 71
     5
 42
117.8564161449784
 73
     0
 74
     0
 75
     0
  3
STANDARD
100
AcDbAlignedDimension
 13
140.6533828685875
 23
235.0538480112669
 33
0.0
 14
258.5097990135659
 24
303.5085881640447
 34
0.0
100
AcDbRotatedDimension
  0
LWPOLYLINE
  5
12008
330
17
100
AcDbEntity
  8
FRAMING
100
AcDbPolyline
 90
        6
 70
     0
 43
0.0
 10
198.2581372634113
 20
220.3671558778752
 10
194.5778550162331
 20
220.3671558778752
 10
194.5778550162331
 20
222.8671558778752
 10
222.5778550162331
 20
222.8671558778752
 10
222.5778550162331
 20
220.3671558778752
 10
200.7581372634113
 20
220.3671558778752
  0
LWPOLYLINE
  5
1200A
330
17
100
AcDbEntity
  8
FRAMING
100
AcDbPolyline
 90
        2
 70
     0
 43
0.0
 10
200.7581372634113
 20
208.6349228308415
 10
212.4903703104451
 20
220.3671558778752
  0
CIRCLE
  5
1200B
330
17
100
AcDbEntity
  8
FRAMING
100
AcDbCircle
 10
199.5081372634113
 20
199.6171558778752
 30
0.0
 40
0.5
  0
CIRCLE
  5
1200C
330
17
100
AcDbEntity
  8
FRAMING
100
AcDbCircle
 10
199.5081372634113
 20
201.6171558778752
 30
0.0
 40
0.5
  0
CIRCLE
  5
1200D
330
17
100
AcDbEntity
  8
FRAMING
100
AcDbCircle
 10
199.5081372634113
 20
203.6171558778752
 30
0.0
 40
0.5
  0
CIRCLE
  5
1200E
330
17
100
AcDbEntity
  8
FRAMING
100
AcDbCircle
 10
199.5081372634113
 20
205.6171558778753
 30
0.0
 40
0.5
  0
CIRCLE
  5
1200F
330
17
100
AcDbEntity
  8
FRAMING
100
AcDbCircle
 10
199.5081372634113
 20
207.6171558778753
 30
0.0
 40
0.5
  0
CIRCLE
  5
12010
330
17
100
AcDbEntity
  8
FRAMING
100
AcDbCircle
 10
199.5081372634113
 20
209.6171558778752
 30
0.0
 40
0.5
  0
CIRCLE
  5
12011
330
17
100
AcDbEntity
  8
FRAMING
100
AcDbCircle
 10
199.5081372634113
 20
211.6171558778752
 30
0.0
 40
0.5
  0
CIRCLE
  5
12012
330
17
100
AcDbEntity
  8
FRAMING
100
AcDbCircle
 10
199.5081372634113
 20
213.6171558778752
 30
0.0
 40
0.5
  0
CIRCLE
  5
12013
330
17
100
AcDbEntity
  8
FRAMING
100
AcDbCircle
 10
199.5081372634113
 20
215.6171558778752
 30
0.0
 40
0.5
  0
CIRCLE
  5
12014
330
17
100
AcDbEntity
  8
FRAMING
100
AcDbCircle
 10
199.5081372634113
 20
217.6171558778752
 30
0.0
 40
0.5
  0
CIRCLE
  5
12015
330
17
100
AcDbEntity
  8
FRAMING
100
AcDbCircle
 10
199.5081372634113
 20
219.6171558778752
 30
0.0
 40
0.5
  0
CIRCLE
  5
12016
330
17
100
AcDbEntity
  8
FRAMING
100
AcDbCircle
 10
199.5081372634113
 20
221.6171558778752
 30
0.0
 40
0.5
  0
CIRCLE
  5
12017
330
17
100
AcDbEntity
  8
FRAMING
100
AcDbCircle
 10
199.5081372634113
 20
221.6171558778752
 30
0.0
 40
0.5
  0
CIRCLE
  5
12018
330
17
100
AcDbEntity
  8
FRAMING
100
AcDbCircle
 10
201.5081372634113
 20
221.6171558778752
 30
0.0
 40
0.5
  0
CIRCLE
  5
12019
330
17
100
AcDbEntity
  8
FRAMING
100
AcDbCircle
 10
203.5081372634113
 20
221.6171558778752
 30
0.0
 40
0.5
  0
CIRCLE
  5
1201A
330
17
100
AcDbEntity
  8
FRAMING
100
AcDbCircle
 10
205.5081372634113
 20
221.6171558778752
 30
0.0
 40
0.5
  0
CIRCLE
  5
1201B
330
17
100
AcDbEntity
  8
FRAMING
100
AcDbCircle
 10
207.5081372634113
 20
221.6171558778752
 30
0.0
 40
0.5
  0
CIRCLE
  5
1201C
330
17
100
AcDbEntity
  8
FRAMING
100
AcDbCircle
 10
209.5081372634113
 20
221.6171558778752
 30
0.0
 40
0.5
  0
CIRCLE
  5
1201D
330
17
100
AcDbEntity
  8
FRAMING
100
AcDbCircle
 10
211.5081372634113
 20
221.6171558778752
 30
0.0
 40
0.5
  0
CIRCLE
  5
1201E
330
17
100
AcDbEntity
  8
FRAMING
100
AcDbCircle
 10
213.5081372634113
 20
221.6171558778752
 30
0.0
 40
0.5
  0
CIRCLE
  5
1201F
330
17
100
AcDbEntity
  8
FRAMING
100
AcDbCircle
 10
215.5081372634113
 20
221.6171558778752
 30
0.0
 40
0.5
  0
CIRCLE
  5
12020
330
17
100
AcDbEntity
  8
FRAMING
100
AcDbCircle
 10
217.5081372634113
 20
221.6171558778752
 30
0.0
 40
0.5
  0
CIRCLE
  5
12021
330
17
100
AcDbEntity
  8
FRAMING
100
AcDbCircle
 10
219.5081372634113
 20
221.6171558778752
 30
0.0
 40
0.5
  0
CIRCLE
  5
12022
330
17
100
AcDbEntity
  8
FRAMING
100
AcDbCircle
 10
221.5081372634113
 20
221.6171558778752
 30
0.0
 40
0.5
  0
CIRCLE
  5
12023
330
17
100
AcDbEntity
  8
FRAMING
100
AcDbCircle
 10
205.6086423267997
 20
211.7176609412636
 30
0.0
 40
0.5
  0
CIRCLE
  5
12024
330
17
100
AcDbEntity
  8
FRAMING
100
AcDbCircle
 10
204.1944287644266
 20
210.3034473788905
 30
0.0
 40
0.5
  0
CIRCLE
  5
12025
330
17
100
AcDbEntity
  8
FRAMING
100
AcDbCircle
 10
202.7802152020535
 20
208.8892338165174
 30
0.0
 40
0.5
  0
CIRCLE
  5
12026
330
17
100
AcDbEntity
  8
FRAMING
100
AcDbCircle
 10
201.3660016396804
 20
207.4750202541443
 30
0.0
 40
0.5
  0
CIRCLE
  5
12028
330
17
100
AcDbEntity
  8
FRAMING
100
AcDbCircle
 10
212.6797101386652
 20
218.788728753129
 30
0.0
 40
0.5
  0
CIRCLE
  5
12029
330
17
100
AcDbEntity
  8
FRAMING
100
AcDbCircle
 10
211.2654965762921
 20
217.3745151907559
 30
0.0
 40
0.5
  0
CIRCLE
  5
1202A
330
17
100
AcDbEntity
  8
FRAMING
100
AcDbCircle
 10
209.851283013919
 20
215.9603016283829
 30
0.0
 40
0.5
  0
CIRCLE
  5
1202B
330
17
100
AcDbEntity
  8
FRAMING
100
AcDbCircle
 10
208.4370694515459
 20
214.5460880660098
 30
0.0
 40
0.5
  0
CIRCLE
  5
1202C
330
17
100
AcDbEntity
  8
FRAMING
100
AcDbCircle
 10
207.0228558891728
 20
213.1318745036367
 30
0.0
 40
0.5
  0
CIRCLE
  5
1202D
330
17
100
AcDbEntity
  8
FRAMING
100
AcDbCircle
 10
215.5081372634113
 20
221.6171558778752
 30
0.0
 40
0.5
  0
ARC
  5
1202E
330
17
100
AcDbEntity
  8
FRAMING
100
AcDbCircle
 10
214.0939237010382
 20
220.2029423155021
 30
0.0
 40
0.5
100
AcDbArc
 50
160.8266638561468
 51
19.17333614385317
  0
CIRCLE
  5
12030
330
17
100
AcDbEntity
  8
FRAMING
100
AcDbCircle
 10
197.5081372634113
 20
221.6171558778752
 30
0.0
 40
0.5
  0
CIRCLE
  5
12032
330
17
100
AcDbEntity
  8
FRAMING
100
AcDbCircle
 10
195.5081372634113
 20
221.6171558778752
 30
0.0
 40
0.5
  0
ARC
  5
12033
330
17
100
AcDbEntity
  8
FRAMING
100
AcDbCircle
 10
198.5375745149341
 20
204.6465931293981
 30
0.0
 40
0.5
100
AcDbArc
 50
123.9779978142455
 51
236.0220021857545
  0
INSERT
  5
12045
330
17
100
AcDbEntity
  8
FRAMING
100
AcDbBlockReference
  2
A$C2D8E259A
 10
198.2581363426047
 20
198.8900626691171
 30
0.0
 41
-2.0
 42
2.0
 43
2.0
  0
LWPOLYLINE
  5
12046
330
17
100
AcDbEntity
  8
FRAMING
100
AcDbPolyline
 90
        3
 70
     0
 43
0.0
 10
198.2581372634113
 20
203.6138685890358
 10
196.9976101425085
 20
204.8743957099386
 10
198.2581372634113
 20
206.1349228308415
  0
LINE
  5
12047
330
17
100
AcDbEntity
  8
FRAMING
100
AcDbLine
 10
198.2581372634113
 20
222.5554516317567
 30
0.0
 11
200.7581372634113
 21
222.5554516317567
 31
0.0
  0
LINE
  5
12048
330
17
100
AcDbEntity
  8
FRAMING
100
AcDbLine
 10
200.7581372634113
 20
222.5554516317567
 30
0.0
 11
200.7581372634113
 21
198.5554516317567
 31
0.0
  0
LINE
  5
12049
330
17
100
AcDbEntity
  8
FRAMING
100
AcDbLine
 10
200.7581372634113
 20
198.5554516317567
 30
0.0
 11
198.2581372634113
 21
198.5554516317567
 31
0.0
  0
LINE
  5
1204A
330
17
100
AcDbEntity
  8
FRAMING
100
AcDbLine
 10
198.2581372634113
 20
198.5554516317567
 30
0.0
 11
198.2581372634113
 21
222.5554516317567
 31
0.0
  0
LINE
  5
1204B
330
17
100
AcDbEntity
  8
FRAMING
100
AcDbLine
 10
198.5511168937419
 20
198.5554516317567
 30
0.0
 11
198.5511168937419
 21
222.5554516317567
 31
0.0
  0
LWPOLYLINE
  5
1204C
330
17
100
AcDbEntity
  8
FRAMING
100
AcDbPolyline
 90
        2
 70
     0
 43
0.0
 10
216.0259042163777
 20
220.3671558778752
 10
200.7581372634113
 20
205.0993889249088
  0
DIMENSION
  5
1205D
330
17
100
AcDbEntity
  8
TEXT
100
AcDbDimension
  2
*D73
 10
212.4903703104451
 20
220.3671558778752
 30
0.0
 11
207.1653107488574
 21
218.4391014822917
 31
0.0
 70
   162
 71
     5
 42
0.7853981633974483
 73
     0
 74
     0
 75
     0
  3
STANDARD
100
AcDb2LineAngularDimension
 13
222.5778550162331
 23
220.3671558778752
 33
0.0
 14
200.7581372634113
 24
220.3671558778752
 34
0.0
 15
200.7581372634113
 25
208.6349228308415
 35
0.0
 16
207.5857561752567
 26
217.535475586653
 36
0.0
  0
TEXT
  5
1208F
330
17
100
AcDbEntity
  8
TEXT
100
AcDbText
 10
132.1817576815988
 20
102.4239887196871
 30
0.0
 40
3.0
  1
%%USTANDARD LIFT FOLLOW THE ROOF PITCH
  7
WEB PAGE
 72
     1
 11
177.5245839252903
 21
102.4239887196871
 31
0.0
100
AcDbText
  0
TEXT
  5
12096
330
17
100
AcDbEntity
  8
TEXT
100
AcDbText
 10
208.6113642714308
 20
188.3115139494183
 30
0.0
 40
3.0
  1
%%USECTION A-A
  7
WEB PAGE
100
AcDbText
  0
TEXT
  5
12097
330
17
100
AcDbEntity
  8
TEXT
100
AcDbText
 10
195.7204008542803
 20
182.4050137618977
 30
0.0
 40
3.0
  1
%%USUPPORT HANGER DETAIL
  7
WEB PAGE
100
AcDbText
  0
INSERT
  5
12148
102
{ACAD_REACTORS
330
123F9
102
}
330
17
100
AcDbEntity
  8
FRAMING
100
AcDbBlockReference
  2
2RA-129
 10
143.4340550547087
 20
163.2934976735675
 30
0.0
  0
INSERT
  5
12158
330
17
100
AcDbEntity
  8
FRAMING
100
AcDbBlockReference
  2
t-4
 10
138.9919295018095
 20
132.2862941793405
 30
0.0
  0
INSERT
  5
12168
330
17
100
AcDbEntity
  8
FRAMING
100
AcDbBlockReference
  2
t-5
 10
138.9919295018095
 20
156.2862941793405
 30
0.0
  0
INSERT
  5
12178
330
17
100
AcDbEntity
  8
FRAMING
100
AcDbBlockReference
  2
t-6
 10
138.9919295018095
 20
180.2862941793405
 30
0.0
  0
INSERT
  5
12188
330
17
100
AcDbEntity
  8
FRAMING
100
AcDbBlockReference
  2
t-7
 10
138.9919295018095
 20
204.2862941793405
 30
0.0
  0
INSERT
  5
121A0
330
17
100
AcDbEntity
  8
FRAMING
100
AcDbBlockReference
  2
RASPLT-10
 10
138.9919295018095
 20
234.2862941793405
 30
0.0
  0
INSERT
  5
1221C
330
17
100
AcDbEntity
  8
FRAMING
100
AcDbBlockReference
  2
A$C3F6E7505
 10
139.2923109981717
 20
123.0362944031758
 30
0.0
  0
INSERT
  5
1226B
330
17
100
AcDbEntity
  8
FRAMING
100
AcDbBlockReference
  2
A$C3C365376
 10
140.6533828101734
 20
235.0538481999805
 30
0.0
  0
INSERT
  5
1226D
330
17
100
AcDbEntity
  8
FRAMING
100
AcDbBlockReference
  2
A$C73DC2C6A
 10
138.3071483378936
 20
250.693848011267
 30
0.0
  0
LINE
  5
1226E
102
{ACAD_REACTORS
330
123F9
102
}
330
17
100
AcDbEntity
  8
FRAMING
100
AcDbLine
 10
138.2169295018095
 20
257.8220506712392
 30
0.0
 11
259.103580881753
 21
319.4168760534815
 31
0.0
  0
LINE
  5
12284
102
{ACAD_REACTORS
330
123F9
102
}
330
17
100
AcDbEntity
  8
FRAMING
100
AcDbLine
 10
134.2169295018095
 20
260.273253823799
 30
0.0
 11
257.2876188827948
 21
322.980902150235
 31
0.0
  0
CIRCLE
  5
12288
330
17
100
AcDbEntity
  8
0
100
AcDbCircle
 10
256.8771541662537
 20
312.0003973823025
 30
0.0
 40
0.2171678892550922
  0
CIRCLE
  5
12289
330
17
100
AcDbEntity
  8
0
100
AcDbCircle
 10
256.8771541662537
 20
312.9991310268437
 30
0.0
 40
0.2171678892550922
  0
CIRCLE
  5
1228A
330
17
100
AcDbEntity
  8
0
100
AcDbCircle
 10
256.8771541662537
 20
313.8713136987526
 30
0.0
 40
0.2171678892550922
  0
CIRCLE
  5
1228B
330
17
100
AcDbEntity
  8
0
100
AcDbCircle
 10
256.8771541662537
 20
314.8652744226509
 30
0.0
 40
0.2171678892550922
  0
CIRCLE
  5
1228C
330
17
100
AcDbEntity
  8
0
100
AcDbCircle
 10
256.8771541662537
 20
315.8640080671921
 30
0.0
 40
0.2171678892550922
  0
CIRCLE
  5
1228D
330
17
100
AcDbEntity
  8
0
100
AcDbCircle
 10
256.8771541662537
 20
316.7361907391011
 30
0.0
 40
0.2171678892550922
  0
CIRCLE
  5
1228F
330
17
100
AcDbEntity
  8
0
100
AcDbCircle
 10
256.8771541662537
 20
317.60837341101
 30
0.0
 40
0.2171678892550922
  0
CIRCLE
  5
12290
330
17
100
AcDbEntity
  8
0
100
AcDbCircle
 10
195.7985248075661
 20
279.5376634142235
 30
0.0
 40
0.2171678892550922
  0
CIRCLE
  5
12291
330
17
100
AcDbEntity
  8
0
100
AcDbCircle
 10
195.7985248075661
 20
281.530357782663
 30
0.0
 40
0.2171678892550922
  0
CIRCLE
  5
12292
330
17
100
AcDbEntity
  8
0
100
AcDbCircle
 10
195.7985248075661
 20
280.531624138122
 30
0.0
 40
0.2171678892550922
  0
CIRCLE
  5
12293
330
17
100
AcDbEntity
  8
0
100
AcDbCircle
 10
195.7985248075661
 20
282.5290914272041
 30
0.0
 40
0.2171678892550922
  0
CIRCLE
  5
12294
330
17
100
AcDbEntity
  8
0
100
AcDbCircle
 10
195.7985248075661
 20
284.5217857956436
 30
0.0
 40
0.2171678892550922
  0
CIRCLE
  5
12295
330
17
100
AcDbEntity
  8
0
100
AcDbCircle
 10
195.7985248075661
 20
283.5230521511025
 30
0.0
 40
0.2171678892550922
  0
CIRCLE
  5
12296
330
17
100
AcDbEntity
  8
0
100
AcDbCircle
 10
195.7985248075661
 20
285.5205194401847
 30
0.0
 40
0.2171678892550922
  0
CIRCLE
  5
12298
330
17
100
AcDbEntity
  8
0
100
AcDbCircle
 10
195.7985248075661
 20
286.5144801640831
 30
0.0
 40
0.2171678892550922
  0
INSERT
  5
12317
330
17
100
AcDbEntity
  8
FRAMING
100
AcDbBlockReference
  2
A$C50016EAA
 10
138.4421162325981
 20
243.2167442567063
 30
0.0
  0
LINE
  5
12318
102
{ACAD_REACTORS
330
123F9
102
}
330
17
100
AcDbEntity
  8
FRAMING
100
AcDbLine
 10
257.2876188827948
 20
322.980902150235
 30
0.0
 11
259.103580881753
 21
319.4168760534815
 31
0.0
  0
LINE
  5
12324
330
17
100
AcDbEntity
  8
SECTION JOINTS
100
AcDbLine
 10
269.2183927985405
 20
304.2059243943392
 30
0.0
 11
275.3307977656155
 21
307.7196215584956
 31
0.0
1001
ACAD
1000
DSTYLE
1002
{
1070
   147
1040
1.0
1070
    77
1070
     0
1002
}
  0
LINE
  5
12325
330
17
100
AcDbEntity
  8
SECTION JOINTS
100
AcDbLine
 10
260.7709983654034
 20
333.0477548652932
 30
0.0
 11
275.3307977656155
 21
307.7196215584956
 31
0.0
1001
ACAD
1000
DSTYLE
1002
{
1070
   147
1040
1.0
1070
    77
1070
     0
1002
}
  0
TEXT
  5
12326
330
17
100
AcDbEntity
  8
SECTION JOINTS
100
AcDbText
 10
264.2860136337438
 20
301.0027046993995
 30
0.0
 40
2.0
  1
A
  7
WEB PAGE
100
AcDbText
  0
SOLID
  5
12327
330
17
100
AcDbEntity
  8
SECTION JOINTS
100
AcDbTrace
 10
268.9692071076706
 20
304.6394062180246
 30
0.0
 11
266.6175018564276
 21
302.7108102491198
 31
0.0
 12
269.4675784894104
 22
303.7724425706537
 32
0.0
 13
269.4675784894104
 23
303.7724425706537
 33
0.0
1001
ACAD
1000
DSTYLE
1002
{
1070
   147
1040
1.0
1070
    77
1070
     0
1002
}
  0
LINE
  5
12328
330
17
100
AcDbEntity
  8
SECTION JOINTS
100
AcDbLine
 10
254.6585933983286
 20
329.5340577011367
 30
0.0
 11
260.7709983654034
 21
333.0477548652932
 31
0.0
1001
ACAD
1000
DSTYLE
1002
{
1070
   147
1040
1.0
1070
    77
1070
     0
1002
}
  0
SOLID
  5
12329
330
17
100
AcDbEntity
  8
SECTION JOINTS
100
AcDbTrace
 10
254.4094077074586
 20
329.9675395248222
 30
0.0
 11
252.0577024562156
 21
328.0389435559174
 31
0.0
 12
254.9077790891983
 22
329.1005758774513
 32
0.0
 13
254.9077790891983
 23
329.1005758774513
 33
0.0
1001
ACAD
1000
DSTYLE
1002
{
1070
   147
1040
1.0
1070
    77
1070
     0
1002
}
  0
TEXT
  5
1232A
330
17
100
AcDbEntity
  8
SECTION JOINTS
100
AcDbText
 10
249.7963473040447
 20
326.391678844763
 30
0.0
 40
2.0
  1
A
  7
WEB PAGE
100
AcDbText
  0
LEADER
  5
1233F
330
17
100
AcDbEntity
  8
TEXT
100
AcDbLeader
  3
STANDARD
 73
     0
 40
7.583333333333334
 41
40.91666666666667
 76
     3
 10
146.930182144753
 20
251.7113482216026
 30
0.0
 10
154.6198294762713
 20
258.1415313172756
 30
0.0
 10
182.5196850428489
 20
258.0710361970216
 30
0.0
340
12340
213
0.0
223
-0.875
233
0.0
  0
MTEXT
  5
12340
102
{ACAD_REACTORS
330
1233F
102
}
330
17
100
AcDbEntity
  8
TEXT
100
AcDbMText
 10
183.5196850428489
 20
258.9460361970216
 30
0.0
 40
1.75
 41
0.0
 46
0.0
 71
     4
 72
     1
  1
\PCOMMERCIAL HANGER IRON\PEND BEARING PLATE SUPPORT
  7
WEB PAGE
 73
     1
 44
1.0
  0
HATCH
  5
123F9
330
17
100
AcDbEntity
  8
FRAMING
100
AcDbHatch
 10
0.0
 20
0.0
 30
0.0
210
0.0
220
0.0
230
1.0
  2
ANSI31
 70
     0
 71
     1
 91
        1
 92
        7
 72
     0
 73
     1
 93
        7
 10
259.103580881753
 20
319.4168760534815
 10
257.2876188827947
 20
322.980902150235
 10
134.2169295018095
 20
260.273253823799
 10
134.2169295018095
 20
243.0362941793405
 10
138.2169295018095
 20
243.0362941793405
 10
138.2169295018095
 20
252.0362941793405
 10
138.2169295018095
 20
257.8220506712392
 97
        7
330
12318
330
12284
330
11CE2
330
11D06
330
12148
330
11CE3
330
1226E
 75
     0
 76
     1
 52
0.0
 41
15.0
 77
     0
 78
     1
 53
45.0
 43
0.0
 44
0.0
 45
-1.325825214724776
 46
1.325825214724776
 79
     0
 47
0.2319366068653956
 98
        1
 10
138.4531923520562
 20
260.5333069924352
  0
TEXT
  5
12405
330
17
100
AcDbEntity
  8
TEXT
100
AcDbText
 10
140.2452039685491
 20
95.46622413260388
 30
0.0
 40
3.0
  1
%%UANGLE MOUNT TRACK SET DETAIL
  7
WEB PAGE
 72
     1
 11
177.5245839252903
 21
95.46622413260388
 31
0.0
100
AcDbText
  0
DIMENSION
  5
1243D
330
17
100
AcDbEntity
  8
TEXT
100
AcDbDimension
  2
*D88
 10
98.32620547692911
 20
252.0362941793405
 30
0.0
 11
98.32620547692906
 21
187.5362941793405
 31
0.0
 70
    32
  1
2" CLIP STYLE\PREVERSE ANGLE\PDOOR HEIGHT+9"
 71
     5
 42
129.0
 73
     0
 74
     0
 75
     0
  3
STANDARD
100
AcDbAlignedDimension
 13
134.2169295018095
 23
123.0362941793405
 33
0.0
 14
138.2169295018096
 24
252.0362941793405
 34
0.0
 50
90.0
100
AcDbRotatedDimension
  0
MTEXT
  5
124F2
330
17
100
AcDbEntity
  8
TEXT
100
AcDbMText
 10
135.6013406037311
 20
119.4537682920234
 30
0.0
 40
1.75
 41
0.0
 46
0.0
 71
     4
 72
     1
  1
NOTE: CONTACT ENGINEERING DEPARTMENT FOR HORIZONTAL\P      TRACK PITCH CUTTTING INSTRUCTIONS.
  7
WEB PAGE
 73
     1
 44
1.0
  0
MTEXT
  5
12E5D
330
17
100
AcDbEntity
  8
TEXT
100
AcDbMText
 10
207.4210682192304
 20
166.3595718836914
 30
0.0
 40
2.6
 41
37.3125
 46
0.0
 71
     2
 72
     5
  1
HEADROOM\PREQUIREMENTS
  7
WEB PAGE
 73
     1
 44
1.0
  0
LINE
  5
12E5E
330
17
100
AcDbEntity
  8
TEXT
100
AcDbLine
 10
187.8643486956148
 20
150.4669366263166
 30
0.0
 11
226.5700044895564
 21
150.4669366263166
 31
0.0
  0
LINE
  5
12E5F
330
17
100
AcDbEntity
  8
TEXT
100
AcDbLine
 10
187.8643486956148
 20
157.3505464272848
 30
0.0
 11
226.5700044895564
 21
157.3505464272848
 31
0.0
  0
TEXT
  5
12E60
330
17
100
AcDbEntity
  8
TEXT
100
AcDbText
 10
192.2152956652444
 20
140.4877209379721
 30
0.0
 40
1.75
  1
16'3" - 18'
  7
WEB PAGE
 72
     1
 11
197.5145025866575
 21
140.4877209379721
 31
0.0
100
AcDbText
  0
TEXT
  5
12E61
330
17
100
AcDbEntity
  8
TEXT
100
AcDbText
 10
192.0284372437815
 20
143.9935541162034
 30
0.0
 40
1.75
  1
12'3" - 16'
  7
WEB PAGE
 72
     1
 11
197.3276441651947
 21
143.9935541162034
 31
0.0
100
AcDbText
  0
TEXT
  5
12E62
330
17
100
AcDbEntity
  8
TEXT
100
AcDbText
 10
194.3411104516347
 20
147.777296473634
 30
0.0
 40
1.75
  1
7' - 12'
  7
WEB PAGE
 72
     1
 11
197.820922996696
 21
147.777296473634
 31
0.0
100
AcDbText
  0
TEXT
  5
12E63
330
17
100
AcDbEntity
  8
TEXT
100
AcDbText
 10
192.8990436759109
 20
151.6198514428262
 30
0.0
 40
1.75
  1
HEIGHT
  7
WEB PAGE
 72
     1
 11
197.7068122411597
 21
151.6198514428262
 31
0.0
100
AcDbText
  0
TEXT
  5
12E64
330
17
100
AcDbEntity
  8
TEXT
100
AcDbText
 10
194.0345880162137
 20
154.6656904051981
 30
0.0
 40
1.75
  1
DOOR
  7
WEB PAGE
 72
     1
 11
197.7068122411597
 21
154.6656904051981
 31
0.0
100
AcDbText
  0
LINE
  5
12E65
330
17
100
AcDbEntity
  8
TEXT
100
AcDbLine
 10
187.8643486956148
 20
157.3505464272848
 30
0.0
 11
187.8643486956148
 21
135.932497422444
 31
0.0
  0
LINE
  5
12E66
330
17
100
AcDbEntity
  8
TEXT
100
AcDbLine
 10
207.3111326740879
 20
157.3505464272848
 30
0.0
 11
207.3111326740879
 21
135.932497422444
 31
0.0
  0
LINE
  5
12E67
330
17
100
AcDbEntity
  8
TEXT
100
AcDbLine
 10
226.5700044895564
 20
157.3505464272848
 30
0.0
 11
226.5700044895565
 21
135.9324974224441
 31
0.0
  0
TEXT
  5
12E68
330
17
100
AcDbEntity
  8
TEXT
100
AcDbText
 10
213.9574887431283
 20
147.777296473634
 30
0.0
 40
1.75
  1
15-1/4"
  7
WEB PAGE
 72
     1
 11
217.8580835520685
 21
147.777296473634
 31
0.0
100
AcDbText
  0
TEXT
  5
12E69
330
17
100
AcDbEntity
  8
TEXT
100
AcDbText
 10
213.9574887431283
 20
140.5813964423401
 30
0.0
 40
1.75
  1
16-1/4"
  7
WEB PAGE
 72
     1
 11
217.8580835520685
 21
140.5813964423401
 31
0.0
100
AcDbText
  0
TEXT
  5
12E6A
330
17
100
AcDbEntity
  8
TEXT
100
AcDbText
 10
213.9574887431283
 20
144.2510581108337
 30
0.0
 40
1.75
  1
15-3/4"
  7
WEB PAGE
 72
     1
 11
217.8580835520685
 21
144.2510581108337
 31
0.0
100
AcDbText
  0
TEXT
  5
12E6B
330
17
100
AcDbEntity
  8
TEXT
100
AcDbText
 10
210.6908363906764
 20
154.6656904051981
 30
0.0
 40
1.75
  1
MINIMUM
  7
WEB PAGE
 72
     1
 11
216.8637815961558
 21
154.6656904051981
 31
0.0
100
AcDbText
  0
TEXT
  5
12E6C
330
17
100
AcDbEntity
  8
TEXT
100
AcDbText
 10
209.3988392745985
 20
151.6198514428262
 30
0.0
 40
1.75
  1
HEADROOM
  7
WEB PAGE
 72
     1
 11
216.8637815961558
 21
151.6198514428262
 31
0.0
100
AcDbText
  0
LINE
  5
12E6D
330
17
100
AcDbEntity
  8
TEXT
100
AcDbLine
 10
226.5700044895565
 20
146.8333268253485
 30
0.0
 11
187.8643486956148
 21
146.8333268253485
 31
0.0
  0
LINE
  5
12E6E
330
17
100
AcDbEntity
  8
TEXT
100
AcDbLine
 10
226.5700044895565
 20
143.1997170243804
 30
0.0
 11
187.8643486956148
 21
143.1997170243803
 31
0.0
  0
LINE
  5
12E6F
330
17
100
AcDbEntity
  8
TEXT
100
AcDbLine
 10
226.5700044895565
 20
139.5661072234122
 30
0.0
 11
187.8643486956148
 21
139.5661072234122
 31
0.0
  0
LINE
  5
12E70
330
17
100
AcDbEntity
  8
TEXT
100
AcDbLine
 10
187.8643486956148
 20
167.5890708909693
 30
0.0
 11
226.5700044895564
 21
167.5890708909693
 31
0.0
  0
LINE
  5
12E71
330
17
100
AcDbEntity
  8
TEXT
100
AcDbLine
 10
187.8643486956148
 20
157.3505464272848
 30
0.0
 11
187.8643486956148
 21
167.5890708909693
 31
0.0
  0
LINE
  5
12E72
330
17
100
AcDbEntity
  8
TEXT
100
AcDbLine
 10
226.5700044895564
 20
157.3505464272848
 30
0.0
 11
226.5700044895564
 21
167.5890708909693
 31
0.0
  0
LINE
  5
12E73
330
17
100
AcDbEntity
  8
TEXT
100
AcDbLine
 10
231.4672410837461
 20
157.3505464272848
 30
0.0
 11
278.8209930800946
 21
157.3505464272848
 31
0.0
  0
LINE
  5
12E74
330
17
100
AcDbEntity
  8
TEXT
100
AcDbLine
 10
278.8209930800946
 20
143.1997170243805
 30
0.0
 11
231.4672410837461
 21
143.1997170243804
 31
0.0
  0
LINE
  5
12E75
330
17
100
AcDbEntity
  8
TEXT
100
AcDbLine
 10
278.8209930800946
 20
146.8333268253486
 30
0.0
 11
231.4672410837461
 21
146.8333268253485
 31
0.0
  0
LINE
  5
12E76
330
17
100
AcDbEntity
  8
TEXT
100
AcDbLine
 10
278.8209930800946
 20
150.4669366263167
 30
0.0
 11
231.4672410837461
 21
150.4669366263167
 31
0.0
  0
LINE
  5
12E77
330
17
100
AcDbEntity
  8
TEXT
100
AcDbLine
 10
231.4672410837461
 20
167.5890708909693
 30
0.0
 11
278.8209930800945
 21
167.5890708909693
 31
0.0
  0
LINE
  5
12E78
330
17
100
AcDbEntity
  8
TEXT
100
AcDbLine
 10
231.4672410837461
 20
154.1005464272848
 30
0.0
 11
278.8209930800946
 21
154.1005464272848
 31
0.0
  0
LINE
  5
12E79
330
17
100
AcDbEntity
  8
TEXT
100
AcDbLine
 10
278.8209930800946
 20
139.5661072234123
 30
0.0
 11
231.4672410837461
 21
139.5661072234122
 31
0.0
  0
LINE
  5
12E7A
330
17
100
AcDbEntity
  8
TEXT
100
AcDbLine
 10
231.4672410837461
 20
139.5661072234122
 30
0.0
 11
231.4672410837461
 21
157.3505464272848
 31
0.0
  0
TEXT
  5
12E7B
330
17
100
AcDbEntity
  8
TEXT
100
AcDbText
 10
191.6312825230512
 20
132.4369587471164
 30
0.0
 40
1.75
  1
* ADD 4" FOR OPERATOR.
  7
WEB PAGE
 72
     1
 11
207.1977028547022
 21
132.4369587471164
 31
0.0
100
AcDbText
  0
LINE
  5
12E7C
330
17
100
AcDbEntity
  8
TEXT
100
AcDbLine
 10
231.4672410837461
 20
157.3505464272848
 30
0.0
 11
231.4672410837461
 21
167.5890708909693
 31
0.0
  0
TEXT
  5
12E7D
330
17
100
AcDbEntity
  8
TEXT
100
AcDbText
 10
235.7102656709037
 20
154.7749784400656
 30
0.0
 40
1.75
  1
DRUM
  7
WEB PAGE
 72
     1
 11
239.5868878771041
 21
154.7749784400656
 31
0.0
100
AcDbText
  0
TEXT
  5
12E7E
330
17
100
AcDbEntity
  8
TEXT
100
AcDbText
 10
257.1836629000576
 20
154.7749784400656
 30
0.0
 40
1.75
  1
FORMULA
  7
WEB PAGE
 72
     1
 11
263.5010745799423
 21
154.7749784400656
 31
0.0
100
AcDbText
  0
LINE
  5
12E7F
330
17
100
AcDbEntity
  8
TEXT
100
AcDbLine
 10
248.18115607979
 20
157.3505464272848
 30
0.0
 11
248.18115607979
 21
139.5661072234123
 31
0.0
  0
TEXT
  5
12E80
330
17
100
AcDbEntity
  8
TEXT
100
AcDbText
 10
234.5849231672043
 20
144.1567977136517
 30
0.0
 40
1.75
  1
D525-216
  7
WEB PAGE
 72
     1
 11
239.8241985817681
 21
144.1567977136517
 31
0.0
100
AcDbText
  0
TEXT
  5
12E81
330
17
100
AcDbEntity
  8
TEXT
100
AcDbText
 10
234.5849231672043
 20
140.3543191259961
 30
0.0
 40
1.75
  1
D800-384
  7
WEB PAGE
 72
     1
 11
239.8241985817681
 21
140.3543191259961
 31
0.0
100
AcDbText
  0
TEXT
  5
12E82
330
17
100
AcDbEntity
  8
TEXT
100
AcDbText
 10
235.2309217252432
 20
151.2882019911681
 30
0.0
 40
1.75
  1
D400-96
  7
WEB PAGE
 72
     1
 11
239.8241985817681
 21
151.2882019911681
 31
0.0
100
AcDbText
  0
TEXT
  5
12E83
330
17
100
AcDbEntity
  8
TEXT
100
AcDbText
 10
234.5849231672043
 20
147.8014255422708
 30
0.0
 40
1.75
  1
D400-144
  7
WEB PAGE
 72
     1
 11
239.8241985817681
 21
147.8014255422708
 31
0.0
100
AcDbText
  0
TEXT
  5
12E84
330
17
100
AcDbEntity
  8
TEXT
100
AcDbText
 10
254.5895749404325
 20
144.1567977136517
 30
0.0
 40
1.75
  1
F= DH + 12-1/4"
  7
WEB PAGE
 72
     1
 11
263.5010745799423
 21
144.1567977136517
 31
0.0
100
AcDbText
  0
TEXT
  5
12E85
330
17
100
AcDbEntity
  8
TEXT
100
AcDbText
 10
256.6707753730208
 20
140.3543191259961
 30
0.0
 40
1.75
  1
F= DH + 14"
  7
WEB PAGE
 72
     1
 11
263.5010745799423
 21
140.3543191259961
 31
0.0
100
AcDbText
  0
TEXT
  5
12E86
330
17
100
AcDbEntity
  8
TEXT
100
AcDbText
 10
254.5895749404325
 20
151.2882019911681
 30
0.0
 40
1.75
  1
F= DH + 12-1/4"
  7
WEB PAGE
 72
     1
 11
263.5010745799423
 21
151.2882019911681
 31
0.0
100
AcDbText
  0
TEXT
  5
12E87
330
17
100
AcDbEntity
  8
TEXT
100
AcDbText
 10
254.5895749404325
 20
147.8014255422708
 30
0.0
 40
1.75
  1
F= DH + 12-1/4"
  7
WEB PAGE
 72
     1
 11
263.5010745799423
 21
147.8014255422708
 31
0.0
100
AcDbText
  0
MTEXT
  5
12E88
330
17
100
AcDbEntity
  8
TEXT
100
AcDbMText
 10
255.1441170819203
 20
166.3755935187997
 30
0.0
 40
2.6
 41
37.3125
 46
0.0
 71
     2
 72
     5
  1
FLOOR TO SHAFT\PCENTER DISTANCE
  7
WEB PAGE
 73
     1
 44
1.0
  0
LINE
  5
12E89
330
17
100
AcDbEntity
  8
TEXT
100
AcDbLine
 10
278.8209930800946
 20
157.3505464272848
 30
0.0
 11
278.8209930800946
 21
139.5661072234123
 31
0.0
  0
LINE
  5
12E8A
330
17
100
AcDbEntity
  8
TEXT
100
AcDbLine
 10
278.8209930800946
 20
157.3505464272848
 30
0.0
 11
278.8209930800945
 21
167.5890708909693
 31
0.0
  0
TEXT
  5
12E8B
330
17
100
AcDbEntity
  8
TEXT
100
AcDbText
 10
233.3996545942869
 20
135.6445021583846
 30
0.0
 40
1.75
  1
DH = DOOR HEIGHT
  7
WEB PAGE
 72
     1
 11
245.4320085957288
 21
135.6445021583846
 31
0.0
100
AcDbText
  0
LINE
  5
12E8C
330
17
100
AcDbEntity
  8
TEXT
100
AcDbLine
 10
226.5700044895565
 20
135.9324974224441
 30
0.0
 11
187.8643486956148
 21
135.932497422444
 31
0.0
  0
TEXT
  5
12E8D
330
17
100
AcDbEntity
  8
TEXT
100
AcDbText
 10
192.2152956652444
 20
136.854111137004
 30
0.0
 40
1.75
  1
18'3" - 20'
  7
WEB PAGE
 72
     1
 11
197.5145025866575
 21
136.854111137004
 31
0.0
100
AcDbText
  0
TEXT
  5
12E8E
330
17
100
AcDbEntity
  8
TEXT
100
AcDbText
 10
216.0386891757166
 20
136.947786641372
 30
0.0
 40
1.75
  1
19"
  7
WEB PAGE
 72
     1
 11
217.8580835520685
 21
136.947786641372
 31
0.0
100
AcDbText
  0
VIEWPORT
  5
C943
330
14
100
AcDbEntity
 67
     1
  8
0
100
AcDbViewport
 10
4.050080338850569
 20
5.270752865123147
 30
0.0
 40
16.00547232230441
 41
10.36277447768247
 68
     1
 69
     1
 12
4.050080338850569
 22
5.270752865123147
 13
0.0
 23
0.0
 14
0.5
 24
0.5
 15
0.5
 25
0.5
 16
0.0
 26
0.0
 36
1.0
 17
0.0
 27
0.0
 37
0.0
 42
50.0
 43
0.0
 44
0.0
 45
10.36277447768247
 50
0.0
 51
0.0
 72
   100
 90
    32800
  1

281
     0
 71
     1
 74
     0
110
0.0
120
0.0
130
0.0
111
1.0
121
0.0
131
0.0
112
0.0
122
1.0
132
0.0
 79
     0
146
0.0
170
     0
 61
     5
348
12E12
292
     1
282
     1
141
0.0
142
0.0
 63
   250
421
  3355443
  0
VIEWPORT
  5
12D9C
330
14
100
AcDbEntity
 67
     1
  8
Defpoints
100
AcDbViewport
 10
4.058412236441291
 20
4.890415185008857
 30
0.0
 40
7.601192411206066
 41
9.196562514587862
 68
     2
 69
     2
 12
164.947957713392
 22
213.7732374017841
 13
0.0
 23
0.0
 14
1.0
 24
1.0
 15
0.25
 25
0.25
 16
0.0
 26
0.0
 36
1.0
 17
0.0
 27
0.0
 37
0.0
 42
50.0
 43
0.0
 44
0.0
 45
278.4787875704655
 50
0.0
 51
0.0
 72
   100
 90
    32768
  1

281
     0
 71
     1
 74
     0
110
0.0
120
0.0
130
0.0
111
1.0
121
0.0
131
0.0
112
0.0
122
1.0
132
0.0
 79
     0
146
0.0
170
     0
 61
     5
348
12E12
292
     1
282
     1
141
0.0
142
0.0
 63
   250
421
  3355443
  0
ENDSEC
  0
SECTION
  2
OBJECTS
  0
DICTIONARY
  5
C
330
0
100
AcDbDictionary
281
     1
  3
ACAD_COLOR
350
12E1D
  3
ACAD_GROUP
350
D
  3
ACAD_LAYOUT
350
B57A
  3
ACAD_MATERIAL
350
12E08
  3
ACAD_MLINESTYLE
350
1A
  3
ACAD_PLOTSETTINGS
350
B57B
  3
ACAD_PLOTSTYLENAME
350
B578
  3
ACAD_TABLESTYLE
350
12E1E
  3
ACAD_VISUALSTYLE
350
12E0C
  3
AcadDim
350
12341
  3
ACDBVARIABLEDICTIONARY
350
59
  0
DICTIONARY
  5
12FA6
330
8
100
AcDbDictionary
280
     1
281
     1
  0
DICTIONARY
  5
12E25
330
2
100
AcDbDictionary
280
     1
281
     1
  3
ACAD_LAYERSTATES
360
12E26
  0
DICTIONARY
  5
12E1D
102
{ACAD_REACTORS
330
C
102
}
330
C
100
AcDbDictionary
281
     1
  0
DICTIONARY
  5
D
102
{ACAD_REACTORS
330
C
102
}
330
C
100
AcDbDictionary
281
     1
  0
DICTIONARY
  5
B57A
102
{ACAD_REACTORS
330
C
102
}
330
C
100
AcDbDictionary
281
     1
  3
Layout1
350
B57D
  3
Model
350
B57C
  0
DICTIONARY
  5
12E08
102
{ACAD_REACTORS
330
C
102
}
330
C
100
AcDbDictionary
281
     1
  3
ByBlock
350
12E0A
  3
ByLayer
350
12E09
  3
Global
350
12E0B
  0
DICTIONARY
  5
1A
102
{ACAD_REACTORS
330
C
102
}
330
C
100
AcDbDictionary
281
     1
  3
STANDARD
350
1B
  0
DICTIONARY
  5
B57B
102
{ACAD_REACTORS
330
C
102
}
330
C
100
AcDbDictionary
281
     1
  0
ACDBDICTIONARYWDFLT
  5
B578
102
{ACAD_REACTORS
330
C
102
}
330
C
100
AcDbDictionary
281
     1
  3
Normal
350
B579
100
AcDbDictionaryWithDefault
340
B579
  0
DICTIONARY
  5
12E1E
102
{ACAD_REACTORS
330
C
102
}
330
C
100
AcDbDictionary
281
     1
  3
Standard
350
12E1F
  0
DICTIONARY
  5
12E0C
102
{ACAD_REACTORS
330
C
102
}
330
C
100
AcDbDictionary
281
     1
  3
2dWireframe
350
12E12
  3
3D Hidden
350
12E14
  3
3dWireframe
350
12E13
  3
Basic
350
12E11
  3
Brighten
350
12E18
  3
ColorChange
350
12E1C
  3
Conceptual
350
12E15
  3
Dim
350
12E17
  3
Facepattern
350
12E1B
  3
Flat
350
12E0D
  3
FlatWithEdges
350
12E0E
  3
Gouraud
350
12E0F
  3
GouraudWithEdges
350
12E10
  3
Linepattern
350
12E1A
  3
Realistic
350
12E16
  3
Thicken
350
12E19
  0
XRECORD
  5
12341
102
{ACAD_REACTORS
330
C
102
}
330
C
100
AcDbXrecord
280
     1
 90
   990106
  3

 60
     0
 61
     0
 62
     1
 63
     3
 64
     0
 65
     0
 66
     0
 67
     3
 68
     1
 69
     0
 70
     0
 71
     0
 72
     0
 40
0.0
170
     0
340
12340
  0
DICTIONARY
  5
59
102
{ACAD_REACTORS
330
C
102
}
330
C
100
AcDbDictionary
281
     1
  3
CTABLESTYLE
350
12F36
  3
DIMADEC
350
5A
  3
SORTENTS
350
769A
  0
DICTIONARY
  5
12E26
102
{ACAD_REACTORS
330
12E25
102
}
330
12E25
100
AcDbDictionary
281
     1
  0
LAYOUT
  5
B57D
102
{ACAD_XDICTIONARY
360
12F3B
102
}
102
{ACAD_REACTORS
330
B57A
102
}
330
B57A
100
AcDbPlotSettings
  1

  2
Acrobat PDFWriter
  4
Letter
  6

 40
7.143749713897705
 41
7.143756389617919
 42
7.14373779296875
 43
7.14373779296875
 44
215.8999938964844
 45
279.3999938964844
 46
0.254
 47
0.508
 48
0.0
 49
0.0
140
0.0
141
0.0
142
1.0
143
1.0
 70
   692
 72
     0
 73
     0
 74
     1
  7

 75
    16
147
1.0
 76
     0
 77
     2
 78
   300
148
-2.87960035814828
149
-3.761036760494098
100
AcDbLayout
  1
Layout1
 70
     1
 71
     1
 10
-0.1827343500762752
 20
-0.1587514363294437
 11
8.317265409627832
 21
10.84124832337466
 12
0.0
 22
0.0
 32
0.0
 14
0.1513182456113795
 24
0.1315364679948932
 34
0.0
 15
7.949166179425024
 25
10.41007467751136
 35
0.0
146
0.0
 13
0.0
 23
0.0
 33
0.0
 16
1.0
 26
0.0
 36
0.0
 17
0.0
 27
1.0
 37
0.0
 76
     0
330
14
331
C943
  0
LAYOUT
  5
B57C
102
{ACAD_REACTORS
330
B57A
102
}
330
B57A
100
AcDbPlotSettings
  1

  2
PMKT1 Marketing HP-8100DN Laser
  4
Letter
  6

 40
4.233333110809326
 41
4.233341693878173
 42
4.233322143554687
 43
4.23333740234375
 44
215.8999938964844
 45
279.3999938964844
 46
0.0
 47
28.448
 48
139.3684830884462
 49
213.5442578355003
140
281.5818113799604
141
346.2220205485337
142
1.0
143
29.16909933757824
 70
 11956
 72
     0
 73
     1
 74
     1
  7

 75
     0
147
0.0342828548947245
 76
     0
 77
     2
 78
   300
148
-1303.663926267702
149
-2409.027493293653
100
AcDbLayout
  1
Model
 70
     1
 71
     0
 10
0.0
 20
0.0
 11
12.0
 21
9.0
 12
0.0
 22
0.0
 32
0.0
 14
0.0
 24
0.0
 34
0.0
 15
0.0
 25
0.0
 35
0.0
146
0.0
 13
0.0
 23
0.0
 33
0.0
 16
1.0
 26
0.0
 36
0.0
 17
0.0
 27
1.0
 37
0.0
 76
     0
330
17
331
12E06
  0
MATERIAL
  5
12E0A
102
{ACAD_REACTORS
330
12E08
102
}
330
12E08
100
AcDbMaterial
  1
ByBlock
  0
MATERIAL
  5
12E09
102
{ACAD_REACTORS
330
12E08
102
}
330
12E08
100
AcDbMaterial
  1
ByLayer
  0
MATERIAL
  5
12E0B
102
{ACAD_REACTORS
330
12E08
102
}
330
12E08
100
AcDbMaterial
  1
Global
  0
MLINESTYLE
  5
1B
102
{ACAD_REACTORS
330
1A
102
}
330
1A
100
AcDbMlineStyle
  2
STANDARD
 70
     0
  3

 62
   256
 51
90.0
 52
90.0
 71
     2
 49
0.5
 62
   256
  6
BYLAYER
 49
-0.5
 62
   256
  6
BYLAYER
  0
ACDBPLACEHOLDER
  5
B579
102
{ACAD_REACTORS
330
B578
102
}
330
B578
  0
TABLESTYLE
  5
12E1F
102
{ACAD_REACTORS
330
12E1E
102
}
330
12E1E
100
AcDbTableStyle
  3
Standard
 70
     0
 71
     0
 40
0.06
 41
0.06
280
     0
281
     0
  7
STANDARD
140
0.18
170
     2
 62
     0
 63
     7
283
     0
 90
      512
 91
        0
  1

274
    -2
284
     1
 64
     0
275
    -2
285
     1
 65
     0
276
    -2
286
     1
 66
     0
277
    -2
287
     1
 67
     0
278
    -2
288
     1
 68
     0
279
    -2
289
     1
 69
     0
  7
STANDARD
140
0.25
170
     5
 62
     0
 63
     7
283
     0
 90
      512
 91
        0
  1

274
    -2
284
     1
 64
     0
275
    -2
285
     1
 65
     0
276
    -2
286
     1
 66
     0
277
    -2
287
     1
 67
     0
278
    -2
288
     1
 68
     0
279
    -2
289
     1
 69
     0
  7
STANDARD
140
0.18
170
     5
 62
     0
 63
     7
283
     0
 90
      512
 91
        0
  1

274
    -2
284
     1
 64
     0
275
    -2
285
     1
 65
     0
276
    -2
286
     1
 66
     0
277
    -2
287
     1
 67
     0
278
    -2
288
     1
 68
     0
279
    -2
289
     1
 69
     0
  0
VISUALSTYLE
  5
12E12
102
{ACAD_REACTORS
330
12E0C
102
}
330
12E0C
100
AcDbVisualStyle
  2
2dWireframe
 70
     4
 71
     0
 72
     2
 73
     0
 90
        0
 40
-0.6
 41
-30.0
 62
     5
 63
     7
421
 16777215
 74
     1
 91
        4
 64
     7
 65
   257
 75
     1
175
     1
 42
1.0
 92
        0
 66
   257
 43
1.0
 76
     1
 77
     6
 78
     2
 67
     7
 79
     5
170
     0
171
     0
290
     0
174
     0
 93
        1
 44
0.0
173
     0
291
     0
 45
0.0
  0
VISUALSTYLE
  5
12E14
102
{ACAD_REACTORS
330
12E0C
102
}
330
12E0C
100
AcDbVisualStyle
  2
3D Hidden
 70
     6
 71
     1
 72
     2
 73
     2
 90
        0
 40
-0.6
 41
-30.0
 62
     5
 63
     7
421
 16777215
 74
     2
 91
        2
 64
     7
 65
   257
 75
     2
175
     1
 42
40.0
 92
        0
 66
   257
 43
1.0
 76
     1
 77
     6
 78
     2
 67
     7
 79
     3
170
     0
171
     0
290
     0
174
     0
 93
        1
 44
0.0
173
     0
291
     0
 45
0.0
  0
VISUALSTYLE
  5
12E13
102
{ACAD_REACTORS
330
12E0C
102
}
330
12E0C
100
AcDbVisualStyle
  2
3dWireframe
 70
     5
 71
     0
 72
     2
 73
     0
 90
        0
 40
-0.6
 41
-30.0
 62
     5
 63
     7
421
 16777215
 74
     1
 91
        4
 64
     7
 65
   257
 75
     1
175
     1
 42
1.0
 92
        0
 66
   257
 43
1.0
 76
     1
 77
     6
 78
     2
 67
     7
 79
     5
170
     0
171
     0
290
     0
174
     0
 93
        1
 44
0.0
173
     0
291
     0
 45
0.0
  0
VISUALSTYLE
  5
12E11
102
{ACAD_REACTORS
330
12E0C
102
}
330
12E0C
100
AcDbVisualStyle
  2
Basic
 70
     7
 71
     1
 72
     0
 73
     1
 90
        0
 40
-0.6
 41
-30.0
 62
     5
 63
     7
421
 16777215
 74
     0
 91
        4
 64
     7
 65
   257
 75
     1
175
     1
 42
1.0
 92
        8
 66
     7
 43
1.0
 76
     1
 77
     6
 78
     2
 67
     7
 79
     5
170
     0
171
     0
290
     0
174
     0
 93
        1
 44
0.0
173
     0
291
     1
 45
0.0
  0
VISUALSTYLE
  5
12E18
102
{ACAD_REACTORS
330
12E0C
102
}
330
12E0C
100
AcDbVisualStyle
  2
Brighten
 70
    12
 71
     2
 72
     2
 73
     0
 90
        0
 40
-0.6
 41
-30.0
 62
     5
 63
     7
421
 16777215
 74
     1
 91
        4
 64
     7
 65
   257
 75
     1
175
     1
 42
1.0
 92
        8
 66
     7
 43
1.0
 76
     1
 77
     6
 78
     2
 67
     7
 79
     5
170
     0
171
     0
290
     0
174
     0
 93
        1
 44
50.0
173
     0
291
     1
 45
0.0
  0
VISUALSTYLE
  5
12E1C
102
{ACAD_REACTORS
330
12E0C
102
}
330
12E0C
100
AcDbVisualStyle
  2
ColorChange
 70
    16
 71
     2
 72
     2
 73
     3
 90
        0
 40
-0.6
 41
-30.0
 62
     5
 63
     8
421
  8421504
 74
     1
 91
        4
 64
     7
 65
   257
 75
     1
175
     1
 42
1.0
 92
        8
 66
     8
424
  8421504
 43
1.0
 76
     1
 77
     6
 78
     2
 67
     7
 79
     5
170
     0
171
     0
290
     0
174
     0
 93
        1
 44
0.0
173
     0
291
     1
 45
0.0
  0
VISUALSTYLE
  5
12E15
102
{ACAD_REACTORS
330
12E0C
102
}
330
12E0C
100
AcDbVisualStyle
  2
Conceptual
 70
     9
 71
     3
 72
     2
 73
     0
 90
        0
 40
-0.6
 41
-30.0
 62
     5
 63
     7
421
 16777215
 74
     2
 91
        2
 64
     7
 65
   257
 75
     1
175
     1
 42
40.0
 92
        8
 66
     7
 43
1.0
 76
     1
 77
     6
 78
     2
 67
     7
 79
     3
170
     0
171
     0
290
     0
174
     0
 93
        1
 44
0.0
173
     0
291
     0
 45
0.0
  0
VISUALSTYLE
  5
12E17
102
{ACAD_REACTORS
330
12E0C
102
}
330
12E0C
100
AcDbVisualStyle
  2
Dim
 70
    11
 71
     2
 72
     2
 73
     0
 90
        0
 40
-0.6
 41
-30.0
 62
     5
 63
     7
421
 16777215
 74
     1
 91
        4
 64
     7
 65
   257
 75
     1
175
     1
 42
1.0
 92
        8
 66
     7
 43
1.0
 76
     1
 77
     6
 78
     2
 67
     7
 79
     5
170
     0
171
     0
290
     0
174
     0
 93
        1
 44
-50.0
173
     0
291
     1
 45
0.0
  0
VISUALSTYLE
  5
12E1B
102
{ACAD_REACTORS
330
12E0C
102
}
330
12E0C
100
AcDbVisualStyle
  2
Facepattern
 70
    15
 71
     2
 72
     2
 73
     0
 90
        0
 40
-0.6
 41
-30.0
 62
     5
 63
     7
421
 16777215
 74
     1
 91
        4
 64
     7
 65
   257
 75
     1
175
     1
 42
1.0
 92
        8
 66
     7
 43
1.0
 76
     1
 77
     6
 78
     2
 67
     7
 79
     5
170
     0
171
     0
290
     0
174
     0
 93
        1
 44
0.0
173
     0
291
     1
 45
0.0
  0
VISUALSTYLE
  5
12E0D
102
{ACAD_REACTORS
330
12E0C
102
}
330
12E0C
100
AcDbVisualStyle
  2
Flat
 70
     0
 71
     2
 72
     1
 73
     1
 90
        2
 40
-0.6
 41
30.0
 62
     5
 63
     7
421
 16777215
 74
     0
 91
        4
 64
     7
 65
   257
 75
     1
175
     1
 42
1.0
 92
        8
 66
     7
 43
1.0
 76
     1
 77
     6
 78
     2
 67
     7
 79
     5
170
     0
171
     0
290
     0
174
     0
 93
       13
 44
0.0
173
     0
291
     1
 45
0.0
  0
VISUALSTYLE
  5
12E0E
102
{ACAD_REACTORS
330
12E0C
102
}
330
12E0C
100
AcDbVisualStyle
  2
FlatWithEdges
 70
     1
 71
     2
 72
     1
 73
     1
 90
        2
 40
-0.6
 41
30.0
 62
     5
 63
     7
421
 16777215
 74
     1
 91
        4
 64
     7
 65
   257
 75
     1
175
     1
 42
1.0
 92
        0
 66
   257
 43
1.0
 76
     1
 77
     6
 78
     2
 67
     7
 79
     5
170
     0
171
     0
290
     0
174
     0
 93
       13
 44
0.0
173
     0
291
     1
 45
0.0
  0
VISUALSTYLE
  5
12E0F
102
{ACAD_REACTORS
330
12E0C
102
}
330
12E0C
100
AcDbVisualStyle
  2
Gouraud
 70
     2
 71
     2
 72
     2
 73
     1
 90
        2
 40
-0.6
 41
30.0
 62
     5
 63
     7
421
 16777215
 74
     0
 91
        4
 64
     7
 65
   257
 75
     1
175
     1
 42
1.0
 92
        0
 66
     7
 43
1.0
 76
     1
 77
     6
 78
     2
 67
     7
 79
     5
170
     0
171
     0
290
     0
174
     0
 93
       13
 44
0.0
173
     0
291
     1
 45
0.0
  0
VISUALSTYLE
  5
12E10
102
{ACAD_REACTORS
330
12E0C
102
}
330
12E0C
100
AcDbVisualStyle
  2
GouraudWithEdges
 70
     3
 71
     2
 72
     2
 73
     1
 90
        2
 40
-0.6
 41
30.0
 62
     5
 63
     7
421
 16777215
 74
     1
 91
        4
 64
     7
 65
   257
 75
     1
175
     1
 42
1.0
 92
        0
 66
   257
 43
1.0
 76
     1
 77
     6
 78
     2
 67
     7
 79
     5
170
     0
171
     0
290
     0
174
     0
 93
       13
 44
0.0
173
     0
291
     1
 45
0.0
  0
VISUALSTYLE
  5
12E1A
102
{ACAD_REACTORS
330
12E0C
102
}
330
12E0C
100
AcDbVisualStyle
  2
Linepattern
 70
    14
 71
     2
 72
     2
 73
     0
 90
        0
 40
-0.6
 41
-30.0
 62
     5
 63
     7
421
 16777215
 74
     1
 91
        4
 64
     7
 65
   257
 75
     7
175
     7
 42
1.0
 92
        8
 66
     7
 43
1.0
 76
     1
 77
     6
 78
     2
 67
     7
 79
     5
170
     0
171
     0
290
     0
174
     0
 93
        1
 44
0.0
173
     0
291
     1
 45
0.0
  0
VISUALSTYLE
  5
12E16
102
{ACAD_REACTORS
330
12E0C
102
}
330
12E0C
100
AcDbVisualStyle
  2
Realistic
 70
     8
 71
     2
 72
     2
 73
     0
 90
        0
 40
-0.6
 41
-30.0
 62
     5
 63
     7
421
 16777215
 74
     1
 91
        0
 64
     7
 65
   257
 75
     1
175
     1
 42
1.0
 92
        8
 66
     8
424
  7895160
 43
1.0
 76
     1
 77
     6
 78
     2
 67
     7
 79
     5
170
     0
171
     0
290
     0
174
     0
 93
       13
 44
0.0
173
     0
291
     0
 45
0.0
  0
VISUALSTYLE
  5
12E19
102
{ACAD_REACTORS
330
12E0C
102
}
330
12E0C
100
AcDbVisualStyle
  2
Thicken
 70
    13
 71
     2
 72
     2
 73
     0
 90
        0
 40
-0.6
 41
-30.0
 62
     5
 63
     7
421
 16777215
 74
     1
 91
        4
 64
     7
 65
   257
 75
     1
175
     1
 42
1.0
 92
       12
 66
     7
 43
1.0
 76
     1
 77
     6
 78
     2
 67
     7
 79
     5
170
     0
171
     0
290
     0
174
     0
 93
        1
 44
0.0
173
     0
291
     1
 45
0.0
  0
DICTIONARYVAR
  5
12F36
102
{ACAD_REACTORS
330
59
102
}
330
59
100
DictionaryVariables
280
     0
  1
STANDARD
  0
DICTIONARYVAR
  5
5A
102
{ACAD_REACTORS
330
59
102
}
330
59
100
DictionaryVariables
280
     0
  1
0
  0
DICTIONARYVAR
  5
769A
102
{ACAD_REACTORS
330
59
102
}
330
59
100
DictionaryVariables
280
     0
  1
96
  0
DICTIONARY
  5
12F3B
330
B57D
100
AcDbDictionary
280
     1
281
     1
  3
ADSK_XREC_LAYOUTTHUMBNAIL
360
12F3C
  0
XRECORD
  5
12F3C
102
{ACAD_REACTORS
330
12F3B
102
}
330
12F3B
100
AcDbXrecord
280
     1
310
280000006B0000008C0000000100080000000000103B0000000000000000000000010000000000000000000000000000FFFFFF000000000000000000000000000000000000000000000000000000000000000000330000006600000099000000CC000000FF00000000330000333300006633000099330000CC330000FF3300
310
0000660000336600006666000099660000CC660000FF66000000990000339900006699000099990000CC990000FF99000000CC000033CC000066CC000099CC0000CCCC0000FFCC000000FF000033FF000066FF000099FF0000CCFF0000FFFF000000003300330033006600330099003300CC003300FF003300003333003333
310
33006633330099333300CC333300FF33330000663300336633006666330099663300CC663300FF66330000993300339933006699330099993300CC993300FF99330000CC330033CC330066CC330099CC3300CCCC3300FFCC330000FF330033FF330066FF330099FF3300CCFF3300FFFF330000006600330066006600660099
310
006600CC006600FF00660000336600333366006633660099336600CC336600FF33660000666600336666006666660099666600CC666600FF66660000996600339966006699660099996600CC996600FF99660000CC660033CC660066CC660099CC6600CCCC6600FFCC660000FF660033FF660066FF660099FF6600CCFF6600
310
FFFF660000009900330099006600990099009900CC009900FF00990000339900333399006633990099339900CC339900FF33990000669900336699006666990099669900CC669900FF66990000999900339999006699990099999900CC999900FF99990000CC990033CC990066CC990099CC9900CCCC9900FFCC990000FF99
310
0033FF990066FF990099FF9900CCFF9900FFFF99000000CC003300CC006600CC009900CC00CC00CC00FF00CC000033CC003333CC006633CC009933CC00CC33CC00FF33CC000066CC003366CC006666CC009966CC00CC66CC00FF66CC000099CC003399CC006699CC009999CC00CC99CC00FF99CC0000CCCC0033CCCC0066CC
310
CC0099CCCC00CCCCCC00FFCCCC0000FFCC0033FFCC0066FFCC0099FFCC00CCFFCC00FFFFCC000000FF003300FF006600FF009900FF00CC00FF00FF00FF000033FF003333FF006633FF009933FF00CC33FF00FF33FF000066FF003366FF006666FF009966FF00CC66FF00FF66FF000099FF003399FF006699FF009999FF00CC
310
99FF00FF99FF0000CCFF0033CCFF0066CCFF0099CCFF00CCCCFF00FFCCFF0000FFFF0033FFFF0066FFFF0099FFFF00CCFFFF00FFFFFF00000000000D0D0D001A1A1A00282828003535350043434300505050005D5D5D006B6B6B00787878008686860093939300A1A1A100AEAEAE00BBBBBB00C9C9C900D6D6D600E4E4E400
310
F1F1F100FFFFFF0000000000000000000000000000000000000000000000000000000000000000000000000000000000F5F5F5F5F5F5F5F5F5F5F5F5F5F5F5F5F5F5F5F5F5F5F5F5F5F5F5F5F5F5F5F5F5F5F5F5F5F5F5F5F5F5F5F5F5F5F5F5F5F5F5F5F5F5F5F5F5F5F5F5F5F5F5F5F5F5F5F5F5F5F5F5F5F5F5F5F5F5F5
310
F5F5F5F5F5F5F5F5F5F5F5F5F5F5F5F5F5F5F5F5F5F5F5F5F5F5F5F5CDF5E2E2E2E2E2E2E2E2E2E2E2E2E2E2E2E2E2E2E2E2E2E2E2E2E2E2E2E2E2E2E2E2E2E2E2E2E2E2E2E2E2E2E2E2E2E2E2E2E2E2E2E2E2E2E2E2E2E2E2E2E2E2E2E2E2E2E2E2E2E2E2E2E2E2E2E2E2E2E2E2E2E2E2E2E2E2E2E2E2E2E2E2E2E2E2E2E2
310
E2E2E2E2E2E2E2E2E200F5E2E2E2E2E2E2E2E2E2E2E2E2E2E2E2E2E2E2E2E2E2E2E2E2E2E2E2E2E2E2E2E2E2E2E2E2E2E2E2E2E2E2E2E2E2E2E2E2E2E2E2E2E2E2E2E2E2E2E2E2E2E2E2E2E2E2E2E2E2E2E2E2E2E2E2E2E2E2E2E2E2E2E2E2E2E2E2E2E2E2E2E2E2E2E2E2E2E2E2E2E2E2E2E2E2E2CDF5E2E2E2E2E2E2E2E2
310
E2E2E2E2E2E2E2E2E2E2E2E2E2E2E2E2E2E2E2E2E2E2E2E2E2E2E2E2E2E2E2E2E2E2E2E2E2E2E2E2E2E2E2E2E2E2E2E2E2E2E2E2E2E2E2E2E2E2E2E2E2E2E2E2E2E2E2E2E2E2E2E2E2E2E2E2E2E2E2E2E2E2E2E2E2E2E2E2E2E2E2E2E2E2E2E2E2E200F5E2E2E2F5F5F5F5F5F5F5F5E2E2E2E2E2E2E2E2E2F5F5F5F5F5F5F5
310
F5F5F5F5F5F5F5F5F5E2E2E2E2E2E2E2E2E2F5F5F5F5F5F5F5F5F5F5F5F5F5F5F5F5E2E2E2E2E2E2E2E2E2F5F5F5F5F5F5F5F5F5F5F5F5F5F5F5F5E2E2E2E2E2E2E2E2E2F5F5F5F5F5F5F5F5E2E2E2CDF5E2E2E2F5E2E2E2E2E2E2E2E2E2E2E2E2E2E2E2E2E2E2E2E2E2E2E2E2E2E2E2E2E2E2E2E2E2E2E2E2E2E2E2E2E2E2
310
E2E2E2E2E2E2E2E2E2E2E2E2E2E2E2E2E2E2E2E2E2E2E2E2E2E2E2E2E2E2E2E2E2E2E2E2E2E2E2E2E2E2E2E2E2E2E2E2E2E2E2E2E2E2E2E2F5E2E2E200F5E2E2E2F5E2F5F5F5F5F5F5F5F5F5F5F5F5F5F5F5F5F5F5F5F5F5F5F5F5F5F5F5F5F5F5F5F5F5F5F5F5F5F5F5F5F5F5F5F5F5F5F5F5F5F5F5F5F5F5F5F5F5F5F5F5
310
F5F5F5F5F5F5F5F5F5F5F5F5F5F5F5F5F5F5F5F5F5F5F5F5F5F5F5F5F5F5F5F5F5F5F5F5E2F5E2E2E2CDF5E2E2E2F5E2F5E2E2E2E2E2E2E2E2E2E2E2E2E2E2E2E2E2E2E2E2E2E2E2E2E2E2E2E2E2E2E2E2E2E2E2E2E2E2E2E2E2E2E2E2E2E2E2E2E2E2E2E2E2E2E2E2E2E2E2E2E2E2E2E2E2E2E2E2E2E2E2E2E2E2E2E2E2E2
310
E2E2E2E2E2E2E2E2E2E2E2E2E2E2E2E2F5E2F5E2E2E200F5E2E2E2F5E2F5E2E2E2E2E2E2E2E2E2E2E2E2E2E2E2E2E2E2E2E2E2E2E2E2E2E2E2E2E2E2E2E2E2E2E2E2E2E2E2E2E2E2E2E2E2E2E2E2E2E2E2E2E2E2E2E2E2E2E2E2E2E2E2E2E2E2E2E2E2E2E2E2E2E2E2E2E2E2E2E2E2E2E2E2E2E2E2E2E2E2E2E2E2E2F5E2F5
310
E2E2E2CDF5E2E2E2F5E2F5E2E2E2E2E2E2E2E2E2E2E2E2E2E2E2E2E2E2E2E2E2E2E2E2E2E2E2E2E2E2E2E2E2E2E2E2E2E2E2E2E2E2E2E2E2E2E2E2E2E2E2E2E2E2E2E2E2E2E2E2E2E2E2E2E2E2E2E2E2E2E2E2E2E2E2E2E2E2E2E2E2E2E2E2E2E2E2E2E2E2E2E2E2E2F5E2F5E2E2E200F5E2E2E2F5E2F5E2E2E2E2E2E2E2E2
310
E2E2E2E2E2E2E2E2E2E2E2E2E2E2E2E2E2E2E2E2E2E2E2E2E2E2E2E2E2E2E2E2E2E2E2E2E2E2E2E2E2E2E2E2E2E2E2E2E2E2E2E2E2E2E2E2E2E2E2E2E2E2E2E2E2E2E2E2E2E2E2E2E2E2E2E2E2E2E2E2E2E2E2E2E2E2F5E2F5E2E2E2CDF5E2E2E2F5E2F5E2E2E2E2E2E2E2E2E2E2E2E2E2E2E2E2E2E2E2E2E2E2E2E2E2E2E2
310
E2E2E2E2E2E2E2E2E2E2E2E2E2E2E2E2E2E2E2E2E2E2E2E2E2E2E2E2E2E2E2E2E2E2E2E2E2E2E2E2E2E2E2E2E2E2E2E2E2E2E2E2E2E2E2E2E2E2E2E2E2E2E2E2E2E2E2F5E2F5E2E2E200F5E2E2E2F5E2F5E2E2E2E2E2E2E2E2E2E2E2E2E2E2E2E2E2E2E2E2E2E2E2E2E2E2E2E2E2E2E2E2E2E2E2E2E2E2E2E2E2E2E2E2E2E2
310
E2E2E2E2E2E2E2E2E2E2E2E2E2E2E2E2E2E2E2E2E2E2E2E2E2E2E2E2E2E2E2E2E2E2E2E2E2E2E2E2E2E2E2E2E2E2E2E2F5E2F5E2E2E2CDF5E2E2E2E2E2F5E2E2E2E2E2E2E2E2E2E2E2E2E2E2E2E2E2E2E2E2E2E2E2E2E2E2E2E2E2E2E2E2E2E2E2E2E2E2E2E2E2E2E2E2E2E2E2E2E2E2E2E2E2E2E2E2E2E2E2E2E2E2E2E2E2
310
E2E2E2E2E2E2E2E2E2E2E2E2E2E2E2E2E2E2E2E2E2E2E2E2E2E2E2E2E2F5E2E2E2E2E200F5E2E2E2E2E2F5E2E2E2E2E2E2E2E2E2E2E2E2E2E2E2E2E2E2E2E2E2E2E2E2E2E2E2E2E2E2E2E2E2E2E2E2F5F5F5F5F5F5F5F5F5F5F5F5F5F5F5F5F5F5F5F5F5F5F5F5F5F5F5F5F5F5F5F5E2E2E2E2E2E2E2E2E2E2E2E2E2E2E2E2
310
E2E2E2E2E2E2E2E2E2E2F5E2E2E2E2E2CDF5E2E2E2E2E2F5E2E2E2E2E2E2E2E2E2E2E2E2E2E2E2E2E2E2E2E2E2E2E2E2E2E2E2E2E2E2E2E2E2E2E2E2F5F5F5F5F5F5F5F5F5F5F5F5F5F5F5F5F5F5F5F5F5F5F5F5F5F5F5F5F5F5F5E2E2E2E2E2E2E2E2E2E2E2E2E2E2E2E2E2E2E2E2E2E2E2E2E2E2E2F5E2E2E2E2E200F5E2
310
E2E2E2E2F5E2E2E2E2E2E2E2E2E2E2E2E2E2E2E2E2E2E2E2E2E2E2E2E2E2E2E2E2E2E2E2E2E2E2E2E2E2E2E2E2E2E2E2E2E2E2E2E2E2E2E2E2E2E2E2E2E2E2E2E2E2E2E2E2E2E2E2E2E2E2E2E2E2E2E2E2E2E2E2E2E2E2E2E2E2E2E2E2E2E2E2E2E2E2F5E2E2E2E2E2CDF5E2E2E2E2E2F5E2E2E2E2E2E2E2E2E2E2E2E2E2E2
310
E2E2E2E2E2E2E2E2E2E2E2E2E2E2E2E2E2E2E2F5F5F5F5F5F5F5F5F5F5F5F5F5F5F5F5F5F5F5F5F5F5F5F5F5F5F5F5F5F5F5F5F5F5F5F5F5F5E2E2E2E2E2E2E2E2E2E2E2E2E2E2E2E2E2E2E2E2E2E2E2F5E2E2E2E2E200F5E2E2E2E2E2F5E2E2E2E2E2E2E2E2E2E2E2E2E2E2E2E2E2E2E2E2E2E2E2E2E2E2E2E2E2E2E2E2E2
310
F5F5F5F5F5F5F5F5F5F5F5F5F5F5F5F5F5F5F5F5F5F5F5F5F5F5F5F5F5F5F5F5F5F5F5F5F5E2E2E2E2E2E2E2E2E2E2E2E2E2E2E2E2E2E2E2E2E2E2E2E2F5E2E2E2E2E2CDF5E2E2E2E2E2F5E2E2E2E2E2E2E2E2E2E2E2E2E2E2E2E2E2E2E2E2E2E2E2E2E2E2E2E2E2E2E2E2E2E2E2E2E2E2E2E2E2E2E2E2E2E2E2E2E2E2E2E2
310
E2E2E2E2E2E2E2E2E2E2E2E2E2E2E2E2E2E2E2E2E2E2E2E2E2E2E2E2E2E2E2E2E2E2E2E2E2E2E2E2E2E2F5E2E2E2E2E200F5E2E2E2E2E2F5E2E2E2E2E2E2E2E2E2E2E2E2E2E2E2E2E2E2E2E2E2E2E2E2E2E2E2E2E2E2E2E2E2E2E2E2E2E2E2E2E2E2E2E2E2E2E2E2E2E2E2E2E2E2E2E2E2E2E2E2E2E2E2E2E2E2E2E2E2E2E2
310
E2E2E2E2E2E2E2E2E2E2E2E2E2E2E2E2E2E2E2E2E2E2E2F5E2E2E2E2E2CDF5E2E2E2E2E2F5E2E2E2E2E2E2E2E2E2E2E2E2E2E2E2E2E2E2E2E2E2E2E2E2E2E2E2E2E2E2E2E2E2E2E2E2E2E2E2E2E2E2E2E2E2E2E2E2E2E2E2E2E2E2E2E2E2E2E2E2E2E2E2E2E2E2E2E2E2E2E2E2E2E2E2E2E2E2E2E2E2E2E2E2E2E2E2E2E2E2
310
E2E2E2E2F5E2E2E2E2E200F5E2E2E2F5E2F5E2E2E2E2E2E2E2E2E2E2E2E2E2E2E2E2E2E2E2E2E2E2E2E2E2E2E2E2E2E2E2E2E2E2E2E2E2E2E2E2E2E2E2E2E2E2E2E2E2E2E2E2E2E2E2E2E2E2E2E2E2E2E2E2E2E2E2E2E2E2E2E2E2E2E2E2E2E2E2E2E2E2E2E2E2E2E2E2E2E2E2E2E2E2F5E2F5E2E2E2CDF5E2E2E2F5E2F5E2
310
E2E2E2E2E2E2E2E2E2E2E2E2E2E2E2E2E2E2E2E2E2E2E2E2E2E2E2E2E2E2E2E2E2F5F5F5F5F5F5F5F5F5F5F5F5F5F5F5F5F5F5F5F5F5F5F5E2E2E2E2E2E2E2E2E2E2E2E2E2E2E2E2E2E2E2E2E2E2E2E2E2E2E2E2E2E2E2E2E2E2E2E2E2F5E2F5E2E2E200F5E2E2E2F5E2F5E2E2E2E2E2E2E2E2E2E2E2E2E2E2E2E2E2E2E2E2
310
E2E2E2E2E2E2E2E2E2E2E2E2E2E2F5F5F5F5F5F5F5F5F5F5F5F5F5F5F5F5F5F5F5F5F5F5F5F5F5F5F5F5F5F5F5F5F5E2E2E2E2E2E2E2E2E2E2E2E2E2E2E2E2E2E2E2E2E2E2E2E2E2E2E2F5E2F5E2E2E2CDF5E2E2E2F5E2F5E2E2E2E2E2E2E2E2E2E2E2E2E2E2E2E2E2E2E2E2E2E2E2E2E2E2E2E2E2E2E2E2E2E2F5F5F5F5F5
310
F5F5F5F5F5F5F5F5F5F5F5F5F5F5F5F5F5F5F5F5F5F5F5F5F5F5F5F5E2E2E2E2E2E2E2E2E2E2E2E2E2E2E2E2E2E2E2E2E2E2E2E2E2E2E2F5E2F5E2E2E200F5E2E2E2F5E2F5E2E2E2F5F5F5F5F5F5F5F5F5F5F5F5F5F5F5F5F5F5F5F5F5F5F5F5F5F5F5F5F5F5F5F5F5F5F5F5F5F5F5F5F5F5F5F5F5F5F5F5F5F5F5F5F5F5F5
310
F5F5F5F5F5F5F5F5F5F5F5F5F5E2E2E2E2E2E2E2E2E2E2E2E2E2E2E2E2E2E2E2E2E2E2E2F5E2F5E2E2E2CDF5E2E2E2F5E2F5E2E2E2F5F5E2E2E2E2E2F5F5E2E2E2E2E2E2E2F5E2E2E2E2E2E2E2F5E2E2E2E2E2E2F5F5F5F5E2E2E2E2E2E2E2E2E2E2E2E2F5F5E2E2E2E2E2E2E2E2E2E2E2E2E2E2E2E2E2E2E2E2E2E2E2E2E2
310
E2E2E2E2E2E2E2E2E2E2E2E2E2E2E2E2E2F5E2F5E2E2E200F5E2E2E2F5E2F5E2E2E2E2F5E2E2E2E2E2F5E2E2E2E2E2E2E2E2F5E2E2E2E2E2E2E2F5E2E2E2E2E2E2F5F5F5F5E2E2E2E2E2E2E2E2E2E2E2E2E2F5E2E2E2E2E2E2E2E2E2E2E2E2E2E2E2E2E2E2E2E2E2E2E2E2E2E2E2E2E2E2E2E2E2E2E2E2E2E2E2E2E2E2F5E2
310
F5E2E2E200F5E2E2E2F5E2F5E2E2E2E2F5E2E2E2E2E2F5E2E2E2E2E2E2E2E2F5E2E2E2E2E2E2E2F5E2E2E2E2E2E2F5F5F5F5E2E2E2E2E2E2E2E2E2E2E2E2E2F5E2E2E2E2E2E2E2E2E2E2E2E2E2E2E2E2E2E2E2E2E2E2E2E2E2E2E2E2E2E2E2E2E2E2E2E2E2E2E2E2E2E2F5E2F5E2E2E200F5E2E2E2F5E2F5E2E2E2E2F5E2E2
310
E2E2E2F5E2E2E2E2E2E2E2E2F5E2E2E2E2E2E2E2F5E2E2E2E2E2E2F5F5F5F5E2E2E2E2E2E2E2E2E2E2E2E2E2F5E2E2E2E2E2E2F5F5F5F5F5F5F5F5F5F5F5F5E2E2E2E2E2E2E2E2E2E2E2E2E2E2E2E2E2E2E2E2E2E2E2E2F5E2F5E2E2E233F5E2E2E2F5E2F5E2E2E2E2F5E2E2E2E2E2F5E2E2E2E2E2E2E2E2F5E2E2E2E2E2E2
310
E2F5E2E2E2E2E2E2F5F5F5F5F5E2F5F5F5F5F5F5F5E2E2E2E2F5E2E2E2E2F5F5F5F5F5F5F5F5F5F5F5F5F5F5F5F5F5E2E2F5F5F5F5F5F5F5F5F5F5E2E2E2E2E2E2E2E2E2F5E2F5E2E2E20FF5E2E2E2F5E2F5E2E2E2E2F5E2E2E2E2E2F5E2E2E2E2E2E2E2E2F5E2E2E2E2E2E2E2F5E2E2E2E2E2E2F5F5F5F5E2F5F5F5F5F5F5
310
F5F5E2E2E2E2F5E2E2E2E2F5E2F5F5F5F5E2E2F5E2E2E2F5E2E2E2F5E2E2E2E2E2E2E2E2E2E2E2E2E2E2E2E2E2E2E2E2E2F5E2F5E2E2E200F5E2E2E2F5E2F5E2E2E2E2F5E2E2E2E2E2F5E2E2E2E2E2E2E2E2F5E2E2E2E2E2E2E2F5E2E2E2E2E2E2F5F5F5F5E2E2E2E2E2E2E2E2E2E2E2E2E2F5E2E2E2E2F5F5F5F5F5F5F5F5
310
F5F5F5F5F5F5F5F5F5E2F5F5F5F5F5F5F5F5F5F5F5F5F5F5F5F5F5F5F5F5F5E2F5E2E2E200F5E2E2E2F5E2F5E2E2E2E2F5E2E2E2E2E2F5E2E2E2E2E2E2E2E2F5E2E2E2E2E2E2E2F5E2E2E2E2E2E2F5F5F5F5E2E2E2E2E2E2E2E2E2E2E2E2E2F5E2E2E2E2F5F5F5F5F5F5F5F5F5F5F5F5F5F5F5F5F5E2F5F5F5F5F5F5F5F5F5
310
F5F5F5F5F5F5F5F5F5F5F5F5E2F5E2E2E233F5E2E2E2F5E2F5E2E2E2E2F5E2E2E2E2E2F5E2E2E2E2E2E2E2E2F5E2E2E2E2E2E2E2F5E2E2E2E2E2E2F5F5F5F5E2E2E2E2E2E2E2E2E2E2E2E2E2F5E2E2E2E2F5E2F5F5F5F5E2E2F5E2E2F5F5F5E2E2F5E2F5F5F5F5F5F5E2F5E2E2F5F5F5F5F5F5F5E2E2E2F5E2F5E2E2E20FF5
310
E2E2E2F5E2F5E2E2E2E2F5E2E2E2E2E2F5E2E2E2E2E2E2E2E2F5E2E2E2E2E2E2E2F5E2E2E2E2E2E2F5F5F5F5E2E2E2E2E2E2E2E2E2E2E2E2E2F5E2E2E2E2F5F5F5F5F5F5F5F5F5F5F5F5F5F5F5F5F5E2F5F5F5F5F5F5F5F5F5F5F5F5F5F5F5F5F5F5F5F5F5E2F5E2E2E200F5E2E2E2F5E2F5E2E2E2E2F5E2E2E2E2E2F5E2E2
310
E2E2E2E2E2E2F5E2E2E2E2E2E2E2F5E2E2E2E2E2E2F5F5F5F5E2E2E2E2E2E2E2E2E2E2E2E2E2F5E2E2E2E2F5F5F5F5F5F5F5F5F5F5F5F5F5F5F5F5F5E2F5F5F5F5F5F5F5F5F5F5F5F5F5F5F5F5F5F5F5F5F5E2F5E2E2E200F5E2E2E2F5E2F5E2E2E2E2F5E2E2E2E2E2F5E2E2E2E2E2E2E2E2F5E2E2E2E2E2E2E2F5E2E2E2E2
310
E2E2F5F5F5F5E2E2E2E2E2E2E2E2E2E2E2E2E2F5E2E2E2E2F5E2F5F5F5F5E2E2F5F5F5F5F5F5F5E2F5E2F5E2F5F5F5E2E2F5E2E2F5F5F5F5F5F5F5E2E2E2F5E2F5E2E2E233F5E2E2E2E2E2F5E2E2E2E2F5E2E2E2E2E2F5E2E2E2E2E2E2E2E2F5E2E2E2E2E2E2E2F5E2E2E2E2E2E2F5F5F5F5E2E2E2E2E2E2E2E2E2E2E2E2E2
310
F5E2E2E2E2F5E2E2F5F5F5E2E2F5F5F5F5F5F5F5E2F5E2F5F5F5F5F5F5F5F5F5F5F5F5F5F5F5F5F5F5F5F5F5E2E2E2E2E20FF5E2E2E2E2E2F5E2E2E2E2F5E2E2E2E2E2F5E2E2E2E2E2E2E2E2F5E2E2E2E2E2E2E2F5E2E2E2E2E2E2F5F5F5F5E2E2E2E2E2E2E2E2E2E2E2E2E2F5E2E2E2E2F5F5F5F5F5F5F5F5F5F5F5F5F5F5
310
F5F5F5E2F5F5F5F5F5F5F5F5F5F5F5F5F5F5F5F5F5F5F5F5F5E2E2E2E2E200F5E2E2E2E2E2F5E2E2E2E2F5E2E2E2E2E2F5E2E2E2E2E2E2E2E2F5E2E2E2E2E2E2E2F5E2E2E2E2E2E2F5F5F5F5E2E2E2E2E2E2E2E2E2E2E2E2E2F5E2E2E2E2F5E2F5F5F5F5F5F5F5F5F5F5F5F5E2E2F5E2F5E2E2F5F5F5F5F5F5F5F5F5F5F5F5
310
F5F5E2E2E2F5E2E2E2E2E200F5E2E2E2E2E2F5E2E2E2E2F5E2E2E2E2E2F5E2E2E2E2E2E2E2E2F5E2E2E2E2E2E2E2F5E2E2E2E2E2E2F5F5F5F5E2E2E2E2E2E2E2E2E2E2E2E2E2F5E2E2E2E2F5E2E2E2F5F5F5F5F5F5F5F5F5E2E2E2F5E2F5E2E2F5F5F5F5F5F5F5F5F5F5F5F5F5E2E2E2E2F5E2E2E2E2E233F5E2E2E2E2E2F5
310
E2E2E2E2F5E2E2E2E2E2F5E2E2E2E2E2E2E2E2F5E2E2E2E2E2E2E2F5E2E2E2E2E2E2F5F5F5F5E2E2E2E2E2E2E2E2E2E2E2E2E2F5E2E2E2E2F5E2E2E2F5F5F5F5F5F5F5F5F5E2E2E2F5E2F5E2E2F5F5F5F5F5F5F5F5F5F5F5F5F5E2E2E2E2F5E2E2E2E2E20FF5E2E2E2E2E2F5E2E2E2E2F5E2E2E2E2E2F5E2E2E2E2E2E2E2E2
310
F5E2E2E2E2E2E2E2F5E2E2E2E2E2E2F5F5F5F5E2E2E2E2E2E2E2E2E2E2E2E2E2F5E2E2E2E2F5F5F5F5F5F5F5F5F5F5F5F5F5F5F5F5F5E2F5F5F5F5F5F5F5F5F5F5F5F5F5F5F5F5F5F5F5F5F5E2E2E2E2E200F5E2E2E2E2E2F5E2E2E2E2F5E2E2E2E2E2F5E2E2E2E2E2E2E2E2F5E2E2E2E2E2E2E2F5E2E2E2E2E2E2F5F5F5F5
310
E2E2E2E2E2E2E2E2E2E2E2E2E2F5E2E2E2E2E2E2E2E2E2E2E2E2E2E2E2E2E2E2E2E2E2E2E2E2E2E2E2E2E2E2E2E2E2E2E2E2E2E2E2E2E2E2F5E2E2E2E2E200F5E2E2E2E2E2F5E2E2E2E2F5E2E2E2E2E2F5E2E2E2E2E2E2E2E2F5E2E2E2E2E2E2E2F5E2E2E2E2E2E2F5F5F5F5E2E2E2E2E2E2E2E2F5F5F5F5F5F5F5F5F5E2E2
310
E2E2E2E2E2E2E2E2E2E2E2E2E2E2E2E2E2E2E2E2E2E2E2E2E2E2E2E2E2E2E2E2E2E2E2E2E2F5E2E2E2E2E200F5E2E2E2E2E2F5E2E2E2E2F5E2E2E2E2E2F5E2E2E2E2E2E2E2E2F5E2E2E2E2E2E2E2F5E2E2E2E2E2E2F5F5F5F5E2E2E2E2E2E2E2E2F5F5F5F5F5F5F5F5F5E2E2E2E2E2E2E2E2E2E2E2E2E2E2E2E2E2E2E2E2E2
310
E2E2E2E2E2E2E2E2E2E2E2E2E2E2E2E2E2E2F5E2E2E2E2E27EF5E2E2E2F5E2F5E2E2E2E2F5E2E2E2E2E2F5E2E2E2E2E2E2E2E2F5E2E2E2E2E2E2E2F5E2E2E2E2E2E2F5F5F5F5E2E2E2E2E2E2E2E2F5F5F5F5F5F5F5F5F5E2E2E2E2E2E2E2E2E2E2E2E2E2E2E2E2E2E2E2E2E2E2E2E2E2E2E2E2E2E2E2E2E2E2E2E2E2E2E2F5
310
E2F5E2E2E27EF5E2E2E2F5E2F5F5F5F5F5F5F5F5F5E2E2F5E2E2E2E2E2E2E2E2F5E2E2E2E2E2E2E2F5E2E2E2E2E2E2F5F5F5F5E2E2E2E2E2E2E2E2E2E2E2E2E2F5E2E2E2E2E2E2E2E2E2E2E2E2E2E2E2E2E2E2E2E2E2E2E2E2E2E2E2E2E2E2E2E2E2E2E2E2E2E2E2E2E2E2F5E2F5E2E2E200F5E2E2E2F5E2F5E2F5F5F5F5F5
310
E2E2E2E2F5E2E2E2E2E2E2E2E2F5E2E2E2E2E2F5F5F5F5E2E2E2E2E2F5F5F5F5E2E2E2E2E2E2E2E2E2E2E2E2E2F5E2E2E2E2E2E2E2F5F5F5F5F5F5F5F5F5F5F5F5F5F5F5F5F5F5F5F5F5F5F5F5F5E2E2E2E2E2E2E2E2E2E2F5E2F5E2E2E2CDF5E2E2E2F5E2F5E2E2E2E2F5E2E2E2E2E2F5E2E2E2F5F5F5F5F5F5F5F5F5E2E2
310
F5F5F5F5E2E2E2E2E2F5F5F5F5E2E2E2E2E2E2E2E2E2E2E2E2E2F5E2E2E2E2E2E2E2F5F5F5F5F5F5F5F5F5F5F5F5F5F5F5F5F5F5F5F5F5F5F5F5E2E2E2E2E2E2E2E2E2E2E2F5E2F5E2E2E200F5E2E2E2F5E2F5E2E2E2E2F5E2E2E2E2E2F5E2E2E2E2F5F5F5F5F5F5F5F5E2E2E2E2F5E2E2E2E2E2E2F5F5F5F5E2E2E2E2E2E2
310
E2E2E2E2E2E2E2F5E2E2E2E2E2E2E2E2E2E2E2E2E2E2E2E2E2E2E2E2E2E2E2E2E2E2E2E2E2E2E2E2E2E2E2E2E2E2E2E2E2E2F5E2F5E2E2E2CDF5E2E2E2F5E2F5E2E2E2E2F5E2E2E2E2E2F5E2E2E2E2F5F5F5F5F5F5F5E2E2E2E2E2F5E2E2E2E2E2E2F5F5F5F5E2E2E2E2E2E2E2E2E2E2E2E2E2F5E2E2E2E2E2E2E2E2E2E2E2
310
E2E2F5F5F5F5F5F5F5F5F5F5F5F5E2E2E2E2E2E2E2E2E2E2E2E2E2E2E2E2E2F5E2F5E2E2E200F5E2E2E2F5E2F5E2E2E2E2F5E2E2E2E2E2F5E2E2E2E2E2E2E2E2E2E2E2E2E2E2E2E2F5E2E2E2E2E2E2F5F5F5F5E2E2E2E2E2E2E2E2E2E2E2E2E2F5E2E2E2E2E2E2E2E2E2E2E2E2E2F5F5F5F5F5F5F5F5F5F5F5E2E2E2E2E2E2
310
E2E2E2E2E2E2E2E2E2E2E2E2F5E2F5E2E2E2CDF5E2E2E2F5E2F5E2E2E2E2F5E2E2E2E2E2F5E2E2E2E2E2E2E2E2F5E2E2E2E2E2E2E2F5E2E2E2E2E2E2F5F5F5F5E2E2E2E2E2E2E2E2E2E2E2E2E2F5E2E2E2E2E2E2E2E2E2E2E2E2E2E2E2E2E2E2E2E2E2E2E2E2E2E2E2E2E2E2E2E2E2E2E2E2E2E2E2E2E2E2F5E2F5E2E2E200
310
F5E2E2E2F5E2F5E2E2E2E2F5E2E2E2E2E2F5E2E2E2E2E2E2E2E2F5E2E2E2E2E2E2E2F5E2E2E2E2E2E2F5F5F5F5E2E2E2E2E2E2E2E2E2E2E2E2E2F5E2E2E2E2E2E2E2E2E2E2E2E2E2E2E2E2E2E2E2E2E2E2E2E2E2E2E2E2E2E2E2E2E2E2E2E2E2E2E2E2E2E2F5E2F5E2E2E2CDF5E2E2E2F5E2F5E2E2E2E2F5E2E2E2E2E2F5E2
310
E2E2E2E2E2E2E2F5E2E2E2E2E2E2E2F5E2E2E2E2E2E2F5F5F5F5E2E2E2E2E2E2E2E2E2E2E2E2E2F5E2E2E2E2E2E2E2E2F5F5E2E2E2E2E2E2E2E2E2E2E2E2E2E2E2E2E2E2E2E2E2E2E2E2E2E2E2E2E2E2E2E2F5E2F5E2E2E200F5E2E2E2F5E2F5E2E2E2E2F5E2F5F5F5F5F5F5F5F5E2E2E2E2E2F5E2E2E2E2E2E2E2F5E2E2E2
310
E2E2E2F5F5F5F5E2E2E2E2E2E2E2E2E2E2E2E2E2F5E2E2E2E2E2E2E2E2F5F5E2E2E2E2E2E2E2E2E2E2E2E2E2E2E2E2E2E2E2E2E2E2E2E2E2E2E2E2E2E2E2E2F5E2F5E2E2E2CDF5E2E2E2F5E2F5E2E2E2E2F5E2E2E2F5F5F5F5F5E2E2E2E2E2E2F5E2E2E2E2E2E2E2F5E2E2E2E2E2E2F5F5F5F5E2E2E2E2E2E2E2E2E2E2E2E2
310
E2F5E2E2E2E2E2E2E2F5F5F5E2E2E2E2E2E2E2E2E2E2E2E2E2E2E2E2E2E2E2E2E2E2E2E2E2E2E2E2E2E2E2E2F5E2F5E2E2E200F5E2E2E2F5E2F5E2E2E2E2F5E2E2E2E2E2F5E2E2E2E2E2E2E2E2F5E2E2E2E2E2E2E2F5E2E2E2E2E2E2F5F5F5F5E2E2E2E2E2E2E2E2E2E2E2E2E2F5E2E2E2E2E2E2E2E2F5F5E2E2E2E2E2E2E2
310
E2E2E2E2E2E2E2E2E2E2E2E2E2E2E2E2E2E2E2E2E2E2E2E2E2F5E2F5E2E2E2CDF5E2E2E2F5E2F5E2E2E2E2F5E2E2E2E2E2F5E2E2E2E2E2E2E2E2F5E2E2E2E2E2E2E2F5E2E2E2E2E2E2F5F5F5F5E2E2E2E2E2E2E2E2E2E2E2E2E2F5E2E2E2E2E2E2E2E2F5F5F5E2E2E2E2E2E2E2E2E2E2E2E2E2E2E2E2E2E2E2E2E2E2E2E2E2
310
E2E2E2E2E2E2F5E2F5E2E2E200F5E2E2E2F5E2F5E2E2E2E2F5E2E2E2E2E2F5E2E2E2E2E2E2E2E2F5E2E2E2E2E2E2E2F5E2E2E2E2E2E2F5F5F5F5E2E2E2E2E2E2E2E2E2E2E2E2E2F5E2E2E2E2E2E2E2E2F5F5F5F5E2E2E2E2E2E2E2E2E2E2E2E2E2E2E2E2E2E2E2E2E2E2E2E2E2E2E2E2E2E2F5E2F5E2E2E2CDF5E2E2E2F5E2
310
F5E2E2E2E2F5E2E2E2E2E2F5E2E2E2E2E2E2E2E2F5E2E2E2E2E2E2E2F5E2E2E2E2E2E2F5F5F5F5E2E2E2E2E2E2E2E2E2E2E2E2E2F5E2E2E2E2E2E2E2E2F5F5E2F5F5F5E2E2E2E2E2E2E2E2E2E2E2E2E2E2E2E2E2E2E2E2E2E2E2E2E2E2E2E2F5E2F5E2E2E200F5E2E2E2F5E2F5E2E2E2E2F5E2E2E2E2E2F5E2E2E2E2E2E2E2
310
E2F5E2E2E2E2E2E2E2F5E2E2E2E2E2E2F5F5F5F5E2E2E2E2E2E2E2E2E2E2E2E2E2F5E2E2E2E2E2E2E2E2F5F5E2E2F5F5F5F5E2E2E2E2E2E2E2E2E2E2E2E2E2E2E2E2E2E2E2E2E2E2E2E2E2E2F5E2F5E2E2E2CDF5E2E2E2E2E2F5E2E2E2E2F5E2E2E2E2E2F5E2E2E2E2E2E2E2E2F5E2E2E2E2E2E2E2F5E2E2E2E2E2E2F5F5F5
310
F5E2E2E2E2E2E2E2E2E2E2E2E2E2F5E2E2E2E2E2E2E2E2F5F5E2F5F5F5F5F5E2E2E2E2E2E2E2E2E2E2E2E2E2E2E2E2E2E2E2E2E2E2E2E2E2E2F5E2E2E2E2E200F5E2E2E2E2E2F5E2E2E2E2F5E2E2E2E2E2F5E2E2E2E2E2E2E2E2F5E2E2E2E2E2E2E2F5E2E2E2E2E2E2F5F5F5F5E2E2E2E2E2E2E2E2E2E2E2E2E2F5E2E2E2E2
310
E2E2E2F5F5F5F5F5F5F5F5F5F5F5F5E2E2E2E2E2E2E2E2E2E2E2E2E2E2E2E2E2E2E2E2E2E2E2F5E2E2E2E2E2CDF5E2E2E2E2E2F5E2E2E2E2F5E2E2E2E2E2F5E2E2E2E2E2E2E2E2F5E2E2E2E2E2E2E2F5E2E2E2E2E2E2F5F5F5F5E2E2E2E2E2E2E2E2E2E2E2E2E2F5E2E2E2E2E2E2E2F5F5F5F5F5F5F5F5F5F5F5F5E2E2E2E2
310
E2E2E2E2E2E2E2E2E2E2E2E2E2E2E2E2E2E2E2F5E2E2E2E2E200F5E2E2E2E2E2F5E2E2E2E2F5E2E2E2E2E2F5E2E2E2E2E2E2E2E2F5E2E2E2E2E2E2E2F5E2E2E2E2E2E2F5F5F5F5E2E2E2E2E2E2E2E2E2E2E2E2E2F5E2E2E2E2E2E2E2E2E2E2E2E2E2F5E2E2E2F5E2E2E2E2E2E2E2E2E2E2E2E2E2E2E2E2E2E2E2E2E2E2E2E2
310
F5E2E2E2E2E2CDF5E2E2E2E2E2F5E2E2E2E2F5E2E2E2E2E2F5E2E2E2E2E2E2E2E2F5E2E2E2E2E2E2E2F5E2E2E2E2E2E2F5F5F5F5E2E2E2E2E2E2E2E2E2E2E2E2E2F5E2E2E2E2E2E2E2E2E2E2E2E2E2E2E2E2E2F5E2F5F5F5F5F5F5F5F5F5F5F5F5E2E2E2E2E2E2E2E2E2E2E2F5E2E2E2E2E200F5E2E2E2E2E2F5E2E2E2E2F5
310
E2E2E2E2E2F5E2E2E2E2E2E2E2E2F5E2E2E2E2E2E2E2F5E2E2E2E2E2E2F5F5F5F5E2E2E2E2E2E2E2E2E2E2E2E2E2F5E2E2E2E2E2E2E2E2E2E2E2E2E2E2E2E2E2E2F5E2F5F5F5F5F5F5F5F5F5F5F5F5F5F5F5F5F5F5F5E2E2E2F5E2E2E2E2E201F5E2E2E2E2E2F5E2E2E2E2F5E2E2E2E2E2F5E2E2E2E2E2E2E2E2F5E2E2E2E2
310
E2E2E2F5E2E2E2E2E2E2F5F5F5F5E2E2E2E2E2E2E2E2E2E2E2E2F5F5E2E2E2E2E2E2E2E2E2E2E2E2E2E2E2E2E2E2F5F5E2E2E2E2E2E2E2E2E2E2E2E2E2E2E2E2E2E2E2E2E2E2F5E2E2E2E2E200F5E2E2E2E2E2F5E2E2E2E2F5E2E2E2E2E2F5E2E2E2E2E2E2E2E2F5E2E2E2E2E2E2E2F5E2E2E2E2E2E2F5F5F5F5F5F5F5F5F5
310
F5F5F5F5F5F5F5F5F5E2E2E2E2E2E2E2E2E2E2E2E2E2E2E2E2E2E2E2E2E2E2E2E2E2E2E2E2E2E2E2E2E2E2E2E2E2E2E2E2E2E2F5E2E2E2E2E2CDF5E2E2E2E2E2F5E2E2E2E2F5E2E2E2E2E2F5E2E2E2E2E2E2E2E2F5E2E2E2E2E2E2E2F5E2E2E2E2E2E2F5F5F5F5E2E2E2E2E2E2E2E2E2E2E2E2E2E2E2E2E2E2E2E2E2E2E2E2
310
E2E2E2E2E2E2E2E2E2E2E2E2E2E2E2E2E2E2E2E2E2E2E2E2E2E2E2E2E2E2E2E2F5E2E2E2E2E200F5E2E2E2F5E2F5E2E2E2E2F5E2E2E2E2E2F5E2E2E2E2E2E2E2E2F5E2E2E2E2E2E2E2F5E2E2E2E2E2E2F5F5F5F5F5F5F5F5F5F5F5F5F5F5F5F5F5F5E2E2E2E2E2E2E2F5F5F5F5F5F5F5F5F5F5F5F5F5F5F5F5F5E2E2E2E2E2
310
E2E2E2E2E2E2E2E2E2E2E2E2E2F5E2F5E2E2E2CDF5E2E2E2F5E2F5E2E2E2E2F5E2E2E2E2E2F5E2E2E2E2E2E2E2E2F5E2E2E2E2E2E2E2F5E2E2E2E2E2E2F5F5F5F5F5F5F5F5F5F5F5F5F5F5F5F5F5F5F5F5F5F5F5F5F5F5F5F5F5F5F5F5F5F5F5F5F5F5F5F5F5F5E2F5F5F5F5F5F5F5F5F5E2E2E2E2E2E2E2E2F5E2F5E2E2E2
310
00F5E2E2E2F5E2F5E2E2E2E2F5E2E2E2E2E2F5E2E2E2E2E2E2E2E2F5E2E2E2E2E2E2E2F5F5F5F5F5F5F5F5F5F5F5F5F5E2E2E2E2E2E2E2E2E2E2E2E2E2E2E2E2E2E2E2E2F5F5F5F5F5F5F5F5F5F5F5F5F5F5F5E2E2E2E2E2E2E2E2E2F5F5E2E2E2E2E2E2E2E2F5E2F5E2E2E2CDF5E2E2E2F5E2F5E2E2E2E2F5E2E2E2E2E2F5
310
E2E2E2E2E2E2E2E2F5E2E2E2E2E2E2E2F5E2E2E2E2E2E2F5F5F5F5F5F5F5F5F5F5F5F5F5F5F5F5F5F5F5F5E2E2E2E2E2E2E2E2E2E2E2E2E2E2E2E2E2E2E2E2E2E2E2E2E2E2E2E2E2E2E2F5E2E2E2E2E2E2E2E2F5E2F5E2E2E200F5E2E2E2F5E2F5E2E2E2E2F5E2E2E2E2E2F5E2E2E2E2E2E2E2E2F5E2E2E2E2E2E2E2F5E2E2
310
E2E2E2E2F5F5F5E2E2F5F5F5E2E2E2E2E2E2E2E2E2E2E2E2E2E2E2E2E2E2E2E2E2E2E2E2E2E2E2E2E2E2E2E2E2E2E2E2E2E2E2E2E2E2E2F5E2E2E2E2E2E2E2E2F5E2F5E2E2E2CDF5E2E2E2F5E2F5E2E2E2E2F5E2E2E2E2E2F5E2E2E2E2E2E2E2F5F5F5F5F5F5F5F5F5F5F5F5F5F5F5F5F5F5F5F5F5F5F5F5F5F5E2E2E2E2E2
310
E2E2E2E2E2E2E2E2E2E2E2E2E2E2E2E2E2E2E2E2E2E2E2E2E2E2E2E2E2E2E2E2E2E2E2E2F5E2E2E2E2E2E2E2E2F5E2F5E2E2E200F5E2E2E2F5E2F5E2E2E2E2F5E2E2E2E2E2F5F5E2E2E2E2E2E2E2E2E2E2E2E2E2E2E2F5E2E2E2E2E2E2F5F5F5F5F5E2F5E2F5F5F5F5E2E2E2E2E2E2E2E2F5F5F5F5F5F5F5F5F5F5F5F5F5F5
310
F5F5E2E2E2E2E2E2E2E2E2E2E2E2E2E2E2F5E2E2E2E2E2E2E2E2F5E2F5E2E2E2CDF5E2E2E2F5E2F5E2E2E2F5F5E2E2E2E2E2F5F5F5F5F5F5F5F5F5F5F5F5F5F5F5F5F5F5F5F5F5F5F5F5F5F5F5F5F5E2E2F5E2E2F5F5F5F5E2E2E2E2E2E2F5F5F5F5F5F5F5F5F5F5F5F5F5F5F5F5E2E2E2E2E2E2E2E2E2E2E2E2E2E2E2F5E2
310
E2E2E2E2E2E2E2F5E2F5E2E2E200F5E2E2E2F5E2F5E2E2E2F5F5F5F5F5F5F5F5F5F5F5F5F5F5F5F5F5F5F5F5F5F5F5F5F5F5F5F5F5F5F5F5F5F5F5F5E2E2E2F5F5F5F5F5F5F5F5F5F5F5F5F5F5F5F5F5F5F5F5F5F5F5F5F5F5F5E2E2E2E2E2E2E2E2E2E2E2E2E2E2E2E2F5E2E2E2E2E2E2E2E2F5E2F5E2E2E2CDF5E2E2E2F5
310
E2F5E2E2E2E2E2E2E2E2E2E2E2E2E2E2E2E2E2E2E2E2E2E2E2E2E2E2E2F5E2E2E2E2E2E2F5F5F5F5F5E2E2E2E2E2E2E2E2E2F5F5F5F5E2E2E2E2E2E2E2E2E2E2E2E2E2E2E2E2E2E2E2E2E2E2E2E2E2E2E2E2E2E2E2E2E2F5E2E2E2E2E2E2E2E2F5E2F5E2E2E200F5E2E2E2F5E2F5E2E2E2E2E2E2E2E2E2E2E2E2E2E2E2E2E2
310
E2E2E2E2E2E2E2E2E2E2F5E2E2E2E2E2E2E2F5F5E2F5F5F5E2E2E2E2E2E2E2E2E2F5F5F5F5E2E2E2E2E2E2E2E2E2E2E2E2E2E2E2E2E2E2E2E2E2E2E2E2E2E2E2E2E2E2E2F5E2E2E2E2E2E2E2E2F5E2F5E2E2E2CDF5E2E2E2F5E2F5E2E2E2E2E2E2E2E2E2E2E2E2E2E2E2E2E2E2E2E2E2E2E2E2E2E2E2F5E2E2E2E2E2E2E2E2
310
E2F5F5E2F5F5F5E2E2E2E2E2E2E2E2E2F5F5F5F5E2E2E2E2E2E2E2E2E2E2E2E2E2E2E2E2E2E2E2E2E2E2E2E2E2E2E2E2E2F5E2E2E2E2E2E2E2E2F5E2F5E2E2E200F5E2E2E2F5E2F5E2E2E2E2E2E2E2E2E2E2E2E2E2E2E2E2E2E2E2E2E2E2E2E2E2E2E2F5E2E2E2E2E2E2E2E2E2E2E2F5F5F5F5F5F5F5E2E2E2E2E2E2E2E2F5
310
F5F5F5E2E2E2E2E2E2E2E2E2E2E2E2E2E2E2E2E2E2E2E2E2E2E2E2E2E2E2F5E2E2E2E2E2E2E2E2F5E2F5E2E2E2CDF5E2E2E2F5E2F5E2E2E2E2E2E2E2E2E2E2E2E2E2E2E2E2E2E2E2E2E2E2E2E2E2E2E2F5F5F5F5F5F5F5F5E2E2E2E2E2E2F5F5F5F5F5F5E2E2E2E2E2E2E2E2E2F5F5F5F5E2E2E2E2E2E2E2E2E2E2E2E2E2E2
310
E2E2E2E2E2E2E2E2E2E2E2F5E2E2E2E2E2E2E2E2F5E2F5E2E2E200F5E2E2E2F5E2F5E2E2E2E2E2E2E2E2E2E2E2E2E2E2E2E2E2E2E2E2E2E2E2E2E2E2E2F5F5F5F5F5F5F5E2E2E2E2E2E2E2E2E2F5F5F5E2F5F5E2E2E2E2E2E2E2E2E2F5F5F5F5E2E2E2E2E2E2E2E2E2E2E2E2E2E2E2E2E2E2E2E2E2E2E2F5E2E2E2E2E2E2E2
310
E2F5E2F5E2E2E2CDF5E2E2E2F5E2F5E2E2E2E2E2E2E2E2E2E2E2E2E2E2E2E2E2E2E2E2E2E2E2E2E2E2E2E2E2E2E2E2E2E2E2E2E2E2E2E2E2E2E2E2E2F5F5F5F5F5F5E2E2E2E2E2E2E2E2F5F5F5F5F5E2E2E2E2E2E2E2E2E2E2E2E2E2E2E2E2E2E2E2E2E2F5E2E2E2E2E2E2E2E2F5E2F5E2E2E200F5E2E2E2F5E2F5E2E2E2E2
310
E2E2E2E2E2E2E2E2E2E2E2E2E2E2E2E2E2E2E2E2E2E2E2E2E2E2E2E2E2E2E2E2E2E2E2E2E2E2E2E2E2E2E2F5F5F5F5F5F5E2E2E2E2E2E2F5F5E2F5F5F5E2E2E2E2E2E2E2E2E2E2E2E2E2E2E2E2E2E2E2E2F5E2E2E2E2E2E2E2E2F5E2F5E2E2E2CDF5E2E2E2E2E2F5E2E2E2E2E2E2E2E2E2E2E2E2E2E2E2E2E2E2E2E2E2E2E2
310
E2E2E2E2E2E2E2E2E2E2E2E2E2E2E2E2E2E2E2E2E2E2E2E2E2E2F5F5F5F5F5F5E2E2E2E2F5F5E2E2E2F5F5F5E2E2E2E2E2E2E2E2E2E2E2E2E2E2E2E2E2E2F5E2E2E2E2E2E2E2E2F5E2E2E2E2E200F5E2E2E2E2E2F5E2E2E2E2E2E2E2E2E2E2E2E2E2E2E2E2E2E2E2E2E2E2E2E2E2E2E2E2E2E2E2E2E2E2E2E2E2E2E2E2E2E2
310
E2E2E2E2E2E2E2E2E2F5F5F5E2F5F5E2E2F5F5E2E2E2E2E2F5F5F5E2E2E2E2E2E2E2E2E2E2E2E2E2E2E2E2F5E2E2E2E2E2E2E2E2F5E2E2E2E2E2CDF5E2E2E2E2E2F5E2E2E2E2E2E2E2E2E2E2E2E2E2E2E2E2E2E2E2E2E2E2E2E2E2E2E2E2E2E2E2E2E2E2E2E2E2E2E2E2E2E2E2E2E2E2E2E2E2E2E2E2E2F5F5E2F5F5F5F5F5
310
E2E2E2E2E2E2E2F5F5F5E2E2E2E2E2E2E2E2E2E2E2E2E2E2F5E2E2E2E2E2E2E2E2F5E2E2E2E2E200F5E2E2E2E2E2F5E2E2E2E2E2E2E2E2E2E2E2E2E2E2E2E2E2E2E2E2E2E2E2E2E2E2E2E2E2E2E2E2E2E2E2E2E2E2E2E2E2E2E2E2E2E2E2E2E2E2E2E2E2E2E2F5F5E2F5F5F5E2E2E2E2E2E2E2E2E2F5F5F5E2E2E2E2E2E2E2
310
E2E2E2E2E2F5E2E2E2E2E2E2E2E2F5E2E2E2E2E2CDF5E2E2E2E2E2F5E2E2E2E2E2E2E2E2E2E2E2E2E2E2E2E2E2E2E2E2E2E2E2E2E2E2E2E2E2E2E2E2E2E2E2E2E2E2E2E2E2E2E2E2E2E2E2E2E2E2E2E2E2E2E2E2E2F5F5F5F5F5F5E2E2E2E2E2E2E2E2E2F5F5F5E2E2E2E2E2E2E2E2E2E2F5E2E2E2E2E2E2E2E2F5E2E2E2E2
310
E200F5E2E2E2E2E2F5E2E2E2E2E2E2E2E2E2E2E2E2E2E2E2E2E2E2E2E2E2E2E2E2E2E2E2E2E2E2E2E2E2E2E2E2E2E2E2E2E2E2E2E2E2E2E2E2E2E2E2E2E2E2E2E2E2E2E2F5F5F5F5F5F5E2E2E2E2E2E2E2E2E2F5F5F5E2E2E2E2E2E2E2E2F5E2E2E2E2E2E2E2E2F5E2E2E2E2E2CDF5E2E2E2E2E2F5E2E2E2E2E2E2E2E2E2E2
310
E2E2E2E2E2E2E2E2E2E2E2E2E2E2E2E2E2E2E2E2E2E2E2E2E2E2E2E2E2E2E2E2E2E2E2E2E2E2E2E2E2E2E2E2E2E2E2E2E2E2E2F5F5F5F5F5F5E2E2E2E2E2E2E2E2E2F5F5F5E2E2E2E2E2E2F5E2E2E2E2E2E2E2E2F5E2E2E2E2E200F5E2E2E2E2E2F5E2E2E2E2E2E2E2E2E2E2E2E2E2E2E2E2E2E2E2E2E2E2E2E2E2E2E2E2E2
310
E2E2E2E2E2E2E2E2E2E2E2E2E2E2E2E2E2E2E2E2E2E2E2E2E2E2E2E2E2E2E2E2E2E2F5F5F5F5F5F5E2E2E2E2E2E2E2E2E2F5F5F5E2E2E2E2F5E2E2E2E2E2E2E2E2F5E2E2E2E2E2CDF5E2E2E2E2E2F5E2E2E2E2E2E2E2E2E2E2E2E2E2E2E2E2E2E2E2E2E2E2E2E2E2E2E2E2E2E2E2E2E2E2E2E2E2E2E2E2E2E2E2E2E2E2E2E2
310
E2E2E2E2E2E2E2E2E2E2E2E2E2E2E2E2E2F5F5F5F5F5F5E2E2E2E2E2E2E2E2E2F5F5F5E2E2F5E2E2F5F5E2E2E2E2F5E2E2E2E2E200F5E2E2E2F5E2F5E2E2E2E2E2E2E2E2E2E2E2E2E2E2E2E2E2E2E2E2E2E2E2E2E2E2E2E2E2E2E2E2E2E2E2E2E2E2E2E2E2E2E2E2E2E2E2E2E2E2E2E2E2E2E2E2E2E2E2E2E2E2E2E2E2E2E2
310
F5F5F5F5F5F5E2E2E2E2E2E2E2E2E2F5F5F5F5E2E2F5F5E2E2E2E2F5E2F5E2E2E2CDF5E2E2E2F5E2F5E2E2E2E2E2E2E2E2E2E2E2E2E2E2E2E2E2E2E2E2E2E2E2E2E2E2E2E2E2E2E2E2E2E2E2E2E2E2E2E2E2E2E2E2E2E2E2E2E2E2E2E2E2E2E2E2E2E2E2E2E2E2E2E2E2E2E2E2E2F5F5F5E2F5F5E2E2E2E2E2E2E2E2E2F5F5
310
E2E2E2E2F5E2E2E2F5E2F5E2E2E200F5E2E2E2F5E2F5E2E2E2E2E2E2E2E2E2E2E2E2E2E2E2E2E2E2E2E2E2E2E2E2E2E2E2E2E2E2E2E2E2E2E2E2E2E2E2E2E2E2E2E2E2E2E2E2E2E2E2E2E2E2E2E2E2E2E2E2E2E2E2E2E2E2E2E2E2E2E2F5F5E2F5F5F5E2E2E2E2E2E2E2F5F5E2E2E2E2E2F5F5E2F5E2F5E2E2E2CDF5E2E2E2
310
F5E2F5E2E2E2E2E2E2E2E2E2E2E2E2E2E2E2E2E2E2E2E2E2E2E2E2E2E2E2E2E2E2E2E2E2E2E2E2E2E2E2E2E2E2E2E2E2E2E2E2E2E2E2E2E2E2E2E2E2E2E2E2E2E2E2E2E2E2E2E2E2E2E2E2E2F5F5E2F5F5F5E2E2E2E2E2F5F5E2E2E2E2E2F5E2E2F5E2F5E2E2E200F5E2E2E2F5E2F5E2E2E2E2E2E2E2E2E2E2E2E2E2E2E2E2
310
E2E2E2E2E2E2E2E2E2E2E2E2E2E2E2E2E2E2E2E2E2E2E2E2E2E2E2E2E2E2E2E2E2E2E2E2E2E2E2E2E2E2E2E2E2E2E2E2E2E2E2E2E2E2E2E2E2E2E2F5F5F5F5F5F5E2E2E2F5F5E2E2E2E2E2F5E2E2F5E2F5E2E2E2CDF5E2E2E2F5E2F5E2E2E2E2E2E2E2E2E2E2E2E2E2E2E2E2E2E2E2E2E2E2E2E2E2E2E2E2E2E2E2E2E2E2E2
310
E2E2E2E2E2E2E2E2E2E2E2E2E2E2E2E2E2E2E2E2E2E2E2E2E2E2E2E2E2E2E2E2E2E2E2E2E2E2E2E2E2E2F5F5F5F5F5F5E2F5F5E2E2E2E2F5E2E2E2F5E2F5E2E2E200F5E2E2E2F5E2F5E2E2E2E2E2E2E2E2E2E2E2E2E2E2E2E2E2E2E2E2E2E2E2E2E2E2E2E2E2E2E2E2E2E2E2E2E2E2E2E2E2E2E2E2E2E2E2E2E2E2E2E2E2E2
310
E2E2E2E2E2E2E2E2E2E2E2E2E2E2E2E2E2E2E2E2E2E2E2E2E2F5F5F5E2F5F5F5E2E2E2E2F5E2E2E2F5E2F5E2E2E2CDF5E2E2E2F5E2F5E2E2E2E2E2E2E2E2E2E2E2E2E2E2E2E2E2E2E2E2E2E2E2E2E2E2E2E2E2E2E2E2E2E2E2E2E2E2E2E2E2E2E2E2E2E2E2E2E2E2E2E2E2E2E2E2E2E2E2E2E2E2E2E2E2E2E2E2E2E2E2E2E2
310
E2E2E2E2E2E2E2E2F5F5F5F5F5F5E2E2F5E2E2E2E2F5E2F5E2E2E200F5E2E2E2F5E2F5E2E2E2E2E2E2E2E2E2E2E2E2E2E2E2E2E2E2E2E2E2E2E2E2E2E2E2E2E2E2E2E2E2E2E2E2E2E2E2E2E2E2E2E2E2E2E2E2E2E2E2E2E2E2E2E2E2E2E2E2E2E2E2E2E2E2E2E2E2E2E2E2E2E2E2E2E2E2E2E2E2E2E2F5F5F5F5E2E2F5E2E2
310
E2E2F5E2F5E2E2E2CDF5E2E2E2F5E2F5E2E2E2E2E2E2E2E2E2E2E2E2E2E2E2E2E2E2E2E2E2E2E2E2E2E2E2E2E2E2E2E2E2E2E2E2E2E2E2E2E2E2E2E2E2E2E2E2E2E2E2E2E2E2E2E2E2E2E2E2E2E2E2E2E2E2E2E2E2E2E2E2E2E2E2E2E2E2E2E2E2E2F5F5E2F5E2E2F5E2E2E2E2E2F5E2F5E2E2E206F5E2E2E2F5E2F5E2E2E2
310
E2E2E2E2E2E2E2E2E2E2E2E2E2E2E2E2E2E2E2E2E2E2E2E2E2E2E2E2E2E2E2E2E2E2E2E2E2E2E2E2E2E2E2E2E2E2E2E2E2E2E2E2E2E2E2E2E2E2E2E2E2E2E2E2E2E2E2E2E2E2E2E2E2E2E2E2E2E2E2F5F5E2E2E2E2F5E2E2E2E2E2F5E2F5E2E2E202F5E2E2E2F5E2F5E2E2E2E2E2E2E2E2E2E2E2E2E2E2E2E2E2E2E2E2E2E2
310
E2E2E2E2E2E2E2E2E2E2E2E2E2E2E2E2E2E2E2E2E2E2E2E2E2E2E2E2E2E2E2E2E2E2E2E2E2E2E2E2E2E2E2E2E2E2E2E2E2E2E2E2E2E2E2E2E2E2E2E2E2F5F5E2E2F5E2E2E2E2E2E2F5E2F5E2E2E240F5E2E2E2F5E2F5E2E2E2E2E2E2E2E2E2E2E2E2E2E2E2E2E2E2E2E2E2E2E2E2E2E2E2E2E2E2E2E2E2E2E2E2E2E2E2E2E2
310
E2E2E2E2E2E2E2E2E2E2E2E2E2E2E2E2E2E2E2E2E2E2E2E2E2E2E2E2E2E2E2E2E2E2E2E2E2E2E2E2E2E2E2F5F5E2F5E2E2E2E2E2E2F5E2F5E2E2E23AF5E2E2E2F5E2F5E2E2E2E2E2E2E2E2E2E2E2E2E2E2E2E2E2E2E2E2E2E2E2E2E2E2E2E2E2E2E2E2E2E2E2E2E2E2E2E2E2E2E2E2E2E2E2E2E2E2E2E2E2E2E2E2E2E2E2E2
310
E2E2E2E2E2E2E2E2E2E2E2E2E2E2E2E2E2E2E2E2E2E2E2E2E2E2F5E2E2E2E2E2E2E2F5E2F5E2E2E2D0F5E2E2E2F5E2F5E2E2E2E2E2E2E2E2E2E2E2E2E2E2E2E2E2E2E2E2E2E2E2E2E2E2E2E2E2E2E2E2E2E2E2E2E2E2E2E2E2E2E2E2E2E2E2E2E2E2E2E2E2E2E2E2E2E2E2E2E2E2E2E2E2E2E2E2E2E2E2E2E2E2E2E2E2E2E2
310
E2E2E2E2E2E2E2E2E2E2E2E2E2E2E2F5E2F5E2E2E2A9F5E2E2E2F5E2F5E2E2E2E2E2E2E2E2E2E2E2E2E2E2E2E2E2E2E2E2E2E2E2E2E2E2E2E2E2E2E2E2E2E2E2E2E2E2E2E2E2E2E2E2E2E2E2E2E2E2E2E2E2E2E2E2E2E2E2E2E2E2E2E2E2E2E2E2E2E2E2E2E2E2E2E2E2E2E2E2E2E2E2E2E2E2E2E2E2E2E2E2E2E2F5E2F5E2
310
E2E2FCF5E2E2E2F5E2F5E2E2E2E2E2E2E2E2E2E2E2E2E2E2E2E2E2E2E2E2E2E2E2E2E2E2E2E2E2E2E2E2E2E2E2E2E2E2E2E2E2E2E2E2E2E2E2E2E2E2E2E2E2E2E2E2E2E2E2E2E2E2E2E2E2E2E2E2E2E2E2E2E2E2E2E2E2E2E2E2E2E2E2E2E2E2E2E2E2E2E2E2E2E2F5E2F5E2E2E24DF5E2E2E2E2E2F5E2E2E2E2E2E2E2E2E2
310
E2E2E2E2E2E2E2E2E2E2E2E2E2E2E2E2E2E2E2E2E2E2E2E2E2E2E2E2E2E2E2E2E2E2E2E2E2E2E2E2E2E2E2E2E2E2E2E2E2E2E2E2E2E2E2E2E2E2E2E2E2E2E2E2E2E2E2E2E2E2E2E2E2E2E2E2E2E2E2E2E2E2E2E2E2F5E2E2E2E2E202F5E2E2E2E2E2F5E2E2E2E2E2E2E2E2E2E2E2E2E2E2E2E2E2E2E2E2E2E2E2E2E2E2E2E2
310
E2E2E2E2E2E2E2E2E2E2E2E2E2E2E2E2E2E2E2E2E2E2E2E2E2E2E2E2E2E2E2E2E2E2E2E2E2E2E2E2E2E2E2E2E2E2E2E2E2E2E2E2E2E2E2E2E2E2E2E2E2E2E2E2E2E2F5E2E2E2E2E202F5E2E2E2E2E2F5E2E2E2E2E2E2E2E2E2E2E2E2E2E2E2E2E2E2E2E2E2E2E2E2E2E2E2E2E2E2E2E2E2E2E2E2E2E2E2E2E2E2E2E2E2E2E2
310
E2E2E2E2E2E2E2E2E2E2E2E2E2E2E2E2E2E2E2E2E2E2E2E2E2E2E2E2E2E2E2E2E2E2E2E2E2E2E2E2E2E2E2E2E2E2E2F5E2E2E2E2E2C5F5E2E2E2E2E2F5E2E2E2E2E2E2E2E2E2E2E2E2E2E2E2E2E2E2E2E2E2E2E2E2E2E2E2E2E2E2E2E2E2E2E2E2E2E2E2E2E2E2E2E2E2E2E2E2E2E2E2E2E2E2E2E2E2E2E2E2E2E2E2E2E2E2
310
E2E2E2E2E2E2E2E2E2E2E2E2E2E2E2E2E2E2E2E2E2E2E2E2E2E2E2E2F5E2E2E2E2E200F5E2E2E2E2E2F5F5F5F5F5F5F5F5F5F5F5F5F5F5F5F5F5F5F5F5F5F5F5F5F5F5F5F5F5F5F5F5F5F5F5F5F5F5F5F5F5F5F5F5F5F5F5F5F5F5F5F5F5F5F5F5F5F5F5F5F5F5F5F5F5F5F5F5F5F5F5F5F5F5F5F5F5F5F5F5F5F5F5F5F5F5
310
F5F5F5F5F5F5F5F5F5F5E2E2E2E2E200F5E2E2E2E2E2E2E2E2E2E2E2E2E2E2E2E2E2E2E2E2E2E2E2E2E2E2E2E2E2E2E2E2E2E2E2E2E2E2E2E2E2E2E2E2E2E2E2E2E2E2E2E2E2E2E2E2E2E2E2E2E2E2E2E2E2E2E2E2E2E2E2E2E2E2E2E2E2E2E2E2E2E2E2E2E2E2E2E2E2E2E2E2E2E2E2E2E2E2E2E2E2E2E2E2E2E200F5E2E2
310
E2E2E2E2E2E2E2E2E2E2E2E2E2E2E2E2E2E2E2E2E2E2E2E2E2E2E2E2E2E2E2E2E2E2E2E2E2E2E2E2E2E2E2E2E2E2E2E2E2E2E2E2E2E2E2E2E2E2E2E2E2E2E2E2E2E2E2E2E2E2E2E2E2E2E2E2E2E2E2E2E2E2E2E2E2E2E2E2E2E2E2E2E2E2E2E2E2E2E2E2E2E2E2E275F5E2E2E2E2E2E2E2E2E2E2E2E2E2E2E2E2E2E2E2E2E2
310
E2E2E2E2E2E2E2E2E2E2E2E2E2E2E2E2E2E2E2E2E2E2E2E2E2E2E2E2E2E2E2E2E2E2E2E2E2E2E2E2E2E2E2E2E2E2E2E2E2E2E2E2E2E2E2E2E2E2E2E2E2E2E2E2E2E2E2E2E2E2E2E2E2E2E2E2E2E2E2E2E2E2E2E2E200F5E2E2E2E2E2E2E2E2E2E2E2E2E2E2E2E2E2E2E2E2E2E2E2E2E2E2E2E2E2E2E2E2E2E2E2E2E2E2E2E2
310
E2E2E2E2E2E2E2E2E2E2E2E2E2E2E2E2E2E2E2E2E2E2E2E2E2E2E2E2E2E2E2E2E2E2E2E2E2E2E2E2E2E2E2E2E2E2E2E2E2E2E2E2E2E2E2E2E2E2E2E2E2E2E2E2E2E200F5E2E2E2F5E2E2E2E2E2E2E2E2E2E2E2E2E2E2E2E2E2E2E2E2E2E2E2E2E2E2E2E2E2E2E2E2E2E2E2E2E2E2E2E2E2E2E2E2E2E2E2E2E2E2E2E2E2E2E2
310
E2E2E2E2E2E2E2E2E2E2E2E2E2E2E2E2E2E2E2E2E2E2E2E2E2E2E2E2E2E2E2E2E2E2E2E2E2E2E2E2E2E2E2F5E2E2E244F5E2E2E2F5E2E2E2E2E2E2E2E2E2E2E2E2E2E2E2E2E2E2E2E2E2E2E2E2E2E2E2E2E2E2E2E2E2E2E2E2E2E2E2E2E2E2E2E2E2E2E2E2E2E2E2E2E2E2E2E2E2E2E2E2E2E2E2E2E2E2E2E2E2E2E2E2E2E2
310
E2E2E2E2E2E2E2E2E2E2E2E2E2E2E2E2E2E2E2E2E2E2E2E2F5E2E2E223F5E2E2E2F5E2E2E2E2E2E2E2E2E2E2E2E2E2E2E2E2E2E2E2E2E2E2E2E2E2E2E2E2E2E2E2E2E2E2E2E2E2E2E2E2E2E2E2E2E2E2E2E2E2E2E2E2E2E2E2E2E2E2E2E2E2E2E2E2E2E2E2E2E2E2E2E2E2E2E2E2E2E2E2E2E2E2E2E2E2E2E2E2E2E2E2E2E2
310
E2E2E2E2E2F5E2E2E2FFF5E2E2E2F5E2E2E2E2E2E2E2E2E2E2E2E2E2E2E2E2E2E2E2E2E2E2E2E2E2E2E2E2E2E2E2E2E2E2E2E2E2E2E2E2E2E2E2E2E2E2E2E2E2E2E2E2E2E2E2E2E2E2E2E2E2E2E2E2E2E2E2E2E2E2E2E2E2E2E2E2E2E2E2E2E2E2E2E2E2E2E2E2E2E2E2E2E2E2E2E2E2E2F5E2E2E23AF5E2E2E2F5E2E2E2E2
310
E2E2E2E2E2E2E2E2E2E2E2E2E2E2E2E2E2E2E2E2E2E2E2E2E2E2E2E2E2E2E2E2E2E2E2E2E2E2E2E2E2E2E2E2E2E2E2E2E2E2E2E2E2E2E2E2E2E2E2E2E2E2E2E2E2E2E2E2E2E2E2E2E2E2E2E2E2E2E2E2E2E2E2E2E2E2E2E2E2E2E2E2E2E2F5E2E2E23BF5E2E2E2F5E2E2E2E2E2E2E2E2E2E2E2E2E2E2E2E2E2E2E2E2E2E2E2
310
E2E2E2E2E2E2E2E2E2E2E2E2E2E2E2E2E2E2E2E2E2E2E2E2E2E2E2E2E2E2E2E2E2E2E2E2E2E2E2E2E2E2E2E2E2E2E2E2E2E2E2E2E2E2E2E2E2E2E2E2E2E2E2E2E2E2E2E2E2E2E2E2E2E2E2F5E2E2E216F5E2E2E2F5E2E2E2E2E2E2E2E2E2E2E2E2E2E2E2E2E2E2E2E2E2E2E2E2E2E2E2E2E2E2E2E2E2E2E2E2E2E2E2E2E2E2
310
E2E2E2E2E2E2E2E2E2E2E2E2E2E2E2E2E2E2E2E2E2E2E2E2E2E2E2E2E2E2E2E2E2E2E2E2E2E2E2E2E2E2E2E2E2E2E2E2E2E2E2E2E2E2E2E2F5E2E2E223F5E2E2E2F5E2E2E2E2E2E2E2E2E2E2E2E2E2E2E2E2E2E2E2E2E2E2E2E2E2E2E2E2E2E2E2E2E2E2E2E2E2E2E2E2E2E2E2E2E2E2E2E2E2E2E2E2E2E2E2E2E2E2E2E2E2
310
E2E2E2E2E2E2E2E2E2E2E2E2E2E2E2E2E2E2E2E2E2E2E2E2E2E2E2E2E2E2E2E2E2E2E2E2E2F5E2E2E223F5E2E2E2F5F5F5F5F5F5F5F5E2E2E2E2E2E2E2E2E2F5F5F5F5F5F5F5F5F5F5F5F5F5F5F5F5E2E2E2E2E2E2E2E2E2F5F5F5F5F5F5F5F5F5F5F5F5F5F5F5F5E2E2E2E2E2E2E2E2E2F5F5F5F5F5F5F5F5F5F5F5F5F5F5
310
F5F5E2E2E2E2E2E2E2E2E2F5F5F5F5F5F5F5F5E2E2E201F5E2E2E2E2E2E2E2E2E2E2E2E2E2E2E2E2E2E2E2E2E2E2E2E2E2E2E2E2E2E2E2E2E2E2E2E2E2E2E2E2E2E2E2E2E2E2E2E2E2E2E2E2E2E2E2E2E2E2E2E2E2E2E2E2E2E2E2E2E2E2E2E2E2E2E2E2E2E2E2E2E2E2E2E2E2E2E2E2E2E2E2E2E2E2E2E2E2E2E2E2E2E2E2
310
E2E2E23CF5E2E2E2E2E2E2E2E2E2E2E2E2E2E2E2E2E2E2E2E2E2E2E2E2E2E2E2E2E2E2E2E2E2E2E2E2E2E2E2E2E2E2E2E2E2E2E2E2E2E2E2E2E2E2E2E2E2E2E2E2E2E2E2E2E2E2E2E2E2E2E2E2E2E2E2E2E2E2E2E2E2E2E2E2E2E2E2E2E2E2E2E2E2E2E2E2E2E2E2E2E2E2E2E2E2E200F5E2E2E2E2E2E2E2E2E2E2E2E2E2E2
310
E2E2E2E2E2E2E2E2E2E2E2E2E2E2E2E2E2E2E2E2E2E2E2E2E2E2E2E2E2E2E2E2E2E2E2E2E2E2E2E2E2E2E2E2E2E2E2E2E2E2E2E2E2E2E2E2E2E2E2E2E2E2E2E2E2E2E2E2E2E2E2E2E2E2E2E2E2E2E2E2E2E2E2E2E2E2E2E2E2E2E2E200F5F5F5F5F5F5F5F5F5F5F5F5F5F5F5F5F5F5F5F5F5F5F5F5F5F5F5F5F5F5F5F5F5F5
310
F5F5F5F5F5F5F5F5F5F5F5F5F5F5F5F5F5F5F5F5F5F5F5F5F5F5F5F5F5F5F5F5F5F5F5F5F5F5F5F5F5F5F5F5F5F5F5F5F5F5F5F5F5F5F5F5F5F5F5F5F5F5F5F5F5F5F5F5F5F5F5F5F50AEFEFEFEFEFEFEFEFEFEFEFEFEFEFEFEFEFEFEFEFEFEFEFEFEFEFEFEFEFEFEFEFEFEFEFEFEFEFEFEFEFEFEFEFEFEFEFEFEFEFEFEFEF
310
EFEFEFEFEFEFEFEFEFEFEFEFEFEFEFEFEFEFEFEFEFEFEFEFEFEFEFEFEFEFEFEFEFEFEFEFEFEFEFEFEFEFEFEFEFEFEFEFEFEFEFEFEFEF00
  0
ENDSEC
  0
EOF
