  0
SECTION
  2
HEADER
  9
$ACADVER
  1
AC1021
  9
$ACADMAINTVER
 70
     1
  9
$DWGCODEPAGE
  3
ANSI_1252
  9
$LASTSAVEDBY
  1
RSutcliffe
  9
$INSBASE
 10
0.0
 20
0.0
 30
0.0
  9
$EXTMIN
 10
86.27500476932539
 20
99.0359986844801
 30
-0.0015258207003583
  9
$EXTMAX
 10
292.5440410034988
 20
264.4591634676299
 30
0.0000000349246037
  9
$LIMMIN
 10
0.0
 20
0.0
  9
$LIMMAX
 10
17.0
 20
11.0
  9
$ORTHOMODE
 70
     1
  9
$REGENMODE
 70
     1
  9
$FILLMODE
 70
     1
  9
$QTEXTMODE
 70
     0
  9
$MIRRTEXT
 70
     1
  9
$LTSCALE
 40
20.0
  9
$ATTMODE
 70
     1
  9
$TEXTSIZE
 40
2.0
  9
$TRACEWID
 40
0.05
  9
$TEXTSTYLE
  7
WEB PAGE
  9
$CLAYER
  8
Defpoints
  9
$CELTYPE
  6
BYLAYER
  9
$CECOLOR
 62
   256
  9
$CELTSCALE
 40
1.0
  9
$DISPSILH
 70
     0
  9
$DIMSCALE
 40
1.0
  9
$DIMASZ
 40
3.0
  9
$DIMEXO
 40
2.0
  9
$DIMDLI
 40
1.0
  9
$DIMRND
 40
0.0
  9
$DIMDLE
 40
0.0
  9
$DIMEXE
 40
1.0
  9
$DIMTP
 40
0.0
  9
$DIMTM
 40
0.0
  9
$DIMTXT
 40
1.75
  9
$DIMCEN
 40
1.0
  9
$DIMTSZ
 40
0.0
  9
$DIMTOL
 70
     0
  9
$DIMLIM
 70
     0
  9
$DIMTIH
 70
     1
  9
$DIMTOH
 70
     1
  9
$DIMSE1
 70
     0
  9
$DIMSE2
 70
     0
  9
$DIMTAD
 70
     0
  9
$DIMZIN
 70
     0
  9
$DIMBLK
  1

  9
$DIMASO
 70
     1
  9
$DIMSHO
 70
     1
  9
$DIMPOST
  1

  9
$DIMAPOST
  1

  9
$DIMALT
 70
     0
  9
$DIMALTD
 70
     2
  9
$DIMALTF
 40
25.4
  9
$DIMLFAC
 40
1.0
  9
$DIMTOFL
 70
     0
  9
$DIMTVP
 40
0.0
  9
$DIMTIX
 70
     0
  9
$DIMSOXD
 70
     0
  9
$DIMSAH
 70
     0
  9
$DIMBLK1
  1

  9
$DIMBLK2
  1

  9
$DIMSTYLE
  2
STANDARD
  9
$DIMCLRD
 70
     0
  9
$DIMCLRE
 70
     0
  9
$DIMCLRT
 70
     0
  9
$DIMTFAC
 40
1.0
  9
$DIMGAP
 40
1.0
  9
$DIMJUST
 70
     0
  9
$DIMSD1
 70
     0
  9
$DIMSD2
 70
     0
  9
$DIMTOLJ
 70
     1
  9
$DIMTZIN
 70
     0
  9
$DIMALTZ
 70
     0
  9
$DIMALTTZ
 70
     0
  9
$DIMUPT
 70
     0
  9
$DIMDEC
 70
     4
  9
$DIMTDEC
 70
     4
  9
$DIMALTU
 70
     2
  9
$DIMALTTD
 70
     2
  9
$DIMTXSTY
  7
WEB PAGE
  9
$DIMAUNIT
 70
     0
  9
$DIMADEC
 70
     0
  9
$DIMALTRND
 40
0.0
  9
$DIMAZIN
 70
     0
  9
$DIMDSEP
 70
    46
  9
$DIMATFIT
 70
     3
  9
$DIMFRAC
 70
     2
  9
$DIMLDRBLK
  1

  9
$DIMLUNIT
 70
     4
  9
$DIMLWD
 70
    -2
  9
$DIMLWE
 70
    -2
  9
$DIMTMOVE
 70
     0
  9
$DIMFXL
 40
1.0
  9
$DIMFXLON
 70
     0
  9
$DIMJOGANG
 40
0.7853981633974483
  9
$DIMTFILL
 70
     0
  9
$DIMTFILLCLR
 70
     0
  9
$DIMARCSYM
 70
     0
  9
$DIMLTYPE
  6

  9
$DIMLTEX1
  6

  9
$DIMLTEX2
  6

  9
$LUNITS
 70
     4
  9
$LUPREC
 70
     4
  9
$SKETCHINC
 40
0.1
  9
$FILLETRAD
 40
0.0
  9
$AUNITS
 70
     1
  9
$AUPREC
 70
     4
  9
$MENU
  1
acad
  9
$ELEVATION
 40
0.0
  9
$PELEVATION
 40
0.0
  9
$THICKNESS
 40
0.0
  9
$LIMCHECK
 70
     0
  9
$CHAMFERA
 40
0.0
  9
$CHAMFERB
 40
0.0
  9
$CHAMFERC
 40
0.0
  9
$CHAMFERD
 40
0.0
  9
$SKPOLY
 70
     0
  9
$TDCREATE
 40
2451029.636190972
  9
$TDUCREATE
 40
2451029.844524306
  9
$TDUPDATE
 40
2454132.407018402
  9
$TDUUPDATE
 40
2454132.615351736
  9
$TDINDWG
 40
3.3158374306
  9
$TDUSRTIMER
 40
3.3158374306
  9
$USRTIMER
 70
     1
  9
$ANGBASE
 50
0.0
  9
$ANGDIR
 70
     0
  9
$PDMODE
 70
     2
  9
$PDSIZE
 40
0.0
  9
$PLINEWID
 40
0.0
  9
$SPLFRAME
 70
     0
  9
$SPLINETYPE
 70
     6
  9
$SPLINESEGS
 70
     8
  9
$HANDSEED
  5
133EF
  9
$SURFTAB1
 70
     6
  9
$SURFTAB2
 70
     6
  9
$SURFTYPE
 70
     6
  9
$SURFU
 70
     6
  9
$SURFV
 70
     6
  9
$UCSBASE
  2

  9
$UCSNAME
  2

  9
$UCSORG
 10
0.0
 20
0.0
 30
0.0
  9
$UCSXDIR
 10
1.0
 20
0.0
 30
0.0
  9
$UCSYDIR
 10
0.0
 20
1.0
 30
0.0
  9
$UCSORTHOREF
  2

  9
$UCSORTHOVIEW
 70
     0
  9
$UCSORGTOP
 10
0.0
 20
0.0
 30
0.0
  9
$UCSORGBOTTOM
 10
0.0
 20
0.0
 30
0.0
  9
$UCSORGLEFT
 10
0.0
 20
0.0
 30
0.0
  9
$UCSORGRIGHT
 10
0.0
 20
0.0
 30
0.0
  9
$UCSORGFRONT
 10
0.0
 20
0.0
 30
0.0
  9
$UCSORGBACK
 10
0.0
 20
0.0
 30
0.0
  9
$PUCSBASE
  2

  9
$PUCSNAME
  2

  9
$PUCSORG
 10
0.0
 20
0.0
 30
0.0
  9
$PUCSXDIR
 10
1.0
 20
0.0
 30
0.0
  9
$PUCSYDIR
 10
0.0
 20
1.0
 30
0.0
  9
$PUCSORTHOREF
  2

  9
$PUCSORTHOVIEW
 70
     0
  9
$PUCSORGTOP
 10
0.0
 20
0.0
 30
0.0
  9
$PUCSORGBOTTOM
 10
0.0
 20
0.0
 30
0.0
  9
$PUCSORGLEFT
 10
0.0
 20
0.0
 30
0.0
  9
$PUCSORGRIGHT
 10
0.0
 20
0.0
 30
0.0
  9
$PUCSORGFRONT
 10
0.0
 20
0.0
 30
0.0
  9
$PUCSORGBACK
 10
0.0
 20
0.0
 30
0.0
  9
$USERI1
 70
     0
  9
$USERI2
 70
     0
  9
$USERI3
 70
     0
  9
$USERI4
 70
     0
  9
$USERI5
 70
     0
  9
$USERR1
 40
0.0
  9
$USERR2
 40
0.0
  9
$USERR3
 40
0.0
  9
$USERR4
 40
0.0
  9
$USERR5
 40
0.0
  9
$WORLDVIEW
 70
     1
  9
$SHADEDGE
 70
     3
  9
$SHADEDIF
 70
    70
  9
$TILEMODE
 70
     1
  9
$MAXACTVP
 70
    16
  9
$PINSBASE
 10
0.0
 20
0.0
 30
0.0
  9
$PLIMCHECK
 70
     0
  9
$PEXTMIN
 10
0.1937503661670532
 20
0.1527350114429975
 30
0.0
  9
$PEXTMAX
 10
7.991598299980698
 20
10.43127322095946
 30
0.0
  9
$PLIMMIN
 10
-0.166666657905879
 20
-0.1666669958219753
  9
$PLIMMAX
 10
8.333333101798229
 20
10.83333276388213
  9
$UNITMODE
 70
     0
  9
$VISRETAIN
 70
     0
  9
$PLINEGEN
 70
     0
  9
$PSLTSCALE
 70
     1
  9
$TREEDEPTH
 70
  3020
  9
$CMLSTYLE
  2
STANDARD
  9
$CMLJUST
 70
     0
  9
$CMLSCALE
 40
1.0
  9
$PROXYGRAPHICS
 70
     1
  9
$MEASUREMENT
 70
     0
  9
$CELWEIGHT
370
    -1
  9
$ENDCAPS
280
     0
  9
$JOINSTYLE
280
     0
  9
$LWDISPLAY
290
     0
  9
$INSUNITS
 70
     1
  9
$HYPERLINKBASE
  1

  9
$STYLESHEET
  1

  9
$XEDIT
290
     1
  9
$CEPSNTYPE
380
     0
  9
$PSTYLEMODE
290
     1
  9
$FINGERPRINTGUID
  2
{EED38BEA-5B6B-467F-90D5-C3127D1C881D}
  9
$VERSIONGUID
  2
{2E0B8EEF-7A63-40DA-ACD3-D165ACE6EFE3}
  9
$EXTNAMES
290
     1
  9
$PSVPSCALE
 40
0.0
  9
$OLESTARTUP
290
     0
  9
$SORTENTS
280
    96
  9
$INDEXCTL
280
     0
  9
$HIDETEXT
280
     0
  9
$XCLIPFRAME
290
     0
  9
$HALOGAP
280
     0
  9
$OBSCOLOR
 70
   257
  9
$OBSLTYPE
280
     0
  9
$INTERSECTIONDISPLAY
280
     0
  9
$INTERSECTIONCOLOR
 70
   257
  9
$DIMASSOC
280
     1
  9
$PROJECTNAME
  1

  9
$CAMERADISPLAY
290
     0
  9
$LENSLENGTH
 40
50.0
  9
$CAMERAHEIGHT
 40
0.0
  9
$STEPSPERSEC
 40
2.0
  9
$STEPSIZE
 40
6.0
  9
$3DDWFPREC
 40
2.0
  9
$PSOLWIDTH
 40
0.25
  9
$PSOLHEIGHT
 40
4.0
  9
$LOFTANG1
 40
1.570796326794896
  9
$LOFTANG2
 40
1.570796326794896
  9
$LOFTMAG1
 40
0.0
  9
$LOFTMAG2
 40
0.0
  9
$LOFTPARAM
 70
     7
  9
$LOFTNORMALS
280
     1
  9
$LATITUDE
 40
37.795
  9
$LONGITUDE
 40
-122.394
  9
$NORTHDIRECTION
 40
0.0
  9
$TIMEZONE
 70
 -8000
  9
$LIGHTGLYPHDISPLAY
280
     1
  9
$TILEMODELIGHTSYNCH
280
     1
  9
$CMATERIAL
347
131DD
  9
$SOLIDHIST
280
     1
  9
$SHOWHIST
280
     1
  9
$DWFFRAME
280
     2
  9
$DGNFRAME
280
     0
  9
$REALWORLDSCALE
290
     1
  9
$INTERFERECOLOR
 62
     1
  9
$INTERFEREOBJVS
345
131EA
  9
$INTERFEREVPVS
346
131E7
  9
$CSHADOW
280
     0
  9
$SHADOWPLANELOCATION
 40
0.0
  0
ENDSEC
  0
SECTION
  2
CLASSES
  0
CLASS
  1
DICTIONARYVAR
  2
AcDbDictionaryVar
  3
ObjectDBX Classes
 90
        0
 91
        3
280
     0
281
     0
  0
CLASS
  1
ACDBDICTIONARYWDFLT
  2
AcDbDictionaryWithDefault
  3
ObjectDBX Classes
 90
        0
 91
        1
280
     0
281
     0
  0
CLASS
  1
MATERIAL
  2
AcDbMaterial
  3
ObjectDBX Classes
 90
     1024
 91
        3
280
     0
281
     0
  0
CLASS
  1
VISUALSTYLE
  2
AcDbVisualStyle
  3
ObjectDBX Classes
 90
     4095
 91
       16
280
     0
281
     0
  0
CLASS
  1
TABLESTYLE
  2
AcDbTableStyle
  3
ObjectDBX Classes
 90
     4095
 91
        1
280
     0
281
     0
  0
CLASS
  1
SORTENTSTABLE
  2
AcDbSortentsTable
  3
ObjectDBX Classes
 90
        0
 91
        1
280
     0
281
     0
  0
ENDSEC
  0
SECTION
  2
TABLES
  0
TABLE
  2
VPORT
  5
8
102
{ACAD_XDICTIONARY
360
13203
102
}
330
0
100
AcDbSymbolTable
 70
     1
  0
VPORT
  5
12935
330
8
100
AcDbSymbolTableRecord
100
AcDbViewportTableRecord
  2
*Active
 70
     0
 10
0.0
 20
0.0
 11
1.0
 21
1.0
 12
189.4095228864121
 22
181.747581076055
 13
0.0
 23
0.0
 14
1.0
 24
1.0
 15
0.25
 25
0.25
 16
0.0
 26
0.0
 36
1.0
 17
0.0
 27
0.0
 37
0.0
 40
166.7022098716793
 41
1.544516129032257
 42
50.0
 43
0.0
 44
0.0
 50
0.0
 51
0.0
 71
     0
 72
   100
 73
     1
 74
     0
 75
     0
 76
     0
 77
     0
 78
     0
281
     0
 65
     1
110
0.0
120
0.0
130
0.0
111
1.0
121
0.0
131
0.0
112
0.0
122
1.0
132
0.0
 79
     0
146
0.0
348
131E6
 60
     3
 61
     5
292
     1
282
     1
141
0.0
142
0.0
 63
   250
421
  3355443
  0
ENDTAB
  0
TABLE
  2
LTYPE
  5
5
330
0
100
AcDbSymbolTable
 70
     6
  0
LTYPE
  5
11
330
5
100
AcDbSymbolTableRecord
100
AcDbLinetypeTableRecord
  2
BYBLOCK
 70
     0
  3

 72
    65
 73
     0
 40
0.0
  0
LTYPE
  5
12
330
5
100
AcDbSymbolTableRecord
100
AcDbLinetypeTableRecord
  2
BYLAYER
 70
     0
  3

 72
    65
 73
     0
 40
0.0
  0
LTYPE
  5
13
330
5
100
AcDbSymbolTableRecord
100
AcDbLinetypeTableRecord
  2
CONTINUOUS
 70
     0
  3
Solid line
 72
    65
 73
     0
 40
0.0
  0
LTYPE
  5
3A
330
5
100
AcDbSymbolTableRecord
100
AcDbLinetypeTableRecord
  2
HIDDEN
 70
     0
  3
__ __ __ __ __ __ __ __ __ __ __ __ __ __ __ __
 72
    65
 73
     2
 40
0.375
 49
0.25
 74
     0
 49
-0.125
 74
     0
  0
ENDTAB
  0
TABLE
  2
LAYER
  5
2
102
{ACAD_XDICTIONARY
360
131FD
102
}
330
0
100
AcDbSymbolTable
 70
    35
  0
LAYER
  5
E
330
2
100
AcDbSymbolTableRecord
100
AcDbLayerTableRecord
  2
0
 70
     0
 62
     7
  6
CONTINUOUS
370
    -3
390
B579
347
131DF
  0
LAYER
  5
41
330
2
100
AcDbSymbolTableRecord
100
AcDbLayerTableRecord
  2
BDR
 70
     0
 62
     7
  6
CONTINUOUS
370
    -3
390
B579
347
131DF
  0
LAYER
  5
43
330
2
100
AcDbSymbolTableRecord
100
AcDbLayerTableRecord
  2
5
 70
     0
 62
     7
  6
CONTINUOUS
370
    -3
390
B579
347
131DF
  0
LAYER
  5
44
330
2
100
AcDbSymbolTableRecord
100
AcDbLayerTableRecord
  2
AME_FRZ
 70
     0
 62
     7
  6
CONTINUOUS
370
    -3
390
B579
347
131DF
  0
LAYER
  5
45
330
2
100
AcDbSymbolTableRecord
100
AcDbLayerTableRecord
  2
ASHADE
 70
     0
 62
     7
  6
CONTINUOUS
370
    -3
390
B579
347
131DF
  0
LAYER
  5
B91F
330
2
100
AcDbSymbolTableRecord
100
AcDbLayerTableRecord
  2
HATCH
 70
     0
 62
     4
  6
CONTINUOUS
370
    -3
390
B579
347
131DF
  0
LAYER
  5
F047
330
2
100
AcDbSymbolTableRecord
100
AcDbLayerTableRecord
  2
Defpoints
 70
     0
 62
     7
  6
CONTINUOUS
290
     0
370
    -3
390
B579
347
131DF
  0
LAYER
  5
F086
330
2
100
AcDbSymbolTableRecord
100
AcDbLayerTableRecord
  2
SECTION JOINTS
 70
     0
 62
     7
  6
CONTINUOUS
370
    25
390
B579
347
131DF
  0
LAYER
  5
101D5
330
2
100
AcDbSymbolTableRecord
100
AcDbLayerTableRecord
  2
BDR2
 70
     0
 62
     7
  6
CONTINUOUS
370
    -3
390
B579
347
131DF
  0
LAYER
  5
111E5
330
2
100
AcDbSymbolTableRecord
100
AcDbLayerTableRecord
  2
TEXT
 70
     0
 62
     7
  6
CONTINUOUS
370
    25
390
B579
347
131DF
  0
LAYER
  5
111E7
330
2
100
AcDbSymbolTableRecord
100
AcDbLayerTableRecord
  2
6
 70
     0
 62
     7
  6
CONTINUOUS
370
    -3
390
B579
347
131DF
  0
LAYER
  5
117C7
330
2
100
AcDbSymbolTableRecord
100
AcDbLayerTableRecord
  2
FRAMING
 70
     0
 62
     7
  6
CONTINUOUS
370
    25
390
B579
347
131DF
  0
LAYER
  5
11C8D
330
2
100
AcDbSymbolTableRecord
100
AcDbLayerTableRecord
  2
HIDDEN
 70
     0
 62
     2
  6
HIDDEN
370
    -3
390
B579
347
131DF
  0
LAYER
  5
125EC
330
2
100
AcDbSymbolTableRecord
100
AcDbLayerTableRecord
  2
wall
 70
     0
 62
     7
  6
CONTINUOUS
370
    -3
390
B579
347
131DF
  0
ENDTAB
  0
TABLE
  2
STYLE
  5
3
330
0
100
AcDbSymbolTable
 70
     6
  0
STYLE
  5
F
330
3
100
AcDbSymbolTableRecord
100
AcDbTextStyleTableRecord
  2
STANDARD
 70
     0
 40
0.0
 41
1.0
 50
0.0
 71
     0
 42
2.0
  3
TIMES.TTF
  4

1001
ACAD
1000
Times New Roman
1071
       18
  0
STYLE
  5
1D21
330
3
100
AcDbSymbolTableRecord
100
AcDbTextStyleTableRecord
  2
SIMPLEX
 70
     0
 40
0.1
 41
0.6
 50
0.0
 71
     0
 42
0.1
  3
SIMPLEX.shx
  4

  0
STYLE
  5
10B94
330
3
100
AcDbSymbolTableRecord
100
AcDbTextStyleTableRecord
  2
WEB PAGE
 70
     0
 40
0.0
 41
1.0
 50
0.0
 71
     0
 42
2.0
  3
TIMES.TTF
  4

1001
ACAD
1000
Times New Roman
1071
       18
  0
ENDTAB
  0
TABLE
  2
VIEW
  5
6
330
0
100
AcDbSymbolTable
 70
     1
  0
ENDTAB
  0
TABLE
  2
UCS
  5
7
330
0
100
AcDbSymbolTable
 70
     0
  0
ENDTAB
  0
TABLE
  2
APPID
  5
9
330
0
100
AcDbSymbolTable
 70
     7
  0
APPID
  5
10
330
9
100
AcDbSymbolTableRecord
100
AcDbRegAppTableRecord
  2
ACAD
 70
     0
  0
APPID
  5
3F
330
9
100
AcDbSymbolTableRecord
100
AcDbRegAppTableRecord
  2
AME_SOL
 70
     0
  0
APPID
  5
40
330
9
100
AcDbSymbolTableRecord
100
AcDbRegAppTableRecord
  2
AVE_RENDER
 70
     0
  0
APPID
  5
71A7
330
9
100
AcDbSymbolTableRecord
100
AcDbRegAppTableRecord
  2
AVE_ENTITY_MATERIAL
 70
     0
  0
APPID
  5
71A8
330
9
100
AcDbSymbolTableRecord
100
AcDbRegAppTableRecord
  2
AVE_FINISH
 70
     0
  0
APPID
  5
71A9
330
9
100
AcDbSymbolTableRecord
100
AcDbRegAppTableRecord
  2
AVE_MATERIAL
 70
     0
  0
APPID
  5
71AA
330
9
100
AcDbSymbolTableRecord
100
AcDbRegAppTableRecord
  2
AVE_GLOBAL
 70
     0
  0
ENDTAB
  0
TABLE
  2
DIMSTYLE
  5
A
330
0
100
AcDbSymbolTable
 70
     1
100
AcDbDimStyleTable
 71
     1
340
190D
  0
DIMSTYLE
105
190D
102
{ACAD_REACTORS
330
11CDF
330
11CE0
330
11CE1
330
11CFE
330
11CFD
330
11D00
330
11D01
330
11D1F
330
11EA8
330
1205D
102
}
330
A
100
AcDbSymbolTableRecord
100
AcDbDimStyleTableRecord
  2
STANDARD
 70
     0
 41
3.0
 42
2.0
 43
1.0
 44
1.0
140
1.75
141
1.0
147
1.0
276
     2
277
     4
340
10B94
  0
ENDTAB
  0
TABLE
  2
BLOCK_RECORD
  5
1
330
0
100
AcDbSymbolTable
 70
    92
  0
BLOCK_RECORD
  5
17
330
1
100
AcDbSymbolTableRecord
100
AcDbBlockTableRecord
  2
*MODEL_SPACE
340
B57C
 70
     0
280
     1
281
     0
  0
BLOCK_RECORD
  5
14
330
1
100
AcDbSymbolTableRecord
100
AcDbBlockTableRecord
  2
*PAPER_SPACE
340
B57D
 70
     0
280
     1
281
     0
  0
BLOCK_RECORD
  5
20
330
1
100
AcDbSymbolTableRecord
100
AcDbBlockTableRecord
  2
AME_NIL
340
0
102
{BLKREFS
331
3374
331
3E3C
102
}
 70
     0
280
     1
281
     0
  0
BLOCK_RECORD
  5
21
330
1
100
AcDbSymbolTableRecord
100
AcDbBlockTableRecord
  2
AME_SOL
340
0
102
{BLKREFS
331
3375
331
3E3D
102
}
 70
     0
280
     1
281
     0
  0
BLOCK_RECORD
  5
22
330
1
100
AcDbSymbolTableRecord
100
AcDbBlockTableRecord
  2
AVE_RENDER
340
0
102
{BLKREFS
331
3376
331
3377
331
3378
331
3E3E
331
3E3F
331
3E40
102
}
 70
     0
280
     1
281
     0
  0
BLOCK_RECORD
  5
11B53
330
1
100
AcDbSymbolTableRecord
100
AcDbBlockTableRecord
  2
J-4
340
0
102
{BLKREFS
331
11BC9
331
1216C
102
}
 70
     0
280
     1
281
     0
  0
BLOCK_RECORD
  5
11B62
330
1
100
AcDbSymbolTableRecord
100
AcDbBlockTableRecord
  2
J-5
340
0
102
{BLKREFS
331
11BF7
331
12173
102
}
 70
     0
280
     1
281
     0
  0
BLOCK_RECORD
  5
11B72
330
1
100
AcDbSymbolTableRecord
100
AcDbBlockTableRecord
  2
19-vert-angle
340
0
102
{BLKREFS
331
11D02
102
}
 70
     0
280
     1
281
     0
  0
BLOCK_RECORD
  5
11BA6
330
1
100
AcDbSymbolTableRecord
100
AcDbBlockTableRecord
  2
J-3
340
0
102
{BLKREFS
331
11BCA
331
1214F
102
}
 70
     0
280
     1
281
     0
  0
BLOCK_RECORD
  5
11BB5
330
1
100
AcDbSymbolTableRecord
100
AcDbBlockTableRecord
  2
J-1
340
0
102
{BLKREFS
331
11BC8
331
12147
102
}
 70
     0
280
     1
281
     0
  0
BLOCK_RECORD
  5
11D37
330
1
100
AcDbSymbolTableRecord
100
AcDbBlockTableRecord
  2
*D64
340
0
 70
     0
280
     1
281
     0
  0
BLOCK_RECORD
  5
11D44
330
1
100
AcDbSymbolTableRecord
100
AcDbBlockTableRecord
  2
*D65
340
0
 70
     0
280
     1
281
     0
  0
BLOCK_RECORD
  5
11D51
330
1
100
AcDbSymbolTableRecord
100
AcDbBlockTableRecord
  2
*D66
340
0
 70
     0
280
     1
281
     0
  0
BLOCK_RECORD
  5
11D5E
330
1
100
AcDbSymbolTableRecord
100
AcDbBlockTableRecord
  2
*D67
340
0
 70
     0
280
     1
281
     0
  0
BLOCK_RECORD
  5
11E29
330
1
100
AcDbSymbolTableRecord
100
AcDbBlockTableRecord
  2
15R-138TRK
340
0
102
{BLKREFS
331
1219C
102
}
 70
     0
280
     1
281
     0
  0
BLOCK_RECORD
  5
11EA9
330
1
100
AcDbSymbolTableRecord
100
AcDbBlockTableRecord
  2
*D70
340
0
 70
     0
280
     1
281
     0
  0
BLOCK_RECORD
  5
12034
330
1
100
AcDbSymbolTableRecord
100
AcDbBlockTableRecord
  2
A$C2D8E259A
340
0
102
{BLKREFS
331
12045
331
12353
102
}
 70
     0
280
     1
281
     0
  0
BLOCK_RECORD
  5
1205E
330
1
100
AcDbSymbolTableRecord
100
AcDbBlockTableRecord
  2
*D72
340
0
 70
     0
280
     1
281
     0
  0
BLOCK_RECORD
  5
1213F
330
1
100
AcDbSymbolTableRecord
100
AcDbBlockTableRecord
  2
A$C25AA01FC
340
0
102
{BLKREFS
331
1217F
102
}
 70
     0
280
     1
281
     0
  0
BLOCK_RECORD
  5
121DD
330
1
100
AcDbSymbolTableRecord
100
AcDbBlockTableRecord
  2
A$C4F3F2A85
340
0
102
{BLKREFS
331
12239
102
}
 70
     0
280
     1
281
     0
  0
BLOCK_RECORD
  5
12238
330
1
100
AcDbSymbolTableRecord
100
AcDbBlockTableRecord
  2
23-LHR-START
340
0
102
{BLKREFS
331
1223C
102
}
 70
     1
280
     1
281
     0
  0
BLOCK_RECORD
  5
122C1
330
1
100
AcDbSymbolTableRecord
100
AcDbBlockTableRecord
  2
ATL
340
0
102
{BLKREFS
331
122DD
102
}
 70
     0
280
     1
281
     0
  0
BLOCK_RECORD
  5
122CC
330
1
100
AcDbSymbolTableRecord
100
AcDbBlockTableRecord
  2
SP7-10
340
0
102
{BLKREFS
331
122E6
102
}
 70
     0
280
     1
281
     0
  0
BLOCK_RECORD
  5
122E9
330
1
100
AcDbSymbolTableRecord
100
AcDbBlockTableRecord
  2
A$C67061884
340
0
102
{BLKREFS
331
12306
102
}
 70
     0
280
     1
281
     0
  0
BLOCK_RECORD
  5
125AF
330
1
100
AcDbSymbolTableRecord
100
AcDbBlockTableRecord
  2
COMM-6-625-EBP
340
0
102
{BLKREFS
331
125C7
102
}
 70
     1
280
     1
281
     0
  0
BLOCK_RECORD
  5
125C9
330
1
100
AcDbSymbolTableRecord
100
AcDbBlockTableRecord
  2
LHRTR-PLLY
340
0
310
28000000200000002000000001000800000000000004000000000000000000000000000000000000000000004000000080000000FF000000002000004020000080200000FF200000004000004040000080400000FF400000006000004060000080600000FF600000008000004080000080800000FF80000000A0000040A000
310
0080A00000FFA0000000C0000040C0000080C00000FFC0000000FF000040FF000080FF0000FFFF0000000020004000200080002000FF002000002020004020200080202000FF202000004020004040200080402000FF402000006020004060200080602000FF602000008020004080200080802000FF80200000A0200040A0
310
200080A02000FFA0200000C0200040C0200080C02000FFC0200000FF200040FF200080FF2000FFFF2000000040004000400080004000FF004000002040004020400080204000FF204000004040004040400080404000FF404000006040004060400080604000FF604000008040004080400080804000FF80400000A0400040
310
A0400080A04000FFA0400000C0400040C0400080C04000FFC0400000FF400040FF400080FF4000FFFF4000000060004000600080006000FF006000002060004020600080206000FF206000004060004040600080406000FF406000006060004060600080606000FF606000008060004080600080806000FF80600000A06000
310
40A0600080A06000FFA0600000C0600040C0600080C06000FFC0600000FF600040FF600080FF6000FFFF6000000080004000800080008000FF008000002080004020800080208000FF208000004080004040800080408000FF408000006080004060800080608000FF608000008080004080800080808000FF80800000A080
310
0040A0800080A08000FFA0800000C0800040C0800080C08000FFC0800000FF800040FF800080FF8000FFFF80000000A0004000A0008000A000FF00A0000020A0004020A0008020A000FF20A0000040A0004040A0008040A000FF40A0000060A0004060A0008060A000FF60A0000080A0004080A0008080A000FF80A00000A0
310
A00040A0A00080A0A000FFA0A00000C0A00040C0A00080C0A000FFC0A00000FFA00040FFA00080FFA000FFFFA0000000C0004000C0008000C000FF00C0000020C0004020C0008020C000FF20C0000040C0004040C0008040C000FF40C0000060C0004060C0008060C000FF60C0000080C0004080C0008080C000FF80C00000
310
A0C00040A0C00080A0C000FFA0C00000C0C00040C0C00080C0C000FFC0C00000FFC00040FFC00080FFC000FFFFC0000000FF004000FF008000FF00FF00FF000020FF004020FF008020FF00FF20FF000040FF004040FF008040FF00FF40FF000060FF004060FF008060FF00FF60FF000080FF004080FF008080FF00FF80FF00
310
00A0FF0040A0FF0080A0FF00FFA0FF0000C0FF0040C0FF0080C0FF00FFC0FF0000FFFF0040FFFF0080FFFF00FFFFFF00FFFFFFFFFFFFFFFFFFFFFFFFFFFFFFFFFFFFFFFFFFFFFFFFFFFFFFFFFFFFFFFFFFFFFFFFFFFFFFFFFFFFFFFFFFFFFFFFFFFFFFFFFFFFFFFFFFFFFFFFFFFFFFFFFFFFFFFFFFFFFFFFFFFFFFFFFFFFFF
310
FFFFFFFFFFFFFFFFFFFFFFFFFFFFFFFFFFFFFFFFFFFFFFFFFFFFFFFFFFFFFFFFFFFFFFFFFFFFFFFFFFFFFFFFFFFFFFFFFFFFFFFFFFFFFFFFFFFFFFFFFFFFFFFFFFFFFFFFFFFFFFFFFFFFFFFFFFFFFFFFFFFFFFFFFFFFFFFFFFFFFFFFFFFFFFFFFFFFFFFFFFFFFFFFFFFFFFFFFFFFFFFFFFFFFFFFFFFFFFFFFFFFFFFFFFFFFF
310
FFFFFFFFFFFFFFFFFFFFFFFFFFFFFFFFFFFFFFFFFFFFFFFFFFFFFFFFFFFFFFFFFFFFFFFFFFFFFFFFFFFFFFFFFFFFFFFFFFFFFFFFFFFFFFFFFFFFFFFFFFFFFFFFFFFFFFFFFFFFFFFFFFFFFFFFFFFFFFFFFFFFFFFFFFFFFFFFFFFFFFFFFFFFFFFFFFFFFFFFFFFFFFFFFFFFFFFFFFFFFFFFFFFFFFFFFFFFFFFFFFFFFFFFFFFFFF
310
000000000000FFFFFFFFFFFFFFFFFFFFFFFFFFFFFFFFFFFFFFFFFFFFFFFF00000000000000FF00FFFFFFFFFFFFFFFFFFFFFFFFFFFFFFFFFFFFFFFFFFFFFF00FF00FF0000FF00000000FFFFFFFFFFFFFFFFFFFFFFFFFFFFFFFFFFFFFFFF00FF0000FFFFFFFF00000000FF00000000000000FFFFFFFFFFFFFFFFFFFFFF000000
310
0000000000000000000000FFFF00FF000000FFFFFF0000000000000000FFFFFFFFFFFFB6B6FFFFFFFFFFFFFFFF00FF0000FF00FFFF00FF0000FF00FFFFFFFFFFFFFFFF00B6FFFFFFFFFFFFFF00000000000000FFFFFF000000FF00FFFFFF0000000000000000000000000000FFFFFFFFFFFFFFFFFFFF000000000000000000
310
000000FFFFFFFF0000FF00FFFFFFFFFFFFFFFFFFFFFFFFFFFFFFFFFFFFFFFF00000000FF0000FF00FF00FFFFFFFFFFFFFFFFFFFFFFFFFFFFFFFFFFFFFFFFFFFFFF00FF00000000000000FFFFFFFFFFFFFFFFFFFFFFFFFFFFFFFFFFFFFFFFFFFFFFFF000000000000FFFFFFFFFFFFFFFFFFFFFFFFFFFFFFFFFFFFFFFFFFFFFF
310
FFFFFFFFFFFFFFFFFFFFFFFFFFFFFFFFFFFFFFFFFFFFFFFFFFFFFFFFFFFFFFFFFFFFFFFFFFFFFFFFFFFFFFFFFFFFFFFFFFFFFFFFFFFFFFFFFFFFFFFFFFFFFFFFFFFFFFFFFFFFFFFFFFFFFFFFFFFFFFFFFFFFFFFFFFFFFFFFFFFFFFFFFFFFFFFFFFFFFFFFFFFFFFFFFFFFFFFFFFFFFFFFFFFFFFFFFFFFFFFFFFFFFFFFFFFFFF
310
FFFFFFFFFFFFFFFFFFFFFFFFFFFFFFFFFFFFFFFFFFFFFFFFFFFFFFFFFFFFFFFFFFFFFFFFFFFFFFFFFFFFFFFFFFFFFFFFFFFFFFFFFFFFFFFFFFFFFFFFFFFFFFFFFFFFFFFFFFFFFFFFFFFFFFFFFFFFFFFFFFFFFFFFFFFFFFFFFFFFFFFFFFFFFFFFFFFFFFFFFFFFFFFFFFFFFFFFFFFFFFFFFFFFFFFFFFFFFFFFFFFFFFFFFFFFFF
310
FFFFFFFFFFFFFFFFFFFFFFFFFFFFFFFFFFFFFFFFFFFFFFFFFFFFFFFFFFFFFFFFFFFFFFFFFFFFFFFFFFFFFFFFFFFFFFFFFFFFFFFFFFFFFFFF
102
{BLKREFS
331
125F2
102
}
 70
     1
280
     1
281
     0
  0
ENDTAB
  0
ENDSEC
  0
SECTION
  2
BLOCKS
  0
BLOCK
  5
57
330
17
100
AcDbEntity
  8
0
100
AcDbBlockBegin
  2
*MODEL_SPACE
 70
     0
 10
0.0
 20
0.0
 30
0.0
  3
*MODEL_SPACE
  1

  0
ENDBLK
  5
58
330
17
100
AcDbEntity
  8
0
100
AcDbBlockEnd
  0
BLOCK
  5
55
330
14
100
AcDbEntity
 67
     1
  8
0
100
AcDbBlockBegin
  2
*PAPER_SPACE
 70
     0
 10
0.0
 20
0.0
 30
0.0
  3
*PAPER_SPACE
  1

  0
ENDBLK
  5
56
330
14
100
AcDbEntity
 67
     1
  8
0
100
AcDbBlockEnd
  0
BLOCK
  5
91E
330
20
100
AcDbEntity
  8
0
100
AcDbBlockBegin
  2
AME_NIL
 70
     0
 10
0.0
 20
0.0
 30
0.0
  3
AME_NIL
  1
AME_NIL
  0
ENDBLK
  5
91F
330
20
100
AcDbEntity
  8
0
100
AcDbBlockEnd
  0
BLOCK
  5
920
330
21
100
AcDbEntity
  8
0
100
AcDbBlockBegin
  2
AME_SOL
 70
     0
 10
0.0
 20
0.0
 30
0.0
  3
AME_SOL
  1
AME_SOL
  0
ENDBLK
  5
921
330
21
100
AcDbEntity
  8
0
100
AcDbBlockEnd
  0
BLOCK
  5
922
330
22
100
AcDbEntity
  8
0
100
AcDbBlockBegin
  2
AVE_RENDER
 70
     0
 10
0.0
 20
0.0
 30
0.0
  3
AVE_RENDER
  1
AVE_RENDER
  0
ENDBLK
  5
923
330
22
100
AcDbEntity
  8
0
100
AcDbBlockEnd
  0
BLOCK
  5
11B60
330
11B53
100
AcDbEntity
  8
0
100
AcDbBlockBegin
  2
J-4
 70
     0
 10
0.0
 20
0.0
 30
0.0
  3
J-4
  1

  0
LINE
  5
11B54
330
11B53
100
AcDbEntity
  8
6
100
AcDbLine
 10
2.875000000000003
 20
-1.125
 30
0.0
 11
0.0
 21
-1.125
 31
0.0
  0
LINE
  5
11B55
330
11B53
100
AcDbEntity
  8
6
100
AcDbLine
 10
0.0
 20
1.125
 30
0.0
 11
2.875000000000003
 21
1.125
 31
0.0
  0
TEXT
  5
11B56
330
11B53
100
AcDbEntity
  8
6
 62
    10
100
AcDbText
 10
0.8331828303452972
 20
-0.8025466262900238
 30
0.0
 40
0.4
  1
J-4
100
AcDbText
  0
LINE
  5
11B57
330
11B53
100
AcDbEntity
  8
6
100
AcDbLine
 10
0.1000000000000014
 20
-1.125
 30
0.0
 11
0.1000000000000014
 21
1.125
 31
0.0
  0
LINE
  5
11B58
330
11B53
100
AcDbEntity
  8
6
100
AcDbLine
 10
0.0
 20
-1.125
 30
0.0
 11
0.0
 21
1.125
 31
0.0
  0
LINE
  5
11B59
330
11B53
100
AcDbEntity
  8
6
100
AcDbLine
 10
2.875
 20
-1.125
 30
0.0
 11
2.875
 21
1.125
 31
0.0
  0
CIRCLE
  5
11B5A
330
11B53
100
AcDbEntity
  8
6
100
AcDbCircle
 10
2.500000000000003
 20
-0.75
 30
0.0
 40
0.1325
  0
ARC
  5
11B5B
330
11B53
100
AcDbEntity
  8
6
100
AcDbCircle
 10
2.585900000000002
 20
0.0000000000000036
 30
0.0
 40
0.1327999999999977
100
AcDbArc
 50
270.0
 51
90.0
  0
CIRCLE
  5
11B5C
330
11B53
100
AcDbEntity
  8
6
100
AcDbCircle
 10
2.500000000000003
 20
0.75
 30
0.0
 40
0.1325
  0
ARC
  5
11B5D
330
11B53
100
AcDbEntity
  8
6
100
AcDbCircle
 10
1.226500000000001
 20
0.0000000000000036
 30
0.0
 40
0.1327999999999977
100
AcDbArc
 50
90.0
 51
270.0
  0
LINE
  5
11B5E
330
11B53
100
AcDbEntity
  8
6
100
AcDbLine
 10
1.226500000000001
 20
-0.1327999999999996
 30
0.0
 11
2.585900000000002
 21
-0.1327999999999996
 31
0.0
  0
LINE
  5
11B5F
330
11B53
100
AcDbEntity
  8
6
100
AcDbLine
 10
1.226500000000001
 20
0.1327999999999996
 30
0.0
 11
2.585900000000002
 21
0.1327999999999996
 31
0.0
  0
ENDBLK
  5
11B61
330
11B53
100
AcDbEntity
  8
0
100
AcDbBlockEnd
  0
BLOCK
  5
11B70
330
11B62
100
AcDbEntity
  8
0
100
AcDbBlockBegin
  2
J-5
 70
     0
 10
0.0
 20
0.0
 30
0.0
  3
J-5
  1

  0
LINE
  5
11B63
330
11B62
100
AcDbEntity
  8
6
100
AcDbLine
 10
0.1000000000000014
 20
-1.125
 30
0.0
 11
0.1000000000000014
 21
1.125
 31
0.0
  0
LINE
  5
11B64
330
11B62
100
AcDbEntity
  8
6
100
AcDbLine
 10
0.0
 20
-1.125
 30
0.0
 11
0.0
 21
1.125
 31
0.0
  0
CIRCLE
  5
11B65
330
11B62
100
AcDbEntity
  8
6
100
AcDbCircle
 10
2.75
 20
0.75
 30
0.0
 40
0.1325
  0
LINE
  5
11B66
330
11B62
100
AcDbEntity
  8
6
100
AcDbLine
 10
3.125
 20
-1.125
 30
0.0
 11
3.125
 21
1.125
 31
0.0
  0
LINE
  5
11B67
330
11B62
100
AcDbEntity
  8
6
100
AcDbLine
 10
3.125
 20
-1.125
 30
0.0
 11
3.125
 21
1.125
 31
0.0
  0
LINE
  5
11B68
330
11B62
100
AcDbEntity
  8
6
100
AcDbLine
 10
1.476499999999994
 20
0.1327999999999996
 30
0.0
 11
2.835899999999995
 21
0.1327999999999996
 31
0.0
  0
LINE
  5
11B69
330
11B62
100
AcDbEntity
  8
6
100
AcDbLine
 10
1.476499999999994
 20
-0.1327999999999996
 30
0.0
 11
2.835899999999995
 21
-0.1327999999999996
 31
0.0
  0
LINE
  5
11B6A
330
11B62
100
AcDbEntity
  8
6
100
AcDbLine
 10
3.125
 20
-1.125
 30
0.0
 11
0.0
 21
-1.125
 31
0.0
  0
TEXT
  5
11B6B
330
11B62
100
AcDbEntity
  8
6
 62
    10
100
AcDbText
 10
0.7596062631773393
 20
-0.8551374061173966
 30
0.0
 40
0.4
  1
J-5
100
AcDbText
  0
ARC
  5
11B6C
330
11B62
100
AcDbEntity
  8
6
100
AcDbCircle
 10
1.476499999999994
 20
0.0000000000000036
 30
0.0
 40
0.1327999999999977
100
AcDbArc
 50
90.0
 51
270.0
  0
CIRCLE
  5
11B6D
330
11B62
100
AcDbEntity
  8
6
100
AcDbCircle
 10
2.75
 20
-0.75
 30
0.0
 40
0.1325
  0
ARC
  5
11B6E
330
11B62
100
AcDbEntity
  8
6
100
AcDbCircle
 10
2.835899999999995
 20
0.0000000000000036
 30
0.0
 40
0.1327999999999977
100
AcDbArc
 50
270.0
 51
90.0
  0
LINE
  5
11B6F
330
11B62
100
AcDbEntity
  8
6
100
AcDbLine
 10
0.0
 20
1.125
 30
0.0
 11
3.125
 21
1.125
 31
0.0
  0
ENDBLK
  5
11B71
330
11B62
100
AcDbEntity
  8
0
100
AcDbBlockEnd
  0
BLOCK
  5
11BA4
330
11B72
100
AcDbEntity
  8
0
100
AcDbBlockBegin
  2
19-vert-angle
 70
     0
 10
0.0
 20
0.0
 30
0.0
  3
19-vert-angle
  1

  0
LINE
  5
11B73
330
11B72
100
AcDbEntity
  8
5
 62
     7
100
AcDbLine
 10
-8.584845159629228
 20
1.944386559922987
 30
0.0
 11
10.06165484037078
 21
1.944386559922987
 31
0.0
  0
LINE
  5
11B74
330
11B72
100
AcDbEntity
  8
5
 62
     7
100
AcDbLine
 10
-8.584845159629228
 20
2.030886559922988
 30
0.0
 11
10.06165484037078
 21
2.030886559922988
 31
0.0
  0
LINE
  5
11B75
330
11B72
100
AcDbEntity
  8
5
 62
     7
100
AcDbLine
 10
10.06165484037078
 20
0.5208865599229871
 30
0.0
 11
-8.584845159629228
 21
0.5208865599229871
 31
0.0
  0
LINE
  5
11B76
330
11B72
100
AcDbEntity
  8
5
 62
     7
100
AcDbLine
 10
-8.584845159629228
 20
2.030886559922988
 30
0.0
 11
-8.584845159629228
 21
0.5208865599229871
 31
0.0
  0
CIRCLE
  5
11B77
330
11B72
100
AcDbEntity
  8
5
 62
     7
100
AcDbCircle
 10
-7.857345159629229
 20
0.8708865599229884
 30
0.0
 40
0.1349999999999998
  0
LINE
  5
11B78
330
11B72
100
AcDbEntity
  8
HIDDEN
 62
     7
100
AcDbLine
 10
-7.722345159629227
 20
1.944386559922987
 30
0.0
 11
-7.722345159629227
 21
2.030886559922988
 31
0.0
  0
LINE
  5
11B79
330
11B72
100
AcDbEntity
  8
HIDDEN
 62
     7
100
AcDbLine
 10
-7.992345159629227
 20
1.944386559922987
 30
0.0
 11
-7.992345159629227
 21
2.030886559922988
 31
0.0
  0
LINE
  5
11B7A
330
11B72
100
AcDbEntity
  8
5
 62
     7
100
AcDbLine
 10
-6.807345159629228
 20
1.444386559922987
 30
0.0
 11
-6.807345159629228
 21
1.037386559922991
 31
0.0
  0
LINE
  5
11B7B
330
11B72
100
AcDbEntity
  8
5
 62
     7
100
AcDbLine
 10
-7.150345159629232
 20
1.444386559922987
 30
0.0
 11
-7.150345159629232
 21
1.037386559922991
 31
0.0
  0
ARC
  5
11B7C
330
11B72
100
AcDbEntity
  8
5
 62
     7
100
AcDbCircle
 10
-6.978845159629226
 20
1.037386559922991
 30
0.0
 40
0.1715000000000028
100
AcDbArc
 50
180.0
 51
0.0
  0
CIRCLE
  5
11B7D
330
11B72
100
AcDbEntity
  8
5
 62
     7
100
AcDbCircle
 10
-6.109345159629228
 20
0.8708865599229884
 30
0.0
 40
0.1349999999999998
  0
LINE
  5
11B7E
330
11B72
100
AcDbEntity
  8
HIDDEN
 62
     7
100
AcDbLine
 10
-5.97434515962923
 20
1.944386559922987
 30
0.0
 11
-5.97434515962923
 21
2.030886559922988
 31
0.0
  0
LINE
  5
11B7F
330
11B72
100
AcDbEntity
  8
HIDDEN
 62
     7
100
AcDbLine
 10
-6.244345159629229
 20
1.944386559922987
 30
0.0
 11
-6.244345159629229
 21
2.030886559922988
 31
0.0
  0
LINE
  5
11B80
330
11B72
100
AcDbEntity
  8
HIDDEN
 62
     7
100
AcDbLine
 10
-6.807345159629228
 20
1.944386559922987
 30
0.0
 11
-6.807345159629228
 21
2.030886559922988
 31
0.0
  0
LINE
  5
11B81
330
11B72
100
AcDbEntity
  8
HIDDEN
 62
     7
100
AcDbLine
 10
-7.150345159629232
 20
1.944386559922987
 30
0.0
 11
-7.150345159629232
 21
2.030886559922988
 31
0.0
  0
ARC
  5
11B82
330
11B72
100
AcDbEntity
  8
5
 62
     7
100
AcDbCircle
 10
-6.97884515962923
 20
1.444386559922987
 30
0.0
 40
0.171500000000001
100
AcDbArc
 50
0.0
 51
180.0
  0
POINT
  5
11B83
330
11B72
100
AcDbEntity
  8
Defpoints
  6
ByBlock
 62
     7
100
AcDbPoint
 10
-7.063199282689655
 20
1.593707127570944
 30
0.0
  0
ARC
  5
11B84
330
11B72
100
AcDbEntity
  8
5
 62
     7
100
AcDbCircle
 10
6.451654840370778
 20
0.9268865599229894
 30
0.0
 40
0.1999999999999994
100
AcDbArc
 50
270.0
 51
90.0
  0
LINE
  5
11B85
330
11B72
100
AcDbEntity
  8
5
 62
     7
100
AcDbLine
 10
0.2016548403707734
 20
1.444386559922987
 30
0.0
 11
0.2016548403707752
 21
1.037386559922991
 31
0.0
  0
LINE
  5
11B86
330
11B72
100
AcDbEntity
  8
5
 62
     7
100
AcDbLine
 10
-0.1413451596292283
 20
1.444386559922987
 30
0.0
 11
-0.1413451596292283
 21
1.037386559922991
 31
0.0
  0
ARC
  5
11B87
330
11B72
100
AcDbEntity
  8
5
 62
     7
100
AcDbCircle
 10
0.0301548403707752
 20
1.037386559922991
 30
0.0
 40
0.1715000000000028
100
AcDbArc
 50
180.0
 51
0.0
  0
LINE
  5
11B88
330
11B72
100
AcDbEntity
  8
HIDDEN
 62
     7
100
AcDbLine
 10
0.2016548403707734
 20
1.944386559922987
 30
0.0
 11
0.2016548403707734
 21
2.030886559922988
 31
0.0
  0
LINE
  5
11B89
330
11B72
100
AcDbEntity
  8
HIDDEN
 62
     7
100
AcDbLine
 10
-0.1413451596292301
 20
1.944386559922987
 30
0.0
 11
-0.1413451596292301
 21
2.030886559922988
 31
0.0
  0
ARC
  5
11B8A
330
11B72
100
AcDbEntity
  8
5
 62
     7
100
AcDbCircle
 10
0.0301548403707734
 20
1.444386559922987
 30
0.0
 40
0.171500000000001
100
AcDbArc
 50
0.0
 51
180.0
  0
LINE
  5
11B8B
330
11B72
100
AcDbEntity
  8
5
 62
     7
100
AcDbLine
 10
4.161654840370776
 20
1.126886559922988
 30
0.0
 11
3.701654840370775
 21
1.126886559922988
 31
0.0
  0
LINE
  5
11B8C
330
11B72
100
AcDbEntity
  8
5
 62
     7
100
AcDbLine
 10
4.161654840370776
 20
0.7268865599229902
 30
0.0
 11
3.701654840370775
 21
0.7268865599229902
 31
0.0
  0
ARC
  5
11B8D
330
11B72
100
AcDbEntity
  8
5
 62
     7
100
AcDbCircle
 10
3.701654840370775
 20
0.9268865599229894
 30
0.0
 40
0.1999999999999994
100
AcDbArc
 50
90.0
 51
270.0
  0
POINT
  5
11B8E
330
11B72
100
AcDbEntity
  8
Defpoints
  6
ByBlock
 62
     7
100
AcDbPoint
 10
3.570072844355843
 20
1.077505875831429
 30
0.0
  0
ARC
  5
11B8F
330
11B72
100
AcDbEntity
  8
5
 62
     7
100
AcDbCircle
 10
4.161654840370776
 20
0.9268865599229894
 30
0.0
 40
0.1999999999999994
100
AcDbArc
 50
270.0
 51
90.0
  0
LINE
  5
11B90
330
11B72
100
AcDbEntity
  8
5
 62
     7
100
AcDbLine
 10
6.451654840370778
 20
1.126886559922988
 30
0.0
 11
5.066654840370777
 21
1.126886559922988
 31
0.0
  0
LINE
  5
11B91
330
11B72
100
AcDbEntity
  8
5
 62
     7
100
AcDbLine
 10
6.451654840370778
 20
0.7268865599229902
 30
0.0
 11
5.066654840370777
 21
0.7268865599229902
 31
0.0
  0
ARC
  5
11B92
330
11B72
100
AcDbEntity
  8
5
 62
     7
100
AcDbCircle
 10
5.066654840370777
 20
0.9268865599229894
 30
0.0
 40
0.1999999999999994
100
AcDbArc
 50
90.0
 51
270.0
  0
LINE
  5
11B93
330
11B72
100
AcDbEntity
  8
HIDDEN
 62
     7
100
AcDbLine
 10
4.361654840370775
 20
1.944386559922987
 30
0.0
 11
4.361654840370775
 21
2.030886559922988
 31
0.0
  0
LINE
  5
11B94
330
11B72
100
AcDbEntity
  8
HIDDEN
 62
     7
100
AcDbLine
 10
3.501654840370775
 20
1.944386559922987
 30
0.0
 11
3.501654840370775
 21
2.030886559922988
 31
0.0
  0
LINE
  5
11B95
330
11B72
100
AcDbEntity
  8
HIDDEN
 62
     7
100
AcDbLine
 10
4.866654840370777
 20
1.944386559922987
 30
0.0
 11
4.866654840370777
 21
2.030886559922988
 31
0.0
  0
LINE
  5
11B96
330
11B72
100
AcDbEntity
  8
5
 62
     7
100
AcDbLine
 10
6.915654840370777
 20
1.378386559922988
 30
0.0
 11
6.915654840370777
 21
1.101386559922987
 31
0.0
  0
LINE
  5
11B97
330
11B72
100
AcDbEntity
  8
5
 62
     7
100
AcDbLine
 10
7.25865484037078
 20
1.378386559922988
 30
0.0
 11
7.25865484037078
 21
1.101386559922987
 31
0.0
  0
LINE
  5
11B98
330
11B72
100
AcDbEntity
  8
5
 62
     7
100
AcDbLine
 10
9.474154840370779
 20
1.126886559922988
 30
0.0
 11
7.71315484037078
 21
1.126886559922988
 31
0.0
  0
LINE
  5
11B99
330
11B72
100
AcDbEntity
  8
5
 62
     7
100
AcDbLine
 10
9.474154840370779
 20
0.7268865599229902
 30
0.0
 11
7.71315484037078
 21
0.7268865599229902
 31
0.0
  0
ARC
  5
11B9A
330
11B72
100
AcDbEntity
  8
5
 62
     7
100
AcDbCircle
 10
7.087154840370782
 20
1.101386559922987
 30
0.0
 40
0.1715000000000028
100
AcDbArc
 50
180.0
 51
0.0
  0
ARC
  5
11B9B
330
11B72
100
AcDbEntity
  8
5
 62
     7
100
AcDbCircle
 10
7.71315484037078
 20
0.9268865599229894
 30
0.0
 40
0.1999999999999994
100
AcDbArc
 50
90.0
 51
270.0
  0
ARC
  5
11B9C
330
11B72
100
AcDbEntity
  8
5
 62
     7
100
AcDbCircle
 10
9.474154840370779
 20
0.9268865599229894
 30
0.0
 40
0.1999999999999994
100
AcDbArc
 50
270.0
 51
90.0
  0
LINE
  5
11B9D
330
11B72
100
AcDbEntity
  8
HIDDEN
 62
     7
100
AcDbLine
 10
7.513154840370781
 20
1.944386559922987
 30
0.0
 11
7.513154840370781
 21
2.030886559922988
 31
0.0
  0
LINE
  5
11B9E
330
11B72
100
AcDbEntity
  8
HIDDEN
 62
     7
100
AcDbLine
 10
7.25865484037078
 20
1.944386559922987
 30
0.0
 11
7.25865484037078
 21
2.030886559922988
 31
0.0
  0
LINE
  5
11B9F
330
11B72
100
AcDbEntity
  8
HIDDEN
 62
     7
100
AcDbLine
 10
6.915654840370777
 20
1.944386559922987
 30
0.0
 11
6.915654840370777
 21
2.030886559922988
 31
0.0
  0
LINE
  5
11BA0
330
11B72
100
AcDbEntity
  8
HIDDEN
 62
     7
100
AcDbLine
 10
6.651654840370778
 20
1.944386559922987
 30
0.0
 11
6.651654840370778
 21
2.030886559922988
 31
0.0
  0
ARC
  5
11BA1
330
11B72
100
AcDbEntity
  8
5
 62
     7
100
AcDbCircle
 10
7.087154840370779
 20
1.378386559922988
 30
0.0
 40
0.171500000000001
100
AcDbArc
 50
0.0
 51
180.0
  0
LINE
  5
11BA2
330
11B72
100
AcDbEntity
  8
HIDDEN
 62
     7
100
AcDbLine
 10
9.674154840370778
 20
1.944386559922987
 30
0.0
 11
9.674154840370778
 21
2.030886559922988
 31
0.0
  0
LINE
  5
11BA3
330
11B72
100
AcDbEntity
  8
5
 62
     7
100
AcDbLine
 10
10.06165484037078
 20
2.030886559922988
 30
0.0
 11
10.06165484037078
 21
0.5208865599229871
 31
0.0
  0
ENDBLK
  5
11BA5
330
11B72
100
AcDbEntity
  8
0
100
AcDbBlockEnd
  0
BLOCK
  5
11BB3
330
11BA6
100
AcDbEntity
  8
0
100
AcDbBlockBegin
  2
J-3
 70
     0
 10
0.0
 20
0.0
 30
0.0
  3
J-3
  1

  0
LINE
  5
11BA7
330
11BA6
100
AcDbEntity
  8
6
100
AcDbLine
 10
2.625
 20
-1.124999999999999
 30
0.0
 11
2.625
 21
1.125
 31
0.0
  0
CIRCLE
  5
11BA8
330
11BA6
100
AcDbEntity
  8
6
100
AcDbCircle
 10
2.25
 20
-0.7499999999999992
 30
0.0
 40
0.1325
  0
LINE
  5
11BA9
330
11BA6
100
AcDbEntity
  8
6
100
AcDbLine
 10
0.0
 20
-1.124999999999999
 30
0.0
 11
0.0
 21
1.125
 31
0.0
  0
LINE
  5
11BAA
330
11BA6
100
AcDbEntity
  8
6
100
AcDbLine
 10
0.1000000000000014
 20
-1.124999999999999
 30
0.0
 11
0.1000000000000014
 21
1.125
 31
0.0
  0
LINE
  5
11BAB
330
11BA6
100
AcDbEntity
  8
6
100
AcDbLine
 10
2.625
 20
-1.124999999999999
 30
0.0
 11
0.0
 21
-1.124999999999999
 31
0.0
  0
TEXT
  5
11BAC
330
11BA6
100
AcDbEntity
  8
6
 62
    10
100
AcDbText
 10
0.5831828303452938
 20
-0.8025466262900247
 30
0.0
 40
0.4
  1
J-3
100
AcDbText
  0
LINE
  5
11BAD
330
11BA6
100
AcDbEntity
  8
6
100
AcDbLine
 10
0.9764999999999979
 20
-0.1327999999999987
 30
0.0
 11
2.335899999999998
 21
-0.1327999999999987
 31
0.0
  0
LINE
  5
11BAE
330
11BA6
100
AcDbEntity
  8
6
100
AcDbLine
 10
0.9764999999999979
 20
0.1328000000000005
 30
0.0
 11
2.335899999999998
 21
0.1328000000000005
 31
0.0
  0
LINE
  5
11BAF
330
11BA6
100
AcDbEntity
  8
6
100
AcDbLine
 10
0.0
 20
1.125
 30
0.0
 11
2.625
 21
1.125
 31
0.0
  0
ARC
  5
11BB0
330
11BA6
100
AcDbEntity
  8
6
100
AcDbCircle
 10
0.9764999999999979
 20
0.0000000000000027
 30
0.0
 40
0.1327999999999977
100
AcDbArc
 50
90.0
 51
270.0
  0
ARC
  5
11BB1
330
11BA6
100
AcDbEntity
  8
6
100
AcDbCircle
 10
2.335899999999998
 20
0.0000000000000027
 30
0.0
 40
0.1327999999999977
100
AcDbArc
 50
270.0
 51
90.0
  0
CIRCLE
  5
11BB2
330
11BA6
100
AcDbEntity
  8
6
100
AcDbCircle
 10
2.25
 20
0.7500000000000009
 30
0.0
 40
0.1325
  0
ENDBLK
  5
11BB4
330
11BA6
100
AcDbEntity
  8
0
100
AcDbBlockEnd
  0
BLOCK
  5
11BC2
330
11BB5
100
AcDbEntity
  8
0
100
AcDbBlockBegin
  2
J-1
 70
     0
 10
0.0
 20
0.0
 30
0.0
  3
J-1
  1

  0
CIRCLE
  5
11BB6
330
11BB5
100
AcDbEntity
  8
6
100
AcDbCircle
 10
1.875
 20
0.75
 30
0.0
 40
0.1325
  0
LINE
  5
11BB7
330
11BB5
100
AcDbEntity
  8
6
100
AcDbLine
 10
2.25
 20
-1.125
 30
0.0
 11
2.25
 21
1.125
 31
0.0
  0
LINE
  5
11BB8
330
11BB5
100
AcDbEntity
  8
6
100
AcDbLine
 10
0.1000000000000014
 20
-1.125
 30
0.0
 11
0.1000000000000014
 21
1.125
 31
0.0
  0
LINE
  5
11BB9
330
11BB5
100
AcDbEntity
  8
6
100
AcDbLine
 10
0.0
 20
-1.125
 30
0.0
 11
0.0
 21
1.125
 31
0.0
  0
ARC
  5
11BBA
330
11BB5
100
AcDbEntity
  8
6
100
AcDbCircle
 10
0.601499999999998
 20
0.0
 30
0.0
 40
0.1327999999999977
100
AcDbArc
 50
90.0
 51
270.0
  0
TEXT
  5
11BBB
330
11BB5
100
AcDbEntity
  8
6
 62
    10
100
AcDbText
 10
0.4590441626977722
 20
-0.8654942851065055
 30
0.0
 40
0.4
  1
J-1
100
AcDbText
  0
LINE
  5
11BBC
330
11BB5
100
AcDbEntity
  8
6
100
AcDbLine
 10
2.25
 20
-1.125
 30
0.0
 11
0.0
 21
-1.125
 31
0.0
  0
CIRCLE
  5
11BBD
330
11BB5
100
AcDbEntity
  8
6
100
AcDbCircle
 10
1.875
 20
-0.75
 30
0.0
 40
0.1325
  0
LINE
  5
11BBE
330
11BB5
100
AcDbEntity
  8
6
100
AcDbLine
 10
0.601499999999998
 20
-0.1327999999999996
 30
0.0
 11
1.960899999999998
 21
-0.1327999999999996
 31
0.0
  0
LINE
  5
11BBF
330
11BB5
100
AcDbEntity
  8
6
100
AcDbLine
 10
0.601499999999998
 20
0.1327999999999996
 30
0.0
 11
1.960899999999998
 21
0.1327999999999996
 31
0.0
  0
ARC
  5
11BC0
330
11BB5
100
AcDbEntity
  8
6
100
AcDbCircle
 10
1.960899999999998
 20
0.0
 30
0.0
 40
0.1327999999999977
100
AcDbArc
 50
270.0
 51
90.0
  0
LINE
  5
11BC1
330
11BB5
100
AcDbEntity
  8
6
100
AcDbLine
 10
0.0
 20
1.125
 30
0.0
 11
2.25
 21
1.125
 31
0.0
  0
ENDBLK
  5
11BC3
330
11BB5
100
AcDbEntity
  8
0
100
AcDbBlockEnd
  0
BLOCK
  5
11D42
330
11D37
100
AcDbEntity
  8
0
100
AcDbBlockBegin
  2
*D64
 70
     1
 10
0.0
 20
0.0
 30
0.0
  3
*D64
  1

  0
LINE
  5
125F4
330
11D37
100
AcDbEntity
  8
TEXT
 62
     0
370
    -2
100
AcDbLine
 10
132.2169295018095
 20
123.0362941793405
 30
0.0
 11
95.60811158769219
 21
123.0362941793405
 31
0.0
  0
LINE
  5
125F5
330
11D37
100
AcDbEntity
  8
TEXT
 62
     0
370
    -2
100
AcDbLine
 10
136.2169295018095
 20
249.5362941793405
 30
0.0
 11
95.60811158769222
 21
249.5362941793405
 31
0.0
  0
LINE
  5
125F6
330
11D37
100
AcDbEntity
  8
TEXT
 62
     0
370
    -2
100
AcDbLine
 10
96.6081115876922
 20
126.0362941793405
 30
0.0
 11
96.6081115876922
 21
176.284987676494
 31
0.0
  0
LINE
  5
125F7
330
11D37
100
AcDbEntity
  8
TEXT
 62
     0
370
    -2
100
AcDbLine
 10
96.60811158769222
 20
246.5362941793405
 30
0.0
 11
96.6081115876922
 21
182.9516543431607
 31
0.0
  0
SOLID
  5
125F8
330
11D37
100
AcDbEntity
  8
TEXT
 62
     0
100
AcDbTrace
 10
96.10811158769219
 20
126.0362941793405
 30
0.0
 11
97.10811158769219
 21
126.0362941793405
 31
0.0
 12
96.6081115876922
 22
123.0362941793405
 32
0.0
 13
96.6081115876922
 23
123.0362941793405
 33
0.0
  0
SOLID
  5
125F9
330
11D37
100
AcDbEntity
  8
TEXT
 62
     0
100
AcDbTrace
 10
96.10811158769223
 20
246.5362941793405
 30
0.0
 11
97.10811158769223
 21
246.5362941793405
 31
0.0
 12
96.60811158769222
 22
249.5362941793405
 32
0.0
 13
96.60811158769222
 23
249.5362941793405
 33
0.0
  0
MTEXT
  5
125FA
330
11D37
100
AcDbEntity
  8
TEXT
 62
     0
100
AcDbMText
 10
96.60811158769218
 20
179.6183210098273
 30
0.0
 40
1.75
 41
0.0
 46
0.0
 71
     5
 72
     1
  1
\A1;MINIMUM\PCEILING HEIGHT
  7
WEB PAGE
 73
     1
 44
1.0
  0
POINT
  5
125FB
330
11D37
100
AcDbEntity
  8
Defpoints
 62
     0
100
AcDbPoint
 10
134.2169295018095
 20
123.0362941793405
 30
0.0
  0
POINT
  5
125FC
330
11D37
100
AcDbEntity
  8
Defpoints
 62
     0
100
AcDbPoint
 10
138.2169295018095
 20
249.5362941793405
 30
0.0
  0
POINT
  5
125FD
330
11D37
100
AcDbEntity
  8
Defpoints
 62
     0
100
AcDbPoint
 10
96.60811158769222
 20
249.5362941793405
 30
0.0
  0
ENDBLK
  5
11D43
330
11D37
100
AcDbEntity
  8
0
100
AcDbBlockEnd
  0
BLOCK
  5
11D4F
330
11D44
100
AcDbEntity
  8
0
100
AcDbBlockBegin
  2
*D65
 70
     1
 10
0.0
 20
0.0
 30
0.0
  3
*D65
  1

  0
LINE
  5
12918
330
11D44
100
AcDbEntity
  8
TEXT
 62
     0
370
    -2
100
AcDbLine
 10
207.4861505668555
 20
123.0362941793405
 30
0.0
 11
181.3453994860706
 21
123.0362941793405
 31
0.0
  0
LINE
  5
12919
330
11D44
100
AcDbEntity
  8
TEXT
 62
     0
370
    -2
100
AcDbLine
 10
144.6931577217869
 20
228.0285407813773
 30
0.0
 11
183.3453994860706
 21
228.0285407813773
 31
0.0
  0
LINE
  5
1291A
330
11D44
100
AcDbEntity
  8
TEXT
 62
     0
370
    -2
100
AcDbLine
 10
182.3453994860706
 20
126.0362941793405
 30
0.0
 11
182.3453994860706
 21
171.5641312125694
 31
0.0
  0
LINE
  5
1291B
330
11D44
100
AcDbEntity
  8
TEXT
 62
     0
370
    -2
100
AcDbLine
 10
182.3453994860706
 20
225.0285407813772
 30
0.0
 11
182.3453994860706
 21
178.5641312125694
 31
0.0
  0
SOLID
  5
1291C
330
11D44
100
AcDbEntity
  8
TEXT
 62
     0
100
AcDbTrace
 10
181.8453994860706
 20
126.0362941793405
 30
0.0
 11
182.8453994860706
 21
126.0362941793405
 31
0.0
 12
182.3453994860706
 22
123.0362941793405
 32
0.0
 13
182.3453994860706
 23
123.0362941793405
 33
0.0
  0
SOLID
  5
1291D
330
11D44
100
AcDbEntity
  8
TEXT
 62
     0
100
AcDbTrace
 10
181.8453994860707
 20
225.0285407813772
 30
0.0
 11
182.8453994860707
 21
225.0285407813772
 31
0.0
 12
182.3453994860706
 22
228.0285407813773
 32
0.0
 13
182.3453994860706
 23
228.0285407813773
 33
0.0
  0
MTEXT
  5
1291E
330
11D44
100
AcDbEntity
  8
TEXT
 62
     0
100
AcDbMText
 10
182.3453994860706
 20
175.0641312125694
 30
0.0
 40
1.75
 41
0.0
 46
0.0
 71
     5
 72
     1
  1
\A1;VERTICAL TRACK\PDOOR HEIGHT-15"
  7
WEB PAGE
 73
     1
 44
1.0
  0
POINT
  5
1291F
330
11D44
100
AcDbEntity
  8
Defpoints
 62
     0
100
AcDbPoint
 10
209.4861505668555
 20
123.0362941793405
 30
0.0
  0
POINT
  5
12920
330
11D44
100
AcDbEntity
  8
Defpoints
 62
     0
100
AcDbPoint
 10
142.6931577217869
 20
228.0285407813773
 30
0.0
  0
POINT
  5
12921
330
11D44
100
AcDbEntity
  8
Defpoints
 62
     0
100
AcDbPoint
 10
182.3453994860706
 20
228.0285407813773
 30
0.0
  0
ENDBLK
  5
11D50
330
11D44
100
AcDbEntity
  8
0
100
AcDbBlockEnd
  0
BLOCK
  5
11D5C
330
11D51
100
AcDbEntity
  8
0
100
AcDbBlockBegin
  2
*D66
 70
     1
 10
0.0
 20
0.0
 30
0.0
  3
*D66
  1

  0
LINE
  5
120D5
330
11D51
100
AcDbEntity
  8
TEXT
 62
     0
370
    -2
100
AcDbLine
 10
132.2169295018095
 20
243.0362941793405
 30
0.0
 11
117.0575413775432
 21
243.0362941793405
 31
0.0
  0
LINE
  5
120D6
330
11D51
100
AcDbEntity
  8
TEXT
 62
     0
370
    -2
100
AcDbLine
 10
132.2169295018095
 20
123.0362941793405
 30
0.0
 11
117.0575413775432
 21
123.0362941793405
 31
0.0
  0
LINE
  5
120D7
330
11D51
100
AcDbEntity
  8
TEXT
 62
     0
370
    -2
100
AcDbLine
 10
118.0575413775432
 20
240.0362941793405
 30
0.0
 11
118.0575413775432
 21
186.3696275126739
 31
0.0
  0
LINE
  5
120D8
330
11D51
100
AcDbEntity
  8
TEXT
 62
     0
370
    -2
100
AcDbLine
 10
118.0575413775432
 20
126.0362941793405
 30
0.0
 11
118.0575413775432
 21
179.7029608460072
 31
0.0
  0
SOLID
  5
120D9
330
11D51
100
AcDbEntity
  8
TEXT
 62
     0
100
AcDbTrace
 10
117.5575413775432
 20
240.0362941793405
 30
0.0
 11
118.5575413775432
 21
240.0362941793405
 31
0.0
 12
118.0575413775432
 22
243.0362941793405
 32
0.0
 13
118.0575413775432
 23
243.0362941793405
 33
0.0
  0
SOLID
  5
120DA
330
11D51
100
AcDbEntity
  8
TEXT
 62
     0
100
AcDbTrace
 10
117.5575413775432
 20
126.0362941793405
 30
0.0
 11
118.5575413775432
 21
126.0362941793405
 31
0.0
 12
118.0575413775432
 22
123.0362941793405
 32
0.0
 13
118.0575413775432
 23
123.0362941793405
 33
0.0
  0
MTEXT
  5
120DB
330
11D51
100
AcDbEntity
  8
TEXT
 62
     0
100
AcDbMText
 10
118.0575413775432
 20
183.0362941793405
 30
0.0
 40
1.75
 41
0.0
 46
0.0
 71
     5
 72
     1
  1
\A1;OPENING\PHEIGHT
  7
WEB PAGE
 73
     1
 44
1.0
  0
POINT
  5
120DC
330
11D51
100
AcDbEntity
  8
Defpoints
 62
     0
100
AcDbPoint
 10
134.2169295018095
 20
243.0362941793405
 30
0.0
  0
POINT
  5
120DD
330
11D51
100
AcDbEntity
  8
Defpoints
 62
     0
100
AcDbPoint
 10
134.2169295018095
 20
123.0362941793405
 30
0.0
  0
POINT
  5
120DE
330
11D51
100
AcDbEntity
  8
Defpoints
 62
     0
100
AcDbPoint
 10
118.0575413775432
 20
123.0362941793405
 30
0.0
  0
ENDBLK
  5
11D5D
330
11D51
100
AcDbEntity
  8
0
100
AcDbBlockEnd
  0
BLOCK
  5
11D6A
330
11D5E
100
AcDbEntity
  8
0
100
AcDbBlockBegin
  2
*D67
 70
     1
 10
0.0
 20
0.0
 30
0.0
  3
*D67
  1

  0
LINE
  5
1263A
330
11D5E
100
AcDbEntity
  8
TEXT
 62
     0
370
    -2
100
AcDbLine
 10
132.2169295018095
 20
243.0362941793405
 30
0.0
 11
117.0575413775432
 21
243.0362941793405
 31
0.0
  0
LINE
  5
1263B
330
11D5E
100
AcDbEntity
  8
TEXT
 62
     0
370
    -2
100
AcDbLine
 10
136.2169295018095
 20
249.5362941793405
 30
0.0
 11
117.0575413775432
 21
249.5362941793405
 31
0.0
  0
LINE
  5
1263C
330
11D5E
100
AcDbEntity
  8
TEXT
 62
     0
370
    -2
100
AcDbLine
 10
118.0575413775432
 20
240.0362941793405
 30
0.0
 11
118.0575413775432
 21
237.0362941793406
 31
0.0
  0
LINE
  5
1263D
330
11D5E
100
AcDbEntity
  8
TEXT
 62
     0
370
    -2
100
AcDbLine
 10
118.0575413775432
 20
252.5362941793405
 30
0.0
 11
118.0575413775432
 21
261.5455709357708
 31
0.0
  0
LINE
  5
1263E
330
11D5E
100
AcDbEntity
  8
TEXT
 62
     0
370
    -2
100
AcDbLine
 10
118.0575413775432
 20
261.5455709357708
 30
0.0
 11
121.0575413775432
 21
261.5455709357708
 31
0.0
  0
SOLID
  5
1263F
330
11D5E
100
AcDbEntity
  8
TEXT
 62
     0
100
AcDbTrace
 10
117.5575413775432
 20
240.0362941793405
 30
0.0
 11
118.5575413775432
 21
240.0362941793405
 31
0.0
 12
118.0575413775432
 22
243.0362941793405
 32
0.0
 13
118.0575413775432
 23
243.0362941793405
 33
0.0
  0
SOLID
  5
12640
330
11D5E
100
AcDbEntity
  8
TEXT
 62
     0
100
AcDbTrace
 10
117.5575413775432
 20
252.5362941793405
 30
0.0
 11
118.5575413775432
 21
252.5362941793405
 31
0.0
 12
118.0575413775432
 22
249.5362941793405
 32
0.0
 13
118.0575413775432
 23
249.5362941793405
 33
0.0
  0
MTEXT
  5
12641
330
11D5E
100
AcDbEntity
  8
TEXT
 62
     0
100
AcDbMText
 10
128.9325413775432
 20
261.5455709357708
 30
0.0
 40
1.75
 41
0.0
 46
0.0
 71
     5
 72
     1
  1
\A1;MINIMUM\PHEADROOM
  7
WEB PAGE
 73
     1
 44
1.0
  0
POINT
  5
12642
330
11D5E
100
AcDbEntity
  8
Defpoints
 62
     0
100
AcDbPoint
 10
134.2169295018095
 20
243.0362941793405
 30
0.0
  0
POINT
  5
12643
330
11D5E
100
AcDbEntity
  8
Defpoints
 62
     0
100
AcDbPoint
 10
138.2169295018095
 20
249.5362941793405
 30
0.0
  0
POINT
  5
12644
330
11D5E
100
AcDbEntity
  8
Defpoints
 62
     0
100
AcDbPoint
 10
118.0575413775432
 20
249.5362941793405
 30
0.0
  0
ENDBLK
  5
11D6B
330
11D5E
100
AcDbEntity
  8
0
100
AcDbBlockEnd
  0
BLOCK
  5
11E46
330
11E29
100
AcDbEntity
  8
0
100
AcDbBlockBegin
  2
15R-138TRK
 70
     0
 10
0.0
 20
0.0
 30
0.0
  3
15R-138TRK
  1

  0
LINE
  5
12180
330
11E29
100
AcDbEntity
  8
0
  6
HIDDEN
100
AcDbLine
 10
114.1051810554323
 20
7.450154694662671
 30
0.0
 11
-6.3373817739552
 21
7.450154694662671
 31
0.0
  0
LINE
  5
12181
330
11E29
100
AcDbEntity
  8
0
100
AcDbLine
 10
114.1051810554324
 20
6.850154694662649
 30
0.0
 11
-6.3373817739552
 21
6.850154694662649
 31
0.0
  0
LINE
  5
12182
330
11E29
100
AcDbEntity
  8
0
100
AcDbLine
 10
114.1051810554324
 20
8.950154694662671
 30
0.0
 11
-6.3373817739552
 21
8.950154694662671
 31
0.0
  0
ARC
  5
12183
330
11E29
100
AcDbEntity
  8
0
  6
HIDDEN
100
AcDbCircle
 10
-6.3373817739552
 20
-8.609845305337387
 30
0.0
 40
16.06
100
AcDbArc
 50
90.0
 51
179.0210950958157
  0
ARC
  5
12184
330
11E29
100
AcDbEntity
  8
0
100
AcDbCircle
 10
-6.3373817739552
 20
-8.609845305337387
 30
0.0
 40
15.46
100
AcDbArc
 50
90.0
 51
178.8881104285096
  0
ARC
  5
12185
330
11E29
100
AcDbEntity
  8
0
100
AcDbCircle
 10
-6.3373817739552
 20
-8.609845305337387
 30
0.0
 40
17.56
100
AcDbArc
 50
90.0
 51
179.0210950958157
  0
CIRCLE
  5
12186
330
11E29
100
AcDbEntity
  8
0
100
AcDbCircle
 10
-22.70481894456754
 20
-7.709845305337353
 30
0.0
 40
0.136
  0
CIRCLE
  5
12187
330
11E29
100
AcDbEntity
  8
0
100
AcDbCircle
 10
-23.45481894456753
 20
-7.709845305337353
 30
0.0
 40
0.136
  0
LINE
  5
12188
330
11E29
100
AcDbEntity
  8
0
100
AcDbLine
 10
-21.79447076250665
 20
-8.309845305337319
 30
0.0
 11
-23.89481894456759
 21
-8.309845305337319
 31
0.0
  0
CIRCLE
  5
12189
330
11E29
100
AcDbEntity
  8
0
100
AcDbCircle
 10
-8.991068944567587
 20
8.140154694662612
 30
0.0
 40
0.25
  0
CIRCLE
  5
1218A
330
11E29
100
AcDbEntity
  8
0
100
AcDbCircle
 10
-10.05106894456759
 20
8.140154694662612
 30
0.0
 40
0.136
  0
CIRCLE
  5
1218B
330
11E29
100
AcDbEntity
  8
0
100
AcDbCircle
 10
-5.051068944567589
 20
8.140154694662612
 30
0.0
 40
0.136
  0
CIRCLE
  5
1218C
330
11E29
100
AcDbEntity
  8
0
100
AcDbCircle
 10
13.94893105543241
 20
8.140154694662612
 30
0.0
 40
0.136
  0
CIRCLE
  5
1218D
330
11E29
100
AcDbEntity
  8
0
100
AcDbCircle
 10
13.94893105543241
 20
8.140154694662612
 30
0.0
 40
0.136
  0
CIRCLE
  5
1218E
330
11E29
100
AcDbEntity
  8
0
100
AcDbCircle
 10
37.94893105543241
 20
8.140154694662612
 30
0.0
 40
0.136
  0
CIRCLE
  5
1218F
330
11E29
100
AcDbEntity
  8
0
100
AcDbCircle
 10
37.94893105543241
 20
8.140154694662612
 30
0.0
 40
0.136
  0
CIRCLE
  5
12190
330
11E29
100
AcDbEntity
  8
0
100
AcDbCircle
 10
61.94893105543241
 20
8.140154694662612
 30
0.0
 40
0.136
  0
CIRCLE
  5
12191
330
11E29
100
AcDbEntity
  8
0
100
AcDbCircle
 10
61.94893105543241
 20
8.140154694662612
 30
0.0
 40
0.136
  0
CIRCLE
  5
12192
330
11E29
100
AcDbEntity
  8
0
100
AcDbCircle
 10
78.44893105543241
 20
8.140154694662612
 30
0.0
 40
0.136
  0
CIRCLE
  5
12193
330
11E29
100
AcDbEntity
  8
0
100
AcDbCircle
 10
78.44893105543241
 20
8.140154694662612
 30
0.0
 40
0.136
  0
CIRCLE
  5
12194
330
11E29
100
AcDbEntity
  8
0
100
AcDbCircle
 10
85.9489310554324
 20
8.140154694662612
 30
0.0
 40
0.136
  0
CIRCLE
  5
12195
330
11E29
100
AcDbEntity
  8
0
100
AcDbCircle
 10
85.9489310554324
 20
8.140154694662612
 30
0.0
 40
0.136
  0
CIRCLE
  5
12196
330
11E29
100
AcDbEntity
  8
0
100
AcDbCircle
 10
112.8551810554324
 20
8.140154694662726
 30
0.0
 40
0.2075
  0
CIRCLE
  5
12197
330
11E29
100
AcDbEntity
  8
0
100
AcDbCircle
 10
110.1989310554325
 20
8.140154694662612
 30
0.0
 40
0.136
  0
CIRCLE
  5
12198
330
11E29
100
AcDbEntity
  8
0
100
AcDbCircle
 10
110.1989310554325
 20
8.140154694662612
 30
0.0
 40
0.136
  0
LINE
  5
12199
330
11E29
100
AcDbEntity
  8
0
100
AcDbLine
 10
114.1051810554324
 20
6.850154694662649
 30
0.0
 11
114.1051810554324
 21
8.950154694662671
 31
0.0
  0
CIRCLE
  5
1219A
330
11E29
100
AcDbEntity
  8
0
100
AcDbCircle
 10
113.5051810554324
 20
8.510154694662674
 30
0.0
 40
0.136
  0
CIRCLE
  5
1219B
330
11E29
100
AcDbEntity
  8
0
100
AcDbCircle
 10
113.5051810554324
 20
7.760154694662674
 30
0.0
 40
0.136
  0
ENDBLK
  5
11E47
330
11E29
100
AcDbEntity
  8
0
100
AcDbBlockEnd
  0
BLOCK
  5
11EB4
330
11EA9
100
AcDbEntity
  8
0
100
AcDbBlockBegin
  2
*D70
 70
     1
 10
0.0
 20
0.0
 30
0.0
  3
*D70
  1

  0
LINE
  5
123BF
330
11EA9
100
AcDbEntity
  8
TEXT
 62
     0
370
    -2
100
AcDbLine
 10
140.5683146391925
 20
230.0543646918266
 30
0.0
 11
140.5683146391925
 21
234.7811021136013
 31
0.0
  0
LINE
  5
123C0
330
11EA9
100
AcDbEntity
  8
TEXT
 62
     0
370
    -2
100
AcDbLine
 10
278.5683146391924
 20
241.2143646918267
 30
0.0
 11
278.5683146391924
 21
232.7811021136013
 31
0.0
  0
LINE
  5
123C1
330
11EA9
100
AcDbEntity
  8
TEXT
 62
     0
370
    -2
100
AcDbLine
 10
143.5683146391925
 20
233.7811021136013
 30
0.0
 11
185.2766479725258
 21
233.7811021136013
 31
0.0
  0
LINE
  5
123C2
330
11EA9
100
AcDbEntity
  8
TEXT
 62
     0
370
    -2
100
AcDbLine
 10
275.5683146391925
 20
233.7811021136013
 30
0.0
 11
233.8599813058591
 21
233.7811021136013
 31
0.0
  0
SOLID
  5
123C3
330
11EA9
100
AcDbEntity
  8
TEXT
 62
     0
100
AcDbTrace
 10
143.5683146391925
 20
234.2811021136013
 30
0.0
 11
143.5683146391925
 21
233.2811021136013
 31
0.0
 12
140.5683146391925
 22
233.7811021136013
 32
0.0
 13
140.5683146391925
 23
233.7811021136013
 33
0.0
  0
SOLID
  5
123C4
330
11EA9
100
AcDbEntity
  8
TEXT
 62
     0
100
AcDbTrace
 10
275.5683146391925
 20
234.2811021136013
 30
0.0
 11
275.5683146391925
 21
233.2811021136013
 31
0.0
 12
278.5683146391924
 22
233.7811021136013
 32
0.0
 13
278.5683146391924
 23
233.7811021136013
 33
0.0
  0
MTEXT
  5
123C5
330
11EA9
100
AcDbEntity
  8
TEXT
 62
     0
100
AcDbMText
 10
209.5683146391924
 20
233.7811021136013
 30
0.0
 40
1.75
 41
0.0
 46
0.0
 71
     5
 72
     1
  1
\A1;HORIZONTAL TRACK LENGTH\P(BACKROOM: DOOR HEIGHT + 18")
  7
WEB PAGE
 73
     1
 44
1.0
  0
POINT
  5
123C6
330
11EA9
100
AcDbEntity
  8
Defpoints
 62
     0
100
AcDbPoint
 10
140.5683146391925
 20
228.0543646918266
 30
0.0
  0
POINT
  5
123C7
330
11EA9
100
AcDbEntity
  8
Defpoints
 62
     0
100
AcDbPoint
 10
278.5683146391924
 20
243.2143646918267
 30
0.0
  0
POINT
  5
123C8
330
11EA9
100
AcDbEntity
  8
Defpoints
 62
     0
100
AcDbPoint
 10
278.5683146391924
 20
233.7811021136013
 30
0.0
  0
ENDBLK
  5
11EB5
330
11EA9
100
AcDbEntity
  8
0
100
AcDbBlockEnd
  0
BLOCK
  5
12043
330
12034
100
AcDbEntity
  8
0
100
AcDbBlockBegin
  2
A$C2D8E259A
 70
     0
 10
0.0
 20
0.0
 30
0.0
  3
A$C2D8E259A
  1

  0
LINE
  5
12035
330
12034
100
AcDbEntity
  8
0
100
AcDbLine
 10
-0.0000004604032604
 20
2.095456975818166
 30
0.0
 11
0.9999995395967395
 21
2.095456975818166
 31
0.0
  0
LINE
  5
12036
330
12034
100
AcDbEntity
  8
0
100
AcDbLine
 10
0.0549995395967393
 20
2.040456975818166
 30
0.0
 11
0.9999995395967395
 21
2.040456975818166
 31
0.0
  0
LINE
  5
12037
330
12034
100
AcDbEntity
  8
0
100
AcDbLine
 10
0.8478670952251974
 20
0.3621827433166693
 30
0.0
 11
0.6627309988545634
 21
0.1415461353480936
 31
0.0
  0
LINE
  5
12038
330
12034
100
AcDbEntity
  8
0
100
AcDbLine
 10
0.8899995395967437
 20
0.3268294247839059
 30
0.0
 11
0.8478670952251974
 21
0.3621827433166658
 31
0.0
  0
LINE
  5
12039
330
12034
100
AcDbEntity
  8
0
100
AcDbLine
 10
0.2262781434198011
 20
0.2224495439404386
 30
0.0
 11
0.0549995395967393
 21
0.6071475867100134
 31
0.0
  0
LINE
  5
1203A
330
12034
100
AcDbEntity
  8
0
100
AcDbLine
 10
0.1751036101700158
 20
0.2021667940502745
 30
0.0
 11
-0.0000004604032569
 21
0.5954569758181663
 31
0.0
  0
ARC
  5
1203B
330
12034
100
AcDbEntity
  8
0
100
AcDbCircle
 10
0.4673896658592263
 20
0.3054569758181671
 30
0.0
 40
0.255
100
AcDbArc
 50
198.997042049035
 51
320.0
  0
LINE
  5
1203C
330
12034
100
AcDbEntity
  8
0
100
AcDbLine
 10
0.8899995395967366
 20
0.3268294247839059
 30
0.0
 11
0.7048634432261061
 21
0.1061928168153337
 31
0.0
  0
ARC
  5
1203D
330
12034
100
AcDbEntity
  8
0
100
AcDbCircle
 10
0.4673896658592263
 20
0.3054569758181671
 30
0.0
 40
0.31
100
AcDbArc
 50
199.4627615683172
 51
320.0
  0
LINE
  5
1203E
330
12034
100
AcDbEntity
  8
0
100
AcDbLine
 10
-0.0000004604032604
 20
1.184456975818165
 30
0.0
 11
0.0549995395967429
 21
1.184456975818165
 31
0.0
  0
LINE
  5
1203F
330
12034
100
AcDbEntity
  8
0
100
AcDbLine
 10
-0.0000004604032604
 20
1.456456975818166
 30
0.0
 11
0.0549995395967429
 21
1.456456975818166
 31
0.0
  0
LINE
  5
12040
330
12034
100
AcDbEntity
  8
0
100
AcDbLine
 10
0.0549995395967393
 20
0.6071475867100134
 30
0.0
 11
0.0549995395967393
 21
2.040456975818166
 31
0.0
  0
LINE
  5
12041
330
12034
100
AcDbEntity
  8
0
100
AcDbLine
 10
-0.0000004604032569
 20
0.5954569758181663
 30
0.0
 11
-0.0000004604032604
 21
2.095456975818166
 31
0.0
  0
LINE
  5
12042
330
12034
100
AcDbEntity
  8
0
100
AcDbLine
 10
0.9999995395967395
 20
2.095456975818166
 30
0.0
 11
0.9999995395967395
 21
2.040456975818166
 31
0.0
  0
ENDBLK
  5
12044
330
12034
100
AcDbEntity
  8
0
100
AcDbBlockEnd
  0
BLOCK
  5
1206B
330
1205E
100
AcDbEntity
  8
0
100
AcDbBlockBegin
  2
*D72
 70
     1
 10
0.0
 20
0.0
 30
0.0
  3
*D72
  1

  0
ARC
  5
1292B
330
1205E
100
AcDbEntity
  8
TEXT
 62
     0
370
    -2
100
AcDbCircle
 10
223.9398476303339
 20
203.2493053075879
 30
0.0
 40
5.663360582444584
100
AcDbArc
 50
118.5653662259098
 51
149.2826831129549
  0
ARC
  5
1292C
330
1205E
100
AcDbEntity
  8
TEXT
 62
     0
370
    -2
100
AcDbCircle
 10
223.9398476303339
 20
203.2493053075879
 30
0.0
 40
5.663360582444584
100
AcDbArc
 50
255.7173168870451
 51
286.4346337740902
  0
SOLID
  5
1292D
330
1205E
100
AcDbEntity
  8
TEXT
 62
     0
100
AcDbTrace
 10
219.5532116569325
 20
206.0097353959371
 30
0.0
 11
218.5889248926547
 21
206.2745958049052
 31
0.0
 12
218.2764870478894
 22
203.2493053075879
 32
0.0
 13
218.2764870478894
 23
203.2493053075879
 33
0.0
  0
SOLID
  5
1292E
330
1205E
100
AcDbEntity
  8
TEXT
 62
     0
100
AcDbTrace
 10
222.295377302628
 20
197.3264281284574
 30
0.0
 11
222.789946421408
 21
198.1955664297358
 31
0.0
 12
219.9352469581828
 22
199.2447046354368
 32
0.0
 13
219.9352469581828
 23
199.2447046354368
 33
0.0
  0
MTEXT
  5
1292F
330
1205E
100
AcDbEntity
  8
TEXT
 62
     0
100
AcDbMText
 10
218.6147880687461
 20
201.3212509120043
 30
0.0
 40
1.75
 41
0.0
 46
0.0
 71
     5
 72
     1
  1
\A1;45°
  7
WEB PAGE
 73
     1
 44
1.0
  0
POINT
  5
12930
330
1205E
100
AcDbEntity
  8
Defpoints
 62
     0
100
AcDbPoint
 10
219.0352334951455
 20
200.4176250163657
 30
0.0
  0
POINT
  5
12931
330
1205E
100
AcDbEntity
  8
Defpoints
 62
     0
100
AcDbPoint
 10
212.2076145833001
 20
191.5170722605541
 30
0.0
  0
POINT
  5
12932
330
1205E
100
AcDbEntity
  8
Defpoints
 62
     0
100
AcDbPoint
 10
234.027332336122
 20
203.2493053075879
 30
0.0
  0
POINT
  5
12933
330
1205E
100
AcDbEntity
  8
Defpoints
 62
     0
100
AcDbPoint
 10
212.2076145833001
 20
203.2493053075879
 30
0.0
  0
POINT
  5
12934
330
1205E
100
AcDbEntity
  8
Defpoints
 62
     0
100
AcDbPoint
 10
223.9398476303339
 20
203.2493053075879
 30
0.0
  0
ENDBLK
  5
1206C
330
1205E
100
AcDbEntity
  8
0
100
AcDbBlockEnd
  0
BLOCK
  5
1217D
330
1213F
100
AcDbEntity
  8
0
100
AcDbBlockBegin
  2
A$C25AA01FC
 70
     0
 10
0.0
 20
0.0
 30
0.0
  3
A$C25AA01FC
  1

  0
LINE
  5
12140
330
1213F
100
AcDbEntity
  8
HIDDEN
 62
     7
100
AcDbLine
 10
4.03876052650196
 20
104.9975632894821
 30
0.0
 11
2.762755539576318
 21
0.0053168554079832
 31
0.0
  0
LINE
  5
12141
330
1213F
100
AcDbEntity
  8
5
 62
     7
100
AcDbLine
 10
4.476228219977343
 20
104.9922466020367
 30
0.0
 11
3.200223233051616
 21
0.0000001679626678
 31
0.0
  0
LINE
  5
12142
330
1213F
100
AcDbEntity
  8
5
 62
     7
100
AcDbLine
 10
1.075380150457277
 20
0.0258240784121711
 30
0.0
 11
2.351385137382919
 21
105.0180705124862
 31
0.0
  0
LINE
  5
12143
330
1213F
100
AcDbEntity
  8
0
100
AcDbLine
 10
3.200223233051616
 20
0.0000001679626678
 30
0.0
 11
1.075380150457277
 21
0.0258240784121711
 31
0.0
  0
CIRCLE
  5
12144
330
1213F
100
AcDbEntity
  8
5
 62
     7
100
AcDbCircle
 10
2.270008573330557
 20
0.6051492213701124
 30
0.0
 40
0.1405
  0
CIRCLE
  5
12145
330
1213F
100
AcDbEntity
  8
5
 62
     7
100
AcDbCircle
 10
1.520063955944266
 20
0.6142635427052312
 30
0.0
 40
0.1405
  0
CIRCLE
  5
12146
330
1213F
100
AcDbEntity
  8
5
 62
     7
100
AcDbCircle
 10
1.903010688184309
 20
1.26585792594281
 30
0.0
 40
0.203
  0
INSERT
  5
12147
330
1213F
100
AcDbEntity
  8
0
100
AcDbBlockReference
  2
J-1
 10
0.0969856627598915
 20
10.03845331485357
 30
0.0
 50
359.3036999999985
  0
CIRCLE
  5
12148
330
1213F
100
AcDbEntity
  8
5
 62
     7
100
AcDbCircle
 10
1.962732884890272
 20
9.265722894129368
 30
0.0
 40
0.1405
  0
CIRCLE
  5
12149
330
1213F
100
AcDbEntity
  8
5
 62
     7
100
AcDbCircle
 10
1.98096152756068
 20
10.76561212890183
 30
0.0
 40
0.1405
  0
ARC
  5
1214A
330
1213F
100
AcDbEntity
  8
5
 62
     7
100
AcDbCircle
 10
1.975137476227473
 20
10.28639751839208
 30
0.0
 40
0.1355
100
AcDbArc
 50
359.3036999999985
 51
179.3036999999984
  0
ARC
  5
1214B
330
1213F
100
AcDbEntity
  8
5
 62
     7
100
AcDbCircle
 10
1.968556936223478
 20
9.744937504639125
 30
0.0
 40
0.1355
100
AcDbArc
 50
179.3036999999984
 51
359.3036999999985
  0
LINE
  5
1214C
330
1213F
100
AcDbEntity
  8
5
 62
     7
100
AcDbLine
 10
2.110627470435304
 20
10.28475086433755
 30
0.0
 11
2.104046930431309
 21
9.7432908505846
 31
0.0
  0
LINE
  5
1214D
330
1213F
100
AcDbEntity
  8
5
 62
     7
100
AcDbLine
 10
1.833066942015761
 20
9.746584158693764
 30
0.0
 11
1.839647482019699
 21
10.2880441724466
 31
0.0
  0
CIRCLE
  5
1214E
330
1213F
100
AcDbEntity
  8
5
 62
     7
100
AcDbCircle
 10
3.14863460398368
 20
103.7582889687294
 30
0.0
 40
0.203
  0
INSERT
  5
1214F
330
1213F
100
AcDbEntity
  8
5
100
AcDbBlockReference
  2
J-3
 10
0.0136716367926226
 20
34.04123823188118
 30
0.0
 50
359.3036999999985
  0
LINE
  5
12150
330
1213F
100
AcDbEntity
  8
5
 62
     7
100
AcDbLine
 10
2.40190475532762
 20
33.74144326188824
 30
0.0
 11
2.408485295331615
 21
34.28290327564108
 31
0.0
  0
LINE
  5
12151
330
1213F
100
AcDbEntity
  8
5
 62
     7
100
AcDbLine
 10
2.137505306916068
 20
34.28619658375024
 30
0.0
 11
2.130924766912073
 21
33.7447365699974
 31
0.0
  0
CIRCLE
  5
12152
330
1213F
100
AcDbEntity
  8
5
 62
     7
100
AcDbCircle
 10
2.219038801964188
 20
32.42051798557603
 30
0.0
 40
0.1325
  0
ARC
  5
12153
330
1213F
100
AcDbEntity
  8
5
 62
     7
100
AcDbCircle
 10
2.652329705782335
 20
32.07152667813628
 30
0.0
 40
0.0625
100
AcDbArc
 50
359.3036999999985
 51
89.30370000000007
  0
CIRCLE
  5
12154
330
1213F
100
AcDbEntity
  8
5
 62
     7
100
AcDbCircle
 10
2.260590709786583
 20
33.263875305433
 30
0.0
 40
0.1405
  0
LINE
  5
12155
330
1213F
100
AcDbEntity
  8
5
 62
     7
100
AcDbLine
 10
2.653089232560262
 20
32.13402206291849
 30
0.0
 11
1.778153845609551
 21
32.14465543780958
 31
0.0
  0
CIRCLE
  5
12156
330
1213F
100
AcDbEntity
  8
5
 62
     7
100
AcDbCircle
 10
2.182581516623486
 20
29.42073951603109
 30
0.0
 40
0.1325
  0
ARC
  5
12157
330
1213F
100
AcDbEntity
  8
5
 62
     7
100
AcDbCircle
 10
1.76372283682889
 20
30.95724312694804
 30
0.0
 40
0.0625
100
AcDbArc
 50
179.3036999999984
 51
269.3037
  0
CIRCLE
  5
12158
330
1213F
100
AcDbEntity
  8
5
 62
     7
100
AcDbCircle
 10
2.19701374064698
 20
30.6082518195083
 30
0.0
 40
0.1325
  0
ARC
  5
12159
330
1213F
100
AcDbEntity
  8
5
 62
     7
100
AcDbCircle
 10
2.638658223779543
 20
30.94660975205696
 30
0.0
 40
0.0625
100
AcDbArc
 50
269.3037
 51
359.3036999999985
  0
LINE
  5
1215A
330
1213F
100
AcDbEntity
  8
5
 62
     7
100
AcDbLine
 10
2.63789869700156
 20
30.88411436727475
 30
0.0
 11
1.762963310050963
 21
30.89474774216583
 31
0.0
  0
LINE
  5
1215B
330
1213F
100
AcDbEntity
  8
5
 62
     7
100
AcDbLine
 10
1.714898934049472
 20
32.08291957980535
 30
0.0
 11
1.70122745204668
 21
30.95800265372592
 31
0.0
  0
LINE
  5
1215C
330
1213F
100
AcDbEntity
  8
5
 62
     7
100
AcDbLine
 10
2.714825090564488
 20
32.07076715135841
 30
0.0
 11
2.701153608561753
 21
30.94585022527898
 31
0.0
  0
ARC
  5
1215D
330
1213F
100
AcDbEntity
  8
5
 62
     7
100
AcDbCircle
 10
1.777394318831682
 20
32.08216005302737
 30
0.0
 40
0.0625
100
AcDbArc
 50
89.30370000000007
 51
179.3036999999984
  0
ARC
  5
1215E
330
1213F
100
AcDbEntity
  8
5
 62
     7
100
AcDbCircle
 10
2.26641476111979
 20
33.74308991594276
 30
0.0
 40
0.1355
100
AcDbArc
 50
179.3036999999984
 51
359.3036999999985
  0
LINE
  5
1215F
330
1213F
100
AcDbEntity
  8
5
 62
     7
100
AcDbLine
 10
1.761989594281317
 20
35.95763343630088
 30
0.0
 11
1.775661076284109
 21
37.0825503623802
 31
0.0
  0
ARC
  5
12160
330
1213F
100
AcDbEntity
  8
5
 62
     7
100
AcDbCircle
 10
1.838156461066205
 20
37.08179083560234
 30
0.0
 40
0.0625
100
AcDbArc
 50
89.30370000000007
 51
179.3036999999984
  0
ARC
  5
12161
330
1213F
100
AcDbEntity
  8
5
 62
     7
100
AcDbCircle
 10
1.82448497906347
 20
35.95687390952301
 30
0.0
 40
0.0625
100
AcDbArc
 50
179.3036999999984
 51
269.3037
  0
CIRCLE
  5
12162
330
1213F
100
AcDbEntity
  8
5
 62
     7
100
AcDbCircle
 10
2.279800944198711
 20
37.420148768151
 30
0.0
 40
0.1325
  0
CIRCLE
  5
12163
330
1213F
100
AcDbEntity
  8
5
 62
     7
100
AcDbCircle
 10
2.294233168222319
 20
38.6076610716282
 30
0.0
 40
0.1325
  0
CIRCLE
  5
12164
330
1213F
100
AcDbEntity
  8
5
 62
     7
100
AcDbCircle
 10
2.278819352456935
 20
34.76376454020547
 30
0.0
 40
0.1405
  0
ARC
  5
12165
330
1213F
100
AcDbEntity
  8
5
 62
     7
100
AcDbCircle
 10
2.272995301123785
 20
34.28454992969572
 30
0.0
 40
0.1355
100
AcDbArc
 50
359.3036999999985
 51
179.3036999999984
  0
CIRCLE
  5
12166
330
1213F
100
AcDbEntity
  8
5
 62
     7
100
AcDbCircle
 10
2.25777588288156
 20
35.60788260208326
 30
0.0
 40
0.1325
  0
LINE
  5
12167
330
1213F
100
AcDbEntity
  8
5
 62
     7
100
AcDbLine
 10
2.761915750796276
 20
35.94548100785394
 30
0.0
 11
2.775587232799068
 21
37.07039793393338
 31
0.0
  0
ARC
  5
12168
330
1213F
100
AcDbEntity
  8
5
 62
     7
100
AcDbCircle
 10
2.713091848016858
 20
37.07115746071125
 30
0.0
 40
0.0625
100
AcDbArc
 50
359.3036999999985
 51
89.30370000000007
  0
ARC
  5
12169
330
1213F
100
AcDbEntity
  8
5
 62
     7
100
AcDbCircle
 10
2.699420366014066
 20
35.94624053463193
 30
0.0
 40
0.0625
100
AcDbArc
 50
269.3037
 51
359.3036999999985
  0
LINE
  5
1216A
330
1213F
100
AcDbEntity
  8
5
 62
     7
100
AcDbLine
 10
2.713851374794785
 20
37.13365284549346
 30
0.0
 11
1.838915987844188
 21
37.14428622038443
 31
0.0
  0
LINE
  5
1216B
330
1213F
100
AcDbEntity
  8
5
 62
     7
100
AcDbLine
 10
2.69866083923614
 20
35.88374514984972
 30
0.0
 11
1.823725452285486
 21
35.8943785247408
 31
0.0
  0
INSERT
  5
1216C
330
1213F
100
AcDbEntity
  8
5
100
AcDbBlockReference
  2
J-4
 10
0.055348380389745
 20
58.0425040953526
 30
0.0
 50
359.3036999999985
  0
ARC
  5
1216D
330
1213F
100
AcDbEntity
  8
5
 62
     7
100
AcDbCircle
 10
2.558454041679254
 20
58.28285303111172
 30
0.0
 40
0.1355
100
AcDbArc
 50
359.3036999999985
 51
179.3036999999984
  0
CIRCLE
  5
1216E
330
1213F
100
AcDbEntity
  8
5
 62
     7
100
AcDbCircle
 10
2.564278093012347
 20
58.7620676416216
 30
0.0
 40
0.1405
  0
LINE
  5
1216F
330
1213F
100
AcDbEntity
  8
5
 62
     7
100
AcDbLine
 10
2.687363495883033
 20
57.73974636330436
 30
0.0
 11
2.693944035887085
 21
58.2812063770572
 31
0.0
  0
LINE
  5
12170
330
1213F
100
AcDbEntity
  8
5
 62
     7
100
AcDbLine
 10
2.422964047471481
 20
58.28449968516636
 30
0.0
 11
2.416383507467486
 21
57.74303967141341
 31
0.0
  0
CIRCLE
  5
12171
330
1213F
100
AcDbEntity
  8
5
 62
     7
100
AcDbCircle
 10
2.546049450342053
 20
57.26217840684902
 30
0.0
 40
0.1405
  0
ARC
  5
12172
330
1213F
100
AcDbEntity
  8
5
 62
     7
100
AcDbCircle
 10
2.55187350167526
 20
57.74139301735889
 30
0.0
 40
0.1355
100
AcDbArc
 50
179.3036999999984
 51
359.3036999999985
  0
INSERT
  5
12173
330
1213F
100
AcDbEntity
  8
5
100
AcDbBlockReference
  2
J-5
 10
0.0970251239867537
 20
82.04376995882412
 30
0.0
 50
359.3036999999985
  0
ARC
  5
12174
330
1213F
100
AcDbEntity
  8
5
 62
     7
100
AcDbCircle
 10
2.843531784400994
 20
81.73962077371859
 30
0.0
 40
0.1355
100
AcDbArc
 50
179.3036999999984
 51
359.3036999999985
  0
CIRCLE
  5
12175
330
1213F
100
AcDbEntity
  8
5
 62
     7
100
AcDbCircle
 10
2.837707733067844
 20
81.26040616320883
 30
0.0
 40
0.1405
  0
LINE
  5
12176
330
1213F
100
AcDbEntity
  8
5
 62
     7
100
AcDbLine
 10
2.979021778608824
 20
81.73797411966408
 30
0.0
 11
2.985602318612876
 21
82.27943413341703
 31
0.0
  0
LINE
  5
12177
330
1213F
100
AcDbEntity
  8
5
 62
     7
100
AcDbLine
 10
2.714622330197329
 20
82.28272744152608
 30
0.0
 11
2.708041790193334
 21
81.74126742777323
 31
0.0
  0
ARC
  5
12178
330
1213F
100
AcDbEntity
  8
5
 62
     7
100
AcDbCircle
 10
2.850112324405046
 20
82.28108078747155
 30
0.0
 40
0.1355
100
AcDbArc
 50
359.3036999999985
 51
179.3036999999984
  0
CIRCLE
  5
12179
330
1213F
100
AcDbEntity
  8
5
 62
     7
100
AcDbCircle
 10
2.855936375738252
 20
82.7602953979813
 30
0.0
 40
0.1405
  0
LINE
  5
1217A
330
1213F
100
AcDbEntity
  8
0
100
AcDbLine
 10
4.476228219977343
 20
104.9922466020367
 30
0.0
 11
2.351385137382919
 21
105.0180705124862
 31
0.0
  0
CIRCLE
  5
1217B
330
1213F
100
AcDbEntity
  8
5
 62
     7
100
AcDbCircle
 10
3.531581336223666
 20
104.4098833519669
 30
0.0
 40
0.1405
  0
CIRCLE
  5
1217C
330
1213F
100
AcDbEntity
  8
5
 62
     7
100
AcDbCircle
 10
2.781636718837432
 20
104.418997673302
 30
0.0
 40
0.1405
  0
ENDBLK
  5
1217E
330
1213F
100
AcDbEntity
  8
0
100
AcDbBlockEnd
  0
BLOCK
  5
12236
330
121DD
100
AcDbEntity
  8
0
100
AcDbBlockBegin
  2
A$C4F3F2A85
 70
     0
 10
0.0
 20
0.0
 30
0.0
  3
A$C4F3F2A85
  1

  0
CIRCLE
  5
121DE
330
121DD
100
AcDbEntity
  8
0
100
AcDbCircle
 10
17.21249918160902
 20
2.624999360800586
 30
0.0
 40
0.25
  0
LINE
  5
121DF
330
121DD
100
AcDbEntity
  8
0
100
AcDbLine
 10
-0.0000008183909586
 20
3.64999936080062
 30
0.0
 11
22.87499918160904
 21
3.64999936080062
 31
0.0
  0
LINE
  5
121E0
330
121DD
100
AcDbEntity
  8
0
100
AcDbLine
 10
21.74999918160904
 20
-0.0000006391994702
 30
0.0
 11
-0.0000008183909586
 21
-0.0000006391994702
 31
0.0
  0
ARC
  5
121E1
330
121DD
100
AcDbEntity
  8
0
100
AcDbCircle
 10
2.087499181609018
 20
0.6934993608006153
 30
0.0
 40
0.1375000000000002
100
AcDbArc
 50
90.0
 51
270.0
  0
LINE
  5
121E2
330
121DD
100
AcDbEntity
  8
0
100
AcDbLine
 10
2.17749918160905
 20
0.6934993608006153
 30
0.0
 11
1.9974991816091
 21
0.6934993608006153
 31
0.0
  0
CIRCLE
  5
121E3
330
121DD
100
AcDbEntity
  8
0
100
AcDbCircle
 10
1.694999181609091
 20
3.054999360800593
 30
0.0
 40
0.1700000000000017
  0
LINE
  5
121E4
330
121DD
100
AcDbEntity
  8
0
100
AcDbLine
 10
1.694999181609091
 20
2.964999360800561
 30
0.0
 11
1.694999181609091
 21
3.144999360800625
 31
0.0
  0
LINE
  5
121E5
330
121DD
100
AcDbEntity
  8
0
100
AcDbLine
 10
1.784999181609009
 20
3.054999360800593
 30
0.0
 11
1.604999181609059
 21
3.054999360800593
 31
0.0
  0
LINE
  5
121E6
330
121DD
100
AcDbEntity
  8
0
100
AcDbLine
 10
0.3879991816090751
 20
0.4319993608005462
 30
0.0
 11
0.3879991816090751
 21
0.6119993608006098
 31
0.0
  0
ARC
  5
121E7
330
121DD
100
AcDbEntity
  8
0
100
AcDbCircle
 10
0.3879991816090751
 20
0.521999360800578
 30
0.0
 40
0.2039999999999988
100
AcDbArc
 50
90.0
 51
269.999999999999
  0
LINE
  5
121E8
330
121DD
100
AcDbEntity
  8
0
100
AcDbLine
 10
1.379999181609036
 20
0.4319993608005462
 30
0.0
 11
1.379999181609036
 21
0.6119993608006098
 31
0.0
  0
ARC
  5
121E9
330
121DD
100
AcDbEntity
  8
0
100
AcDbCircle
 10
1.379999181609036
 20
0.521999360800578
 30
0.0
 40
0.2040000000000011
100
AcDbArc
 50
270.0
 51
90.0
  0
LINE
  5
121EA
330
121DD
100
AcDbEntity
  8
0
100
AcDbLine
 10
1.379999181609036
 20
0.3179993608005134
 30
0.0
 11
0.3879991816090751
 21
0.3179993608005134
 31
0.0
  0
LINE
  5
121EB
330
121DD
100
AcDbEntity
  8
0
100
AcDbLine
 10
1.469999181609068
 20
0.521999360800578
 30
0.0
 11
1.289999181609118
 21
0.521999360800578
 31
0.0
  0
LINE
  5
121EC
330
121DD
100
AcDbEntity
  8
0
100
AcDbLine
 10
0.477999181609107
 20
0.521999360800578
 30
0.0
 11
0.2979991816090432
 21
0.521999360800578
 31
0.0
  0
LINE
  5
121ED
330
121DD
100
AcDbEntity
  8
0
100
AcDbLine
 10
1.379999181609036
 20
0.7259993608005289
 30
0.0
 11
0.3879991816090751
 21
0.7259993608005289
 31
0.0
  0
LINE
  5
121EE
330
121DD
100
AcDbEntity
  8
0
100
AcDbLine
 10
-0.0000008183909586
 20
-0.0000006391994702
 30
0.0
 11
-0.0000008183909586
 21
3.64999936080062
 31
0.0
  0
ARC
  5
121EF
330
121DD
100
AcDbEntity
  8
0
100
AcDbCircle
 10
16.14999918160902
 20
2.569999360800579
 30
0.0
 40
0.1499999999999999
100
AcDbArc
 50
180.0
 51
0.0
  0
LINE
  5
121F0
330
121DD
100
AcDbEntity
  8
0
100
AcDbLine
 10
16.14999918160902
 20
2.479999360800547
 30
0.0
 11
16.14999918160902
 21
2.659999360800611
 31
0.0
  0
LINE
  5
121F1
330
121DD
100
AcDbEntity
  8
0
100
AcDbLine
 10
16.14999918160902
 20
2.534999360800611
 30
0.0
 11
16.14999918160902
 21
2.714999360800561
 31
0.0
  0
ARC
  5
121F2
330
121DD
100
AcDbEntity
  8
0
100
AcDbCircle
 10
16.14999918160902
 20
2.624999360800529
 30
0.0
 40
0.1499999999999999
100
AcDbArc
 50
0.0
 51
180.0
  0
LINE
  5
121F3
330
121DD
100
AcDbEntity
  8
0
100
AcDbLine
 10
16.23999918160905
 20
2.624999360800529
 30
0.0
 11
16.0599991816091
 21
2.624999360800529
 31
0.0
  0
LINE
  5
121F4
330
121DD
100
AcDbEntity
  8
0
100
AcDbLine
 10
16.23999918160905
 20
2.569999360800579
 30
0.0
 11
16.0599991816091
 21
2.569999360800579
 31
0.0
  0
LINE
  5
121F5
330
121DD
100
AcDbEntity
  8
0
100
AcDbLine
 10
15.99999918160904
 20
2.569999360800579
 30
0.0
 11
15.99999918160904
 21
2.624999360800529
 31
0.0
  0
LINE
  5
121F6
330
121DD
100
AcDbEntity
  8
0
100
AcDbLine
 10
16.29999918160911
 20
2.569999360800579
 30
0.0
 11
16.29999918160911
 21
2.624999360800529
 31
0.0
  0
ARC
  5
121F7
330
121DD
100
AcDbEntity
  8
0
100
AcDbCircle
 10
16.14999918160902
 20
2.624999360800529
 30
0.0
 40
0.1499999999999999
100
AcDbArc
 50
336.0429657177626
 51
336.0429657177639
  0
LINE
  5
121F8
330
121DD
100
AcDbEntity
  8
0
100
AcDbLine
 10
8.992499181609105
 20
1.002499360800584
 30
0.0
 11
8.992499181609105
 21
1.182499360800534
 31
0.0
  0
CIRCLE
  5
121F9
330
121DD
100
AcDbEntity
  8
0
100
AcDbCircle
 10
8.992499181609105
 20
1.092499360800616
 30
0.0
 40
0.2424999999999997
  0
LINE
  5
121FA
330
121DD
100
AcDbEntity
  8
0
100
AcDbLine
 10
9.082499181609023
 20
1.092499360800616
 30
0.0
 11
8.902499181609073
 21
1.092499360800616
 31
0.0
  0
ARC
  5
121FB
330
121DD
100
AcDbEntity
  8
0
100
AcDbCircle
 10
16.14999918160902
 20
0.4499993608005753
 30
0.0
 40
0.1499999999999999
100
AcDbArc
 50
180.0
 51
0.0
  0
LINE
  5
121FC
330
121DD
100
AcDbEntity
  8
0
100
AcDbLine
 10
16.14999918160902
 20
0.3599993608005434
 30
0.0
 11
16.14999918160902
 21
0.5399993608006071
 31
0.0
  0
LINE
  5
121FD
330
121DD
100
AcDbEntity
  8
0
100
AcDbLine
 10
16.14999918160902
 20
0.4149993608006071
 30
0.0
 11
16.14999918160902
 21
0.5949993608005571
 31
0.0
  0
ARC
  5
121FE
330
121DD
100
AcDbEntity
  8
0
100
AcDbCircle
 10
16.14999918160902
 20
0.5049993608005252
 30
0.0
 40
0.1499999999999999
100
AcDbArc
 50
336.0429657177626
 51
336.0429657177639
  0
LINE
  5
121FF
330
121DD
100
AcDbEntity
  8
0
100
AcDbLine
 10
13.1174991816091
 20
0.7174993608006162
 30
0.0
 11
13.1174991816091
 21
0.8974993608005661
 31
0.0
  0
CIRCLE
  5
12200
330
121DD
100
AcDbEntity
  8
0
100
AcDbCircle
 10
13.1174991816091
 20
0.8074993608005343
 30
0.0
 40
0.2424999999999997
  0
LINE
  5
12201
330
121DD
100
AcDbEntity
  8
0
100
AcDbLine
 10
13.20749918160902
 20
0.8074993608005343
 30
0.0
 11
13.02749918160907
 21
0.8074993608005343
 31
0.0
  0
ARC
  5
12202
330
121DD
100
AcDbEntity
  8
0
100
AcDbCircle
 10
16.14999918160902
 20
0.5049993608005252
 30
0.0
 40
0.1499999999999999
100
AcDbArc
 50
0.0
 51
180.0
  0
LINE
  5
12203
330
121DD
100
AcDbEntity
  8
0
100
AcDbLine
 10
16.23999918160905
 20
0.5049993608005252
 30
0.0
 11
16.0599991816091
 21
0.5049993608005252
 31
0.0
  0
LINE
  5
12204
330
121DD
100
AcDbEntity
  8
0
100
AcDbLine
 10
16.23999918160905
 20
0.4499993608005753
 30
0.0
 11
16.0599991816091
 21
0.4499993608005753
 31
0.0
  0
LINE
  5
12205
330
121DD
100
AcDbEntity
  8
0
100
AcDbLine
 10
15.99999918160904
 20
0.4499993608005753
 30
0.0
 11
15.99999918160904
 21
0.5049993608005252
 31
0.0
  0
LINE
  5
12206
330
121DD
100
AcDbEntity
  8
0
100
AcDbLine
 10
16.29999918160911
 20
0.4499993608005753
 30
0.0
 11
16.29999918160911
 21
0.5049993608005252
 31
0.0
  0
CIRCLE
  5
12207
330
121DD
100
AcDbEntity
  8
5
 62
     7
100
AcDbCircle
 10
3.819107710178286
 20
2.45780012804073
 30
0.0
 40
0.1875
  0
CIRCLE
  5
12208
330
121DD
100
AcDbEntity
  8
5
 62
     7
100
AcDbCircle
 10
2.881607710178286
 20
2.45780012804073
 30
0.0
 40
0.1875
  0
CIRCLE
  5
12209
330
121DD
100
AcDbEntity
  8
5
 62
     7
100
AcDbCircle
 10
4.756607710178286
 20
2.45780012804073
 30
0.0
 40
0.1875
  0
CIRCLE
  5
1220A
330
121DD
100
AcDbEntity
  8
0
100
AcDbCircle
 10
3.694999181609091
 20
3.054999360800593
 30
0.0
 40
0.1700000000000017
  0
CIRCLE
  5
1220B
330
121DD
100
AcDbEntity
  8
0
100
AcDbCircle
 10
2.694999181609091
 20
3.054999360800593
 30
0.0
 40
0.1700000000000017
  0
LINE
  5
1220C
330
121DD
100
AcDbEntity
  8
0
100
AcDbLine
 10
2.694999181609091
 20
2.964999360800561
 30
0.0
 11
2.694999181609091
 21
3.144999360800625
 31
0.0
  0
LINE
  5
1220D
330
121DD
100
AcDbEntity
  8
0
100
AcDbLine
 10
2.784999181609123
 20
3.054999360800593
 30
0.0
 11
2.604999181609059
 21
3.054999360800593
 31
0.0
  0
CIRCLE
  5
1220E
330
121DD
100
AcDbEntity
  8
0
100
AcDbCircle
 10
4.694999181609091
 20
3.054999360800593
 30
0.0
 40
0.1700000000000017
  0
LINE
  5
1220F
330
121DD
100
AcDbEntity
  8
0
100
AcDbLine
 10
4.784999181609123
 20
3.054999360800593
 30
0.0
 11
4.604999181609059
 21
3.054999360800593
 31
0.0
  0
LINE
  5
12210
330
121DD
100
AcDbEntity
  8
0
100
AcDbLine
 10
3.694999181609091
 20
2.964999360800561
 30
0.0
 11
3.694999181609091
 21
3.144999360800625
 31
0.0
  0
LINE
  5
12211
330
121DD
100
AcDbEntity
  8
0
100
AcDbLine
 10
3.784999181609123
 20
3.054999360800593
 30
0.0
 11
3.604999181609059
 21
3.054999360800593
 31
0.0
  0
LINE
  5
12212
330
121DD
100
AcDbEntity
  8
0
100
AcDbLine
 10
4.694999181609091
 20
2.964999360800561
 30
0.0
 11
4.694999181609091
 21
3.144999360800625
 31
0.0
  0
ARC
  5
12213
330
121DD
100
AcDbEntity
  8
0
100
AcDbCircle
 10
2.942499181609036
 20
0.6934993608006153
 30
0.0
 40
0.1374999999999997
100
AcDbArc
 50
270.0
 51
90.0
  0
LINE
  5
12214
330
121DD
100
AcDbEntity
  8
0
100
AcDbLine
 10
2.942499181609036
 20
0.5559993608005698
 30
0.0
 11
2.087499181609018
 21
0.5559993608005698
 31
0.0
  0
LINE
  5
12215
330
121DD
100
AcDbEntity
  8
0
100
AcDbLine
 10
2.087499181609018
 20
0.6034993608005835
 30
0.0
 11
2.087499181609018
 21
0.7834993608005334
 31
0.0
  0
LINE
  5
12216
330
121DD
100
AcDbEntity
  8
0
100
AcDbLine
 10
2.942499181609036
 20
0.6034993608005835
 30
0.0
 11
2.942499181609036
 21
0.7834993608005334
 31
0.0
  0
LINE
  5
12217
330
121DD
100
AcDbEntity
  8
0
100
AcDbLine
 10
3.032499181609068
 20
0.6934993608006153
 30
0.0
 11
2.852499181609118
 21
0.6934993608006153
 31
0.0
  0
LINE
  5
12218
330
121DD
100
AcDbEntity
  8
0
100
AcDbLine
 10
2.942499181609036
 20
0.830999360800547
 30
0.0
 11
2.087499181609018
 21
0.830999360800547
 31
0.0
  0
ARC
  5
12219
330
121DD
100
AcDbEntity
  8
0
100
AcDbCircle
 10
21.06999918160909
 20
2.604999360800547
 30
0.0
 40
0.1499999999999999
100
AcDbArc
 50
90.0
 51
270.0
  0
LINE
  5
1221A
330
121DD
100
AcDbEntity
  8
0
100
AcDbLine
 10
21.06999918160909
 20
2.514999360800516
 30
0.0
 11
21.06999918160909
 21
2.694999360800579
 31
0.0
  0
LINE
  5
1221B
330
121DD
100
AcDbEntity
  8
0
100
AcDbLine
 10
21.12499918160904
 20
2.514999360800516
 30
0.0
 11
21.12499918160904
 21
2.694999360800579
 31
0.0
  0
ARC
  5
1221C
330
121DD
100
AcDbEntity
  8
0
100
AcDbCircle
 10
21.12499918160904
 20
2.604999360800547
 30
0.0
 40
0.1499999999999999
100
AcDbArc
 50
270.0
 51
90.0
  0
ARC
  5
1221D
330
121DD
100
AcDbEntity
  8
0
100
AcDbCircle
 10
21.12499918160904
 20
2.604999360800547
 30
0.0
 40
0.1499999999999999
100
AcDbArc
 50
246.0429657177613
 51
246.0429657177626
  0
LINE
  5
1221E
330
121DD
100
AcDbEntity
  8
0
100
AcDbLine
 10
21.06999918160909
 20
2.45499936080057
 30
0.0
 11
21.12499918160904
 21
2.45499936080057
 31
0.0
  0
LINE
  5
1221F
330
121DD
100
AcDbEntity
  8
0
100
AcDbLine
 10
21.03499918160901
 20
2.604999360800547
 30
0.0
 11
21.21499918160907
 21
2.604999360800547
 31
0.0
  0
LINE
  5
12220
330
121DD
100
AcDbEntity
  8
0
100
AcDbLine
 10
20.97999918160906
 20
2.604999360800547
 30
0.0
 11
21.15999918160901
 21
2.604999360800547
 31
0.0
  0
LINE
  5
12221
330
121DD
100
AcDbEntity
  8
0
100
AcDbLine
 10
21.06999918160909
 20
2.754999360800525
 30
0.0
 11
21.12499918160904
 21
2.754999360800525
 31
0.0
  0
ARC
  5
12222
330
121DD
100
AcDbEntity
  8
0
100
AcDbCircle
 10
21.06999918160909
 20
0.479999360800548
 30
0.0
 40
0.1499999999999999
100
AcDbArc
 50
90.0
 51
270.0
  0
LINE
  5
12223
330
121DD
100
AcDbEntity
  8
0
100
AcDbLine
 10
22.87499918160904
 20
1.124999360800529
 30
0.0
 11
21.74999918160904
 21
-0.0000006391994702
 31
0.0
  0
LINE
  5
12224
330
121DD
100
AcDbEntity
  8
0
100
AcDbLine
 10
22.66032302892836
 20
0.2146755134813247
 30
0.0
 11
22.87499918160904
 21
1.124999360800529
 31
0.0
  0
LINE
  5
12225
330
121DD
100
AcDbEntity
  8
0
100
AcDbLine
 10
22.75184041646401
 20
0.1231581259455652
 30
0.0
 11
22.87499918160904
 21
1.124999360800529
 31
0.0
  0
LINE
  5
12226
330
121DD
100
AcDbEntity
  8
0
100
AcDbLine
 10
21.06999918160909
 20
0.3899993608005161
 30
0.0
 11
21.06999918160909
 21
0.5699993608005798
 31
0.0
  0
LINE
  5
12227
330
121DD
100
AcDbEntity
  8
0
100
AcDbLine
 10
21.12499918160904
 20
0.3899993608005161
 30
0.0
 11
21.12499918160904
 21
0.5699993608005798
 31
0.0
  0
ARC
  5
12228
330
121DD
100
AcDbEntity
  8
0
100
AcDbCircle
 10
21.12499918160904
 20
0.479999360800548
 30
0.0
 40
0.1499999999999999
100
AcDbArc
 50
270.0
 51
90.0
  0
LINE
  5
12229
330
121DD
100
AcDbEntity
  8
0
100
AcDbLine
 10
22.66032302892836
 20
0.2146755134813247
 30
0.0
 11
21.74999918160904
 21
-0.0000006391994702
 31
0.0
  0
LINE
  5
1222A
330
121DD
100
AcDbEntity
  8
0
100
AcDbLine
 10
21.74999918160904
 20
-0.0000006391994702
 30
0.0
 11
22.75184041646401
 21
0.1231581259455652
 31
0.0
  0
LINE
  5
1222B
330
121DD
100
AcDbEntity
  8
0
100
AcDbLine
 10
22.87499918160904
 20
-0.0000006391994702
 30
0.0
 11
22.87499918160904
 21
-0.0000006391994702
 31
0.0
  0
LINE
  5
1222C
330
121DD
100
AcDbEntity
  8
0
100
AcDbLine
 10
21.12499918160904
 20
0.3299993608005707
 30
0.0
 11
21.06999918160909
 21
0.3299993608005707
 31
0.0
  0
ARC
  5
1222D
330
121DD
100
AcDbEntity
  8
0
100
AcDbCircle
 10
21.12499918160904
 20
0.479999360800548
 30
0.0
 40
0.1499999999999999
100
AcDbArc
 50
246.0429657177613
 51
246.0429657177626
  0
LINE
  5
1222E
330
121DD
100
AcDbEntity
  8
0
100
AcDbLine
 10
22.66032302892836
 20
0.2146755134813247
 30
0.0
 11
22.75184041646401
 21
0.1231581259455652
 31
0.0
  0
LINE
  5
1222F
330
121DD
100
AcDbEntity
  8
0
100
AcDbLine
 10
21.03499918160901
 20
0.479999360800548
 30
0.0
 11
21.21499918160907
 21
0.479999360800548
 31
0.0
  0
LINE
  5
12230
330
121DD
100
AcDbEntity
  8
0
100
AcDbLine
 10
20.97999918160906
 20
0.479999360800548
 30
0.0
 11
21.15999918160901
 21
0.479999360800548
 31
0.0
  0
LINE
  5
12231
330
121DD
100
AcDbEntity
  8
0
100
AcDbLine
 10
21.06999918160909
 20
0.6299993608005252
 30
0.0
 11
21.12499918160904
 21
0.6299993608005252
 31
0.0
  0
LINE
  5
12232
330
121DD
100
AcDbEntity
  8
0
100
AcDbLine
 10
17.26749918160908
 20
0.417499360800548
 30
0.0
 11
17.26749918160908
 21
0.5974993608006117
 31
0.0
  0
LINE
  5
12233
330
121DD
100
AcDbEntity
  8
0
100
AcDbLine
 10
17.35749918160911
 20
0.5074993608005798
 30
0.0
 11
17.17749918160905
 21
0.5074993608005798
 31
0.0
  0
CIRCLE
  5
12234
330
121DD
100
AcDbEntity
  8
0
100
AcDbCircle
 10
17.26749918160908
 20
0.5074993608005798
 30
0.0
 40
0.2424999999999997
  0
LINE
  5
12235
330
121DD
100
AcDbEntity
  8
0
100
AcDbLine
 10
22.87499918160904
 20
3.64999936080062
 30
0.0
 11
22.87499918160904
 21
1.124999360800529
 31
0.0
  0
ENDBLK
  5
12237
330
121DD
100
AcDbEntity
  8
0
100
AcDbBlockEnd
  0
BLOCK
  5
1223A
330
12238
100
AcDbEntity
  8
0
100
AcDbBlockBegin
  2
23-LHR-START
 70
     0
 10
0.0
 20
0.0
 30
0.0
  3
23-LHR-START
  1

  0
INSERT
  5
12239
330
12238
100
AcDbEntity
  8
BDR
100
AcDbBlockReference
  2
A$C4F3F2A85
 10
-10.87499918160904
 20
0.0000006391994702
 30
0.0
  0
ENDBLK
  5
1223B
330
12238
100
AcDbEntity
  8
0
100
AcDbBlockEnd
  0
BLOCK
  5
122C9
330
122C1
100
AcDbEntity
  8
0
100
AcDbBlockBegin
  2
ATL
 70
     0
 10
0.0
 20
0.0
 30
0.0
  3
ATL
  1

  0
LINE
  5
122C2
330
122C1
100
AcDbEntity
  8
0
 62
     4
100
AcDbLine
 10
2.934504101100848
 20
5.04372993744326
 30
0.0
 11
2.934504101100848
 21
4.91122993744326
 31
0.0
  0
LINE
  5
122C3
330
122C1
100
AcDbEntity
  8
0
 62
     4
100
AcDbLine
 10
2.974151296942212
 20
5.084710738467717
 30
0.0
 11
3.139151296942212
 21
5.084710738467717
 31
0.0
  0
LINE
  5
122C4
330
122C1
100
AcDbEntity
  8
0
 62
     4
100
AcDbLine
 10
2.934504101100848
 20
5.04372993744326
 30
0.0
 11
3.099504101100848
 21
5.04372993744326
 31
0.0
  0
LINE
  5
122C5
330
122C1
100
AcDbEntity
  8
0
 62
     4
100
AcDbLine
 10
3.139151296942212
 20
5.217210738467717
 30
0.0
 11
3.139151296942212
 21
4.952210738467717
 31
0.0
  0
LINE
  5
122C6
330
122C1
100
AcDbEntity
  8
0
 62
     4
100
AcDbLine
 10
3.334741160844612
 20
5.084710738467717
 30
0.0
 11
3.169741160844612
 21
4.952210738467717
 31
0.0
  0
LINE
  5
122C7
330
122C1
100
AcDbEntity
  8
0
 62
     4
100
AcDbLine
 10
3.207125388391521
 20
5.187190070892168
 30
0.0
 11
3.207125388391522
 21
4.982231406043266
 31
0.0
  0
LINE
  5
122C8
330
122C1
100
AcDbEntity
  8
0
 62
     4
100
AcDbLine
 10
3.169741160844612
 20
5.217210738467717
 30
0.0
 11
3.334741160844612
 21
5.084710738467717
 31
0.0
  0
ENDBLK
  5
122CA
330
122C1
100
AcDbEntity
  8
0
100
AcDbBlockEnd
  0
BLOCK
  5
122E3
330
122CC
100
AcDbEntity
  8
0
100
AcDbBlockBegin
  2
SP7-10
 70
     0
 10
0.0
 20
0.0
 30
0.0
  3
SP7-10
  1

  0
LINE
  5
122CD
330
122CC
100
AcDbEntity
  8
5
100
AcDbLine
 10
3.231
 20
0.307999999999998
 30
0.0
 11
3.231
 21
-2.070000000000002
 31
0.0
  0
CIRCLE
  5
122CE
330
122CC
100
AcDbEntity
  8
5
100
AcDbCircle
 10
0.0
 20
-1.762000000000002
 30
0.0
 40
0.135
  0
LINE
  5
122CF
330
122CC
100
AcDbEntity
  8
5
100
AcDbLine
 10
-0.5119999999999996
 20
0.307999999999998
 30
0.0
 11
-0.5119999999999996
 21
-2.070000000000002
 31
0.0
  0
LINE
  5
122D0
330
122CC
100
AcDbEntity
  8
5
100
AcDbLine
 10
-0.5119999999999996
 20
0.307999999999998
 30
0.0
 11
-0.5119999999999996
 21
-2.070000000000002
 31
0.0
  0
LINE
  5
122D1
330
122CC
100
AcDbEntity
  8
5
100
AcDbLine
 10
-0.5119999999999996
 20
-2.070000000000001
 30
0.0
 11
3.231
 21
-2.070000000000002
 31
0.0
  0
LWPOLYLINE
  5
122D2
330
122CC
100
AcDbEntity
  8
BDR2
100
AcDbPolyline
 90
        2
 70
     0
 43
0.0
 10
0.3078384277984334
 20
-1.955546271814079
 10
0.3078384277984334
 20
-1.955546271814079
 42
0.0984914033571719
  0
LWPOLYLINE
  5
122D3
330
122CC
100
AcDbEntity
  8
BDR2
100
AcDbPolyline
 90
        2
 70
     0
 43
0.0
 10
0.3078384277984334
 20
-1.955546271814079
 10
0.3078384277984334
 20
-1.955546271814079
 42
0.0984914033571719
  0
LWPOLYLINE
  5
122D4
330
122CC
100
AcDbEntity
  8
BDR2
100
AcDbPolyline
 90
        2
 70
     0
 43
0.0
 10
0.3078384277984334
 20
-1.955546271814079
 10
0.3078384277984334
 20
-1.955546271814079
 42
0.0984914033571719
  0
LWPOLYLINE
  5
122D5
330
122CC
100
AcDbEntity
  8
BDR2
100
AcDbPolyline
 90
        2
 70
     0
 43
0.0
 10
2.745596189352311
 20
-1.955546271814079
 10
2.745596189352311
 20
-1.955546271814079
 42
0.120151276645543
  0
LWPOLYLINE
  5
122D6
330
122CC
100
AcDbEntity
  8
BDR2
100
AcDbPolyline
 90
        2
 70
     0
 43
0.0
 10
2.745596189352311
 20
-1.955546271814079
 10
2.745596189352311
 20
-1.955546271814079
 42
0.120151276645543
  0
LWPOLYLINE
  5
122D7
330
122CC
100
AcDbEntity
  8
BDR2
100
AcDbPolyline
 90
        2
 70
     0
 43
0.0
 10
2.745596189352311
 20
-1.955546271814079
 10
2.745596189352311
 20
-1.955546271814079
 42
0.120151276645543
  0
LINE
  5
122D8
330
122CC
100
AcDbEntity
  8
5
100
AcDbLine
 10
1.2215
 20
-0.1050000000000022
 30
0.0
 11
2.8215
 21
-0.1050000000000022
 31
0.0
  0
LINE
  5
122D9
330
122CC
100
AcDbEntity
  8
5
100
AcDbLine
 10
1.2215
 20
-0.3800000000000025
 30
0.0
 11
2.8215
 21
-0.3800000000000025
 31
0.0
  0
LINE
  5
122DA
330
122CC
100
AcDbEntity
  8
5
100
AcDbLine
 10
1.2215
 20
-1.657000000000001
 30
0.0
 11
2.8215
 21
-1.657000000000001
 31
0.0
  0
LINE
  5
122DB
330
122CC
100
AcDbEntity
  8
5
100
AcDbLine
 10
1.2215
 20
-1.382000000000001
 30
0.0
 11
2.8215
 21
-1.382000000000001
 31
0.0
  0
LINE
  5
122DC
330
122CC
100
AcDbEntity
  8
5
100
AcDbLine
 10
-0.5119999999999996
 20
0.3079999999999998
 30
0.0
 11
3.231
 21
0.307999999999998
 31
0.0
  0
INSERT
  5
122DD
330
122CC
100
AcDbEntity
  8
0
100
AcDbBlockReference
  2
ATL
 10
-2.636688364170414
 20
-5.979190079003235
 30
0.0
  0
CIRCLE
  5
122DE
330
122CC
100
AcDbEntity
  8
5
100
AcDbCircle
 10
0.0
 20
0.0
 30
0.0
 40
0.135
  0
ARC
  5
122DF
330
122CC
100
AcDbEntity
  8
5
100
AcDbCircle
 10
1.2215
 20
-1.519500000000001
 30
0.0
 40
0.1375000000000005
100
AcDbArc
 50
90.0
 51
270.0
  0
ARC
  5
122E0
330
122CC
100
AcDbEntity
  8
5
100
AcDbCircle
 10
1.2215
 20
-0.2425000000000024
 30
0.0
 40
0.1375000000000005
100
AcDbArc
 50
90.0
 51
270.0
  0
ARC
  5
122E1
330
122CC
100
AcDbEntity
  8
5
100
AcDbCircle
 10
2.8215
 20
-1.5195
 30
0.0
 40
0.1374999999999996
100
AcDbArc
 50
270.0
 51
90.0
  0
ARC
  5
122E2
330
122CC
100
AcDbEntity
  8
5
100
AcDbCircle
 10
2.8215
 20
-0.2425000000000033
 30
0.0
 40
0.1374999999999996
100
AcDbArc
 50
270.0
 51
90.0
  0
ENDBLK
  5
122E4
330
122CC
100
AcDbEntity
  8
0
100
AcDbBlockEnd
  0
BLOCK
  5
12304
330
122E9
100
AcDbEntity
  8
0
100
AcDbBlockBegin
  2
A$C67061884
 70
     0
 10
0.0
 20
0.0
 30
0.0
  3
A$C67061884
  1

  0
LINE
  5
122EA
330
122E9
100
AcDbEntity
  8
BDR
100
AcDbLine
 10
18.18467821179124
 20
4.899999923583436
 30
0.0
 11
140.2816998688372
 21
4.899999923583436
 31
0.0
  0
LINE
  5
122EB
330
122E9
100
AcDbEntity
  8
BDR
100
AcDbLine
 10
9.59127736150171
 20
5.499999923583459
 30
0.0
 11
140.2816998688372
 21
5.499999923583345
 31
0.0
  0
LINE
  5
122EC
330
122E9
100
AcDbEntity
  8
BDR
100
AcDbLine
 10
9.59127736150171
 20
6.999999923583459
 30
0.0
 11
140.2816998688372
 21
6.999999923583459
 31
0.0
  0
LINE
  5
122ED
330
122E9
100
AcDbEntity
  8
BDR
100
AcDbLine
 10
9.59127736150171
 20
4.899999923583436
 30
0.0
 11
140.2816998688372
 21
4.899999923583436
 31
0.0
  0
ARC
  5
122EE
330
122E9
100
AcDbEntity
  8
BDR
100
AcDbCircle
 10
9.59127736150171
 20
-6.937000076416552
 30
0.0
 40
12.437
100
AcDbArc
 50
90.0
 51
140.4607781859427
  0
ARC
  5
122EF
330
122E9
100
AcDbEntity
  8
BDR
100
AcDbCircle
 10
9.59127736150171
 20
-6.937000076416552
 30
0.0
 40
13.937
100
AcDbArc
 50
90.0
 51
133.4868503829713
  0
ARC
  5
122F0
330
122E9
100
AcDbEntity
  8
BDR
100
AcDbCircle
 10
9.59127736150171
 20
-6.937000076416552
 30
0.0
 40
11.837
100
AcDbArc
 50
90.0
 51
144.1232387817257
  0
LINE
  5
122F1
330
122E9
100
AcDbEntity
  8
BDR
100
AcDbLine
 10
0.0000000742995496
 20
-0.0000000764165407
 30
0.0
 11
0.0000000742995496
 21
3.174744036247716
 31
0.0
  0
LINE
  5
122F2
330
122E9
100
AcDbEntity
  8
BDR
100
AcDbLine
 10
2.704500074299545
 20
4.48199992358343
 30
0.0
 11
2.704500074299545
 21
3.891999923583398
 31
0.0
  0
LINE
  5
122F3
330
122E9
100
AcDbEntity
  8
BDR
100
AcDbLine
 10
2.419500074299548
 20
4.48199992358343
 30
0.0
 11
2.419500074299548
 21
3.891999923583398
 31
0.0
  0
ARC
  5
122F4
330
122E9
100
AcDbEntity
  8
BDR
100
AcDbCircle
 10
2.562000074299533
 20
4.48199992358343
 30
0.0
 40
0.1425
100
AcDbArc
 50
0.0
 51
180.0
  0
ARC
  5
122F5
330
122E9
100
AcDbEntity
  8
BDR
100
AcDbCircle
 10
2.562000074299533
 20
3.891999923583398
 30
0.0
 40
0.1425
100
AcDbArc
 50
180.0
 51
0.0
  0
CIRCLE
  5
122F6
330
122E9
100
AcDbEntity
  8
BDR
100
AcDbCircle
 10
17.18544986883719
 20
6.1899999235834
 30
0.0
 40
0.25
  0
CIRCLE
  5
122F7
330
122E9
100
AcDbEntity
  8
BDR
100
AcDbCircle
 10
16.12544986883722
 20
6.1899999235834
 30
0.0
 40
0.136
  0
CIRCLE
  5
122F8
330
122E9
100
AcDbEntity
  8
BDR
100
AcDbCircle
 10
21.12544986883722
 20
6.1899999235834
 30
0.0
 40
0.136
  0
CIRCLE
  5
122F9
330
122E9
100
AcDbEntity
  8
BDR
100
AcDbCircle
 10
136.1254498688372
 20
6.1899999235834
 30
0.0
 40
0.136
  0
CIRCLE
  5
122FA
330
122E9
100
AcDbEntity
  8
BDR
100
AcDbCircle
 10
40.12544986883722
 20
6.1899999235834
 30
0.0
 40
0.136
  0
CIRCLE
  5
122FB
330
122E9
100
AcDbEntity
  8
BDR
100
AcDbCircle
 10
64.12544986883722
 20
6.1899999235834
 30
0.0
 40
0.136
  0
CIRCLE
  5
122FC
330
122E9
100
AcDbEntity
  8
BDR
100
AcDbCircle
 10
80.62544986883722
 20
6.1899999235834
 30
0.0
 40
0.136
  0
CIRCLE
  5
122FD
330
122E9
100
AcDbEntity
  8
BDR
100
AcDbCircle
 10
88.12544986883722
 20
6.1899999235834
 30
0.0
 40
0.136
  0
CIRCLE
  5
122FE
330
122E9
100
AcDbEntity
  8
BDR
100
AcDbCircle
 10
112.1254498688372
 20
6.1899999235834
 30
0.0
 40
0.136
  0
ARC
  5
122FF
330
122E9
100
AcDbEntity
  8
BDR
100
AcDbCircle
 10
139.2081998688372
 20
6.1899999235834
 30
0.0
 40
0.136
100
AcDbArc
 50
270.0
 51
90.0
  0
LINE
  5
12300
330
122E9
100
AcDbEntity
  8
BDR
100
AcDbLine
 10
139.2081998688372
 20
6.325999923583367
 30
0.0
 11
138.8551998688372
 21
6.325999923583367
 31
0.0
  0
LINE
  5
12301
330
122E9
100
AcDbEntity
  8
BDR
100
AcDbLine
 10
139.2081998688372
 20
6.053999923583432
 30
0.0
 11
138.8551998688372
 21
6.053999923583432
 31
0.0
  0
ARC
  5
12302
330
122E9
100
AcDbEntity
  8
BDR
100
AcDbCircle
 10
138.8551998688372
 20
6.1899999235834
 30
0.0
 40
0.136
100
AcDbArc
 50
90.0
 51
270.0
  0
LINE
  5
12303
330
122E9
100
AcDbEntity
  8
BDR
100
AcDbLine
 10
140.2816998688372
 20
6.999999923583459
 30
0.0
 11
140.2816998688372
 21
4.899999923583436
 31
0.0
  0
ENDBLK
  5
12305
330
122E9
100
AcDbEntity
  8
0
100
AcDbBlockEnd
  0
BLOCK
  5
125C5
330
125AF
100
AcDbEntity
  8
0
100
AcDbBlockBegin
  2
COMM-6-625-EBP
 70
     0
 10
0.0
 20
0.0
 30
0.0
  3
COMM-6-625-EBP
  1

  0
LINE
  5
125B0
330
125AF
100
AcDbEntity
  8
BDR
100
AcDbLine
 10
-1.986449456068953
 20
-23.51413607581674
 30
0.0
 11
-5.423949456068953
 21
-23.51413607581674
 31
0.0
  0
LINE
  5
125B1
330
125AF
100
AcDbEntity
  8
BDR
100
AcDbLine
 10
-1.986449456068953
 20
-16.88913607581674
 30
0.0
 11
-5.423949456068953
 21
-16.88913607581674
 31
0.0
  0
LINE
  5
125B2
330
125AF
100
AcDbEntity
  8
BDR
100
AcDbLine
 10
-5.423949456068953
 20
-23.51413607581674
 30
0.0
 11
-5.423949456068953
 21
-16.88913607581674
 31
0.0
  0
LINE
  5
125B3
330
125AF
100
AcDbEntity
  8
BDR
100
AcDbLine
 10
-1.986449456068953
 20
-16.88913607581674
 30
0.0
 11
-1.986449456068953
 21
-23.51413607581671
 31
0.0
  0
CIRCLE
  5
125B4
330
125AF
100
AcDbEntity
  8
BDR
100
AcDbCircle
 10
-3.705199456068953
 20
-18.32663607581674
 30
0.0
 40
0.5
  0
ARC
  5
125B5
330
125AF
100
AcDbEntity
  8
BDR
100
AcDbCircle
 10
-5.092949456068936
 20
-21.95163607581674
 30
0.0
 40
0.206
100
AcDbArc
 50
90.0
 51
270.0
  0
ARC
  5
125B6
330
125AF
100
AcDbEntity
  8
BDR
100
AcDbCircle
 10
-4.812949456068963
 20
-21.95163607581674
 30
0.0
 40
0.206
100
AcDbArc
 50
270.0
 51
90.0
  0
LINE
  5
125B7
330
125AF
100
AcDbEntity
  8
BDR
100
AcDbLine
 10
-4.812949456068963
 20
-21.74563607581675
 30
0.0
 11
-5.092949456068936
 21
-21.74563607581675
 31
0.0
  0
LINE
  5
125B8
330
125AF
100
AcDbEntity
  8
BDR
100
AcDbLine
 10
-5.092949456068936
 20
-22.15763607581672
 30
0.0
 11
-4.812949456068963
 21
-22.15763607581672
 31
0.0
  0
LINE
  5
125B9
330
125AF
100
AcDbEntity
  8
BDR
100
AcDbLine
 10
-4.812949456068963
 20
-22.74563607581672
 30
0.0
 11
-5.092949456068936
 21
-22.74563607581672
 31
0.0
  0
LINE
  5
125BA
330
125AF
100
AcDbEntity
  8
BDR
100
AcDbLine
 10
-5.092949456068936
 20
-23.1576360758167
 30
0.0
 11
-4.812949456068963
 21
-23.1576360758167
 31
0.0
  0
ARC
  5
125BB
330
125AF
100
AcDbEntity
  8
BDR
100
AcDbCircle
 10
-4.812949456068963
 20
-22.95163607581671
 30
0.0
 40
0.206
100
AcDbArc
 50
270.0
 51
90.0
  0
ARC
  5
125BC
330
125AF
100
AcDbEntity
  8
BDR
100
AcDbCircle
 10
-5.092949456068936
 20
-22.95163607581671
 30
0.0
 40
0.206
100
AcDbArc
 50
90.0
 51
270.0
  0
ARC
  5
125BD
330
125AF
100
AcDbEntity
  8
BDR
100
AcDbCircle
 10
-2.797699456068926
 20
-21.95163607581674
 30
0.0
 40
0.206
100
AcDbArc
 50
90.0
 51
270.0
  0
ARC
  5
125BE
330
125AF
100
AcDbEntity
  8
BDR
100
AcDbCircle
 10
-2.517699456068953
 20
-21.95163607581674
 30
0.0
 40
0.206
100
AcDbArc
 50
270.0
 51
90.0
  0
LINE
  5
125BF
330
125AF
100
AcDbEntity
  8
BDR
100
AcDbLine
 10
-2.797699456068926
 20
-22.15763607581672
 30
0.0
 11
-2.517699456068953
 21
-22.15763607581672
 31
0.0
  0
LINE
  5
125C0
330
125AF
100
AcDbEntity
  8
BDR
100
AcDbLine
 10
-2.517699456068953
 20
-21.74563607581675
 30
0.0
 11
-2.797699456068926
 21
-21.74563607581675
 31
0.0
  0
LINE
  5
125C1
330
125AF
100
AcDbEntity
  8
BDR
100
AcDbLine
 10
-2.517699456068953
 20
-22.74563607581672
 30
0.0
 11
-2.797699456068926
 21
-22.74563607581672
 31
0.0
  0
LINE
  5
125C2
330
125AF
100
AcDbEntity
  8
BDR
100
AcDbLine
 10
-2.797699456068926
 20
-23.1576360758167
 30
0.0
 11
-2.517699456068953
 21
-23.1576360758167
 31
0.0
  0
ARC
  5
125C3
330
125AF
100
AcDbEntity
  8
BDR
100
AcDbCircle
 10
-2.517699456068953
 20
-22.95163607581671
 30
0.0
 40
0.206
100
AcDbArc
 50
270.0
 51
90.0
  0
ARC
  5
125C4
330
125AF
100
AcDbEntity
  8
BDR
100
AcDbCircle
 10
-2.797699456068926
 20
-22.95163607581671
 30
0.0
 40
0.206
100
AcDbArc
 50
90.0
 51
270.0
  0
ENDBLK
  5
125C6
330
125AF
100
AcDbEntity
  8
0
100
AcDbBlockEnd
  0
BLOCK
  5
125EA
330
125C9
100
AcDbEntity
  8
0
100
AcDbBlockBegin
  2
LHRTR-PLLY
 70
     0
 10
0.0
 20
0.0
 30
0.0
  3
LHRTR-PLLY
  1

  0
ARC
  5
125CA
330
125C9
100
AcDbEntity
  8
0
100
AcDbCircle
 10
2.627668146904312
 20
0.0611515154051432
 30
0.0
 40
1.997174422331912
100
AcDbArc
 50
192.1630242932336
 51
339.712835917069
  0
ARC
  5
125CB
330
125C9
100
AcDbEntity
  8
0
100
AcDbCircle
 10
2.627668146904312
 20
0.0611515154051432
 30
0.0
 40
0.6167740559014879
100
AcDbArc
 50
240.729199949266
 51
291.1466602610342
  0
ARC
  5
125CC
330
125C9
100
AcDbEntity
  8
0
100
AcDbCircle
 10
2.627668146904312
 20
0.0611515154051432
 30
0.0
 40
0.6167740559014879
100
AcDbArc
 50
60.72919994928893
 51
111.1466602610092
  0
CIRCLE
  5
125CD
330
125C9
100
AcDbEntity
  8
0
 62
   255
100
AcDbCircle
 10
2.627668146904312
 20
0.0611515154051432
 30
0.0
 40
0.2276946441081283
  0
CIRCLE
  5
125CE
330
125C9
100
AcDbEntity
  8
0
100
AcDbCircle
 10
2.627668146904312
 20
-1.113656371238889
 30
0.0
 40
0.1469781192882359
  0
CIRCLE
  5
125CF
330
125C9
100
AcDbEntity
  8
0
100
AcDbCircle
 10
2.627668146904312
 20
0.0611515154051432
 30
0.0
 40
0.1762206754777646
  0
LINE
  5
125D0
330
125C9
100
AcDbEntity
  8
0
 62
   255
100
AcDbLine
 10
2.712173375645505
 20
0.0611515154051432
 30
0.0
 11
2.543162918163176
 21
0.0611515154051432
 31
0.0
  0
CIRCLE
  5
125D1
330
125C9
100
AcDbEntity
  8
0
100
AcDbCircle
 10
2.627668146904312
 20
1.235959402048379
 30
0.0
 40
0.1469781192882359
  0
ARC
  5
125D2
330
125C9
100
AcDbEntity
  8
0
100
AcDbCircle
 10
2.627668146904312
 20
0.0611515154051432
 30
0.0
 40
1.879693972013402
100
AcDbArc
 50
193.2079246749548
 51
338.6679355353465
  0
ARC
  5
125D3
330
125C9
100
AcDbEntity
  8
0
100
AcDbCircle
 10
2.627668146904312
 20
0.0611515154051432
 30
0.0
 40
1.52724923759925
100
AcDbArc
 50
197.36920296529
 51
334.5066572450154
  0
LINE
  5
125D4
330
125C9
100
AcDbEntity
  8
0
100
AcDbLine
 10
7.341048343483137
 20
-0.8497354122041116
 30
0.0
 11
-2.167960125466365
 21
-0.1570624750488747
 31
0.0
  0
LINE
  5
125D5
330
125C9
100
AcDbEntity
  8
0
100
AcDbLine
 10
-2.088901109159436
 20
0.9562015084487569
 30
0.0
 11
7.420107359790065
 21
0.26352857129352
 31
0.0
  0
ARC
  5
125D6
330
125C9
100
AcDbEntity
  8
0
100
AcDbCircle
 10
-1.530021016507916
 20
0.5337376250833899
 30
0.0
 40
0.1762206754777665
100
AcDbArc
 50
355.9379301051513
 51
175.9379301051512
  0
ARC
  5
125D7
330
125C9
100
AcDbEntity
  8
0
100
AcDbCircle
 10
-1.55498694597081
 20
0.1821816434399892
 30
0.0
 40
0.1762206754777815
100
AcDbArc
 50
175.937930105161
 51
355.9379301051513
  0
LINE
  5
125D8
330
125C9
100
AcDbEntity
  8
0
100
AcDbLine
 10
-1.379208955149167
 20
0.1696986787085137
 30
0.0
 11
-1.354243025686216
 21
0.5212546603519144
 31
0.0
  0
LINE
  5
125D9
330
125C9
100
AcDbEntity
  8
0
100
AcDbLine
 10
-1.73076493679251
 20
0.1946646081714647
 30
0.0
 11
-1.705799007329559
 21
0.5462205898148654
 31
0.0
  0
LINE
  5
125DA
330
125C9
100
AcDbEntity
  8
0
100
AcDbLine
 10
-2.167960125466365
 20
-0.1570624750488747
 30
0.0
 11
-2.088901109159436
 21
0.9562015084487569
 31
0.0
  0
LINE
  5
125DB
330
125C9
100
AcDbEntity
  8
0
100
AcDbLine
 10
-0.6445474967176637
 20
-0.2652484090625791
 30
0.0
 11
-0.5654884804107354
 21
0.8480155744343136
 31
0.0
  0
ARC
  5
125DC
330
125C9
100
AcDbEntity
  8
0
100
AcDbCircle
 10
1.610254672505419
 20
0.6485554587267331
 30
0.0
 40
0.1469781192882359
100
AcDbArc
 50
13.42933540712226
 51
158.446524803177
  0
ARC
  5
125DD
330
125C9
100
AcDbEntity
  8
0
100
AcDbCircle
 10
1.610254672505419
 20
-0.5262524279172994
 30
0.0
 40
0.1469781192882359
100
AcDbArc
 50
133.0836476128142
 51
38.79221259748791
  0
ARC
  5
125DE
330
125C9
100
AcDbEntity
  8
0
100
AcDbCircle
 10
3.64508162130474
 20
0.6485554587267331
 30
0.0
 40
0.1469781192882359
100
AcDbArc
 50
313.0836476128632
 51
218.7922125974387
  0
ARC
  5
125DF
330
125C9
100
AcDbEntity
  8
0
100
AcDbCircle
 10
3.64508162130474
 20
-0.5262524279172994
 30
0.0
 40
0.1469781192882359
100
AcDbArc
 50
193.4293354070519
 51
338.4465248032452
  0
LINE
  5
125E0
330
125C9
100
AcDbEntity
  8
0
 62
   255
100
AcDbLine
 10
2.627668146904312
 20
-0.02335371333605
 30
0.0
 11
2.627668146904312
 21
0.1456567441462795
 31
0.0
  0
ARC
  5
125E1
330
125C9
100
AcDbEntity
  8
0
100
AcDbCircle
 10
6.782168250831617
 20
-0.4272715288387446
 30
0.0
 40
0.1762206754777815
100
AcDbArc
 50
175.937930105161
 51
355.9379301051513
  0
ARC
  5
125E2
330
125C9
100
AcDbEntity
  8
0
100
AcDbCircle
 10
6.807134180294511
 20
-0.0757155471954008
 30
0.0
 40
0.1762206754777665
100
AcDbArc
 50
355.9379301051513
 51
175.9379301051512
  0
LINE
  5
125E3
330
125C9
100
AcDbEntity
  8
0
100
AcDbLine
 10
6.606390260011394
 20
-0.4147885641073259
 30
0.0
 11
6.631356189474345
 21
-0.0632325824639253
 31
0.0
  0
LINE
  5
125E4
330
125C9
100
AcDbEntity
  8
0
100
AcDbLine
 10
7.420107359790065
 20
0.26352857129352
 30
0.0
 11
7.341048343483137
 21
-0.8497354122041116
 31
0.0
  0
LINE
  5
125E5
330
125C9
100
AcDbEntity
  8
0
100
AcDbLine
 10
6.957946241654795
 20
-0.43975449357022
 30
0.0
 11
6.982912171117689
 21
-0.0881985119268762
 31
0.0
  0
LINE
  5
125E6
330
125C9
100
AcDbEntity
  8
0
100
AcDbLine
 10
5.896694731041364
 20
0.3717145053071675
 30
0.0
 11
5.817635714734436
 21
-0.7415494781896684
 31
0.0
  0
ARC
  5
125E7
330
125C9
100
AcDbEntity
  8
0
100
AcDbCircle
 10
2.627668146904312
 20
0.0611515154051432
 30
0.0
 40
1.879693972013402
100
AcDbArc
 50
13.20792467495818
 51
158.667935535343
  0
ARC
  5
125E8
330
125C9
100
AcDbEntity
  8
0
100
AcDbCircle
 10
2.627668146904312
 20
0.0611515154051432
 30
0.0
 40
1.52724923759925
100
AcDbArc
 50
17.36920296529511
 51
154.5066572450109
  0
ARC
  5
125E9
330
125C9
100
AcDbEntity
  8
0
100
AcDbCircle
 10
2.627668146904312
 20
0.0611515154051432
 30
0.0
 40
1.997174422331912
100
AcDbArc
 50
12.16302429323528
 51
159.7128359170663
  0
ENDBLK
  5
125EB
330
125C9
100
AcDbEntity
  8
0
100
AcDbBlockEnd
  0
ENDSEC
  0
SECTION
  2
ENTITIES
  0
INSERT
  5
3374
330
17
100
AcDbEntity
  8
AME_FRZ
100
AcDbBlockReference
  2
AME_NIL
 10
0.0
 20
0.0
 30
0.0
 41
24.609375
 42
24.609375
 43
24.609375
  0
INSERT
  5
3375
330
17
100
AcDbEntity
  8
AME_FRZ
100
AcDbBlockReference
  2
AME_SOL
 10
0.0
 20
0.0
 30
0.0
 41
24.609375
 42
24.609375
 43
24.609375
1001
AME_SOL
1000
R2.1
1000
AME2
1000
sq cm
1070
     3
1070
     0
1070
     3
1000
wire
1040
45.0
1000
U
1040
1.0
1000
cm
1000
gm
1000
MILD_STEEL
1070
    25
1000
CSG
1070
     1
1070
     3
1070
     3
1070
     3
1070
     0
1000
cu cm
1070
     1
1070
     0
1005
2D0D
  0
INSERT
  5
3376
330
17
100
AcDbEntity
  8
ASHADE
 62
     1
100
AcDbBlockReference
  2
AVE_RENDER
 10
0.0
 20
0.0
 30
0.0
 41
24.609375
 42
24.609375
 43
24.609375
1001
AVE_RENDER
1002
{
1070
     2
1000
Pref
1070
    30
1070
    20
1070
     0
1070
     0
1000

1070
    10
1070
     0
1070
    30
1040
1.0
1070
     1
1040
0.3
1040
0.7
1040
0.0
1040
10.0
1010
-1.0
1020
-1.0
1030
-1.0
1040
0.3
1070
    49
1002
}
  0
INSERT
  5
3377
330
17
100
AcDbEntity
  8
ASHADE
 62
     3
100
AcDbBlockReference
  2
AVE_RENDER
 10
0.0
 20
0.0
 30
0.0
 41
24.609375
 42
24.609375
 43
24.609375
1001
AVE_RENDER
1002
{
1070
     0
1000
Full Opt
1070
     0
1070
     1
1070
     1
1070
     1
1070
     0
1070
     0
1070
     0
1070
     1
1070
     1
1040
0.0001
1040
0.0001
1002
}
  0
INSERT
  5
3378
330
17
100
AcDbEntity
  8
ASHADE
 62
     4
100
AcDbBlockReference
  2
AVE_RENDER
 10
0.0
 20
0.0
 30
0.0
 41
24.609375
 42
24.609375
 43
24.609375
1001
AVE_RENDER
1002
{
1070
     0
1000
Quick Opt
1070
     0
1070
     1
1070
     1
1070
     1
1070
     0
1070
     0
1070
     1
1002
}
  0
INSERT
  5
3E3C
330
17
100
AcDbEntity
  8
AME_FRZ
100
AcDbBlockReference
  2
AME_NIL
 10
0.0
 20
0.0
 30
0.0
 41
34.993056
 42
34.993056
 43
34.993056
  0
INSERT
  5
3E3D
330
17
100
AcDbEntity
  8
AME_FRZ
100
AcDbBlockReference
  2
AME_SOL
 10
0.0
 20
0.0
 30
0.0
 41
34.993056
 42
34.993056
 43
34.993056
1001
AME_SOL
1000
R2.1
1000
AME2
1000
sq cm
1070
     3
1070
     0
1070
     3
1000
wire
1040
45.0
1000
U
1040
1.0
1000
cm
1000
gm
1000
MILD_STEEL
1070
    25
1000
CSG
1070
     1
1070
     3
1070
     3
1070
     3
1070
     0
1000
cu cm
1070
     1
1070
     0
1005
2D0D
  0
INSERT
  5
3E3E
330
17
100
AcDbEntity
  8
ASHADE
 62
     1
100
AcDbBlockReference
  2
AVE_RENDER
 10
0.0
 20
0.0
 30
0.0
 41
34.993056
 42
34.993056
 43
34.993056
1001
AVE_RENDER
1002
{
1070
     2
1000
Pref
1070
    30
1070
    20
1070
     0
1070
     0
1000

1070
    10
1070
     0
1070
    30
1040
1.0
1070
     1
1040
0.3
1040
0.7
1040
0.0
1040
10.0
1010
-1.0
1020
-1.0
1030
-1.0
1040
0.3
1070
    49
1002
}
  0
INSERT
  5
3E3F
330
17
100
AcDbEntity
  8
ASHADE
 62
     3
100
AcDbBlockReference
  2
AVE_RENDER
 10
0.0
 20
0.0
 30
0.0
 41
34.993056
 42
34.993056
 43
34.993056
1001
AVE_RENDER
1002
{
1070
     0
1000
Full Opt
1070
     0
1070
     1
1070
     1
1070
     1
1070
     0
1070
     0
1070
     0
1070
     1
1070
     1
1040
0.0001
1040
0.0001
1002
}
  0
INSERT
  5
3E40
330
17
100
AcDbEntity
  8
ASHADE
 62
     4
100
AcDbBlockReference
  2
AVE_RENDER
 10
0.0
 20
0.0
 30
0.0
 41
34.993056
 42
34.993056
 43
34.993056
1001
AVE_RENDER
1002
{
1070
     0
1000
Quick Opt
1070
     0
1070
     1
1070
     1
1070
     1
1070
     0
1070
     0
1070
     1
1002
}
  0
MTEXT
  5
405A
330
17
100
AcDbEntity
  8
BDR
100
AcDbMText
 10
353.0635595970848
 20
56.58463448330076
 30
0.0
 40
0.1
 41
37.627
 46
0.0
 71
     1
 72
     5
  1

  7
SIMPLEX
 73
     1
 44
1.0
  0
MTEXT
  5
8913
330
17
100
AcDbEntity
  8
BDR
100
AcDbMText
 10
877.3233813939555
 20
282.200335478095
 30
0.0
 40
3.0
 41
0.0
 46
0.0
 71
     4
 72
     1
  1
\A1;
 73
     1
 44
1.0
  0
MTEXT
  5
BB0D
330
17
100
AcDbEntity
  8
HATCH
 48
0.5
100
AcDbMText
 10
862.711853351133
 20
170.0626199810501
 30
0.0
 40
1.1
 41
0.0
 46
0.0
 71
     4
 72
     1
  1

 73
     1
 44
1.0
  0
MTEXT
  5
BD7C
330
17
100
AcDbEntity
  8
BDR
100
AcDbMText
 10
648.3700742151118
 20
223.690432353357
 30
0.0
 40
2.5
 41
0.0
 46
0.0
 71
     1
 72
     1
  1

 73
     1
 44
1.0
  0
MTEXT
  5
CE5A
330
17
100
AcDbEntity
  8
BDR
100
AcDbMText
 10
645.7641368582438
 20
217.5930814931963
 30
0.0
 40
2.5
 41
0.0
 46
0.0
 71
     1
 72
     1
  1

 73
     1
 44
1.0
  0
MTEXT
  5
D3E4
330
17
100
AcDbEntity
  8
0
100
AcDbMText
 10
393.5054431651311
 20
218.3654697964034
 30
0.0
 40
2.5
 41
0.0
 46
0.0
 71
     1
 72
     1
  1

 73
     1
 44
1.0
  0
MTEXT
  5
D891
330
17
100
AcDbEntity
  8
BDR
100
AcDbMText
 10
278.8170020773584
 20
330.6127380359346
 30
0.0
 40
2.5
 41
0.0
 46
0.0
 71
     1
 72
     1
  1

 73
     1
 44
1.0
  0
MTEXT
  5
D894
330
17
100
AcDbEntity
  8
BDR
100
AcDbMText
 10
282.4572809863948
 20
283.699790306357
 30
0.0
 40
2.5
 41
0.0
 46
0.0
 71
     1
 72
     1
  1

 73
     1
 44
1.0
  0
MTEXT
  5
D8BC
330
17
100
AcDbEntity
  8
BDR
100
AcDbMText
 10
280.6377852630108
 20
262.5297979250931
 30
0.0
 40
2.5
 41
0.0
 46
0.0
 71
     1
 72
     1
  1

 73
     1
 44
1.0
  0
MTEXT
  5
D8BE
330
17
100
AcDbEntity
  8
BDR
100
AcDbMText
 10
280.052229178619
 20
230.2002619872308
 30
0.0
 40
2.5
 41
0.0
 46
0.0
 71
     1
 72
     1
  1

 73
     1
 44
1.0
  0
MTEXT
  5
D8C2
330
17
100
AcDbEntity
  8
BDR
100
AcDbMText
 10
210.2931674542633
 20
331.4813092531851
 30
0.0
 40
2.5
 41
0.0
 46
0.0
 71
     9
 72
     1
  1

 73
     1
 44
1.0
  0
MTEXT
  5
DE82
330
17
100
AcDbEntity
  8
0
100
AcDbMText
 10
230.9601867147205
 20
186.4290317625283
 30
0.0
 40
3.5
 41
0.0
 46
0.0
 71
     1
 72
     1
  1

 73
     1
 44
1.0
  0
DIMENSION
  5
11CDF
330
17
100
AcDbEntity
  8
TEXT
100
AcDbDimension
  2
*D64
 10
96.60811158769222
 20
249.5362941793405
 30
0.0
 11
96.60811158769218
 21
179.6183210098273
 31
0.0
 70
   160
  1
MINIMUM\PCEILING HEIGHT
 71
     5
 42
126.4999999999999
 73
     0
 74
     0
 75
     0
  3
STANDARD
100
AcDbAlignedDimension
 13
134.2169295018095
 23
123.0362941793405
 33
0.0
 14
138.2169295018095
 24
249.5362941793405
 34
0.0
 50
90.0
100
AcDbRotatedDimension
1001
ACAD
1000
DSTYLE
1002
{
1070
    40
1040
1.0
1002
}
  0
DIMENSION
  5
11CE0
330
17
100
AcDbEntity
  8
TEXT
100
AcDbDimension
  2
*D65
 10
182.3453994860706
 20
228.0285407813773
 30
0.0
 11
182.3453994860706
 21
175.0641312125694
 31
0.0
 70
   160
  1
VERTICAL TRACK\PDOOR HEIGHT-15"
 71
     5
 42
104.9922466020367
 73
     0
 74
     0
 75
     0
  3
STANDARD
100
AcDbAlignedDimension
 13
209.4861505668555
 23
123.0362941793405
 33
0.0
 14
142.6931577217869
 24
228.0285407813773
 34
0.0
 50
90.0
100
AcDbRotatedDimension
1001
ACAD
1000
DSTYLE
1002
{
1070
    40
1040
1.0
1002
}
  0
DIMENSION
  5
11CE1
330
17
100
AcDbEntity
  8
TEXT
100
AcDbDimension
  2
*D66
 10
118.0575413775432
 20
123.0362941793405
 30
0.0
 11
118.0575413775432
 21
183.0362941793405
 31
0.0
 70
    32
  1
OPENING\PHEIGHT
 71
     5
 42
120.0
 73
     0
 74
     0
 75
     0
  3
STANDARD
100
AcDbAlignedDimension
 13
134.2169295018095
 23
243.0362941793405
 33
0.0
 14
134.2169295018095
 24
123.0362941793405
 34
0.0
 50
90.0
100
AcDbRotatedDimension
1001
ACAD
1000
DSTYLE
1002
{
1070
    40
1040
1.0
1002
}
  0
LINE
  5
11CE2
102
{ACAD_REACTORS
330
1254C
102
}
330
17
100
AcDbEntity
  8
BDR
100
AcDbLine
 10
134.2169295018095
 20
123.0362941793405
 30
0.0
 11
134.2169295018095
 21
253.5362941793405
 31
0.0
  0
LINE
  5
11CE3
102
{ACAD_REACTORS
330
1254C
102
}
330
17
100
AcDbEntity
  8
BDR
100
AcDbLine
 10
138.2169295018095
 20
123.0362941793405
 30
0.0
 11
138.2169295018095
 21
249.5362941793405
 31
0.0
  0
LINE
  5
11CE5
330
17
100
AcDbEntity
  8
BDR
100
AcDbLine
 10
221.5803211345133
 20
123.0362941793405
 30
0.0
 11
134.2169295018095
 21
123.0362941793405
 31
0.0
  0
LINE
  5
11CE7
330
17
100
AcDbEntity
  8
BDR
100
AcDbLine
 10
143.2690223512286
 20
135.9017747485227
 30
0.0
 11
145.9563921309725
 21
137.8070675453008
 31
0.0
  0
SOLID
  5
11CE8
330
17
100
AcDbEntity
  8
BDR
100
AcDbTrace
 10
143.5582067749237
 20
135.4938870567593
 30
0.0
 11
142.9798379275332
 21
136.3096624402861
 31
0.0
 12
140.8216962006481
 22
134.1666682063514
 32
0.0
 13
140.8216962006481
 23
134.1666682063514
 33
0.0
  0
MTEXT
  5
11CE9
330
17
100
AcDbEntity
  8
TEXT
100
AcDbMText
 10
149.9938929532877
 20
137.040685061373
 30
0.0
 40
1.75
 41
0.0
 46
0.0
 71
     7
 72
     1
  1
JAMB BRACKETS
  7
WEB PAGE
 73
     1
 44
1.0
  0
LINE
  5
11CEA
330
17
100
AcDbEntity
  8
TEXT
100
AcDbLine
 10
145.9563921309725
 20
137.8070675453008
 30
0.0
 11
148.9563921309725
 21
137.8070675453008
 31
0.0
  0
MTEXT
  5
11CF6
330
17
100
AcDbEntity
  8
TEXT
100
AcDbMText
 10
156.4951487037202
 20
238.1265395849636
 30
0.0
 40
1.75
 41
0.0
 46
0.0
 71
     1
 72
     1
  1
19" VERTICAL ANGLE
  7
WEB PAGE
 73
     1
 44
1.0
  0
MTEXT
  5
11CF7
330
17
100
AcDbEntity
  8
TEXT
100
AcDbMText
 10
193.1079122815468
 20
259.8977738936863
 30
0.0
 40
1.75
 41
0.0
 46
0.0
 71
     6
 72
     1
  1
LOW HEADROOM STARTER
  7
WEB PAGE
 73
     1
 44
1.0
  0
LEADER
  5
11CFD
330
17
100
AcDbEntity
  8
TEXT
100
AcDbLeader
  3
STANDARD
 73
     0
 74
     0
 75
     1
 40
3.5
 76
     3
 10
144.5821900542884
 20
247.7825178599823
 30
0.0
 10
154.3851243608356
 20
259.830742106665
 30
0.0
 10
157.3851243608356
 20
259.830742106665
 30
0.0
213
-30.35839136054324
223
2.172941992376536
233
0.0
1001
ACAD
1000
DSTYLE
1002
{
1070
    40
1040
1.0
1070
   147
1040
3.0
1002
}
  0
DIMENSION
  5
11CFE
330
17
100
AcDbEntity
  8
TEXT
100
AcDbDimension
  2
*D67
 10
118.0575413775432
 20
249.5362941793405
 30
0.0
 11
128.9325413775432
 21
261.5455709357708
 31
0.0
 70
   160
  1
MINIMUM\PHEADROOM
 71
     5
 42
6.499999999999943
 73
     0
 74
     0
 75
     0
  3
STANDARD
100
AcDbAlignedDimension
 13
134.2169295018095
 23
243.0362941793405
 33
0.0
 14
138.2169295018095
 24
249.5362941793405
 34
0.0
 50
90.0
100
AcDbRotatedDimension
1001
ACAD
1000
DSTYLE
1002
{
1070
    40
1040
1.0
1002
}
  0
LEADER
  5
11D00
330
17
100
AcDbEntity
  8
TEXT
100
AcDbLeader
  3
STANDARD
 73
     0
 40
3.5
 76
     2
 10
138.7273116326279
 20
236.8375691459479
 30
0.0
 10
155.5572429248169
 20
236.8356517692239
 30
0.0
213
-28.01915490533588
223
-1.822965986319815
233
0.0
1001
ACAD
1000
DSTYLE
1002
{
1070
    40
1040
1.0
1070
   147
1040
3.0
1002
}
  0
LEADER
  5
11D01
330
17
100
AcDbEntity
  8
TEXT
100
AcDbLeader
  3
STANDARD
 73
     0
 74
     0
 75
     1
 40
3.5
 76
     3
 10
142.1320597428489
 20
226.824399092219
 30
0.0
 10
151.0928116914895
 20
219.328051429127
 30
0.0
 10
154.0928116914895
 20
219.328051429127
 30
0.0
213
-48.64761024359063
223
59.9694878650547
233
0.0
1001
ACAD
1000
DSTYLE
1002
{
1070
    40
1040
1.0
1070
   147
1040
3.0
1002
}
  0
INSERT
  5
11D02
102
{ACAD_REACTORS
330
1254C
102
}
330
17
100
AcDbEntity
  8
BDR
100
AcDbBlockReference
  2
19-vert-angle
 10
140.2478160617325
 20
235.0495226909368
 30
0.0
 50
90.0
  0
LINE
  5
11D06
102
{ACAD_REACTORS
330
1254C
102
}
330
17
100
AcDbEntity
  8
BDR
100
AcDbLine
 10
138.2169295018095
 20
243.0362941793405
 30
0.0
 11
134.2169295018095
 21
243.0362941793405
 31
0.0
  0
MTEXT
  5
11D07
330
17
100
AcDbEntity
  8
TEXT
100
AcDbMText
 10
154.9357035338184
 20
218.3263353925519
 30
0.0
 40
1.75
 41
0.0
 46
0.0
 71
     7
 72
     1
  1
SPLICE PLATE
  7
WEB PAGE
 73
     1
 44
1.0
  0
LINE
  5
11D0E
330
17
100
AcDbEntity
  8
0
100
AcDbLine
 10
219.7429017190521
 20
243.7551367397747
 30
0.0
 11
218.2513640181228
 21
243.7551367397747
 31
0.0
  0
LINE
  5
11D0F
330
17
100
AcDbEntity
  8
0
100
AcDbLine
 10
218.2513640181228
 20
243.7551367397747
 30
0.0
 11
218.2513640181227
 21
249.5362941793406
 31
0.0
  0
LINE
  5
11D10
330
17
100
AcDbEntity
  8
0
100
AcDbLine
 10
218.375698600878
 20
243.7551367397747
 30
0.0
 11
218.3756986008776
 21
249.5362941793406
 31
0.0
  0
LINE
  5
11D12
330
17
100
AcDbEntity
  8
0
100
AcDbLine
 10
219.7429017190518
 20
243.7551367397747
 30
0.0
 11
219.7429017190521
 21
249.5362941793406
 31
0.0
  0
CIRCLE
  5
11D14
330
17
100
AcDbEntity
  8
0
100
AcDbCircle
 10
218.9971328685874
 20
244.4243962945421
 30
0.0
 40
0.2171678892550922
  0
CIRCLE
  5
11D15
330
17
100
AcDbEntity
  8
0
100
AcDbCircle
 10
218.9971328685874
 20
246.4170906629817
 30
0.0
 40
0.2171678892550922
  0
CIRCLE
  5
11D16
330
17
100
AcDbEntity
  8
0
100
AcDbCircle
 10
218.9971328685874
 20
247.4110513868801
 30
0.0
 40
0.2171678892550922
  0
CIRCLE
  5
11D17
330
17
100
AcDbEntity
  8
0
100
AcDbCircle
 10
218.9971328685874
 20
245.4183570184406
 30
0.0
 40
0.2171678892550922
  0
CIRCLE
  5
11D19
330
17
100
AcDbEntity
  8
0
100
AcDbCircle
 10
218.9971328685874
 20
248.4097850314212
 30
0.0
 40
0.2171678892550922
  0
MTEXT
  5
11D1B
330
17
100
AcDbEntity
  8
TEXT
100
AcDbMText
 10
236.8556912976636
 20
212.5056449514947
 30
0.0
 40
1.75
 41
0.0
 46
0.0
 71
     4
 72
     1
  1
BACK AND INTERMEDIATE HANGERS\PSUPPLIED BY INSTALLERS
  7
WEB PAGE
 73
     1
 44
1.0
  0
LINE
  5
11D1C
330
17
100
AcDbEntity
  8
0
100
AcDbLine
 10
271.1641205253989
 20
243.7024429778768
 30
0.0
 11
271.1641205253991
 21
249.5362941793407
 31
0.0
  0
LINE
  5
11D1D
330
17
100
AcDbEntity
  8
0
100
AcDbLine
 10
271.2884551081542
 20
243.7024429778768
 30
0.0
 11
271.2884551081536
 21
249.5362941793407
 31
0.0
  0
LINE
  5
11D1E
330
17
100
AcDbEntity
  8
0
100
AcDbLine
 10
272.655658226328
 20
243.7024429778768
 30
0.0
 11
272.6556582263283
 21
249.5362941793407
 31
0.0
  0
LEADER
  5
11D1F
330
17
100
AcDbEntity
  8
TEXT
100
AcDbLeader
  3
STANDARD
 73
     0
 74
     0
 75
     1
 40
3.5
 76
     3
 10
229.2406266935535
 20
205.8003782131698
 30
0.0
 10
233.1392832804892
 20
213.8047062668114
 30
0.0
 10
236.1392832804892
 20
213.8047062668114
 30
0.0
213
-30.73869949890218
223
37.29359984281018
233
0.0
1001
ACAD
1000
DSTYLE
1002
{
1070
    40
1040
1.0
1002
}
  0
LINE
  5
11D20
330
17
100
AcDbEntity
  8
0
100
AcDbLine
 10
272.6556582263282
 20
243.7024429778768
 30
0.0
 11
271.1641205253989
 21
243.7024429778768
 31
0.0
  0
CIRCLE
  5
11D21
330
17
100
AcDbEntity
  8
0
100
AcDbCircle
 10
271.9098893758636
 20
244.3717025326442
 30
0.0
 40
0.2075
  0
CIRCLE
  5
11D22
330
17
100
AcDbEntity
  8
0
100
AcDbCircle
 10
271.9098893758636
 20
247.3583576249821
 30
0.0
 40
0.2171678892550922
  0
CIRCLE
  5
11D23
330
17
100
AcDbEntity
  8
0
100
AcDbCircle
 10
271.9098893758636
 20
248.3570912695233
 30
0.0
 40
0.2171678892550922
  0
CIRCLE
  5
11D25
330
17
100
AcDbEntity
  8
0
100
AcDbCircle
 10
271.9098893758636
 20
245.3656632565426
 30
0.0
 40
0.2171678892550922
  0
CIRCLE
  5
11D26
330
17
100
AcDbEntity
  8
0
100
AcDbCircle
 10
271.9098893758636
 20
246.3643969010838
 30
0.0
 40
0.2171678892550922
  0
LINE
  5
11D29
102
{ACAD_REACTORS
330
1254C
102
}
330
17
100
AcDbEntity
  8
BDR
100
AcDbLine
 10
282.651584289913
 20
253.5362941793405
 30
0.0
 11
282.651584289913
 21
249.5362941793407
 31
0.0
  0
DIMENSION
  5
11EA8
330
17
100
AcDbEntity
  8
TEXT
100
AcDbDimension
  2
*D70
 10
278.5683146391924
 20
233.7811021136013
 30
0.0
 11
209.5683146391924
 21
233.7811021136013
 31
0.0
 70
    32
  1
HORIZONTAL TRACK LENGTH\P(BACKROOM: DOOR HEIGHT + 18")
 71
     5
 42
137.9999999999999
 73
     0
 74
     0
 75
     0
  3
STANDARD
100
AcDbAlignedDimension
 13
140.5683146391925
 23
228.0543646918266
 33
0.0
 14
278.5683146391924
 24
243.2143646918267
 34
0.0
100
AcDbRotatedDimension
  0
LWPOLYLINE
  5
12008
330
17
100
AcDbEntity
  8
FRAMING
100
AcDbPolyline
 90
        6
 70
     0
 43
0.0
 10
209.7076145833002
 20
203.2493053075879
 10
206.027332336122
 20
203.2493053075879
 10
206.027332336122
 20
205.7493053075879
 10
234.027332336122
 20
205.7493053075879
 10
234.027332336122
 20
203.2493053075879
 10
212.2076145833001
 20
203.2493053075879
  0
LWPOLYLINE
  5
1200A
330
17
100
AcDbEntity
  8
FRAMING
100
AcDbPolyline
 90
        2
 70
     0
 43
0.0
 10
212.2076145833001
 20
191.5170722605541
 10
223.9398476303339
 20
203.2493053075879
  0
CIRCLE
  5
1200B
330
17
100
AcDbEntity
  8
FRAMING
100
AcDbCircle
 10
210.9576145833001
 20
182.4993053075879
 30
0.0
 40
0.5
  0
CIRCLE
  5
1200C
330
17
100
AcDbEntity
  8
FRAMING
100
AcDbCircle
 10
210.9576145833001
 20
184.4993053075879
 30
0.0
 40
0.5
  0
CIRCLE
  5
1200D
330
17
100
AcDbEntity
  8
FRAMING
100
AcDbCircle
 10
210.9576145833001
 20
186.4993053075879
 30
0.0
 40
0.5
  0
CIRCLE
  5
1200E
330
17
100
AcDbEntity
  8
FRAMING
100
AcDbCircle
 10
210.9576145833001
 20
188.4993053075879
 30
0.0
 40
0.5
  0
CIRCLE
  5
1200F
330
17
100
AcDbEntity
  8
FRAMING
100
AcDbCircle
 10
210.9576145833001
 20
190.4993053075879
 30
0.0
 40
0.5
  0
CIRCLE
  5
12010
330
17
100
AcDbEntity
  8
FRAMING
100
AcDbCircle
 10
210.9576145833001
 20
192.4993053075879
 30
0.0
 40
0.5
  0
CIRCLE
  5
12011
330
17
100
AcDbEntity
  8
FRAMING
100
AcDbCircle
 10
210.9576145833001
 20
194.4993053075879
 30
0.0
 40
0.5
  0
CIRCLE
  5
12012
330
17
100
AcDbEntity
  8
FRAMING
100
AcDbCircle
 10
210.9576145833001
 20
196.4993053075879
 30
0.0
 40
0.5
  0
CIRCLE
  5
12013
330
17
100
AcDbEntity
  8
FRAMING
100
AcDbCircle
 10
210.9576145833001
 20
198.4993053075879
 30
0.0
 40
0.5
  0
CIRCLE
  5
12014
330
17
100
AcDbEntity
  8
FRAMING
100
AcDbCircle
 10
210.9576145833001
 20
200.4993053075879
 30
0.0
 40
0.5
  0
CIRCLE
  5
12015
330
17
100
AcDbEntity
  8
FRAMING
100
AcDbCircle
 10
210.9576145833001
 20
202.4993053075879
 30
0.0
 40
0.5
  0
CIRCLE
  5
12016
330
17
100
AcDbEntity
  8
FRAMING
100
AcDbCircle
 10
210.9576145833001
 20
204.4993053075879
 30
0.0
 40
0.5
  0
CIRCLE
  5
12017
330
17
100
AcDbEntity
  8
FRAMING
100
AcDbCircle
 10
210.9576145833001
 20
204.4993053075879
 30
0.0
 40
0.5
  0
CIRCLE
  5
12018
330
17
100
AcDbEntity
  8
FRAMING
100
AcDbCircle
 10
212.9576145833001
 20
204.4993053075879
 30
0.0
 40
0.5
  0
CIRCLE
  5
12019
330
17
100
AcDbEntity
  8
FRAMING
100
AcDbCircle
 10
214.9576145833001
 20
204.4993053075879
 30
0.0
 40
0.5
  0
CIRCLE
  5
1201A
330
17
100
AcDbEntity
  8
FRAMING
100
AcDbCircle
 10
216.9576145833001
 20
204.4993053075879
 30
0.0
 40
0.5
  0
CIRCLE
  5
1201B
330
17
100
AcDbEntity
  8
FRAMING
100
AcDbCircle
 10
218.9576145833001
 20
204.4993053075879
 30
0.0
 40
0.5
  0
CIRCLE
  5
1201C
330
17
100
AcDbEntity
  8
FRAMING
100
AcDbCircle
 10
220.9576145833001
 20
204.4993053075879
 30
0.0
 40
0.5
  0
CIRCLE
  5
1201D
330
17
100
AcDbEntity
  8
FRAMING
100
AcDbCircle
 10
222.9576145833001
 20
204.4993053075879
 30
0.0
 40
0.5
  0
CIRCLE
  5
1201E
330
17
100
AcDbEntity
  8
FRAMING
100
AcDbCircle
 10
224.9576145833001
 20
204.4993053075879
 30
0.0
 40
0.5
  0
CIRCLE
  5
1201F
330
17
100
AcDbEntity
  8
FRAMING
100
AcDbCircle
 10
226.9576145833001
 20
204.4993053075879
 30
0.0
 40
0.5
  0
CIRCLE
  5
12020
330
17
100
AcDbEntity
  8
FRAMING
100
AcDbCircle
 10
228.9576145833001
 20
204.4993053075879
 30
0.0
 40
0.5
  0
CIRCLE
  5
12021
330
17
100
AcDbEntity
  8
FRAMING
100
AcDbCircle
 10
230.9576145833001
 20
204.4993053075879
 30
0.0
 40
0.5
  0
CIRCLE
  5
12022
330
17
100
AcDbEntity
  8
FRAMING
100
AcDbCircle
 10
232.9576145833001
 20
204.4993053075879
 30
0.0
 40
0.5
  0
CIRCLE
  5
12023
330
17
100
AcDbEntity
  8
FRAMING
100
AcDbCircle
 10
217.0581196466885
 20
194.5998103709762
 30
0.0
 40
0.5
  0
CIRCLE
  5
12024
330
17
100
AcDbEntity
  8
FRAMING
100
AcDbCircle
 10
215.6439060843154
 20
193.1855968086031
 30
0.0
 40
0.5
  0
CIRCLE
  5
12025
330
17
100
AcDbEntity
  8
FRAMING
100
AcDbCircle
 10
214.2296925219423
 20
191.7713832462301
 30
0.0
 40
0.5
  0
CIRCLE
  5
12026
330
17
100
AcDbEntity
  8
FRAMING
100
AcDbCircle
 10
212.8154789595692
 20
190.3571696838569
 30
0.0
 40
0.5
  0
CIRCLE
  5
12028
330
17
100
AcDbEntity
  8
FRAMING
100
AcDbCircle
 10
224.129187458554
 20
201.6708781828417
 30
0.0
 40
0.5
  0
CIRCLE
  5
12029
330
17
100
AcDbEntity
  8
FRAMING
100
AcDbCircle
 10
222.7149738961809
 20
200.2566646204686
 30
0.0
 40
0.5
  0
CIRCLE
  5
1202A
330
17
100
AcDbEntity
  8
FRAMING
100
AcDbCircle
 10
221.3007603338078
 20
198.8424510580955
 30
0.0
 40
0.5
  0
CIRCLE
  5
1202B
330
17
100
AcDbEntity
  8
FRAMING
100
AcDbCircle
 10
219.8865467714347
 20
197.4282374957224
 30
0.0
 40
0.5
  0
CIRCLE
  5
1202C
330
17
100
AcDbEntity
  8
FRAMING
100
AcDbCircle
 10
218.4723332090616
 20
196.0140239333493
 30
0.0
 40
0.5
  0
CIRCLE
  5
1202D
330
17
100
AcDbEntity
  8
FRAMING
100
AcDbCircle
 10
226.9576145833001
 20
204.4993053075879
 30
0.0
 40
0.5
  0
ARC
  5
1202E
330
17
100
AcDbEntity
  8
FRAMING
100
AcDbCircle
 10
225.543401020927
 20
203.0850917452148
 30
0.0
 40
0.5
100
AcDbArc
 50
160.8266638561468
 51
19.17333614385317
  0
CIRCLE
  5
12030
330
17
100
AcDbEntity
  8
FRAMING
100
AcDbCircle
 10
208.9576145833001
 20
204.4993053075879
 30
0.0
 40
0.5
  0
CIRCLE
  5
12032
330
17
100
AcDbEntity
  8
FRAMING
100
AcDbCircle
 10
206.9576145833001
 20
204.4993053075879
 30
0.0
 40
0.5
  0
INSERT
  5
12045
330
17
100
AcDbEntity
  8
FRAMING
100
AcDbBlockReference
  2
A$C2D8E259A
 10
209.7076136624936
 20
181.7722120988298
 30
0.0
 41
-2.0
 42
2.0
 43
2.0
  0
LINE
  5
12047
330
17
100
AcDbEntity
  8
FRAMING
100
AcDbLine
 10
209.7076145833002
 20
205.4376010614693
 30
0.0
 11
212.2076145833001
 21
205.4376010614693
 31
0.0
  0
LINE
  5
12048
330
17
100
AcDbEntity
  8
FRAMING
100
AcDbLine
 10
212.2076145833001
 20
205.4376010614693
 30
0.0
 11
212.2076145833001
 21
181.4376010614694
 31
0.0
  0
LINE
  5
12049
330
17
100
AcDbEntity
  8
FRAMING
100
AcDbLine
 10
212.2076145833001
 20
181.4376010614694
 30
0.0
 11
209.7076145833002
 21
181.4376010614694
 31
0.0
  0
LINE
  5
1204A
330
17
100
AcDbEntity
  8
FRAMING
100
AcDbLine
 10
209.7076145833002
 20
181.4376010614694
 30
0.0
 11
209.7076145833002
 21
205.4376010614693
 31
0.0
  0
LINE
  5
1204B
330
17
100
AcDbEntity
  8
FRAMING
100
AcDbLine
 10
210.0005942136307
 20
181.4376010614694
 30
0.0
 11
210.0005942136307
 21
205.4376010614693
 31
0.0
  0
LWPOLYLINE
  5
1204C
330
17
100
AcDbEntity
  8
FRAMING
100
AcDbPolyline
 90
        2
 70
     0
 43
0.0
 10
227.4753815362666
 20
203.2493053075879
 10
212.2076145833001
 20
187.9815383546215
  0
DIMENSION
  5
1205D
330
17
100
AcDbEntity
  8
TEXT
100
AcDbDimension
  2
*D72
 10
223.9398476303339
 20
203.2493053075879
 30
0.0
 11
218.6147880687461
 21
201.3212509120043
 31
0.0
 70
   162
 71
     5
 42
0.7853981633974474
 73
     0
 74
     0
 75
     0
  3
STANDARD
100
AcDb2LineAngularDimension
 13
234.027332336122
 23
203.2493053075879
 33
0.0
 14
212.2076145833001
 24
203.2493053075879
 34
0.0
 15
212.2076145833001
 25
191.5170722605541
 35
0.0
 16
219.0352334951455
 26
200.4176250163657
 36
0.0
  0
TEXT
  5
12085
330
17
100
AcDbEntity
  8
SECTION JOINTS
100
AcDbText
 10
279.1104505591491
 20
226.6711822919776
 30
0.0
 40
2.0
  1
A
  7
WEB PAGE
100
AcDbText
  0
TEXT
  5
12088
330
17
100
AcDbEntity
  8
SECTION JOINTS
100
AcDbText
 10
279.1104505591491
 20
257.7291488545011
 30
0.0
 40
2.0
  1
A
  7
WEB PAGE
100
AcDbText
  0
TEXT
  5
1208F
330
17
100
AcDbEntity
  8
TEXT
100
AcDbText
 10
132.2890162013384
 20
106.5848652597535
 30
0.0
 40
3.0
  1
%%USTANDARD LIFT LOW HEADROOM TO THE REAR
  7
WEB PAGE
 72
     1
 11
183.37012651136
 21
106.5848652597535
 31
0.0
100
AcDbText
  0
SOLID
  5
12091
330
17
100
AcDbEntity
  8
SECTION JOINTS
100
AcDbTrace
 10
285.4847538440365
 20
228.1190026832902
 30
0.0
 11
282.4847538440365
 21
227.6190026832901
 31
0.0
 12
285.4847538440365
 22
227.1190026832901
 32
0.0
 13
285.4847538440365
 23
227.1190026832901
 33
0.0
1001
ACAD
1000
DSTYLE
1002
{
1070
   147
1040
1.0
1070
    77
1070
     0
1002
}
  0
LINE
  5
12092
330
17
100
AcDbEntity
  8
SECTION JOINTS
100
AcDbLine
 10
292.535112859216
 20
258.6769692458137
 30
0.0
 11
292.535112859216
 21
227.6190026832901
 31
0.0
1001
ACAD
1000
DSTYLE
1002
{
1070
   147
1040
1.0
1070
    77
1070
     0
1002
}
  0
LINE
  5
12093
330
17
100
AcDbEntity
  8
SECTION JOINTS
100
AcDbLine
 10
285.4847538440365
 20
227.6190026832901
 30
0.0
 11
292.535112859216
 21
227.6190026832901
 31
0.0
1001
ACAD
1000
DSTYLE
1002
{
1070
   147
1040
1.0
1070
    77
1070
     0
1002
}
  0
LINE
  5
12094
330
17
100
AcDbEntity
  8
SECTION JOINTS
100
AcDbLine
 10
285.4847538440365
 20
258.6769692458137
 30
0.0
 11
292.535112859216
 21
258.6769692458137
 31
0.0
1001
ACAD
1000
DSTYLE
1002
{
1070
   147
1040
1.0
1070
    77
1070
     0
1002
}
  0
SOLID
  5
12095
330
17
100
AcDbEntity
  8
SECTION JOINTS
100
AcDbTrace
 10
285.4847538440365
 20
259.1769692458137
 30
0.0
 11
282.4847538440365
 21
258.6769692458137
 31
0.0
 12
285.4847538440365
 22
258.1769692458137
 32
0.0
 13
285.4847538440365
 23
258.1769692458137
 33
0.0
1001
ACAD
1000
DSTYLE
1002
{
1070
   147
1040
1.0
1070
    77
1070
     0
1002
}
  0
TEXT
  5
12096
330
17
100
AcDbEntity
  8
TEXT
100
AcDbText
 10
219.4264334308606
 20
175.8075219091337
 30
0.0
 40
3.0
  1
%%USECTION A-A
  7
WEB PAGE
100
AcDbText
  0
TEXT
  5
12097
330
17
100
AcDbEntity
  8
TEXT
100
AcDbText
 10
207.1698781741692
 20
169.9010217216132
 30
0.0
 40
3.0
  1
%%USUPPORT HANGER DETAIL
  7
WEB PAGE
100
AcDbText
  0
INSERT
  5
1217F
330
17
100
AcDbEntity
  8
FRAMING
100
AcDbBlockReference
  2
A$C25AA01FC
 10
138.2169295018095
 20
123.0362941793405
 30
0.0
  0
INSERT
  5
1219C
330
17
100
AcDbEntity
  8
FRAMING
100
AcDbBlockReference
  2
15R-138TRK
 10
164.46313358376
 20
236.3642099971641
 30
0.0
  0
INSERT
  5
1223C
330
17
100
AcDbEntity
  8
FRAMING
100
AcDbBlockReference
  2
23-LHR-START
 10
149.1370646391924
 20
244.0543646918266
 30
0.0
  0
INSERT
  5
122E6
330
17
100
AcDbEntity
  8
FRAMING
100
AcDbBlockReference
  2
SP7-10
 10
139.3769295018095
 20
228.9401775313075
 30
0.0
  0
INSERT
  5
12306
330
17
100
AcDbEntity
  8
FRAMING
100
AcDbBlockReference
  2
A$C67061884
 10
138.2866147703552
 20
240.4893647682432
 30
0.0
  0
CIRCLE
  5
1234E
330
17
100
AcDbEntity
  8
0
100
AcDbCircle
 10
218.9971328685874
 20
249.1945705448961
 30
0.0
 40
0.2171678892550922
  0
INSERT
  5
12353
330
17
100
AcDbEntity
  8
FRAMING
100
AcDbBlockReference
  2
A$C2D8E259A
 10
209.7076136624936
 20
186.1241217894646
 30
0.0
 41
-2.0
 42
2.0
 43
2.0
  0
LINE
  5
12368
330
17
100
AcDbEntity
  8
0
100
AcDbLine
 10
179.5606800999282
 20
244.18921194129
 30
0.0
 11
179.5606800999282
 21
246.8892119412899
 31
0.0
  0
LINE
  5
12369
330
17
100
AcDbEntity
  8
0
100
AcDbLine
 10
177.1856800999282
 20
246.8892119412899
 30
0.0
 11
177.1856800999282
 21
244.18921194129
 31
0.0
  0
ARC
  5
1236A
330
17
100
AcDbEntity
  8
0
100
AcDbCircle
 10
179.3606800999282
 20
244.18921194129
 30
0.0
 40
0.2
100
AcDbArc
 50
270.0
 51
0.0
  0
CIRCLE
  5
1236B
330
17
100
AcDbEntity
  8
0
100
AcDbCircle
 10
178.4317482279229
 20
244.5055461439641
 30
0.0
 40
0.136
  0
ARC
  5
12370
330
17
100
AcDbEntity
  8
0
100
AcDbCircle
 10
177.3856800999283
 20
244.18921194129
 30
0.0
 40
0.2
100
AcDbArc
 50
180.0
 51
270.0
  0
LINE
  5
12371
330
17
100
AcDbEntity
  8
0
100
AcDbLine
 10
177.3856800999283
 20
243.9892119412899
 30
0.0
 11
179.3606800999282
 21
243.9892119412899
 31
0.0
  0
ARC
  5
12372
330
17
100
AcDbEntity
  8
0
100
AcDbCircle
 10
179.3606800999283
 20
246.8892119412899
 30
0.0
 40
0.2
100
AcDbArc
 50
0.0
 51
90.0
  0
CIRCLE
  5
12373
330
17
100
AcDbEntity
  8
0
100
AcDbCircle
 10
178.4120646391924
 20
246.6793646918266
 30
0.0
 40
0.136
  0
ARC
  5
12376
330
17
100
AcDbEntity
  8
0
100
AcDbCircle
 10
177.3856800999283
 20
246.8892119412899
 30
0.0
 40
0.2
100
AcDbArc
 50
90.0
 51
180.0
  0
LINE
  5
12377
330
17
100
AcDbEntity
  8
0
100
AcDbLine
 10
179.3606800999283
 20
247.0892119412899
 30
0.0
 11
177.3856800999283
 21
247.0892119412899
 31
0.0
  0
CIRCLE
  5
12378
330
17
100
AcDbEntity
  8
0
100
AcDbCircle
 10
202.4317482279229
 20
244.5055461439641
 30
0.0
 40
0.136
  0
LINE
  5
12379
330
17
100
AcDbEntity
  8
0
100
AcDbLine
 10
203.5606800999282
 20
244.18921194129
 30
0.0
 11
203.5606800999282
 21
246.8892119412899
 31
0.0
  0
LINE
  5
1237A
330
17
100
AcDbEntity
  8
0
100
AcDbLine
 10
201.1856800999282
 20
246.8892119412899
 30
0.0
 11
201.1856800999282
 21
244.18921194129
 31
0.0
  0
LINE
  5
1237B
330
17
100
AcDbEntity
  8
0
100
AcDbLine
 10
201.3856800999282
 20
243.9892119412899
 30
0.0
 11
203.3606800999282
 21
243.9892119412899
 31
0.0
  0
ARC
  5
1237C
330
17
100
AcDbEntity
  8
0
100
AcDbCircle
 10
201.3856800999282
 20
244.18921194129
 30
0.0
 40
0.2
100
AcDbArc
 50
180.0
 51
270.0
  0
ARC
  5
1237D
330
17
100
AcDbEntity
  8
0
100
AcDbCircle
 10
203.3606800999282
 20
244.18921194129
 30
0.0
 40
0.2
100
AcDbArc
 50
270.0
 51
0.0
  0
LINE
  5
1237E
330
17
100
AcDbEntity
  8
0
100
AcDbLine
 10
203.3606800999283
 20
247.0892119412899
 30
0.0
 11
201.3856800999282
 21
247.0892119412899
 31
0.0
  0
CIRCLE
  5
1237F
330
17
100
AcDbEntity
  8
0
100
AcDbCircle
 10
202.4120646391924
 20
246.6793646918266
 30
0.0
 40
0.136
  0
ARC
  5
12380
330
17
100
AcDbEntity
  8
0
100
AcDbCircle
 10
201.3856800999282
 20
246.8892119412899
 30
0.0
 40
0.2
100
AcDbArc
 50
90.0
 51
180.0
  0
ARC
  5
12381
330
17
100
AcDbEntity
  8
0
100
AcDbCircle
 10
203.3606800999283
 20
246.8892119412899
 30
0.0
 40
0.2
100
AcDbArc
 50
0.0
 51
90.0
  0
LINE
  5
12382
330
17
100
AcDbEntity
  8
0
100
AcDbLine
 10
225.1856800999282
 20
246.8892119412899
 30
0.0
 11
225.1856800999282
 21
244.18921194129
 31
0.0
  0
LINE
  5
12383
330
17
100
AcDbEntity
  8
0
100
AcDbLine
 10
227.5606800999282
 20
244.18921194129
 30
0.0
 11
227.5606800999282
 21
246.8892119412899
 31
0.0
  0
CIRCLE
  5
12384
330
17
100
AcDbEntity
  8
0
100
AcDbCircle
 10
226.431748227923
 20
244.5055461439641
 30
0.0
 40
0.136
  0
LINE
  5
12385
330
17
100
AcDbEntity
  8
0
100
AcDbLine
 10
225.3856800999283
 20
243.9892119412899
 30
0.0
 11
227.3606800999282
 21
243.9892119412899
 31
0.0
  0
ARC
  5
12386
330
17
100
AcDbEntity
  8
0
100
AcDbCircle
 10
225.3856800999283
 20
244.18921194129
 30
0.0
 40
0.2
100
AcDbArc
 50
180.0
 51
270.0
  0
ARC
  5
12387
330
17
100
AcDbEntity
  8
0
100
AcDbCircle
 10
227.3606800999282
 20
244.18921194129
 30
0.0
 40
0.2
100
AcDbArc
 50
270.0
 51
0.0
  0
LINE
  5
12388
330
17
100
AcDbEntity
  8
0
100
AcDbLine
 10
227.3606800999283
 20
247.0892119412899
 30
0.0
 11
225.3856800999283
 21
247.0892119412899
 31
0.0
  0
ARC
  5
12389
330
17
100
AcDbEntity
  8
0
100
AcDbCircle
 10
225.3856800999283
 20
246.8892119412899
 30
0.0
 40
0.2
100
AcDbArc
 50
90.0
 51
180.0
  0
ARC
  5
1238A
330
17
100
AcDbEntity
  8
0
100
AcDbCircle
 10
227.3606800999283
 20
246.8892119412899
 30
0.0
 40
0.2
100
AcDbArc
 50
0.0
 51
90.0
  0
CIRCLE
  5
1238B
330
17
100
AcDbEntity
  8
0
100
AcDbCircle
 10
226.4120646391924
 20
246.6793646918266
 30
0.0
 40
0.136
  0
CIRCLE
  5
1238C
330
17
100
AcDbEntity
  8
0
100
AcDbCircle
 10
250.431748227923
 20
244.5055461439641
 30
0.0
 40
0.136
  0
LINE
  5
1238D
330
17
100
AcDbEntity
  8
0
100
AcDbLine
 10
251.5606800999282
 20
244.18921194129
 30
0.0
 11
251.5606800999282
 21
246.8892119412899
 31
0.0
  0
LINE
  5
1238E
330
17
100
AcDbEntity
  8
0
100
AcDbLine
 10
249.1856800999282
 20
246.8892119412899
 30
0.0
 11
249.1856800999282
 21
244.18921194129
 31
0.0
  0
ARC
  5
1238F
330
17
100
AcDbEntity
  8
0
100
AcDbCircle
 10
251.3606800999282
 20
244.18921194129
 30
0.0
 40
0.2
100
AcDbArc
 50
270.0
 51
0.0
  0
ARC
  5
12390
330
17
100
AcDbEntity
  8
0
100
AcDbCircle
 10
249.3856800999282
 20
244.18921194129
 30
0.0
 40
0.2
100
AcDbArc
 50
180.0
 51
270.0
  0
LINE
  5
12391
330
17
100
AcDbEntity
  8
0
100
AcDbLine
 10
249.3856800999282
 20
243.9892119412899
 30
0.0
 11
251.3606800999282
 21
243.9892119412899
 31
0.0
  0
CIRCLE
  5
12392
330
17
100
AcDbEntity
  8
0
100
AcDbCircle
 10
250.4120646391924
 20
246.6793646918266
 30
0.0
 40
0.136
  0
ARC
  5
12393
330
17
100
AcDbEntity
  8
0
100
AcDbCircle
 10
251.3606800999283
 20
246.8892119412899
 30
0.0
 40
0.2
100
AcDbArc
 50
0.0
 51
90.0
  0
ARC
  5
12394
330
17
100
AcDbEntity
  8
0
100
AcDbCircle
 10
249.3856800999282
 20
246.8892119412899
 30
0.0
 40
0.2
100
AcDbArc
 50
90.0
 51
180.0
  0
LINE
  5
12395
330
17
100
AcDbEntity
  8
0
100
AcDbLine
 10
251.3606800999283
 20
247.0892119412899
 30
0.0
 11
249.3856800999282
 21
247.0892119412899
 31
0.0
  0
LINE
  5
12396
330
17
100
AcDbEntity
  8
0
100
AcDbLine
 10
273.1856800999282
 20
246.8892119412899
 30
0.0
 11
273.1856800999282
 21
244.18921194129
 31
0.0
  0
LINE
  5
12397
330
17
100
AcDbEntity
  8
0
100
AcDbLine
 10
275.5606800999282
 20
244.18921194129
 30
0.0
 11
275.5606800999282
 21
246.8892119412899
 31
0.0
  0
CIRCLE
  5
12398
330
17
100
AcDbEntity
  8
0
100
AcDbCircle
 10
274.431748227923
 20
244.5055461439641
 30
0.0
 40
0.136
  0
ARC
  5
12399
330
17
100
AcDbEntity
  8
0
100
AcDbCircle
 10
275.3606800999282
 20
244.18921194129
 30
0.0
 40
0.2
100
AcDbArc
 50
270.0
 51
0.0
  0
LINE
  5
1239A
330
17
100
AcDbEntity
  8
0
100
AcDbLine
 10
273.3856800999283
 20
243.9892119412899
 30
0.0
 11
275.3606800999282
 21
243.9892119412899
 31
0.0
  0
ARC
  5
1239B
330
17
100
AcDbEntity
  8
0
100
AcDbCircle
 10
273.3856800999283
 20
244.18921194129
 30
0.0
 40
0.2
100
AcDbArc
 50
180.0
 51
270.0
  0
ARC
  5
1239C
330
17
100
AcDbEntity
  8
0
100
AcDbCircle
 10
275.3606800999283
 20
246.8892119412899
 30
0.0
 40
0.2
100
AcDbArc
 50
0.0
 51
90.0
  0
LINE
  5
1239D
330
17
100
AcDbEntity
  8
0
100
AcDbLine
 10
275.3606800999283
 20
247.0892119412899
 30
0.0
 11
273.3856800999283
 21
247.0892119412899
 31
0.0
  0
ARC
  5
1239E
330
17
100
AcDbEntity
  8
0
100
AcDbCircle
 10
273.3856800999283
 20
246.8892119412899
 30
0.0
 40
0.2
100
AcDbArc
 50
90.0
 51
180.0
  0
CIRCLE
  5
1239F
330
17
100
AcDbEntity
  8
0
100
AcDbCircle
 10
274.4120646391924
 20
246.6793646918266
 30
0.0
 40
0.136
  0
LINE
  5
123D3
102
{ACAD_REACTORS
330
1254C
102
}
330
17
100
AcDbEntity
  8
FRAMING
100
AcDbLine
 10
138.2169295018095
 20
249.5362941793405
 30
0.0
 11
282.651584289913
 21
249.5362941793407
 31
0.0
  0
LINE
  5
123D4
102
{ACAD_REACTORS
330
1254C
102
}
330
17
100
AcDbEntity
  8
FRAMING
100
AcDbLine
 10
134.2169295018095
 20
253.5362941793405
 30
0.0
 11
282.651584289913
 21
253.5362941793405
 31
0.0
  0
HATCH
  5
1254C
330
17
100
AcDbEntity
  8
FRAMING
100
AcDbHatch
 10
0.0
 20
0.0
 30
0.0
210
0.0
220
0.0
230
1.0
  2
ANSI31
 70
     0
 71
     1
 91
        1
 92
        7
 72
     0
 73
     1
 93
        7
 10
282.651584289913
 20
253.5362941793405
 10
134.2169295018095
 20
253.5362941793405
 10
134.2169295018095
 20
243.0362941793405
 10
138.2169295018095
 20
243.0362941793405
 10
138.2169295018095
 20
245.1111775313076
 10
138.2169295018095
 20
249.5362941793405
 10
282.651584289913
 20
249.5362941793408
 97
        7
330
123D4
330
11CE2
330
11D06
330
11D02
330
11CE3
330
123D3
330
11D29
 75
     0
 76
     1
 52
0.0
 41
15.0
 77
     0
 78
     1
 53
45.0
 43
0.0
 44
0.0
 45
-1.325825214724776
 46
1.325825214724776
 79
     0
 47
0.2631911846626955
 98
        1
 10
215.2322436652517
 20
256.1569598692439
  0
TEXT
  5
1254D
330
17
100
AcDbEntity
  8
TEXT
100
AcDbText
 10
143.2583745286636
 20
100.0050853470036
 30
0.0
 40
3.0
  1
%%UBRACKET MOUNT TRACK SET DETAIL
  7
WEB PAGE
 72
     1
 11
183.37012651136
 21
100.0050853470036
 31
0.0
100
AcDbText
  0
INSERT
  5
125C7
330
17
100
AcDbEntity
  8
FRAMING
100
AcDbBlockReference
  2
COMM-6-625-EBP
 10
300.2699507150091
 20
241.6682697762675
 30
0.0
 50
270.0
  0
CIRCLE
  5
125C8
330
17
100
AcDbEntity
  8
FRAMING
100
AcDbCircle
 10
281.9433146391924
 20
245.3734692323365
 30
0.0
 40
2.375
  0
INSERT
  5
125F2
330
17
100
AcDbEntity
  8
wall
100
AcDbBlockReference
  2
LHRTR-PLLY
 10
148.9287603271099
 20
244.7327484097009
 30
0.0
  0
TEXT
  5
128B2
330
17
100
AcDbEntity
  8
TEXT
100
AcDbText
 10
225.6730046500826
 20
135.7769289407623
 30
0.0
 40
1.75
  1
6-1/2"
  7
WEB PAGE
 72
     1
 11
228.9276009009839
 21
135.7769289407623
 31
0.0
100
AcDbText
  0
TEXT
  5
128B4
330
17
100
AcDbEntity
  8
TEXT
100
AcDbText
 10
204.2713504110098
 20
135.519424946132
 30
0.0
 40
1.75
  1
13' - 18'
  7
WEB PAGE
 72
     1
 11
208.3971615141101
 21
135.519424946132
 31
0.0
100
AcDbText
  0
LINE
  5
128B5
330
17
100
AcDbEntity
  8
TEXT
100
AcDbLine
 10
198.9338660445302
 20
148.8764172572134
 30
0.0
 11
198.9338660445302
 21
131.0919780533408
 31
0.0
  0
LINE
  5
128B6
330
17
100
AcDbEntity
  8
TEXT
100
AcDbLine
 10
218.3806500230033
 20
148.8764172572134
 30
0.0
 11
218.3806500230033
 21
131.0919780533408
 31
0.0
  0
LINE
  5
128B7
330
17
100
AcDbEntity
  8
TEXT
100
AcDbLine
 10
237.6395218384718
 20
148.8764172572134
 30
0.0
 11
237.6395218384718
 21
131.0919780533408
 31
0.0
  0
LINE
  5
128BB
330
17
100
AcDbEntity
  8
TEXT
100
AcDbLine
 10
237.6395218384719
 20
134.725587854309
 30
0.0
 11
198.9338660445302
 21
134.7255878543089
 31
0.0
  0
LINE
  5
128BC
330
17
100
AcDbEntity
  8
TEXT
100
AcDbLine
 10
237.6395218384719
 20
131.0919780533408
 30
0.0
 11
198.9338660445301
 21
131.0919780533408
 31
0.0
  0
TEXT
  5
128BD
330
17
100
AcDbEntity
  8
TEXT
100
AcDbText
 10
202.7007998719666
 20
127.5011827815073
 30
0.0
 40
1.75
  1
* ADD 4" FOR OPERATOR.
  7
WEB PAGE
 72
     1
 11
218.2672202036176
 21
127.5011827815073
 31
0.0
100
AcDbText
  0
TEXT
  5
128BE
330
17
100
AcDbEntity
  8
TEXT
100
AcDbText
 10
204.4582088324727
 20
132.0135917679007
 30
0.0
 40
1.75
  1
19' - 20'
  7
WEB PAGE
 72
     1
 11
208.5840199355729
 21
132.0135917679007
 31
0.0
100
AcDbText
  0
TEXT
  5
128BF
330
17
100
AcDbEntity
  8
TEXT
100
AcDbText
 10
225.0270060920437
 20
132.1072672722687
 30
0.0
 40
1.75
  1
7-5/16"
  7
WEB PAGE
 72
     1
 11
228.9276009009839
 21
132.1072672722687
 31
0.0
100
AcDbText
  0
TEXT
  5
128C4
330
17
100
AcDbEntity
  8
TEXT
100
AcDbText
 10
220.4683566235139
 20
143.1457222727548
 30
0.0
 40
1.75
  1
HEADROOM
  7
WEB PAGE
 72
     1
 11
227.9332989450712
 21
143.1457222727548
 31
0.0
100
AcDbText
  0
MTEXT
  5
128C5
330
17
100
AcDbEntity
  8
TEXT
100
AcDbMText
 10
218.4905855681458
 20
157.88544271362
 30
0.0
 40
2.6
 41
37.3125
 46
0.0
 71
     2
 72
     5
  1
HEADROOM\PREQUIREMENTS
 73
     1
 44
1.0
  0
LINE
  5
128C6
330
17
100
AcDbEntity
  8
TEXT
100
AcDbLine
 10
198.9338660445302
 20
141.9928074562452
 30
0.0
 11
237.6395218384718
 21
141.9928074562452
 31
0.0
  0
LINE
  5
128C7
330
17
100
AcDbEntity
  8
TEXT
100
AcDbLine
 10
198.9338660445302
 20
148.8764172572134
 30
0.0
 11
237.6395218384718
 21
148.8764172572134
 31
0.0
  0
LINE
  5
128C8
330
17
100
AcDbEntity
  8
TEXT
100
AcDbLine
 10
237.6395218384719
 20
138.3591976552771
 30
0.0
 11
198.9338660445301
 21
138.3591976552771
 31
0.0
  0
LINE
  5
128C9
330
17
100
AcDbEntity
  8
TEXT
100
AcDbLine
 10
198.9338660445302
 20
159.1149417208979
 30
0.0
 11
237.6395218384718
 21
159.1149417208979
 31
0.0
  0
LINE
  5
128CA
330
17
100
AcDbEntity
  8
TEXT
100
AcDbLine
 10
198.9338660445302
 20
148.8764172572134
 30
0.0
 11
198.9338660445302
 21
159.1149417208979
 31
0.0
  0
TEXT
  5
128CB
330
17
100
AcDbEntity
  8
TEXT
100
AcDbText
 10
205.1041053651291
 20
146.1915612351267
 30
0.0
 40
1.75
  1
DOOR
  7
WEB PAGE
 72
     1
 11
208.7763295900751
 21
146.1915612351267
 31
0.0
100
AcDbText
  0
TEXT
  5
128CC
330
17
100
AcDbEntity
  8
TEXT
100
AcDbText
 10
203.9685610248263
 20
143.1457222727548
 30
0.0
 40
1.75
  1
HEIGHT
  7
WEB PAGE
 72
     1
 11
208.7763295900751
 21
143.1457222727548
 31
0.0
100
AcDbText
  0
TEXT
  5
128CD
330
17
100
AcDbEntity
  8
TEXT
100
AcDbText
 10
205.4106278005501
 20
139.3031673035626
 30
0.0
 40
1.75
  1
7' - 12'
  7
WEB PAGE
 72
     1
 11
208.8904403456114
 21
139.3031673035626
 31
0.0
100
AcDbText
  0
LINE
  5
128CE
330
17
100
AcDbEntity
  8
TEXT
100
AcDbLine
 10
237.6395218384718
 20
148.8764172572134
 30
0.0
 11
237.6395218384718
 21
159.1149417208979
 31
0.0
  0
TEXT
  5
128CF
330
17
100
AcDbEntity
  8
TEXT
100
AcDbText
 10
225.6730046500826
 20
139.3031673035626
 30
0.0
 40
1.75
  1
6-1/2"
  7
WEB PAGE
 72
     1
 11
228.9276009009839
 21
139.3031673035626
 31
0.0
100
AcDbText
  0
TEXT
  5
128D0
330
17
100
AcDbEntity
  8
TEXT
100
AcDbText
 10
221.7603537395917
 20
146.1915612351267
 30
0.0
 40
1.75
  1
MINIMUM
  7
WEB PAGE
 72
     1
 11
227.9332989450712
 21
146.1915612351267
 31
0.0
100
AcDbText
  0
VIEWPORT
  5
C943
330
14
100
AcDbEntity
 67
     1
  8
0
100
AcDbViewport
 10
4.092615641960835
 20
5.291790845218167
 30
0.0
 40
23.36004736603278
 41
15.12450852855088
 68
     1
 69
     1
 12
4.092615641960835
 22
5.291790845218167
 13
0.0
 23
0.0
 14
0.5
 24
0.5
 15
0.5
 25
0.5
 16
0.0
 26
0.0
 36
1.0
 17
0.0
 27
0.0
 37
0.0
 42
50.0
 43
0.0
 44
0.0
 45
15.12450852855088
 50
0.0
 51
0.0
 72
   100
 90
    32800
  1

281
     0
 71
     1
 74
     0
110
0.0
120
0.0
130
0.0
111
1.0
121
0.0
131
0.0
112
0.0
122
1.0
132
0.0
 79
     0
146
0.0
170
     0
 61
     5
348
131E6
292
     1
282
     1
141
0.0
142
0.0
 63
   250
421
  3355443
  0
VIEWPORT
  5
131C8
330
14
100
AcDbEntity
 67
     1
  8
Defpoints
100
AcDbViewport
 10
4.101204452496525
 20
4.890190561035878
 30
0.0
 40
7.601912602205188
 41
9.153716179745694
 68
     2
 69
     2
 12
189.5445633979421
 22
181.6364698455251
 13
0.0
 23
0.0
 14
1.0
 24
1.0
 15
0.25
 25
0.25
 16
0.0
 26
0.0
 36
1.0
 17
0.0
 27
0.0
 37
0.0
 42
50.0
 43
0.0
 44
0.0
 45
252.1980842015217
 50
0.0
 51
0.0
 72
   100
 90
    32768
  1

281
     0
 71
     1
 74
     0
110
0.0
120
0.0
130
0.0
111
1.0
121
0.0
131
0.0
112
0.0
122
1.0
132
0.0
 79
     0
146
0.0
170
     0
 61
     5
348
131E6
292
     1
282
     1
141
0.0
142
0.0
 63
   250
421
  3355443
  0
ENDSEC
  0
SECTION
  2
OBJECTS
  0
DICTIONARY
  5
C
330
0
100
AcDbDictionary
281
     1
  3
ACAD_COLOR
350
131F1
  3
ACAD_GROUP
350
D
  3
ACAD_LAYOUT
350
B57A
  3
ACAD_MATERIAL
350
131DC
  3
ACAD_MLINESTYLE
350
1A
  3
ACAD_PLOTSETTINGS
350
B57B
  3
ACAD_PLOTSTYLENAME
350
B578
  3
ACAD_TABLESTYLE
350
131F2
  3
ACAD_VISUALSTYLE
350
131E0
  3
AcadDim
350
119E2
  3
ACDBVARIABLEDICTIONARY
350
59
  0
DICTIONARY
  5
13203
330
8
100
AcDbDictionary
280
     1
281
     1
  0
DICTIONARY
  5
131FD
330
2
100
AcDbDictionary
280
     1
281
     1
  3
ACAD_LAYERSTATES
360
131FE
  0
DICTIONARY
  5
131F1
102
{ACAD_REACTORS
330
C
102
}
330
C
100
AcDbDictionary
281
     1
  0
DICTIONARY
  5
D
102
{ACAD_REACTORS
330
C
102
}
330
C
100
AcDbDictionary
281
     1
  0
DICTIONARY
  5
B57A
102
{ACAD_REACTORS
330
C
102
}
330
C
100
AcDbDictionary
281
     1
  3
Layout1
350
B57D
  3
Model
350
B57C
  0
DICTIONARY
  5
131DC
102
{ACAD_REACTORS
330
C
102
}
330
C
100
AcDbDictionary
281
     1
  3
ByBlock
350
131DE
  3
ByLayer
350
131DD
  3
Global
350
131DF
  0
DICTIONARY
  5
1A
102
{ACAD_REACTORS
330
C
102
}
330
C
100
AcDbDictionary
281
     1
  3
STANDARD
350
1B
  0
DICTIONARY
  5
B57B
102
{ACAD_REACTORS
330
C
102
}
330
C
100
AcDbDictionary
281
     1
  0
ACDBDICTIONARYWDFLT
  5
B578
102
{ACAD_REACTORS
330
C
102
}
330
C
100
AcDbDictionary
281
     1
  3
Normal
350
B579
100
AcDbDictionaryWithDefault
340
B579
  0
DICTIONARY
  5
131F2
102
{ACAD_REACTORS
330
C
102
}
330
C
100
AcDbDictionary
281
     1
  3
Standard
350
131F3
  0
DICTIONARY
  5
131E0
102
{ACAD_REACTORS
330
C
102
}
330
C
100
AcDbDictionary
281
     1
  3
2dWireframe
350
131E6
  3
3D Hidden
350
131E8
  3
3dWireframe
350
131E7
  3
Basic
350
131E5
  3
Brighten
350
131EC
  3
ColorChange
350
131F0
  3
Conceptual
350
131E9
  3
Dim
350
131EB
  3
Facepattern
350
131EF
  3
Flat
350
131E1
  3
FlatWithEdges
350
131E2
  3
Gouraud
350
131E3
  3
GouraudWithEdges
350
131E4
  3
Linepattern
350
131EE
  3
Realistic
350
131EA
  3
Thicken
350
131ED
  0
XRECORD
  5
119E2
102
{ACAD_REACTORS
330
C
102
}
330
C
100
AcDbXrecord
280
     1
 90
   990106
  3

 60
     0
 61
     0
 62
     1
 63
     3
 64
     0
 65
     0
 66
     0
 67
     3
 68
     1
 69
     0
 70
     0
 71
     0
 72
     0
 40
0.0
170
     0
340
0
  0
DICTIONARY
  5
59
102
{ACAD_REACTORS
330
C
102
}
330
C
100
AcDbDictionary
281
     1
  3
CTABLESTYLE
350
131F9
  3
DIMADEC
350
5A
  3
SORTENTS
350
769A
  0
DICTIONARY
  5
131FE
102
{ACAD_REACTORS
330
131FD
102
}
330
131FD
100
AcDbDictionary
281
     1
  0
LAYOUT
  5
B57D
102
{ACAD_XDICTIONARY
360
13200
102
}
102
{ACAD_REACTORS
330
B57A
102
}
330
B57A
100
AcDbPlotSettings
  1

  2
Acrobat PDFWriter
  4
Letter
  6

 40
7.143749713897705
 41
7.143756389617919
 42
7.14373779296875
 43
7.14373779296875
 44
215.8999938964844
 45
279.3999938964844
 46
0.254
 47
0.508
 48
0.0
 49
0.0
140
0.0
141
0.0
142
1.0
143
1.0
 70
   692
 72
     0
 73
     0
 74
     1
  7

 75
    16
147
1.0
 76
     0
 77
     2
 78
   300
148
-3.96306609548217
149
-4.284743497285657
100
AcDbLayout
  1
Layout1
 70
     1
 71
     1
 10
-0.166666657905879
 20
-0.1666669958219753
 11
8.333333101798229
 21
10.83333276388213
 12
0.0
 22
0.0
 32
0.0
 14
0.1937503661670532
 24
0.1527350114429975
 34
0.0
 15
7.991598299980698
 25
10.43127322095946
 35
0.0
146
0.0
 13
0.0
 23
0.0
 33
0.0
 16
1.0
 26
0.0
 36
0.0
 17
0.0
 27
1.0
 37
0.0
 76
     0
330
14
331
C943
  0
LAYOUT
  5
B57C
102
{ACAD_REACTORS
330
B57A
102
}
330
B57A
100
AcDbPlotSettings
  1

  2
PMKT1 Marketing HP-8100DN Laser
  4
Letter
  6

 40
4.233333110809326
 41
4.233341693878173
 42
4.233322143554687
 43
4.23333740234375
 44
215.8999938964844
 45
279.3999938964844
 46
0.0
 47
2.285999999999999
 48
139.3684830884462
 49
213.5442578355003
140
281.5818113799604
141
346.2220205485337
142
1.0
143
20.14153243016985
 70
 11956
 72
     0
 73
     1
 74
     1
  7

 75
     0
147
0.0496486552583312
 76
     0
 77
     2
 78
   300
148
-2198.551447751736
149
-2524.509173524725
100
AcDbLayout
  1
Model
 70
     1
 71
     0
 10
0.0
 20
0.0
 11
12.0
 21
9.0
 12
0.0
 22
0.0
 32
0.0
 14
0.0
 24
0.0
 34
0.0
 15
0.0
 25
0.0
 35
0.0
146
0.0
 13
0.0
 23
0.0
 33
0.0
 16
1.0
 26
0.0
 36
0.0
 17
0.0
 27
1.0
 37
0.0
 76
     0
330
17
331
12935
  0
MATERIAL
  5
131DE
102
{ACAD_REACTORS
330
131DC
102
}
330
131DC
100
AcDbMaterial
  1
ByBlock
  0
MATERIAL
  5
131DD
102
{ACAD_REACTORS
330
131DC
102
}
330
131DC
100
AcDbMaterial
  1
ByLayer
  0
MATERIAL
  5
131DF
102
{ACAD_REACTORS
330
131DC
102
}
330
131DC
100
AcDbMaterial
  1
Global
  0
MLINESTYLE
  5
1B
102
{ACAD_REACTORS
330
1A
102
}
330
1A
100
AcDbMlineStyle
  2
STANDARD
 70
     0
  3

 62
   256
 51
90.0
 52
90.0
 71
     2
 49
0.5
 62
   256
  6
BYLAYER
 49
-0.5
 62
   256
  6
BYLAYER
  0
ACDBPLACEHOLDER
  5
B579
102
{ACAD_REACTORS
330
B578
102
}
330
B578
  0
TABLESTYLE
  5
131F3
102
{ACAD_REACTORS
330
131F2
102
}
330
131F2
100
AcDbTableStyle
  3
Standard
 70
     0
 71
     0
 40
0.06
 41
0.06
280
     0
281
     0
  7
STANDARD
140
0.18
170
     2
 62
     0
 63
     7
283
     0
 90
      512
 91
        0
  1

274
    -2
284
     1
 64
     0
275
    -2
285
     1
 65
     0
276
    -2
286
     1
 66
     0
277
    -2
287
     1
 67
     0
278
    -2
288
     1
 68
     0
279
    -2
289
     1
 69
     0
  7
STANDARD
140
0.25
170
     5
 62
     0
 63
     7
283
     0
 90
      512
 91
        0
  1

274
    -2
284
     1
 64
     0
275
    -2
285
     1
 65
     0
276
    -2
286
     1
 66
     0
277
    -2
287
     1
 67
     0
278
    -2
288
     1
 68
     0
279
    -2
289
     1
 69
     0
  7
STANDARD
140
0.18
170
     5
 62
     0
 63
     7
283
     0
 90
      512
 91
        0
  1

274
    -2
284
     1
 64
     0
275
    -2
285
     1
 65
     0
276
    -2
286
     1
 66
     0
277
    -2
287
     1
 67
     0
278
    -2
288
     1
 68
     0
279
    -2
289
     1
 69
     0
  0
VISUALSTYLE
  5
131E6
102
{ACAD_REACTORS
330
131E0
102
}
330
131E0
100
AcDbVisualStyle
  2
2dWireframe
 70
     4
 71
     0
 72
     2
 73
     0
 90
        0
 40
-0.6
 41
-30.0
 62
     5
 63
     7
421
 16777215
 74
     1
 91
        4
 64
     7
 65
   257
 75
     1
175
     1
 42
1.0
 92
        0
 66
   257
 43
1.0
 76
     1
 77
     6
 78
     2
 67
     7
 79
     5
170
     0
171
     0
290
     0
174
     0
 93
        1
 44
0.0
173
     0
291
     0
 45
0.0
  0
VISUALSTYLE
  5
131E8
102
{ACAD_REACTORS
330
131E0
102
}
330
131E0
100
AcDbVisualStyle
  2
3D Hidden
 70
     6
 71
     1
 72
     2
 73
     2
 90
        0
 40
-0.6
 41
-30.0
 62
     5
 63
     7
421
 16777215
 74
     2
 91
        2
 64
     7
 65
   257
 75
     2
175
     1
 42
40.0
 92
        0
 66
   257
 43
1.0
 76
     1
 77
     6
 78
     2
 67
     7
 79
     3
170
     0
171
     0
290
     0
174
     0
 93
        1
 44
0.0
173
     0
291
     0
 45
0.0
  0
VISUALSTYLE
  5
131E7
102
{ACAD_REACTORS
330
131E0
102
}
330
131E0
100
AcDbVisualStyle
  2
3dWireframe
 70
     5
 71
     0
 72
     2
 73
     0
 90
        0
 40
-0.6
 41
-30.0
 62
     5
 63
     7
421
 16777215
 74
     1
 91
        4
 64
     7
 65
   257
 75
     1
175
     1
 42
1.0
 92
        0
 66
   257
 43
1.0
 76
     1
 77
     6
 78
     2
 67
     7
 79
     5
170
     0
171
     0
290
     0
174
     0
 93
        1
 44
0.0
173
     0
291
     0
 45
0.0
  0
VISUALSTYLE
  5
131E5
102
{ACAD_REACTORS
330
131E0
102
}
330
131E0
100
AcDbVisualStyle
  2
Basic
 70
     7
 71
     1
 72
     0
 73
     1
 90
        0
 40
-0.6
 41
-30.0
 62
     5
 63
     7
421
 16777215
 74
     0
 91
        4
 64
     7
 65
   257
 75
     1
175
     1
 42
1.0
 92
        8
 66
     7
 43
1.0
 76
     1
 77
     6
 78
     2
 67
     7
 79
     5
170
     0
171
     0
290
     0
174
     0
 93
        1
 44
0.0
173
     0
291
     1
 45
0.0
  0
VISUALSTYLE
  5
131EC
102
{ACAD_REACTORS
330
131E0
102
}
330
131E0
100
AcDbVisualStyle
  2
Brighten
 70
    12
 71
     2
 72
     2
 73
     0
 90
        0
 40
-0.6
 41
-30.0
 62
     5
 63
     7
421
 16777215
 74
     1
 91
        4
 64
     7
 65
   257
 75
     1
175
     1
 42
1.0
 92
        8
 66
     7
 43
1.0
 76
     1
 77
     6
 78
     2
 67
     7
 79
     5
170
     0
171
     0
290
     0
174
     0
 93
        1
 44
50.0
173
     0
291
     1
 45
0.0
  0
VISUALSTYLE
  5
131F0
102
{ACAD_REACTORS
330
131E0
102
}
330
131E0
100
AcDbVisualStyle
  2
ColorChange
 70
    16
 71
     2
 72
     2
 73
     3
 90
        0
 40
-0.6
 41
-30.0
 62
     5
 63
     8
421
  8421504
 74
     1
 91
        4
 64
     7
 65
   257
 75
     1
175
     1
 42
1.0
 92
        8
 66
     8
424
  8421504
 43
1.0
 76
     1
 77
     6
 78
     2
 67
     7
 79
     5
170
     0
171
     0
290
     0
174
     0
 93
        1
 44
0.0
173
     0
291
     1
 45
0.0
  0
VISUALSTYLE
  5
131E9
102
{ACAD_REACTORS
330
131E0
102
}
330
131E0
100
AcDbVisualStyle
  2
Conceptual
 70
     9
 71
     3
 72
     2
 73
     0
 90
        0
 40
-0.6
 41
-30.0
 62
     5
 63
     7
421
 16777215
 74
     2
 91
        2
 64
     7
 65
   257
 75
     1
175
     1
 42
40.0
 92
        8
 66
     7
 43
1.0
 76
     1
 77
     6
 78
     2
 67
     7
 79
     3
170
     0
171
     0
290
     0
174
     0
 93
        1
 44
0.0
173
     0
291
     0
 45
0.0
  0
VISUALSTYLE
  5
131EB
102
{ACAD_REACTORS
330
131E0
102
}
330
131E0
100
AcDbVisualStyle
  2
Dim
 70
    11
 71
     2
 72
     2
 73
     0
 90
        0
 40
-0.6
 41
-30.0
 62
     5
 63
     7
421
 16777215
 74
     1
 91
        4
 64
     7
 65
   257
 75
     1
175
     1
 42
1.0
 92
        8
 66
     7
 43
1.0
 76
     1
 77
     6
 78
     2
 67
     7
 79
     5
170
     0
171
     0
290
     0
174
     0
 93
        1
 44
-50.0
173
     0
291
     1
 45
0.0
  0
VISUALSTYLE
  5
131EF
102
{ACAD_REACTORS
330
131E0
102
}
330
131E0
100
AcDbVisualStyle
  2
Facepattern
 70
    15
 71
     2
 72
     2
 73
     0
 90
        0
 40
-0.6
 41
-30.0
 62
     5
 63
     7
421
 16777215
 74
     1
 91
        4
 64
     7
 65
   257
 75
     1
175
     1
 42
1.0
 92
        8
 66
     7
 43
1.0
 76
     1
 77
     6
 78
     2
 67
     7
 79
     5
170
     0
171
     0
290
     0
174
     0
 93
        1
 44
0.0
173
     0
291
     1
 45
0.0
  0
VISUALSTYLE
  5
131E1
102
{ACAD_REACTORS
330
131E0
102
}
330
131E0
100
AcDbVisualStyle
  2
Flat
 70
     0
 71
     2
 72
     1
 73
     1
 90
        2
 40
-0.6
 41
30.0
 62
     5
 63
     7
421
 16777215
 74
     0
 91
        4
 64
     7
 65
   257
 75
     1
175
     1
 42
1.0
 92
        8
 66
     7
 43
1.0
 76
     1
 77
     6
 78
     2
 67
     7
 79
     5
170
     0
171
     0
290
     0
174
     0
 93
       13
 44
0.0
173
     0
291
     1
 45
0.0
  0
VISUALSTYLE
  5
131E2
102
{ACAD_REACTORS
330
131E0
102
}
330
131E0
100
AcDbVisualStyle
  2
FlatWithEdges
 70
     1
 71
     2
 72
     1
 73
     1
 90
        2
 40
-0.6
 41
30.0
 62
     5
 63
     7
421
 16777215
 74
     1
 91
        4
 64
     7
 65
   257
 75
     1
175
     1
 42
1.0
 92
        0
 66
   257
 43
1.0
 76
     1
 77
     6
 78
     2
 67
     7
 79
     5
170
     0
171
     0
290
     0
174
     0
 93
       13
 44
0.0
173
     0
291
     1
 45
0.0
  0
VISUALSTYLE
  5
131E3
102
{ACAD_REACTORS
330
131E0
102
}
330
131E0
100
AcDbVisualStyle
  2
Gouraud
 70
     2
 71
     2
 72
     2
 73
     1
 90
        2
 40
-0.6
 41
30.0
 62
     5
 63
     7
421
 16777215
 74
     0
 91
        4
 64
     7
 65
   257
 75
     1
175
     1
 42
1.0
 92
        0
 66
     7
 43
1.0
 76
     1
 77
     6
 78
     2
 67
     7
 79
     5
170
     0
171
     0
290
     0
174
     0
 93
       13
 44
0.0
173
     0
291
     1
 45
0.0
  0
VISUALSTYLE
  5
131E4
102
{ACAD_REACTORS
330
131E0
102
}
330
131E0
100
AcDbVisualStyle
  2
GouraudWithEdges
 70
     3
 71
     2
 72
     2
 73
     1
 90
        2
 40
-0.6
 41
30.0
 62
     5
 63
     7
421
 16777215
 74
     1
 91
        4
 64
     7
 65
   257
 75
     1
175
     1
 42
1.0
 92
        0
 66
   257
 43
1.0
 76
     1
 77
     6
 78
     2
 67
     7
 79
     5
170
     0
171
     0
290
     0
174
     0
 93
       13
 44
0.0
173
     0
291
     1
 45
0.0
  0
VISUALSTYLE
  5
131EE
102
{ACAD_REACTORS
330
131E0
102
}
330
131E0
100
AcDbVisualStyle
  2
Linepattern
 70
    14
 71
     2
 72
     2
 73
     0
 90
        0
 40
-0.6
 41
-30.0
 62
     5
 63
     7
421
 16777215
 74
     1
 91
        4
 64
     7
 65
   257
 75
     7
175
     7
 42
1.0
 92
        8
 66
     7
 43
1.0
 76
     1
 77
     6
 78
     2
 67
     7
 79
     5
170
     0
171
     0
290
     0
174
     0
 93
        1
 44
0.0
173
     0
291
     1
 45
0.0
  0
VISUALSTYLE
  5
131EA
102
{ACAD_REACTORS
330
131E0
102
}
330
131E0
100
AcDbVisualStyle
  2
Realistic
 70
     8
 71
     2
 72
     2
 73
     0
 90
        0
 40
-0.6
 41
-30.0
 62
     5
 63
     7
421
 16777215
 74
     1
 91
        0
 64
     7
 65
   257
 75
     1
175
     1
 42
1.0
 92
        8
 66
     8
424
  7895160
 43
1.0
 76
     1
 77
     6
 78
     2
 67
     7
 79
     5
170
     0
171
     0
290
     0
174
     0
 93
       13
 44
0.0
173
     0
291
     0
 45
0.0
  0
VISUALSTYLE
  5
131ED
102
{ACAD_REACTORS
330
131E0
102
}
330
131E0
100
AcDbVisualStyle
  2
Thicken
 70
    13
 71
     2
 72
     2
 73
     0
 90
        0
 40
-0.6
 41
-30.0
 62
     5
 63
     7
421
 16777215
 74
     1
 91
        4
 64
     7
 65
   257
 75
     1
175
     1
 42
1.0
 92
       12
 66
     7
 43
1.0
 76
     1
 77
     6
 78
     2
 67
     7
 79
     5
170
     0
171
     0
290
     0
174
     0
 93
        1
 44
0.0
173
     0
291
     1
 45
0.0
  0
DICTIONARYVAR
  5
131F9
102
{ACAD_REACTORS
330
59
102
}
330
59
100
DictionaryVariables
280
     0
  1
STANDARD
  0
DICTIONARYVAR
  5
5A
102
{ACAD_REACTORS
330
59
102
}
330
59
100
DictionaryVariables
280
     0
  1
0
  0
DICTIONARYVAR
  5
769A
102
{ACAD_REACTORS
330
59
102
}
330
59
100
DictionaryVariables
280
     0
  1
96
  0
DICTIONARY
  5
13200
330
B57D
100
AcDbDictionary
280
     1
281
     1
  3
ADSK_XREC_LAYOUTTHUMBNAIL
360
13201
  0
XRECORD
  5
13201
102
{ACAD_REACTORS
330
13200
102
}
330
13200
100
AcDbXrecord
280
     1
310
280000006B0000008C0000000100080000000000103B0000000000000000000000010000000000000000000000000000FFFFFF000000000000000000000000000000000000000000000000000000000000000000330000006600000099000000CC000000FF00000000330000333300006633000099330000CC330000FF3300
310
0000660000336600006666000099660000CC660000FF66000000990000339900006699000099990000CC990000FF99000000CC000033CC000066CC000099CC0000CCCC0000FFCC000000FF000033FF000066FF000099FF0000CCFF0000FFFF000000003300330033006600330099003300CC003300FF003300003333003333
310
33006633330099333300CC333300FF33330000663300336633006666330099663300CC663300FF66330000993300339933006699330099993300CC993300FF99330000CC330033CC330066CC330099CC3300CCCC3300FFCC330000FF330033FF330066FF330099FF3300CCFF3300FFFF330000006600330066006600660099
310
006600CC006600FF00660000336600333366006633660099336600CC336600FF33660000666600336666006666660099666600CC666600FF66660000996600339966006699660099996600CC996600FF99660000CC660033CC660066CC660099CC6600CCCC6600FFCC660000FF660033FF660066FF660099FF6600CCFF6600
310
FFFF660000009900330099006600990099009900CC009900FF00990000339900333399006633990099339900CC339900FF33990000669900336699006666990099669900CC669900FF66990000999900339999006699990099999900CC999900FF99990000CC990033CC990066CC990099CC9900CCCC9900FFCC990000FF99
310
0033FF990066FF990099FF9900CCFF9900FFFF99000000CC003300CC006600CC009900CC00CC00CC00FF00CC000033CC003333CC006633CC009933CC00CC33CC00FF33CC000066CC003366CC006666CC009966CC00CC66CC00FF66CC000099CC003399CC006699CC009999CC00CC99CC00FF99CC0000CCCC0033CCCC0066CC
310
CC0099CCCC00CCCCCC00FFCCCC0000FFCC0033FFCC0066FFCC0099FFCC00CCFFCC00FFFFCC000000FF003300FF006600FF009900FF00CC00FF00FF00FF000033FF003333FF006633FF009933FF00CC33FF00FF33FF000066FF003366FF006666FF009966FF00CC66FF00FF66FF000099FF003399FF006699FF009999FF00CC
310
99FF00FF99FF0000CCFF0033CCFF0066CCFF0099CCFF00CCCCFF00FFCCFF0000FFFF0033FFFF0066FFFF0099FFFF00CCFFFF00FFFFFF00000000000D0D0D001A1A1A00282828003535350043434300505050005D5D5D006B6B6B00787878008686860093939300A1A1A100AEAEAE00BBBBBB00C9C9C900D6D6D600E4E4E400
310
F1F1F100FFFFFF0000000000000000000000000000000000000000000000000000000000000000000000000000000000EFEFEFF5F5F5F5F5F5F5F5F5F5F5F5F5F5F5F5F5F5F5F5F5F5F5F5F5F5F5F5F5F5F5F5F5F5F5F5F5F5F5F5F5F5F5F5F5F5F5F5F5F5F5F5F5F5F5F5F5F5F5F5F5F5F5F5F5F5F5F5F5F5F5F5F5F5F5F5
310
F5F5F5F5F5F5F5F5F5F5F5F5F5F5F5F5F5F5F5F5F5F5F5F5F5F5F5F5FFEFF5F5F5F5F5F5F5F5F5F5F5F5F5F5F5F5F5F5F5F5F5F5F5F5F5F5F5F5F5F5F5F5F5F5F5F5F5F5F5F5F5F5F5F5F5F5F5F5F5F5F5F5F5F5F5F5F5F5F5F5F5F5F5F5F5F5F5F5F5F5F5F5F5F5F5F5F5F5F5F5F5F5F5F5F5F5F5F5F5F5F5F5F5F5F5F5F5
310
F5F5F5F5F5F5F5F5F500EFF5E2E2E2E2E2E2E2E2E2E2E2E2E2E2E2E2E2E2E2E2E2E2E2E2E2E2E2E2E2E2E2E2E2E2E2E2E2E2E2E2E2E2E2E2E2E2E2E2E2E2E2E2E2E2E2E2E2E2E2E2E2E2E2E2E2E2E2E2E2E2E2E2E2E2E2E2E2E2E2E2E2E2E2E2E2E2E2E2E2E2E2E2E2E2E2E2E2E2E2E2E2E2E2E2E2FFEFF5E2E2E2E2E2E2E2
310
E2E2E2E2E2E2E2E2E2E2E2E2E2E2E2E2E2E2E2E2E2E2E2E2E2E2E2E2E2E2E2E2E2E2E2E2E2E2E2E2E2E2E2E2E2E2E2E2E2E2E2E2E2E2E2E2E2E2E2E2E2E2E2E2E2E2E2E2E2E2E2E2E2E2E2E2E2E2E2E2E2E2E2E2E2E2E2E2E2E2E2E2E2E2E2E2E2E200EFF5E2E2F5F5F5F5F5F5F5F5F5E2E2E2E2E2E2E2E2E2F5F5F5F5F5F5
310
F5F5F5F5F5F5F5F5F5F5E2E2E2E2E2E2E2E2E2F5F5F5F5F5F5F5F5F5F5F5F5F5F5F5F5E2E2E2E2E2E2E2E2E2F5F5F5F5F5F5F5F5F5F5F5F5F5F5F5F5E2E2E2E2E2E2E2E2E2F5F5F5F5F5F5F5F5E2E2FFEFF5E2E2F5E2E2E2E2E2E2E2E2E2E2E2E2E2E2E2E2E2E2E2E2E2E2E2E2E2E2E2E2E2E2E2E2E2E2E2E2E2E2E2E2E2E2
310
E2E2E2E2E2E2E2E2E2E2E2E2E2E2E2E2E2E2E2E2E2E2E2E2E2E2E2E2E2E2E2E2E2E2E2E2E2E2E2E2E2E2E2E2E2E2E2E2E2E2E2E2E2E2E2E2E2F5E2E200EFF5E2E2F5E2F5F5F5F5F5F5F5F5F5F5F5F5F5F5F5F5F5F5F5F5F5F5F5F5F5F5F5F5F5F5F5F5F5F5F5F5F5F5F5F5F5F5F5F5F5F5F5F5F5F5F5F5F5F5F5F5F5F5F5F5
310
F5F5F5F5F5F5F5F5F5F5F5F5F5F5F5F5F5F5F5F5F5F5F5F5F5F5F5F5F5F5F5F5F5F5F5F5E2E2F5E2E2FFEFF5E2E2F5E2F5E2E2E2E2E2E2E2E2E2E2E2E2E2E2E2E2E2E2E2E2E2E2E2E2E2E2E2E2E2E2E2E2E2E2E2E2E2E2E2E2E2E2E2E2E2E2E2E2E2E2E2E2E2E2E2E2E2E2E2E2E2E2E2E2E2E2E2E2E2E2E2E2E2E2E2E2E2E2
310
E2E2E2E2E2E2E2E2E2E2E2E2E2E2E2E2F5E2E2F5E2E200EFF5E2E2F5E2F5E2E2E2E2E2E2E2E2E2E2E2E2E2E2E2E2E2E2E2E2E2E2E2E2E2E2E2E2E2E2E2E2E2E2E2E2E2E2E2E2E2E2E2E2E2E2E2E2E2E2E2E2E2E2E2E2E2E2E2E2E2E2E2E2E2E2E2E2E2E2E2E2E2E2E2E2E2E2E2E2E2E2E2E2E2E2E2E2E2E2E2E2E2E2F5E2E2
310
F5E2E2FFEFF5E2E2F5E2F5E2E2E2E2E2E2E2E2E2E2E2E2E2E2E2E2E2E2E2E2E2E2E2E2E2E2E2E2E2E2E2E2E2E2E2E2E2E2E2E2E2E2E2E2E2E2E2E2E2E2E2E2E2E2E2E2E2E2E2E2E2E2E2E2E2E2E2E2E2E2E2E2E2E2E2E2E2E2E2E2E2E2E2E2E2E2E2E2E2E2E2E2E2E2F5E2E2F5E2E20EEFF5E2E2F5E2F5E2E2E2E2E2E2E2E2
310
E2E2E2E2E2E2E2E2E2E2E2E2E2E2E2E2E2E2E2E2E2E2E2E2E2E2E2E2E2E2E2E2E2E2E2E2E2E2E2E2E2E2E2E2E2E2E2E2E2E2E2E2E2E2E2E2E2E2E2E2E2E2E2E2E2E2E2E2E2E2E2E2E2E2E2E2E2E2E2E2E2E2E2E2E2E2F5E2E2F5E2E200EFF5E2E2F5E2F5E2E2E2E2E2E2E2E2E2E2E2E2E2E2E2E2E2E2E2E2E2E2E2E2E2E2E2
310
E2E2E2E2E2E2E2E2E2E2E2E2E2E2E2E2E2E2E2E2E2E2E2E2E2E2E2E2E2E2E2E2E2E2E2E2E2E2E2E2E2E2E2E2E2E2E2E2E2E2E2E2E2E2E2E2E2E2E2E2E2E2E2E2E2E2E2F5E2E2F5E2E200EFF5E2E2F5E2F5E2E2E2E2E2E2E2E2E2E2E2E2E2E2E2E2E2E2E2E2E2E2E2E2E2E2E2E2E2E2E2E2E2E2E2E2E2E2E2E2E2E2E2E2E2E2
310
E2E2E2E2E2E2E2E2E2E2E2E2E2E2E2E2E2E2E2E2E2E2E2E2E2E2E2E2E2E2E2E2E2E2E2E2E2E2E2E2E2E2E2E2E2E2E2E2F5E2E2F5E2E233EFF5E2E2E2E2F5E2E2E2E2E2E2E2E2E2E2E2E2E2E2E2E2E2E2E2E2E2E2E2E2E2E2E2E2E2E2E2E2E2E2E2E2E2E2E2E2E2E2E2E2E2E2E2E2E2E2E2E2E2E2E2E2E2E2E2E2E2E2E2E2E2
310
E2E2E2E2E2E2E2E2E2E2E2E2E2E2E2E2E2E2E2E2E2E2E2E2E2E2E2E2E2F5E2E2E2E2E20EEFF5E2E2E2E2F5E2E2E2E2E2E2E2E2E2E2E2E2E2E2E2E2E2E2E2E2E2E2E2E2E2E2E2E2E2E2E2E2E2E2E2E2E2E2E2E2E2E2E2E2E2E2E2E2E2E2E2E2E2E2E2E2E2E2E2E2E2E2E2E2E2E2E2E2E2E2E2E2E2E2E2E2E2E2E2E2E2E2E2E2
310
E2E2E2E2E2E2E2E2E2E2F5E2E2E2E2E200EFF5E2E2E2E2F5E2E2E2E2E2E2E2E2E2E2E2E2E2E2E2E2E2E2E2E2E2E2E2E2E2E2E2E2E2E2E2E2E2E2E2E2E2E2E2E2E2E2E2E2E2E2E2E2E2E2E2E2E2E2E2E2E2E2E2E2E2E2E2E2E2E2E2E2E2E2E2E2E2E2E2E2E2E2E2E2E2E2E2E2E2E2E2E2E2E2E2E2E2E2F5E2E2E2E2E200EFF5
310
E2E2E2E2F5E2E2E2E2E2E2E2E2E2E2E2E2E2E2E2E2E2E2E2E2E2E2E2E2E2E2E2E2E2E2E2E2E2E2E2E2E2E2E2E2E2E2E2E2E2E2E2E2E2E2E2E2E2E2E2E2E2E2E2E2E2E2E2E2E2E2E2E2E2E2E2E2E2E2E2E2E2E2E2E2E2E2E2E2E2E2E2E2E2E2E2E2E2E2F5E2E2E2E2E233EFF5E2E2E2E2F5E2E2E2E2E2E2E2E2E2E2E2E2E2E2
310
E2E2E2E2E2E2E2E2E2E2E2E2E2E2E2E2E2E2E2E2E2E2E2E2E2E2E2E2E2E2E2E2E2E2E2E2E2E2E2E2E2E2E2E2E2E2E2E2E2E2E2E2E2E2E2E2E2E2E2E2E2E2E2E2E2E2E2E2E2E2E2E2E2E2E2E2E2E2E2E2F5E2E2E2E2E20EEFF5E2E2E2E2F5E2E2E2E2E2E2E2E2E2E2E2E2E2E2E2E2E2E2E2E2E2E2E2E2E2E2E2E2E2E2E2E2E2
310
E2E2E2E2E2E2E2E2E2E2E2E2E2E2E2E2E2E2E2E2E2E2E2E2E2E2E2E2E2E2E2E2E2E2E2E2E2E2E2E2E2E2E2E2E2E2E2E2E2E2E2E2E2E2E2E2E2E2E2E2E2F5E2E2E2E2E200EFF5E2E2E2E2F5E2E2E2E2E2E2E2E2E2E2E2E2E2E2E2E2E2E2E2E2E2E2E2E2E2E2E2E2E2E2E2E2E2E2E2E2E2E2E2E2E2E2E2E2E2E2E2E2E2E2E2E2
310
E2E2E2E2E2E2E2E2E2E2E2E2E2E2E2E2E2E2E2E2E2E2E2E2E2E2E2E2E2E2E2E2E2E2E2E2E2E2E2E2E2E2F5E2E2E2E2E200EFF5E2E2E2E2F5E2E2E2E2E2E2E2E2E2E2E2E2E2E2E2E2E2E2E2E2E2E2E2E2E2E2E2E2E2E2E2E2E2E2E2E2E2E2E2E2E2E2E2E2E2E2E2E2E2E2E2E2E2E2E2E2E2E2E2E2E2E2E2E2E2E2E2E2E2E2E2
310
E2E2E2E2E2E2E2E2E2E2E2E2E2E2E2E2E2E2E2E2E2E2E2F5E2E2E2E2E233EFF5E2E2E2E2F5E2E2E2E2E2E2E2E2E2E2E2E2E2E2E2E2E2E2E2E2E2E2E2E2E2E2E2E2E2E2E2E2E2E2E2E2E2E2E2E2E2E2E2E2E2E2E2E2E2E2E2E2E2E2E2E2E2E2E2E2E2E2E2E2E2E2E2E2E2E2E2E2E2E2E2E2E2E2E2E2E2E2E2E2E2E2E2E2E2E2
310
E2E2E2E2F5E2E2E2E2E20EEFF5E2E2F5E2F5E2E2E2E2E2E2E2E2E2E2E2E2E2E2E2E2E2E2E2E2E2E2E2E2E2E2E2E2E2E2E2E2E2E2E2E2E2E2E2E2E2E2E2E2E2E2E2E2E2E2E2E2E2E2E2E2E2E2E2E2E2E2E2E2E2E2E2E2E2E2E2E2E2E2E2E2E2E2E2E2E2E2E2E2E2E2E2E2E2E2E2E2E2E2F5E2E2F5E2E200EFF5E2E2F5E2F5E2
310
E2E2E2E2E2E2E2E2E2E2E2E2E2E2E2E2E2E2E2E2E2E2E2E2E2E2E2E2E2E2E2E2E2E2E2E2E2E2E2E2E2E2E2E2E2E2E2E2E2E2E2E2E2E2E2E2E2E2E2E2E2E2E2E2E2E2E2E2E2E2E2E2E2E2E2E2E2E2E2E2E2E2E2E2E2E2E2E2E2E2E2E2E2F5E2E2F5E2E200EFF5E2E2F5E2F5E2E2E2E2E2E2E2E2E2E2E2E2E2E2E2E2E2E2E2E2
310
E2E2E2E2E2E2E2E2E2E2E2E2E2E2E2E2E2E2E2E2E2E2E2E2E2E2E2E2E2E2E2E2E2E2E2E2E2E2E2E2E2E2E2E2E2E2E2E2E2E2E2E2E2E2E2E2E2E2E2E2E2E2E2E2E2E2E2E2E2E2E2E2E2E2F5E2E2F5E2E233EFF5E2E2F5E2F5E2E2E2E2E2E2E2E2E2E2E2E2E2E2E2E2E2E2E2E2E2E2E2E2E2E2E2E2E2E2E2E2E2E2E2E2E2E2E2
310
E2E2E2E2E2E2E2E2E2E2E2E2E2E2E2E2E2E2E2E2E2E2E2E2E2E2E2E2E2E2E2E2E2E2E2E2E2E2E2E2E2E2E2E2E2E2E2E2E2E2E2E2E2E2E2F5E2E2F5E2E20EEFF5E2E2F5E2F5E2E2E2E2E2E2E2E2E2E2E2E2E2E2E2E2E2E2E2E2E2E2E2E2E2F5F5F5F5F5F5F5F5F5F5F5F5F5F5F5F5F5F5F5F5F5F5F5F5F5F5F5F5F5F5F5F5F5
310
F5F5F5F5F5E2E2E2E2E2E2E2E2E2E2E2E2E2E2E2E2E2E2E2E2E2E2E2E2E2E2E2E2E2E2E2F5E2E2F5E2E200EFF5E2E2F5E2F5E2E2E2E2E2E2E2E2E2E2E2E2E2E2E2E2E2E2E2E2E2E2E2E2E2F5F5F5F5F5F5F5F5F5F5F5F5F5F5F5F5F5F5F5F5F5F5F5F5F5F5F5F5F5F5F5F5F5F5F5F5F5E2E2E2E2E2E2E2E2E2E2E2E2E2E2E2
310
E2E2E2E2E2E2E2E2E2E2E2E2E2E2E2E2E2F5E2E2F5E2E200EFF5E2E2F5E2F5E2E2E2E2E2E2E2E2E2E2E2E2E2E2E2E2E2E2E2E2E2E2E2E2E2F5F5F5F5F5F5F5F5F5F5F5F5F5F5F5F5F5F5F5F5F5F5F5F5F5F5F5F5F5F5F5F5F5F5F5F5F5E2E2E2E2E2E2E2E2E2E2E2E2E2E2E2E2E2E2E2E2E2E2E2E2E2E2E2E2E2E2E2E2F5E2
310
E2F5E2E27EEFF5E2E2F5E2F5E2E2E2E2E2E2E2E2E2E2E2E2E2E2E2E2E2E2E2E2F5F5F5F5F5F5F5F5F5F5F5F5F5F5F5F5F5F5F5F5F5F5F5F5F5F5F5F5F5F5F5F5F5F5F5F5F5F5F5F5F5F5F5F5F5F5F5F5E2E2E2E2E2E2E2E2E2E2E2E2E2E2E2E2E2E2E2E2E2E2E2E2E2E2F5E2E2F5E2E200EFF5E2E2F5E2F5E2E2E2E2E2E2E2
310
E2E2E2E2E2E2E2E2E2E2E2E2E2F5F5F5F5F5F5F5F5F5F5F5F5F5F5F5F5F5F5F5F5F5F5F5F5F5F5F5F5F5F5F5F5F5F5F5F5F5F5F5F5F5F5F5F5F5F5F5E2E2E2E2E2E2E2E2E2E2E2E2E2E2E2E2E2E2E2E2E2E2E2E2E2E2E2F5E2E2F5E2E2CDEFF5E2E2F5E2F5E2E2E2E2E2E2E2E2E2E2E2E2E2E2E2E2E2E2E2E2F5F5F5F5F5F5
310
F5F5F5F5F5F5F5F5F5F5F5F5F5F5F5F5F5F5F5F5F5F5F5F5F5F5F5F5F5F5F5F5F5F5F5F5F5F5F5F5F5E2E2E2E2E2E2E2E2E2E2E2E2E2E2E2E2E2E2E2E2E2E2E2E2E2E2E2F5E2E2F5E2E200EFF5E2E2F5E2F5E2E2E2E2E2E2E2E2E2E2E2E2E2E2E2E2E2E2E2E2E2E2E2E2E2E2E2E2E2E2E2E2E2E2E2E2E2E2E2E2E2E2E2E2E2
310
E2E2E2E2E2E2E2E2E2E2E2E2E2E2E2E2E2E2E2E2E2E2E2E2E2E2E2E2E2E2E2E2E2E2E2E2E2E2E2E2E2E2E2E2E2E2E2E2E2F5E2E2F5E2E2CDEFF5E2E2F5E2F5E2E2E2E2E2E2E2E2E2E2E2E2E2E2E2E2E2E2E2E2E2E2E2E2E2E2E2E2E2E2E2E2E2E2E2E2E2E2E2E2E2E2E2E2E2E2E2E2E2E2E2E2E2E2E2E2E2E2E2E2E2E2E2E2
310
E2E2E2E2E2E2E2E2E2E2E2E2E2E2E2E2E2E2E2E2E2E2E2E2E2E2E2E2E2E2F5E2E2F5E2E200EFF5E2E2F5E2F5E2E2E2E2E2E2E2E2E2E2E2E2E2E2E2E2E2E2E2E2E2E2E2E2E2E2E2E2E2E2E2E2E2E2E2E2E2E2E2E2E2E2E2E2E2E2E2E2E2E2E2E2E2E2E2E2E2E2E2E2E2E2E2E2E2E2E2E2E2E2E2E2E2E2E2E2E2E2E2E2E2E2E2
310
E2E2E2E2E2E2E2E2E2E2E2F5E2E2F5E2E2CDEFF5E2E2F5E2F5E2E2E2E2E2E2E2E2E2E2E2E2E2E2E2E2E2E2E2E2E2E2E2E2E2E2E2E2E2E2E2E2E2E2E2E2E2E2E2E2E2E2E2E2E2E2E2E2E2E2E2E2E2E2E2E2E2E2E2E2E2E2E2E2E2E2E2E2E2E2E2E2E2E2E2E2E2E2E2E2E2E2E2E2E2E2E2E2E2E2E2E2E2E2F5E2E2F5E2E200EF
310
F5E2E2F5E2F5E2E2E2E2E2E2E2E2E2E2E2E2E2E2E2E2E2E2E2E2E2E2E2E2E2E2E2E2E2E2E2E2E2E2E2E2E2E2E2E2E2E2E2E2E2E2E2E2E2E2E2E2E2E2E2E2E2E2E2E2E2E2E2E2E2E2E2E2E2E2E2E2E2E2E2E2E2E2E2E2E2E2E2E2E2E2E2E2E2E2E2E2E2E2F5E2E2F5E2E2CDEFF5E2E2F5E2F5E2E2E2E2F5F5F5F5F5F5F5F5F5
310
F5F5F5F5F5F5F5F5F5F5F5F5F5F5F5F5F5F5F5F5F5F5F5F5F5F5F5F5F5F5F5F5F5F5F5F5F5F5F5F5F5F5F5F5F5F5F5F5F5E2E2E2E2E2E2E2E2E2E2E2E2E2E2E2E2E2E2E2E2E2E2E2E2E2E2E2E2E2E2E2E2F5E2E2F5E2E200EFF5E2E2F5E2F5E2E2E2E2F5E2E2E2E2E2E2E2E2E2F5E2E2E2E2E2E2F5E2F5F5F5E2E2E2E2E2E2
310
E2E2E2E2E2E2E2E2E2E2E2F5E2E2E2E2E2E2E2E2E2E2E2E2E2E2E2E2E2E2E2E2E2E2E2E2E2E2E2E2E2E2E2E2E2E2E2E2E2E2E2E2E2E2E2E2E2E2E2E2E2E2F5E2E2F5E2E2CDEFF5E2E2E2E2F5E2E2E2E2F5E2E2E2E2E2E2E2E2E2F5E2E2E2E2E2E2F5E2F5F5F5E2E2E2E2E2E2E2E2E2E2E2E2E2E2E2E2E2F5E2E2E2E2E2E2E2
310
E2F5F5F5F5F5F5F5F5F5F5F5F5F5F5F5E2E2E2E2E2E2E2E2E2E2E2E2E2E2E2E2E2E2E2E2E2E2E2E2E2E2E2F5E2E2E2E2E200EFF5E2E2E2E2F5E2E2E2E2F5E2E2E2E2E2E2E2E2E2F5E2E2E2E2E2E2F5E2F5F5F5E2E2E2E2E2E2E2E2E2E2E2E2E2E2E2E2E2F5E2E2E2E2E2E2E2E2E2E2E2E2E2E2E2E2E2E2E2E2E2E2E2E2E2E2
310
E2E2E2E2E2E2E2E2E2E2E2E2E2E2E2E2E2E2E2E2E2E2E2E2F5E2E2E2E2E2CDEFF5E2E2E2E2F5E2E2E2E2F5E2E2E2E2E2E2E2E2E2F5E2E2E2E2E2E2F5E2F5F5F5E2E2E2E2E2E2E2E2E2E2E2E2E2E2E2E2E2F5E2E2E2E2E2E2E2F5F5F5F5F5F5F5F5F5F5F5F5F5F5F5F5F5F5E2E2E2E2E2E2E2E2E2E2E2E2E2E2E2E2E2E2E2E2
310
E2E2E2E2E2F5E2E2E2E2E200EFF5E2E2E2E2F5E2E2E2E2F5E2E2E2E2E2E2E2E2E2F5E2E2E2E2E2E2F5E2F5F5F5E2E2E2E2E2E2E2E2E2E2E2E2E2E2E2E2E2F5E2E2E2E2E2E2E2F5F5F5F5F5F5F5F5F5F5F5F5F5F5F5F5F5F5E2E2E2E2E2E2E2E2E2E2E2E2E2E2E2E2E2E2E2E2E2E2E2E2E2F5E2E2E2E2E2CDEFF5E2E2E2E2F5
310
E2E2E2E2F5E2E2E2E2E2E2E2E2E2F5E2E2E2E2E2E2F5E2F5F5F5F5E2F5F5F5F5F5F5F5F5F5F5E2E2E2E2E2F5E2E2E2E2E2E2E2F5E2F5F5F5F5E2E2E2F5E2E2F5F5F5E2E2F5E2E2E2E2E2E2E2E2E2E2E2E2E2E2E2E2E2E2E2E2E2E2E2E2E2F5E2E2E2E2E200EFF5E2E2E2E2F5E2E2E2E2F5E2E2E2E2E2E2E2E2E2F5E2E2E2E2
310
E2E2F5E2F5F5F5F5F5F5F5F5F5F5F5F5F5F5F5E2E2E2E2E2F5E2E2E2E2E2E2E2F5F5F5F5F5F5F5F5F5F5F5F5F5F5F5F5F5F5E2E2E2E2E2E2E2E2E2E2E2E2E2E2E2E2E2E2E2E2E2E2E2E2E2F5E2E2E2E2E2CDEFF5E2E2E2E2F5E2E2E2E2F5E2E2E2E2E2E2E2E2E2F5E2E2E2E2E2E2F5E2F5F5F5E2E2E2E2E2E2E2E2E2E2E2E2
310
E2E2E2E2E2F5E2E2E2E2E2E2E2F5E2E2F5F5F5E2E2E2F5E2E2F5F5F5E2E2F5E2E2E2E2E2E2E2E2E2E2E2E2E2E2E2E2E2E2E2E2E2E2E2E2E2F5E2E2E2E2E200EFF5E2E2E2E2F5E2E2E2E2F5E2E2E2E2E2E2E2E2E2F5E2E2E2E2E2E2F5E2F5F5F5E2E2E2E2E2E2E2E2E2E2E2E2E2E2E2E2E2F5E2E2E2E2E2E2E2F5F5F5F5F5F5
310
F5F5F5F5F5F5F5F5F5F5F5F5E2E2E2E2E2E2E2E2E2E2E2E2E2E2E2E2E2E2E2E2E2E2E2E2E2F5E2E2E2E2E2CDEFF5E2E2E2E2F5E2E2E2E2F5E2E2E2E2E2E2E2E2E2F5E2E2E2E2E2E2F5E2F5F5F5E2E2E2E2E2E2E2E2E2E2E2E2E2E2E2E2E2F5E2E2E2E2E2E2E2F5E2E2F5F5F5E2E2E2F5F5F5F5F5F5F5E2F5E2E2E2E2E2E2E2
310
E2E2E2E2E2E2E2E2E2E2E2E2E2E2E2E2E2E2F5E2E2E2E2E200EFF5E2E2F5E2F5E2E2E2E2F5E2E2E2E2E2E2E2E2E2F5E2E2E2E2E2E2F5E2F5F5F5E2E2E2E2E2E2E2E2E2E2E2E2E2E2E2E2E2F5E2E2E2E2E2E2E2F5E2E2F5F5F5E2E2E2F5F5F5F5F5F5F5E2F5E2E2E2E2E2E2E2E2E2E2E2E2E2E2E2E2E2E2E2E2E2E2E2E2E2F5
310
E2E2F5E2E2CDEFF5E2E2F5E2F5E2E2E2E2F5E2E2E2E2E2E2E2E2E2F5E2E2E2E2E2E2F5E2F5F5F5E2E2E2E2E2E2E2E2E2E2E2E2E2E2E2E2E2F5E2E2E2E2E2E2E2F5F5F5F5F5F5F5F5F5F5F5F5F5F5F5F5F5F5E2E2E2E2E2E2E2E2E2E2E2E2E2E2E2E2E2E2E2E2E2E2E2E2E2F5E2E2F5E2E200EFF5E2E2F5E2F5E2E2E2E2F5E2
310
E2E2E2E2E2E2E2E2F5E2E2E2E2E2E2F5E2F5F5F5E2E2E2E2E2E2E2E2E2E2E2E2E2E2E2E2E2F5E2E2E2E2E2E2E2F5E2F5F5F5F5F5F5F5F5F5F5F5F5F5E2E2F5E2E2E2E2E2E2E2E2E2E2E2E2E2E2E2E2E2E2E2E2E2E2E2E2E2F5E2E2F5E2E2CDEFF5E2E2F5E2F5E2E2E2E2F5E2E2E2E2E2E2E2E2E2F5E2E2E2E2E2E2F5E2F5F5
310
F5E2E2E2E2E2E2E2E2E2E2E2E2E2E2E2E2E2F5E2E2E2E2E2E2E2F5E2E2E2F5F5F5F5F5F5F5F5F5F5E2E2E2F5E2E2E2E2E2E2E2E2E2E2E2E2E2E2E2E2E2E2E2E2E2E2E2E2E2F5E2E2F5E2E200EFF5E2E2F5E2F5E2E2E2E2F5E2E2E2E2E2E2E2E2E2F5E2E2E2E2E2E2F5E2F5F5F5E2E2E2E2E2E2E2E2E2E2E2E2E2E2E2E2E2F5
310
E2E2E2E2E2E2E2F5E2E2E2F5F5F5F5F5F5F5F5F5F5E2E2E2F5E2E2E2E2E2E2E2E2E2E2E2E2E2E2E2E2E2E2E2E2E2E2E2E2E2F5E2E2F5E2E2CDEFF5E2E2F5E2F5E2E2E2E2F5E2E2E2E2E2E2E2E2E2F5E2E2E2E2E2E2F5E2F5F5F5E2E2E2E2E2E2E2E2E2E2E2E2E2E2E2E2E2F5E2E2E2E2E2E2E2F5F5F5F5F5F5F5F5F5F5F5F5
310
F5F5F5F5F5F5E2E2E2E2E2E2E2E2E2E2E2E2E2E2E2E2E2E2E2E2E2E2E2E2E2F5E2E2F5E2E200EFF5E2E2F5E2F5E2E2E2E2F5E2E2E2E2E2E2E2E2E2F5E2E2E2E2E2E2F5E2F5F5F5E2E2E2E2E2E2E2E2E2E2E2E2E2E2E2E2E2F5E2E2E2E2E2E2E2E2E2E2E2E2E2E2E2E2E2E2E2E2E2E2E2E2E2E2E2E2E2E2E2E2E2E2E2E2E2E2
310
E2E2E2E2E2E2E2E2E2E2E2E2F5E2E2F5E2E2CDEFF5E2E2F5E2F5E2E2E2E2F5E2E2E2E2E2E2E2E2E2F5E2E2E2E2E2E2F5E2F5F5F5E2E2E2E2E2E2E2E2E2E2E2E2E2E2E2E2E2F5E2E2E2E2E2E2E2E2E2E2E2E2E2E2E2E2E2E2E2E2E2E2E2E2E2E2E2E2E2E2E2E2E2E2E2E2E2E2E2E2E2E2E2E2E2E2E2E2E2E2F5E2E2F5E2E200
310
EFF5E2E2F5E2F5E2E2E2E2F5E2E2E2E2E2E2E2E2E2F5E2E2E2E2E2E2F5E2F5F5F5E2E2E2E2E2E2E2E2E2E2E2E2E2E2E2E2E2F5E2E2E2E2E2E2E2E2E2E2E2E2E2E2E2E2E2E2E2E2E2E2E2E2E2E2E2E2E2E2E2E2E2E2E2E2E2E2E2E2E2E2E2E2E2E2E2E2E2E2F5E2E2F5E2E2CDEFF5E2E2F5E2F5E2E2E2E2F5E2E2E2E2E2E2E2
310
E2E2F5E2E2E2E2E2E2F5E2F5F5F5E2E2E2E2E2E2E2E2E2E2E2E2E2E2E2E2E2F5E2E2E2E2E2E2E2E2E2E2E2E2E2E2E2E2E2E2E2E2E2E2E2E2E2E2E2E2E2E2E2E2E2E2E2E2E2E2E2E2E2E2E2E2E2E2E2E2E2E2F5E2E2F5E2E200EFF5E2E2F5E2F5E2E2E2E2F5E2E2E2E2E2E2E2E2E2F5E2E2E2E2E2E2F5E2F5F5F5E2E2E2E2E2
310
E2E2E2E2E2E2E2E2E2E2E2E2F5E2E2E2E2E2E2E2E2E2E2E2F5F5F5F5F5F5F5F5F5F5F5F5F5F5F5F5F5F5F5F5F5F5F5F5F5F5E2E2E2E2E2E2E2E2E2E2E2E2E2F5E2E2F5E2E2CDEFF5E2E2F5E2F5E2E2E2E2F5E2E2E2E2E2E2E2E2E2F5E2E2E2E2E2E2F5E2F5F5F5E2E2E2E2E2E2E2E2E2E2E2E2F5F5F5F5F5F5F5F5F5F5E2E2
310
E2E2E2E2E2F5F5F5F5F5F5F5F5F5F5F5F5F5F5F5F5F5F5F5F5F5F5F5F5F5E2E2E2E2E2E2E2E2E2E2E2E2E2E2F5E2E2F5E2E200EFF5E2E2F5E2F5E2E2E2E2F5E2E2E2E2E2E2E2E2E2F5E2E2E2E2E2E2F5E2F5F5F5E2E2E2E2E2E2E2E2E2E2E2E2F5F5F5F5F5F5F5F5F5F5E2E2E2E2E2E2E2E2E2E2E2E2F5F5F5F5F5F5F5F5F5
310
F5F5F5F5F5E2E2E2E2E2E2E2E2E2E2E2E2E2E2E2E2E2E2E2E2F5E2E2F5E2E2CDEFF5E2E2F5E2F5F5F5F5F5F5F5F5F5F5E2E2E2E2E2F5E2E2E2E2E2E2F5E2F5F5F5E2E2E2E2E2E2E2E2E2E2E2E2F5F5F5F5F5F5F5F5F5F5E2E2E2E2E2E2E2E2E2E2E2E2F5F5F5F5F5F5F5F5F5F5F5F5F5E2E2E2E2E2E2E2E2E2E2E2E2E2E2E2
310
E2E2E2E2E2E2F5E2E2F5E2E200EFF5E2E2F5E2F5F5F5F5F5F5F5F5F5F5E2E2E2E2E2F5E2E2E2E2E2E2F5E2F5F5F5E2E2E2E2E2E2E2E2E2E2E2E2E2E2E2E2E2F5E2E2E2E2E2E2E2E2E2E2E2E2E2E2E2E2F5F5F5F5F5F5F5F5F5F5F5F5F5E2E2E2E2E2E2E2E2E2E2E2E2E2E2E2E2E2E2E2E2E2F5E2E2F5E2E2CDEFF5E2E2F5E2
310
F5E2F5F5F5F5F5F5E2E2E2E2E2F5F5F5F5E2E2E2E2E2F5E2F5F5F5E2E2E2E2E2E2E2E2E2E2E2E2E2E2E2E2E2F5E2E2E2E2E2E2E2E2E2E2E2E2F5F5E2E2E2E2E2E2E2E2E2E2E2E2E2E2E2E2E2E2E2E2E2E2E2E2E2E2E2E2E2E2E2E2E2E2E2E2F5E2E2F5E2E200EFF5E2E2F5E2F5E2E2E2E2F5E2E2E2E2E2E2F5F5F5F5F5F5E2
310
E2E2E2F5E2F5F5F5E2E2E2E2E2E2E2E2E2E2E2E2E2E2E2E2E2F5E2E2E2E2E2E2E2E2E2E2E2F5F5F5E2E2E2E2E2E2E2E2E2E2E2E2E2E2E2E2E2E2E2E2E2E2E2E2E2E2E2E2E2E2E2E2E2E2E2E2F5E2E2F5E2E2CDEFF5E2E2E2E2F5E2E2E2E2F5E2E2E2E2E2E2E2E2E2E2E2E2E2E2E2E2F5E2F5F5F5E2E2E2E2E2E2E2E2E2E2E2
310
E2E2E2E2E2E2F5E2E2E2E2E2E2E2E2E2E2E2F5F5F5E2E2E2E2E2E2E2E2E2E2E2E2E2E2E2E2E2E2E2E2E2E2E2E2E2E2E2E2E2E2E2E2E2E2E2E2F5E2E2E2E2E200EFF5E2E2E2E2F5E2E2E2E2F5E2E2E2E2E2E2E2E2E2F5E2E2E2E2E2E2F5E2F5F5F5E2E2E2E2E2E2E2E2E2E2E2E2E2E2E2E2E2F5E2E2E2E2E2E2E2E2E2E2E2F5
310
F5F5E2E2E2E2E2E2E2E2E2E2E2E2E2E2E2E2E2E2E2E2E2E2E2E2E2E2E2E2E2E2E2E2E2E2E2E2F5E2E2E2E2E2CDEFF5E2E2E2E2F5E2E2E2E2F5E2E2E2E2E2E2E2E2E2F5E2E2E2E2E2E2F5E2F5F5F5E2E2E2E2E2E2E2E2E2E2E2E2E2E2E2E2E2F5E2E2E2E2E2E2E2E2E2E2E2F5F5F5F5E2E2E2E2E2E2E2E2E2E2E2E2E2E2E2E2
310
E2E2E2E2E2E2E2E2E2E2E2E2E2E2E2E2E2E2E2F5E2E2E2E2E200EFF5E2E2E2E2F5E2E2E2E2F5E2E2E2E2E2E2E2E2E2F5E2E2E2E2E2E2F5E2F5F5F5E2E2E2E2E2E2E2E2E2E2E2E2E2E2E2E2E2F5E2E2E2E2E2E2E2E2E2E2E2E2F5F5F5F5E2E2E2E2E2E2E2E2E2E2E2E2E2E2E2E2E2E2E2E2E2E2E2E2E2E2E2E2E2E2E2E2E2E2
310
F5E2E2E2E2E2CDEFF5E2E2E2E2F5E2E2E2E2F5E2E2E2E2E2E2E2E2E2F5E2E2E2E2E2E2F5E2F5F5F5E2E2E2E2E2E2E2E2E2E2E2E2E2E2E2E2E2F5E2E2E2E2E2E2E2E2E2E2E2E2F5F5F5F5F5E2E2E2E2E2E2E2E2E2E2E2E2E2E2E2E2E2E2E2E2E2E2E2E2E2E2E2E2E2E2E2E2E2F5E2E2E2E2E200EFF5E2E2E2E2F5E2E2E2E2F5
310
E2E2E2E2E2E2E2E2E2F5E2E2E2E2E2E2F5E2F5F5F5E2E2E2E2E2E2E2E2E2E2E2E2E2E2E2E2E2F5E2E2E2E2E2E2E2E2E2E2E2E2F5F5E2F5F5F5E2E2E2E2E2E2E2E2E2E2E2E2E2E2E2E2E2E2E2E2E2E2E2E2E2E2E2E2E2E2E2E2F5E2E2E2E2E201EFF5E2E2E2E2F5E2E2E2E2F5E2E2E2E2E2E2E2E2E2F5E2E2E2E2E2E2F5E2F5
310
F5F5E2E2E2E2E2E2E2E2E2E2E2E2E2E2E2E2E2F5E2E2E2E2E2E2E2E2E2E2E2E2F5F5E2E2F5F5F5F5E2E2E2E2E2E2E2E2E2E2E2E2E2E2E2E2E2E2E2E2E2E2E2E2E2E2E2E2E2E2F5E2E2E2E2E200EFF5E2E2E2E2F5E2E2E2E2F5E2E2E2E2E2E2E2E2E2F5E2E2E2E2E2E2F5E2F5F5F5E2E2E2E2E2E2E2E2E2E2E2E2E2E2E2E2E2
310
F5E2E2E2E2E2E2E2E2E2E2E2E2F5F5E2F5F5F5F5F5E2E2E2E2E2E2E2E2E2E2E2E2E2E2E2E2E2E2E2E2E2E2E2E2E2E2E2E2E2E2F5E2E2E2E2E2CDEFF5E2E2E2E2F5E2E2E2E2F5E2E2E2E2E2E2E2E2E2F5E2E2E2E2E2E2F5E2F5F5F5E2E2E2E2E2E2E2E2E2E2E2E2E2E2E2E2E2F5E2E2E2E2E2E2E2E2E2E2F5F5F5F5F5F5F5F5
310
F5F5F5F5F5F5E2E2E2E2E2E2E2E2E2E2E2E2E2E2E2E2E2E2E2E2E2E2E2E2E2E2F5E2E2E2E2E200EFF5E2E2F5E2F5E2E2E2E2F5E2E2E2E2E2E2E2E2E2F5E2E2E2E2E2E2F5E2F5F5F5E2E2E2E2E2E2E2E2E2E2E2E2E2E2E2E2E2F5E2E2E2E2E2E2E2E2E2E2F5F5F5F5F5F5F5F5F5F5F5F5F5F5E2E2E2E2E2E2E2E2E2E2E2E2E2
310
E2E2E2E2E2E2E2E2E2E2E2E2E2F5E2E2F5E2E2CDEFF5E2E2F5E2F5E2E2E2E2F5E2E2E2E2E2E2E2E2E2F5E2E2E2E2E2E2F5E2F5F5F5E2E2E2E2E2E2E2E2E2E2E2E2E2E2E2E2E2F5E2E2E2E2E2E2E2E2E2E2E2E2E2E2E2E2F5F5E2E2E2F5E2E2E2E2E2E2E2E2E2E2E2E2E2E2E2E2E2E2E2E2E2E2E2E2E2E2E2E2F5E2E2F5E2E2
310
00EFF5E2E2F5E2F5E2E2E2E2F5E2E2E2E2E2E2E2E2E2F5E2E2E2E2E2E2F5E2F5F5F5E2E2E2E2E2E2E2E2E2E2E2E2E2E2E2E2E2F5E2E2E2E2E2E2E2E2E2E2E2E2E2E2E2E2E2E2E2E2E2F5E2E2F5F5F5F5F5F5F5F5F5F5F5F5F5F5F5E2E2E2E2E2E2E2E2E2E2E2F5E2E2F5E2E2CDEFF5E2E2F5E2F5E2E2E2E2F5E2E2E2E2E2E2
310
E2E2E2F5E2E2E2E2E2E2F5E2F5F5F5E2E2E2E2E2E2E2E2E2E2E2E2E2E2E2E2E2F5E2E2E2E2E2E2E2E2E2E2E2E2E2E2E2E2E2E2E2E2E2E2F5E2F5F5F5F5F5F5F5F5F5F5F5F5F5F5F5F5F5F5F5F5F5E2E2E2E2E2F5E2E2F5E2E200EFF5E2E2F5E2F5E2E2E2E2F5E2E2E2E2E2E2E2E2E2F5E2E2E2E2E2E2F5E2F5F5F5E2E2E2E2
310
E2E2E2E2E2E2E2E2E2E2E2E2E2F5E2E2E2E2E2E2E2E2E2E2E2E2E2E2E2E2E2E2E2E2E2E2F5F5F5F5F5F5F5F5F5F5F5F5F5F5F5F5F5F5F5F5F5F5F5E2E2E2E2E2F5E2E2F5E2E2CDEFF5E2E2F5E2F5E2E2E2E2F5E2E2E2E2E2E2E2E2E2F5E2E2E2E2E2E2F5E2F5F5F5E2E2E2E2E2E2E2E2E2E2E2E2E2E2E2E2E2F5E2E2E2E2E2
310
E2E2E2E2E2E2E2E2E2E2E2E2E2E2E2E2E2E2E2E2E2E2E2E2E2E2E2E2E2E2E2E2E2E2E2E2E2E2E2E2E2E2E2E2E2F5E2E2F5E2E200EFF5E2E2F5E2F5E2E2E2E2F5E2E2E2E2E2E2E2E2E2F5E2E2E2E2E2E2F5E2F5F5F5E2E2E2F5F5F5F5F5F5F5F5F5F5E2E2E2E2F5E2E2E2E2E2E2E2E2E2E2E2E2E2E2E2E2E2E2E2E2E2E2E2E2
310
E2E2E2E2E2E2E2E2E2E2E2E2E2E2E2E2E2E2E2E2E2E2E2E2E2E2F5E2E2F5E2E2CDEFF5E2E2F5E2F5E2E2E2E2F5E2E2E2E2E2E2E2E2E2F5E2E2E2E2E2E2F5E2F5F5F5E2E2F5E2E2E2E2E2E2E2E2E2E2E2E2E2E2F5E2E2E2E2E2E2E2E2E2E2E2E2E2E2E2E2E2E2E2E2E2E2E2E2E2E2E2E2E2E2E2E2E2E2E2E2E2E2E2E2E2E2E2
310
E2E2E2E2E2E2E2F5E2E2F5E2E200EFF5E2E2F5E2F5E2E2E2E2F5E2E2E2E2E2E2E2E2E2F5E2E2E2E2E2E2F5E2F5F5F5E2F5E2E2E2E2E2E2E2E2E2E2E2E2E2E2E2F5E2E2E2E2E2E2E2E2E2E2E2E2E2E2E2E2E2E2E2E2E2E2E2E2E2E2E2E2E2E2E2E2E2E2E2E2E2E2E2E2E2E2E2E2E2E2E2E2E2E2F5E2E2F5E2E2CDEFF5E2E2F5
310
E2F5E2E2E2E2F5E2E2E2E2E2E2E2E2E2F5E2E2E2E2E2E2F5E2F5F5F5F5E2E2E2E2E2E2E2E2E2E2E2E2E2E2E2E2F5E2E2E2E2E2E2E2E2E2E2E2E2E2E2E2E2E2E2E2E2E2E2E2E2E2E2E2E2E2E2E2E2E2E2E2E2E2E2E2E2E2E2E2F5F5E2E2E2E2E2F5E2E2F5E2E200EFF5E2E2F5E2F5E2E2E2E2F5E2E2E2E2E2E2E2E2E2F5E2E2
310
E2E2E2E2F5E2F5F5F5F5F5F5F5F5F5F5F5F5F5F5F5F5F5F5F5F5F5F5E2E2E2E2E2E2E2E2E2E2E2E2E2E2E2E2E2E2E2E2E2E2E2E2E2E2E2E2E2E2E2E2E2E2E2E2E2E2E2E2E2E2F5F5F5F5F5F5F5F5E2E2F5E2E2CDEFF5E2E2F5E2F5E2E2E2E2F5E2E2E2E2E2E2E2E2E2F5E2E2E2E2E2E2F5E2F5F5F5F5E2E2E2E2E2E2E2E2E2
310
E2E2E2E2E2E2E2E2E2E2E2E2E2E2E2E2E2E2E2E2E2E2E2E2E2E2E2E2E2E2E2E2E2E2E2E2E2E2E2E2E2E2E2E2E2E2E2E2E2E2E2E2E2E2E2E2E2F5F5E2E2F5E2E200EFF5E2E2F5E2F5E2E2E2E2F5E2E2E2E2E2E2E2E2E2F5E2E2E2E2E2E2F5E2F5F5F5F5E2E2E2E2E2E2E2E2E2E2E2E2E2E2E2E2E2E2E2F5F5F5F5F5F5F5F5F5
310
F5F5F5F5F5F5F5F5F5F5E2E2E2E2E2E2E2E2E2E2E2E2E2E2E2E2E2E2E2E2E2E2F5E2E2E2E2E2F5F5E2E2F5E2E2CDEFF5E2E2F5E2F5E2E2E2E2F5E2E2E2E2E2E2E2E2E2F5E2E2E2E2E2E2F5E2F5F5F5F5F5F5F5F5F5F5F5F5F5F5F5F5F5F5F5F5F5F5F5E2F5F5F5F5F5F5F5F5F5F5F5F5F5F5F5F5F5E2E2E2F5F5F5F5F5F5F5
310
F5F5F5F5F5F5F5F5F5F5F5F5F5F5E2E2E2E2E2F5F5E2E2F5E2E200EFF5E2E2F5E2F5E2E2E2E2F5E2E2E2E2E2E2E2E2E2F5E2E2E2E2E2E2F5E2F5F5F5F5F5F5F5F5F5F5F5F5F5F5F5F5F5F5F5F5E2E2E2E2E2E2E2E2E2E2E2E2E2E2E2E2E2E2E2E2E2E2E2E2E2E2E2E2E2E2E2E2E2E2E2E2E2E2E2E2E2E2E2E2F5E2E2E2E2E2
310
F5F5E2E2F5E2E2CDEFF5E2E2F5E2F5E2E2E2E2F5E2E2E2E2E2E2E2E2E2F5E2E2E2E2E2E2F5E2F5F5F5F5E2F5E2E2E2E2E2E2E2E2E2E2E2E2E2E2E2E2E2E2E2E2E2E2E2E2E2E2E2E2E2E2E2E2E2E2E2E2E2E2E2E2E2E2E2E2E2E2E2E2E2E2E2E2E2E2E2E2E2E2F5E2E2E2E2E2F5F5E2E2F5E2E200EFF5E2E2F5E2F5E2E2E2E2
310
F5E2E2E2E2E2E2E2E2E2F5E2E2E2E2E2E2F5E2F5F5E2E2F5F5E2E2E2E2E2E2E2E2E2E2E2E2E2E2E2E2E2E2E2E2E2E2E2E2E2E2E2E2E2E2E2E2E2E2E2E2E2E2E2E2E2E2E2E2E2E2E2E2E2E2E2E2E2E2E2E2E2E2F5E2E2E2E2E2F5F5E2E2F5E2E2E2EFF5E2E2E2E2F5E2E2E2E2F5E2E2E2E2E2E2E2E2F5F5F5F5F5F5F5F5F5F5
310
F5F5E2E2E2F5F5F5F5F5F5F5F5F5F5F5F5F5F5F5F5F5F5F5F5F5F5F5F5F5F5F5F5F5F5F5F5F5F5F5F5F5F5F5F5F5F5F5F5F5F5F5F5F5F5F5F5F5F5F5F5F5F5F5F5F5F5E2E2E2F5F5E2E2E2E2E2E2EFF5E2E2E2E2F5E2E2E2E2F5E2E2E2E2E2E2E2E2E2E2E2E2E2E2E2E2F5F5F5F5F5F5F5F5F5F5F5F5F5F5F5F5F5F5F5F5F5
310
F5F5F5F5F5F5F5F5F5F5F5F5F5F5F5F5F5F5F5F5F5F5F5F5F5F5F5F5F5F5F5F5F5F5F5F5F5F5F5F5F5F5F5F5F5F5F5F5F5E2E2F5F5E2E2E2E2E2E2EFF5E2E2E2E2F5E2E2E2E2F5E2E2E2E2E2E2E2E2E2E2E2E2E2E2E2E2F5F5F5F5F5F5F5F5F5F5F5F5F5F5F5F5F5F5F5F5F5F5F5F5F5F5F5F5F5F5F5F5F5F5F5F5F5F5F5F5
310
F5F5F5F5F5F5F5F5F5F5F5F5F5F5F5F5F5F5F5F5F5F5F5F5F5F5F5F5F5E2E2E2F5F5E2E2E2E2E2F5EFF5E2E2E2E2F5E2E2E2E2F5F5F5F5F5F5F5F5F5F5F5F5F5F5F5F5F5F5F5F5F5F5F5F5F5F5F5F5F5F5F5F5F5F5F5F5F5F5F5F5F5F5F5F5F5F5F5F5F5F5F5F5F5F5F5F5F5F5F5F5F5F5F5F5F5F5F5F5F5F5F5F5F5F5F5F5
310
F5F5F5F5F5F5F5F5F5F5E2E2E2F5F5E2E2E2E2E2F5EFF5E2E2E2E2F5E2E2E2E2E2E2E2E2E2E2E2E2E2E2F5E2E2E2E2E2E2F5E2F5F5F5E2F5F5F5F5F5E2F5F5F5F5F5E2F5F5F5F5F5E2F5F5F5F5F5E2F5F5F5F5F5E2F5F5F5F5E2F5F5F5F5F5E2F5F5F5F5F5E2F5F5F5F5F5E2F5F5F5F5F5E2F5F5F5F5E2E2E2F5F5E2E2E2E2
310
E2F5EFF5E2E2E2E2F5E2E2E2E2E2E2E2E2E2E2E2E2E2E2F5E2E2E2E2E2E2F5F5F5F5F5F5F5F5F5F5F5F5F5F5F5F5F5F5F5F5F5F5F5F5F5F5F5F5F5F5F5F5F5F5F5F5F5F5F5F5F5F5F5F5F5F5F5F5F5F5F5F5F5F5F5F5F5F5F5F5F5F5F5F5F5F5F5F5F5E2E2E2F5F5E2E2E2E2E2F5EFF5E2E2E2E2F5E2E2E2E2E2E2E2E2E2E2
310
E2E2E2E2F5E2E2E2E2E2E2E2E2E2E2E2E2E2E2F5E2E2E2E2E2E2E2E2E2E2E2E2E2E2E2E2E2E2E2E2E2E2E2E2E2E2E2E2E2E2E2E2E2E2E2E2E2E2E2E2E2E2E2E2E2E2E2E2E2E2E2E2E2E2E2E2E2F5F5E2E2E2E2F5F5E2E2E2E2E2F5EFF5E2E2E2E2F5E2E2E2E2E2E2E2E2E2E2E2E2E2E2F5E2F5F5F5F5F5F5E2E2E2E2E2E2E2
310
F5E2E2E2F5F5F5F5F5F5F5F5F5F5F5F5F5F5F5E2E2E2E2E2E2E2E2E2E2E2E2E2E2E2E2E2E2E2E2E2E2E2E2E2E2E2E2E2E2E2E2E2E2E2E2E2E2E2F5F5F5F5F5F5F5F5E2E2E2E2E2F5EFF5E2E2E2E2F5E2E2E2E2E2E2E2E2E2E2E2E2E2E2F5F5F5F5F5F5F5F5E2E2E2E2E2E2E2E2F5F5F5E2E2E2E2E2E2E2E2E2E2E2E2E2E2E2
310
E2E2E2E2E2E2E2E2E2E2E2E2E2E2E2E2E2E2E2E2E2E2E2E2E2E2E2E2E2E2E2E2E2E2E2E2E2E2E2E2E2E2E2E2E2E2F5E2E2E2E2E2E2EFF5E2E2F5E2F5E2E2E2E2E2E2E2E2E2E2E2E2E2E2E2E2F5F5F5F5F5F5E2E2E2E2E2E2E2E2E2E2E2E2E2E2E2E2E2E2E2E2E2E2E2E2E2E2E2E2E2E2E2E2E2E2E2E2E2E2E2E2E2E2E2E2E2
310
E2E2E2E2E2E2E2E2E2E2E2E2E2E2E2E2E2E2E2E2E2E2E2E2E2E2E2F5E2E2F5E2E2F5EFF5E2E2F5E2F5E2E2E2E2E2E2E2E2E2E2E2E2E2E2E2E2E2E2E2E2E2E2E2E2E2E2E2E2E2E2E2E2E2E2E2E2E2E2E2E2E2E2E2E2E2E2E2E2E2E2E2E2E2E2E2E2E2E2E2E2E2E2E2E2E2E2E2E2E2E2E2E2E2E2E2E2E2E2E2E2E2E2E2E2E2E2
310
E2E2E2E2E2E2E2E2F5E2E2F5E2E2E2EFF5E2E2F5E2F5E2E2E2E2E2E2E2E2E2E2E2E2E2E2E2E2E2E2E2E2E2E2E2E2E2E2E2E2E2E2E2E2E2E2E2E2E2E2E2E2E2E2E2E2E2E2E2E2E2E2E2E2E2E2E2E2E2E2E2E2E2E2E2E2E2E2E2E2E2E2E2E2E2E2E2E2E2E2E2E2E2E2E2E2E2E2E2E2E2E2E2E2E2E2F5E2E2F5E2E2E2EFF5E2E2
310
F5E2F5E2E2E2E2E2E2E2E2E2E2E2E2E2E2E2E2E2E2E2E2E2E2E2E2E2E2E2E2E2E2E2E2E2E2E2E2E2E2E2E2E2E2E2E2E2E2E2E2E2E2E2E2E2E2E2E2E2E2E2E2E2E2E2E2E2E2E2E2E2E2E2E2E2E2E2E2E2E2E2E2E2E2E2E2E2E2E2E2E2E2E2E2E2E2F5E2E2F5E2E2E2EFF5E2E2F5E2F5E2E2E2E2E2E2E2E2E2E2E2E2E2E2E2E2
310
E2E2E2E2E2E2E2E2E2E2E2E2E2E2E2E2E2E2E2E2E2E2E2E2E2E2E2E2E2E2E2E2E2E2E2E2E2E2E2E2E2E2E2E2E2E2E2E2E2E2E2E2E2E2E2E2E2E2E2E2E2E2E2E2E2E2E2E2E2E2E2E2E2E2E2E2E2E2F5E2E2F5E2E2E2EFF5E2E2F5E2F5E2E2E2E2E2E2E2E2E2E2E2E2E2E2E2E2E2E2E2E2E2E2E2E2E2E2E2E2E2E2E2E2E2E2E2
310
E2E2E2E2E2E2E2E2E2E2E2E2E2E2E2E2E2E2E2E2E2E2E2E2E2E2E2E2E2E2E2E2E2E2E2E2E2E2E2E2E2E2E2E2E2E2E2E2E2E2E2E2E2E2E2E2E2E2E2F5E2E2F5E2E2E2EFF5E2E2F5E2F5E2E2E2E2E2E2E2E2E2E2E2E2E2E2E2E2E2E2E2E2E2E2E2E2E2E2E2E2E2E2E2E2E2E2E2E2E2E2E2E2E2E2E2E2E2E2E2E2E2E2E2E2E2E2
310
E2E2E2E2E2E2E2E2E2E2E2E2E2E2E2E2E2E2E2E2E2E2E2E2E2E2E2E2E2E2E2E2E2E2E2E2E2E2E2E2F5E2E2F5E2E2E2EFF5E2E2F5E2F5E2E2E2E2E2E2E2E2E2E2E2E2E2E2E2E2E2E2E2E2E2E2E2E2E2E2E2E2E2E2E2E2E2E2E2E2E2E2E2E2E2E2E2E2E2E2E2E2E2E2E2E2E2E2E2E2E2E2E2E2E2E2E2E2E2E2E2E2E2E2E2E2E2
310
E2E2E2E2E2E2E2E2E2E2E2E2E2E2E2E2E2E2E2E2E2F5E2E2F5E2E2E2EFF5E2E2F5E2F5E2E2E2E2E2E2E2E2E2E2E2E2E2E2E2E2E2E2E2E2E2E2E2E2E2E2E2E2E2E2E2E2E2E2E2E2E2E2E2E2E2E2E2E2E2E2E2E2E2E2E2E2E2E2E2E2E2E2E2E2E2E2E2E2E2E2E2E2E2E2E2E2E2E2E2E2E2E2E2E2E2E2E2E2E2E2E2E2E2E2E2E2
310
E2E2F5E2E2F5E2E2E2EFF5E2E2F5E2F5E2E2E2E2E2E2E2E2E2E2E2E2E2E2E2E2E2E2E2E2E2E2E2E2E2E2E2E2E2E2E2E2E2E2E2E2E2E2E2E2E2E2E2E2E2E2E2E2E2E2E2E2E2E2E2E2E2E2E2E2E2E2E2E2E2E2E2E2E2E2E2E2E2E2E2E2E2E2E2E2E2E2E2E2E2E2E2E2E2E2E2E2E2E2F5E2E2F5E2E2E2EFF5E2E2F5E2F5E2E2E2
310
E2E2E2E2E2E2E2E2E2E2E2E2E2E2E2E2E2E2E2E2E2E2E2E2E2E2E2E2E2E2E2E2E2E2E2E2E2E2E2E2E2E2E2E2E2E2E2E2E2E2E2E2E2E2E2E2E2E2E2E2E2E2E2E2E2E2E2E2E2E2E2E2E2E2E2E2E2E2E2E2E2E2E2E2E2E2E2E2E2E2E2F5E2E2F5E2E2E2EFF5E2E2F5E2F5E2E2E2E2E2E2E2E2E2E2E2E2E2E2E2E2E2E2E2E2E2E2
310
E2E2E2E2E2E2E2E2E2E2E2E2E2E2E2E2E2E2E2E2E2E2E2E2E2E2E2E2E2E2E2E2E2E2E2E2E2E2E2E2E2E2E2E2E2E2E2E2E2E2E2E2E2E2E2E2E2E2E2E2E2E2E2E2E2E2E2E2E2E2E2E2F5E2E2F5E2E2E2EFF5E2E2F5E2F5E2E2E2E2E2E2E2E2E2E2E2E2E2E2E2E2E2E2E2E2E2E2E2E2E2E2E2E2E2E2E2E2E2E2E2E2E2E2E2E2E2
310
E2E2E2E2E2E2E2E2E2E2E2E2E2E2E2E2E2E2E2E2E2E2E2E2E2E2E2E2E2E2E2E2E2E2E2E2E2E2E2E2E2E2E2E2E2E2E2E2E2E2E2E2E2F5E2E2F5E2E2E2EFF5E2E2F5E2F5E2E2E2E2E2E2E2E2E2E2E2E2E2E2E2E2E2E2E2E2E2E2E2E2E2E2E2E2E2E2E2E2E2E2E2E2E2E2E2E2E2E2E2E2E2E2E2E2E2E2E2E2E2E2E2E2E2E2E2E2
310
E2E2E2E2E2E2E2E2E2E2E2E2E2E2E2E2E2E2E2E2E2E2E2E2E2E2E2E2E2E2E2E2E2E2F5E2E2F5E2E2E2EFF5E2E2F5E2F5E2E2E2E2E2E2E2E2E2E2E2E2E2E2E2E2E2E2E2E2E2E2E2E2E2E2E2E2E2E2E2E2E2E2E2E2E2E2E2E2E2E2E2E2E2E2E2E2E2E2E2E2E2E2E2E2E2E2E2E2E2E2E2E2E2E2E2E2E2E2E2E2E2E2E2E2E2E2E2
310
E2E2E2E2E2E2E2E2E2E2E2E2E2E2E2F5E2E2F5E2E2E2EFF5E2E2F5E2F5E2E2E2E2E2E2E2E2E2E2E2E2E2E2E2E2E2E2E2E2E2E2E2E2E2E2E2E2E2E2E2E2E2E2E2E2E2E2E2E2E2E2E2E2E2E2E2E2E2E2E2E2E2E2E2E2E2E2E2E2E2E2E2E2E2E2E2E2E2E2E2E2E2E2E2E2E2E2E2E2E2E2E2E2E2E2E2E2E2E2E2E2E2E2F5E2E2F5
310
E2E2E2EFF5E2E2F5E2F5E2E2E2E2E2E2E2E2E2E2E2E2E2E2E2E2E2E2E2E2E2E2E2E2E2E2E2E2E2E2E2E2E2E2E2E2E2E2E2E2E2E2E2E2E2E2E2E2E2E2E2E2E2E2E2E2E2E2E2E2E2E2E2E2E2E2E2E2E2E2E2E2E2E2E2E2E2E2E2E2E2E2E2E2E2E2E2E2E2E2E2E2E2E2F5E2E2F5E2E2F5EFF5E2E2E2E2F5E2E2E2E2E2E2E2E2E2
310
E2E2E2E2E2E2E2E2E2E2E2E2E2E2E2E2E2E2E2E2E2E2E2E2E2E2E2E2E2E2E2E2E2E2E2E2E2E2E2E2E2E2E2E2E2E2E2E2E2E2E2E2E2E2E2E2E2E2E2E2E2E2E2E2E2E2E2E2E2E2E2E2E2E2E2E2E2E2E2E2E2E2E2E2E2F5E2E2E2E2E2E2EFF5E2E2E2E2F5E2E2E2E2E2E2E2E2E2E2E2E2E2E2E2E2E2E2E2E2E2E2E2E2E2E2E2E2
310
E2E2E2E2E2E2E2E2E2E2E2E2E2E2E2E2E2E2E2E2E2E2E2E2E2E2E2E2E2E2E2E2E2E2E2E2E2E2E2E2E2E2E2E2E2E2E2E2E2E2E2E2E2E2E2E2E2E2E2E2E2E2E2E2E2E2F5E2E2E2E2E200EFF5E2E2E2E2F5E2E2E2E2E2E2E2E2E2E2E2E2E2E2E2E2E2E2E2E2E2E2E2E2E2E2E2E2E2E2E2E2E2E2E2E2E2E2E2E2E2E2E2E2E2E2E2
310
E2E2E2E2E2E2E2E2E2E2E2E2E2E2E2E2E2E2E2E2E2E2E2E2E2E2E2E2E2E2E2E2E2E2E2E2E2E2E2E2E2E2E2E2E2E2E2F5E2E2E2E2E200EFF5E2E2E2E2F5E2E2E2E2E2E2E2E2E2E2E2E2E2E2E2E2E2E2E2E2E2E2E2E2E2E2E2E2E2E2E2E2E2E2E2E2E2E2E2E2E2E2E2E2E2E2E2E2E2E2E2E2E2E2E2E2E2E2E2E2E2E2E2E2E2E2
310
E2E2E2E2E2E2E2E2E2E2E2E2E2E2E2E2E2E2E2E2E2E2E2E2E2E2E2E2F5E2E2E2E2E2E2EFF5E2E2E2E2F5F5F5F5F5F5F5F5F5F5F5F5F5F5F5F5F5F5F5F5F5F5F5F5F5F5F5F5F5F5F5F5F5F5F5F5F5F5F5F5F5F5F5F5F5F5F5F5F5F5F5F5F5F5F5F5F5F5F5F5F5F5F5F5F5F5F5F5F5F5F5F5F5F5F5F5F5F5F5F5F5F5F5F5F5F5
310
F5F5F5F5F5F5F5F5F5F5E2E2E2E2E2F5EFF5E2E2E2E2E2E2E2E2E2E2E2E2E2E2E2E2E2E2E2E2E2E2E2E2E2E2E2E2E2E2E2E2E2E2E2E2E2E2E2E2E2E2E2E2E2E2E2E2E2E2E2E2E2E2E2E2E2E2E2E2E2E2E2E2E2E2E2E2E2E2E2E2E2E2E2E2E2E2E2E2E2E2E2E2E2E2E2E2E2E2E2E2E2E2E2E2E2E2E2E2E2E2E2E2E2E2EFF5E2
310
E2E2E2E2E2E2E2E2E2E2E2E2E2E2E2E2E2E2E2E2E2E2E2E2E2E2E2E2E2E2E2E2E2E2E2E2E2E2E2E2E2E2E2E2E2E2E2E2E2E2E2E2E2E2E2E2E2E2E2E2E2E2E2E2E2E2E2E2E2E2E2E2E2E2E2E2E2E2E2E2E2E2E2E2E2E2E2E2E2E2E2E2E2E2E2E2E2E2E2E2E2E2E2E2F5EFF5E2E2E2E2E2E2E2E2E2E2E2E2E2E2E2E2E2E2E2E2
310
E2E2E2E2E2E2E2E2E2E2E2E2E2E2E2E2E2E2E2E2E2E2E2E2E2E2E2E2E2E2E2E2E2E2E2E2E2E2E2E2E2E2E2E2E2E2E2E2E2E2E2E2E2E2E2E2E2E2E2E2E2E2E2E2E2E2E2E2E2E2E2E2E2E2E2E2E2E2E2E2E2E2E2E2E2F5EFF5E2E2E2E2E2E2E2E2E2E2E2E2E2E2E2E2E2E2E2E2E2E2E2E2E2E2E2E2E2E2E2E2E2E2E2E2E2E2E2
310
E2E2E2E2E2E2E2E2E2E2E2E2E2E2E2E2E2E2E2E2E2E2E2E2E2E2E2E2E2E2E2E2E2E2E2E2E2E2E2E2E2E2E2E2E2E2E2E2E2E2E2E2E2E2E2E2E2E2E2E2E2E2E2E2E2E2F5EFF5E2E2F5E2E2E2E2E2E2E2E2E2E2E2E2E2E2E2E2E2E2E2E2E2E2E2E2E2E2E2E2E2E2E2E2E2E2E2E2E2E2E2E2E2E2E2E2E2E2E2E2E2E2E2E2E2E2E2
310
E2E2E2E2E2E2E2E2E2E2E2E2E2E2E2E2E2E2E2E2E2E2E2E2E2E2E2E2E2E2E2E2E2E2E2E2E2E2E2E2E2E2E2E2F5E2E2F5EFF5E2E2F5E2E2E2E2E2E2E2E2E2E2E2E2E2E2E2E2E2E2E2E2E2E2E2E2E2E2E2E2E2E2E2E2E2E2E2E2E2E2E2E2E2E2E2E2E2E2E2E2E2E2E2E2E2E2E2E2E2E2E2E2E2E2E2E2E2E2E2E2E2E2E2E2E2E2
310
E2E2E2E2E2E2E2E2E2E2E2E2E2E2E2E2E2E2E2E2E2E2E2E2E2F5E2E2E2EFF5E2E2F5E2E2E2E2E2E2E2E2E2E2E2E2E2E2E2E2E2E2E2E2E2E2E2E2E2E2E2E2E2E2E2E2E2E2E2E2E2E2E2E2E2E2E2E2E2E2E2E2E2E2E2E2E2E2E2E2E2E2E2E2E2E2E2E2E2E2E2E2E2E2E2E2E2E2E2E2E2E2E2E2E2E2E2E2E2E2E2E2E2E2E2E2E2
310
E2E2E2E2E2E2F5E2E2F5EFF5E2E2F5E2E2E2E2E2E2E2E2E2E2E2E2E2E2E2E2E2E2E2E2E2E2E2E2E2E2E2E2E2E2E2E2E2E2E2E2E2E2E2E2E2E2E2E2E2E2E2E2E2E2E2E2E2E2E2E2E2E2E2E2E2E2E2E2E2E2E2E2E2E2E2E2E2E2E2E2E2E2E2E2E2E2E2E2E2E2E2E2E2E2E2E2E2E2E2E2E2E2E2F5E2E2F5EFF5E2E2F5E2E2E2E2
310
E2E2E2E2E2E2E2E2E2E2E2E2E2E2E2E2E2E2E2E2E2E2E2E2E2E2E2E2E2E2E2E2E2E2E2E2E2E2E2E2E2E2E2E2E2E2E2E2E2E2E2E2E2E2E2E2E2E2E2E2E2E2E2E2E2E2E2E2E2E2E2E2E2E2E2E2E2E2E2E2E2E2E2E2E2E2E2E2E2E2E2E2E2E2E2F5E2E201EFF5E2E2F5E2E2E2E2E2E2E2E2E2E2E2E2E2E2E2E2E2E2E2E2E2E2E2
310
E2E2E2E2E2E2E2E2E2E2E2E2E2E2E2E2E2E2E2E2E2E2E2E2E2E2E2E2E2E2E2E2E2E2E2E2E2E2E2E2E2E2E2E2E2E2E2E2E2E2E2E2E2E2E2E2E2E2E2E2E2E2E2E2E2E2E2E2E2E2E2E2E2E2E2E2F5E2E2F5EFF5E2E2F5E2E2E2E2E2E2E2E2E2E2E2E2E2E2E2E2E2E2E2E2E2E2E2E2E2E2E2E2E2E2E2E2E2E2E2E2E2E2E2E2E2E2
310
E2E2E2E2E2E2E2E2E2E2E2E2E2E2E2E2E2E2E2E2E2E2E2E2E2E2E2E2E2E2E2E2E2E2E2E2E2E2E2E2E2E2E2E2E2E2E2E2E2E2E2E2E2E2E2E2E2F5E2E2E2EFF5E2E2F5E2E2E2E2E2E2E2E2E2E2E2E2E2E2E2E2E2E2E2E2E2E2E2E2E2E2E2E2E2E2E2E2E2E2E2E2E2E2E2E2E2E2E2E2E2E2E2E2E2E2E2E2E2E2E2E2E2E2E2E2E2
310
E2E2E2E2E2E2E2E2E2E2E2E2E2E2E2E2E2E2E2E2E2E2E2E2E2E2E2E2E2E2E2E2E2E2E2E2E2E2F5E2E2E2EFF5E2E2F5F5F5F5F5F5F5F5F5E2E2E2E2E2E2E2E2E2F5F5F5F5F5F5F5F5F5F5F5F5F5F5F5F5E2E2E2E2E2E2E2E2E2F5F5F5F5F5F5F5F5F5F5F5F5F5F5F5F5E2E2E2E2E2E2E2E2E2F5F5F5F5F5F5F5F5F5F5F5F5F5
310
F5F5F5E2E2E2E2E2E2E2E2E2F5F5F5F5F5F5F5F5E2E2E2EFF5E2E2E2E2E2E2E2E2E2E2E2E2E2E2E2E2E2E2E2E2E2E2E2E2E2E2E2E2E2E2E2E2E2E2E2E2E2E2E2E2E2E2E2E2E2E2E2E2E2E2E2E2E2E2E2E2E2E2E2E2E2E2E2E2E2E2E2E2E2E2E2E2E2E2E2E2E2E2E2E2E2E2E2E2E2E2E2E2E2E2E2E2E2E2E2E2E2E2E2E2E2E2
310
E2E2E2F5EFF5E2E2E2E2E2E2E2E2E2E2E2E2E2E2E2E2E2E2E2E2E2E2E2E2E2E2E2E2E2E2E2E2E2E2E2E2E2E2E2E2E2E2E2E2E2E2E2E2E2E2E2E2E2E2E2E2E2E2E2E2E2E2E2E2E2E2E2E2E2E2E2E2E2E2E2E2E2E2E2E2E2E2E2E2E2E2E2E2E2E2E2E2E2E2E2E2E2E2E2E2E2E2E2E2E2F5EFF5E2E2E2E2E2E2E2E2E2E2E2E2E2
310
E2E2E2E2E2E2E2E2E2E2E2E2E2E2E2E2E2E2E2E2E2E2E2E2E2E2E2E2E2E2E2E2E2E2E2E2E2E2E2E2E2E2E2E2E2E2E2E2E2E2E2E2E2E2E2E2E2E2E2E2E2E2E2E2E2E2E2E2E2E2E2E2E2E2E2E2E2E2E2E2E2E2E2E2E2E2E2E2E2E2E2E2F5EFF5F5F5F5F5F5F5F5F5F5F5F5F5F5F5F5F5F5F5F5F5F5F5F5F5F5F5F5F5F5F5F5F5
310
F5F5F5F5F5F5F5F5F5F5F5F5F5F5F5F5F5F5F5F5F5F5F5F5F5F5F5F5F5F5F5F5F5F5F5F5F5F5F5F5F5F5F5F5F5F5F5F5F5F5F5F5F5F5F5F5F5F5F5F5F5F5F5F5F5F5F5F5F5F5F5F5F5E2EFEFEFEFEFEFEFEFEFEFEFEFEFEFEFEFEFEFEFEFEFEFEFEFEFEFEFEFEFEFEFEFEFEFEFEFEFEFEFEFEFEFEFEFEFEFEFEFEFEFEFEFEF
310
EFEFEFEFEFEFEFEFEFEFEFEFEFEFEFEFEFEFEFEFEFEFEFEFEFEFEFEFEFEFEFEFEFEFEFEFEFEFEFEFEFEFEFEFEFEFEFEFEFEFEFEFEFEFE2
  0
ENDSEC
  0
EOF
