  0
SECTION
  2
HEADER
  9
$ACADVER
  1
AC1015
  9
$ACADMAINTVER
 70
    20
  9
$DWGCODEPAGE
  3
ANSI_1252
  9
$INSBASE
 10
0.0
 20
0.0
 30
0.0
  9
$EXTMIN
 10
44.67880437949174
 20
110.5319249725039
 30
0.0
  9
$EXTMAX
 10
291.2524033791507
 20
342.2660071839274
 30
0.0
  9
$LIMMIN
 10
0.0
 20
0.0
  9
$LIMMAX
 10
17.0
 20
11.0
  9
$ORTHOMODE
 70
     1
  9
$REGENMODE
 70
     1
  9
$FILLMODE
 70
     1
  9
$QTEXTMODE
 70
     0
  9
$MIRRTEXT
 70
     1
  9
$LTSCALE
 40
20.0
  9
$ATTMODE
 70
     1
  9
$TEXTSIZE
 40
2.0
  9
$TRACEWID
 40
0.05
  9
$TEXTSTYLE
  7
WEB PAGE
  9
$CLAYER
  8
0
  9
$CELTYPE
  6
BYLAYER
  9
$CECOLOR
 62
   256
  9
$CELTSCALE
 40
1.0
  9
$DISPSILH
 70
     0
  9
$DIMSCALE
 40
1.0
  9
$DIMASZ
 40
3.0
  9
$DIMEXO
 40
2.0
  9
$DIMDLI
 40
1.0
  9
$DIMRND
 40
0.0
  9
$DIMDLE
 40
0.0
  9
$DIMEXE
 40
1.0
  9
$DIMTP
 40
0.0
  9
$DIMTM
 40
0.0
  9
$DIMTXT
 40
1.75
  9
$DIMCEN
 40
1.0
  9
$DIMTSZ
 40
0.0
  9
$DIMTOL
 70
     0
  9
$DIMLIM
 70
     0
  9
$DIMTIH
 70
     1
  9
$DIMTOH
 70
     1
  9
$DIMSE1
 70
     0
  9
$DIMSE2
 70
     0
  9
$DIMTAD
 70
     0
  9
$DIMZIN
 70
     0
  9
$DIMBLK
  1

  9
$DIMASO
 70
     1
  9
$DIMSHO
 70
     1
  9
$DIMPOST
  1

  9
$DIMAPOST
  1

  9
$DIMALT
 70
     0
  9
$DIMALTD
 70
     2
  9
$DIMALTF
 40
25.4
  9
$DIMLFAC
 40
1.0
  9
$DIMTOFL
 70
     0
  9
$DIMTVP
 40
0.0
  9
$DIMTIX
 70
     0
  9
$DIMSOXD
 70
     0
  9
$DIMSAH
 70
     0
  9
$DIMBLK1
  1

  9
$DIMBLK2
  1

  9
$DIMSTYLE
  2
STANDARD
  9
$DIMCLRD
 70
     0
  9
$DIMCLRE
 70
     0
  9
$DIMCLRT
 70
     0
  9
$DIMTFAC
 40
1.0
  9
$DIMGAP
 40
1.0
  9
$DIMJUST
 70
     0
  9
$DIMSD1
 70
     0
  9
$DIMSD2
 70
     0
  9
$DIMTOLJ
 70
     1
  9
$DIMTZIN
 70
     0
  9
$DIMALTZ
 70
     0
  9
$DIMALTTZ
 70
     0
  9
$DIMUPT
 70
     0
  9
$DIMDEC
 70
     4
  9
$DIMTDEC
 70
     4
  9
$DIMALTU
 70
     2
  9
$DIMALTTD
 70
     2
  9
$DIMTXSTY
  7
WEB PAGE
  9
$DIMAUNIT
 70
     0
  9
$DIMADEC
 70
     2
  9
$DIMALTRND
 40
0.0
  9
$DIMAZIN
 70
     0
  9
$DIMDSEP
 70
    46
  9
$DIMATFIT
 70
     3
  9
$DIMFRAC
 70
     2
  9
$DIMLDRBLK
  1

  9
$DIMLUNIT
 70
     4
  9
$DIMLWD
 70
    -2
  9
$DIMLWE
 70
    -2
  9
$DIMTMOVE
 70
     0
  9
$LUNITS
 70
     4
  9
$LUPREC
 70
     4
  9
$SKETCHINC
 40
0.1
  9
$FILLETRAD
 40
0.0
  9
$AUNITS
 70
     1
  9
$AUPREC
 70
     4
  9
$MENU
  1
acad
  9
$ELEVATION
 40
0.0
  9
$PELEVATION
 40
0.0
  9
$THICKNESS
 40
0.0
  9
$LIMCHECK
 70
     0
  9
$CHAMFERA
 40
0.0
  9
$CHAMFERB
 40
0.0
  9
$CHAMFERC
 40
0.0
  9
$CHAMFERD
 40
0.0
  9
$SKPOLY
 70
     0
  9
$TDCREATE
 40
2451029.636190972
  9
$TDUCREATE
 40
2451029.844524306
  9
$TDUPDATE
 40
2454776.400066493
  9
$TDUUPDATE
 40
2454776.608399827
  9
$TDINDWG
 40
3.1956624190
  9
$TDUSRTIMER
 40
3.1956624190
  9
$USRTIMER
 70
     1
  9
$ANGBASE
 50
0.0
  9
$ANGDIR
 70
     0
  9
$PDMODE
 70
     2
  9
$PDSIZE
 40
0.0
  9
$PLINEWID
 40
0.0
  9
$SPLFRAME
 70
     0
  9
$SPLINETYPE
 70
     6
  9
$SPLINESEGS
 70
     8
  9
$HANDSEED
  5
143B3
  9
$SURFTAB1
 70
     6
  9
$SURFTAB2
 70
     6
  9
$SURFTYPE
 70
     6
  9
$SURFU
 70
     6
  9
$SURFV
 70
     6
  9
$UCSBASE
  2

  9
$UCSNAME
  2

  9
$UCSORG
 10
0.0
 20
0.0
 30
0.0
  9
$UCSXDIR
 10
1.0
 20
0.0
 30
0.0
  9
$UCSYDIR
 10
0.0
 20
1.0
 30
0.0
  9
$UCSORTHOREF
  2

  9
$UCSORTHOVIEW
 70
     0
  9
$UCSORGTOP
 10
0.0
 20
0.0
 30
0.0
  9
$UCSORGBOTTOM
 10
0.0
 20
0.0
 30
0.0
  9
$UCSORGLEFT
 10
0.0
 20
0.0
 30
0.0
  9
$UCSORGRIGHT
 10
0.0
 20
0.0
 30
0.0
  9
$UCSORGFRONT
 10
0.0
 20
0.0
 30
0.0
  9
$UCSORGBACK
 10
0.0
 20
0.0
 30
0.0
  9
$PUCSBASE
  2

  9
$PUCSNAME
  2

  9
$PUCSORG
 10
0.0
 20
0.0
 30
0.0
  9
$PUCSXDIR
 10
1.0
 20
0.0
 30
0.0
  9
$PUCSYDIR
 10
0.0
 20
1.0
 30
0.0
  9
$PUCSORTHOREF
  2

  9
$PUCSORTHOVIEW
 70
     0
  9
$PUCSORGTOP
 10
0.0
 20
0.0
 30
0.0
  9
$PUCSORGBOTTOM
 10
0.0
 20
0.0
 30
0.0
  9
$PUCSORGLEFT
 10
0.0
 20
0.0
 30
0.0
  9
$PUCSORGRIGHT
 10
0.0
 20
0.0
 30
0.0
  9
$PUCSORGFRONT
 10
0.0
 20
0.0
 30
0.0
  9
$PUCSORGBACK
 10
0.0
 20
0.0
 30
0.0
  9
$USERI1
 70
     0
  9
$USERI2
 70
     0
  9
$USERI3
 70
     0
  9
$USERI4
 70
     0
  9
$USERI5
 70
     0
  9
$USERR1
 40
0.0
  9
$USERR2
 40
0.0
  9
$USERR3
 40
0.0
  9
$USERR4
 40
0.0
  9
$USERR5
 40
0.0
  9
$WORLDVIEW
 70
     1
  9
$SHADEDGE
 70
     3
  9
$SHADEDIF
 70
    70
  9
$TILEMODE
 70
     1
  9
$MAXACTVP
 70
    16
  9
$PINSBASE
 10
0.0
 20
0.0
 30
0.0
  9
$PLIMCHECK
 70
     0
  9
$PEXTMIN
 10
1.000000000000000E+20
 20
1.000000000000000E+20
 30
1.000000000000000E+20
  9
$PEXTMAX
 10
-1.000000000000000E+20
 20
-1.000000000000000E+20
 30
-1.000000000000000E+20
  9
$PLIMMIN
 10
-0.2229123152380561
 20
-0.1467694611557952
  9
$PLIMMAX
 10
8.277087444466054
 20
10.85323029854831
  9
$UNITMODE
 70
     0
  9
$VISRETAIN
 70
     0
  9
$PLINEGEN
 70
     0
  9
$PSLTSCALE
 70
     1
  9
$TREEDEPTH
 70
  3020
  9
$CMLSTYLE
  2
STANDARD
  9
$CMLJUST
 70
     0
  9
$CMLSCALE
 40
1.0
  9
$PROXYGRAPHICS
 70
     1
  9
$MEASUREMENT
 70
     0
  9
$CELWEIGHT
370
    -1
  9
$ENDCAPS
280
     0
  9
$JOINSTYLE
280
     0
  9
$LWDISPLAY
290
     0
  9
$INSUNITS
 70
     1
  9
$HYPERLINKBASE
  1

  9
$STYLESHEET
  1

  9
$XEDIT
290
     1
  9
$CEPSNTYPE
380
     0
  9
$PSTYLEMODE
290
     1
  9
$FINGERPRINTGUID
  2
{EED38BEA-5B6B-467F-90D5-C3127D1C881D}
  9
$VERSIONGUID
  2
{EA897CCC-24CE-4D24-852F-9619FD8738E0}
  9
$EXTNAMES
290
     1
  9
$PSVPSCALE
 40
0.0
  9
$OLESTARTUP
290
     0
  0
ENDSEC
  0
SECTION
  2
CLASSES
  0
CLASS
  1
DICTIONARYVAR
  2
AcDbDictionaryVar
  3
ObjectDBX Classes
 90
        0
280
     0
281
     0
  0
CLASS
  1
ACDBDICTIONARYWDFLT
  2
AcDbDictionaryWithDefault
  3
ObjectDBX Classes
 90
        0
280
     0
281
     0
  0
CLASS
  1
ACDBPLACEHOLDER
  2
AcDbPlaceHolder
  3
ObjectDBX Classes
 90
        0
280
     0
281
     0
  0
CLASS
  1
LAYOUT
  2
AcDbLayout
  3
ObjectDBX Classes
 90
        0
280
     0
281
     0
  0
CLASS
  1
MATERIAL
  2
AcDbMaterial
  3
ObjectDBX Classes
 90
     1024
280
     0
281
     0
  0
CLASS
  1
VISUALSTYLE
  2
AcDbVisualStyle
  3
ObjectDBX Classes
 90
     4095
280
     0
281
     0
  0
CLASS
  1
TABLESTYLE
  2
AcDbTableStyle
  3
ObjectDBX Classes
 90
     4095
280
     0
281
     0
  0
CLASS
  1
SORTENTSTABLE
  2
AcDbSortentsTable
  3
ObjectDBX Classes
 90
        0
280
     0
281
     0
  0
ENDSEC
  0
SECTION
  2
TABLES
  0
TABLE
  2
VPORT
  5
8
102
{ACAD_XDICTIONARY
360
1425F
102
}
330
0
100
AcDbSymbolTable
 70
     1
  0
VPORT
  5
13F40
330
8
100
AcDbSymbolTableRecord
100
AcDbViewportTableRecord
  2
*Active
 70
     0
 10
0.0
 20
0.0
 11
1.0
 21
1.0
 12
167.9692117013994
 22
226.4007965220503
 13
0.0
 23
0.0
 14
1.0
 24
1.0
 15
0.25
 25
0.25
 16
0.0
 26
0.0
 36
1.0
 17
0.0
 27
0.0
 37
0.0
 40
233.562364752485
 41
1.469833119383825
 42
50.0
 43
0.0
 44
0.0
 50
89.99999999999872
 51
0.0
 71
     0
 72
   100
 73
     1
 74
     0
 75
     0
 76
     0
 77
     0
 78
     0
281
     0
 65
     1
110
0.0
120
0.0
130
0.0
111
1.0
121
0.0
131
0.0
112
0.0
122
1.0
132
0.0
 79
     0
146
0.0
  0
ENDTAB
  0
TABLE
  2
LTYPE
  5
5
330
0
100
AcDbSymbolTable
 70
     4
  0
LTYPE
  5
11
330
5
100
AcDbSymbolTableRecord
100
AcDbLinetypeTableRecord
  2
BYBLOCK
 70
     0
  3

 72
    65
 73
     0
 40
0.0
  0
LTYPE
  5
12
330
5
100
AcDbSymbolTableRecord
100
AcDbLinetypeTableRecord
  2
BYLAYER
 70
     0
  3

 72
    65
 73
     0
 40
0.0
  0
LTYPE
  5
13
330
5
100
AcDbSymbolTableRecord
100
AcDbLinetypeTableRecord
  2
CONTINUOUS
 70
     0
  3
Solid line
 72
    65
 73
     0
 40
0.0
  0
LTYPE
  5
3A
330
5
100
AcDbSymbolTableRecord
100
AcDbLinetypeTableRecord
  2
HIDDEN
 70
     0
  3
__ __ __ __ __ __ __ __ __ __ __ __ __ __ __ __
 72
    65
 73
     2
 40
0.375
 49
0.25
 74
     0
 49
-0.125
 74
     0
  0
LTYPE
  5
12261
330
5
100
AcDbSymbolTableRecord
100
AcDbLinetypeTableRecord
  2
DASHED2
 70
     0
  3
Dashed (.5x) _ _ _ _ _ _ _ _ _ _ _ _ _ _ _ _ _
 72
    65
 73
     2
 40
0.375
 49
0.25
 74
     0
 49
-0.125
 74
     0
  0
LTYPE
  5
12636
330
5
100
AcDbSymbolTableRecord
100
AcDbLinetypeTableRecord
  2
PHANTOM
 70
     0
  3
______  __  __  ______  __  __  ______  __  __ 
 72
    65
 73
     6
 40
2.5
 49
1.25
 74
     0
 49
-0.25
 74
     0
 49
0.25
 74
     0
 49
-0.25
 74
     0
 49
0.25
 74
     0
 49
-0.25
 74
     0
  0
ENDTAB
  0
TABLE
  2
LAYER
  5
2
102
{ACAD_XDICTIONARY
360
13F62
102
}
330
0
100
AcDbSymbolTable
 70
    13
  0
LAYER
  5
E
330
2
100
AcDbSymbolTableRecord
100
AcDbLayerTableRecord
  2
0
 70
     0
 62
     7
  6
CONTINUOUS
370
    -3
390
B579
  0
LAYER
  5
41
330
2
100
AcDbSymbolTableRecord
100
AcDbLayerTableRecord
  2
BDR
 70
     0
 62
     7
  6
CONTINUOUS
370
    -3
390
B579
  0
LAYER
  5
44
330
2
100
AcDbSymbolTableRecord
100
AcDbLayerTableRecord
  2
AME_FRZ
 70
     0
 62
     7
  6
CONTINUOUS
370
    -3
390
B579
  0
LAYER
  5
45
330
2
100
AcDbSymbolTableRecord
100
AcDbLayerTableRecord
  2
ASHADE
 70
     0
 62
     7
  6
CONTINUOUS
370
    -3
390
B579
  0
LAYER
  5
B91F
330
2
100
AcDbSymbolTableRecord
100
AcDbLayerTableRecord
  2
HATCH
 70
     0
 62
     4
  6
CONTINUOUS
370
    -3
390
B579
  0
LAYER
  5
F047
330
2
100
AcDbSymbolTableRecord
100
AcDbLayerTableRecord
  2
Defpoints
 70
     0
 62
     7
  6
CONTINUOUS
290
     0
370
    -3
390
B579
  0
LAYER
  5
111E5
330
2
100
AcDbSymbolTableRecord
100
AcDbLayerTableRecord
  2
TEXT
 70
     0
 62
     7
  6
CONTINUOUS
370
    25
390
B579
  0
LAYER
  5
112C9
330
2
100
AcDbSymbolTableRecord
100
AcDbLayerTableRecord
  2
OBJECT
 70
     0
 62
     1
  6
CONTINUOUS
370
    -3
390
B579
  0
LAYER
  5
117C7
330
2
100
AcDbSymbolTableRecord
100
AcDbLayerTableRecord
  2
FRAMING
 70
     0
 62
     7
  6
CONTINUOUS
370
    25
390
B579
  0
LAYER
  5
1210D
330
2
100
AcDbSymbolTableRecord
100
AcDbLayerTableRecord
  2
UPPER-ANGLE
 70
     0
 62
     7
  6
CONTINUOUS
370
    -3
390
B579
  0
LAYER
  5
12637
330
2
100
AcDbSymbolTableRecord
100
AcDbLayerTableRecord
  2
PHANTOM
 70
     0
 62
     6
  6
PHANTOM
370
    -3
390
B579
  0
LAYER
  5
12639
330
2
100
AcDbSymbolTableRecord
100
AcDbLayerTableRecord
  2
SPLICE-PLATE
 70
     0
 62
     3
  6
CONTINUOUS
370
    -3
390
B579
  0
LAYER
  5
14217
330
2
100
AcDbSymbolTableRecord
100
AcDbLayerTableRecord
  2
BORDER
 70
     0
 62
     7
  6
CONTINUOUS
370
    -3
390
B579
  0
ENDTAB
  0
TABLE
  2
STYLE
  5
3
330
0
100
AcDbSymbolTable
 70
     3
  0
STYLE
  5
F
330
3
100
AcDbSymbolTableRecord
100
AcDbTextStyleTableRecord
  2
STANDARD
 70
     0
 40
0.0
 41
1.0
 50
0.0
 71
     0
 42
2.0
  3
TIMES.TTF
  4

1001
ACAD
1000
Times New Roman
1071
       18
  0
STYLE
  5
1D21
330
3
100
AcDbSymbolTableRecord
100
AcDbTextStyleTableRecord
  2
SIMPLEX
 70
     0
 40
0.1
 41
0.6
 50
0.0
 71
     0
 42
0.1
  3
SIMPLEX.shx
  4

  0
STYLE
  5
10B94
330
3
100
AcDbSymbolTableRecord
100
AcDbTextStyleTableRecord
  2
WEB PAGE
 70
     0
 40
0.0
 41
1.0
 50
0.0
 71
     0
 42
2.0
  3
TIMES.TTF
  4

1001
ACAD
1000
Times New Roman
1071
       18
  0
ENDTAB
  0
TABLE
  2
VIEW
  5
6
330
0
100
AcDbSymbolTable
 70
     0
  0
ENDTAB
  0
TABLE
  2
UCS
  5
7
330
0
100
AcDbSymbolTable
 70
     0
  0
ENDTAB
  0
TABLE
  2
APPID
  5
9
330
0
100
AcDbSymbolTable
 70
     9
  0
APPID
  5
10
330
9
100
AcDbSymbolTableRecord
100
AcDbRegAppTableRecord
  2
ACAD
 70
     0
  0
APPID
  5
3F
330
9
100
AcDbSymbolTableRecord
100
AcDbRegAppTableRecord
  2
AME_SOL
 70
     0
  0
APPID
  5
40
330
9
100
AcDbSymbolTableRecord
100
AcDbRegAppTableRecord
  2
AVE_RENDER
 70
     0
  0
APPID
  5
71A7
330
9
100
AcDbSymbolTableRecord
100
AcDbRegAppTableRecord
  2
AVE_ENTITY_MATERIAL
 70
     0
  0
APPID
  5
71A8
330
9
100
AcDbSymbolTableRecord
100
AcDbRegAppTableRecord
  2
AVE_FINISH
 70
     0
  0
APPID
  5
71A9
330
9
100
AcDbSymbolTableRecord
100
AcDbRegAppTableRecord
  2
AVE_MATERIAL
 70
     0
  0
APPID
  5
71AA
330
9
100
AcDbSymbolTableRecord
100
AcDbRegAppTableRecord
  2
AVE_GLOBAL
 70
     0
  0
APPID
  5
123F8
330
9
100
AcDbSymbolTableRecord
100
AcDbRegAppTableRecord
  2
DCO15
 70
     0
  0
APPID
  5
13F61
330
9
100
AcDbSymbolTableRecord
100
AcDbRegAppTableRecord
  2
ACAD_PSEXT
 70
     0
  0
ENDTAB
  0
TABLE
  2
DIMSTYLE
  5
A
330
0
100
AcDbSymbolTable
 70
     1
100
AcDbDimStyleTable
 71
     1
340
190D
  0
DIMSTYLE
105
190D
102
{ACAD_REACTORS
330
11CDE
330
11CDF
330
11CE0
330
11CE1
330
11CFE
330
11EA8
330
1205D
330
12CC7
330
12DDA
330
11CFD
330
11D1F
330
12DD7
330
12DD9
330
12E10
330
14021
102
}
330
A
100
AcDbSymbolTableRecord
100
AcDbDimStyleTableRecord
  2
STANDARD
 70
     0
 41
3.0
 42
2.0
 43
1.0
 44
1.0
140
1.75
141
1.0
147
1.0
179
     2
276
     2
277
     4
340
10B94
  0
ENDTAB
  0
TABLE
  2
BLOCK_RECORD
  5
1
330
0
100
AcDbSymbolTable
 70
    25
  0
BLOCK_RECORD
  5
17
102
{ACAD_XDICTIONARY
360
1417E
102
}
330
1
100
AcDbSymbolTableRecord
100
AcDbBlockTableRecord
  2
*MODEL_SPACE
340
B57C
  0
BLOCK_RECORD
  5
14
330
1
100
AcDbSymbolTableRecord
100
AcDbBlockTableRecord
  2
*PAPER_SPACE
340
B57D
  0
BLOCK_RECORD
  5
20
330
1
100
AcDbSymbolTableRecord
100
AcDbBlockTableRecord
  2
AME_NIL
340
0
102
{BLKREFS
331
3374
331
3E3C
102
}
  0
BLOCK_RECORD
  5
21
330
1
100
AcDbSymbolTableRecord
100
AcDbBlockTableRecord
  2
AME_SOL
340
0
102
{BLKREFS
331
3375
331
3E3D
102
}
  0
BLOCK_RECORD
  5
22
330
1
100
AcDbSymbolTableRecord
100
AcDbBlockTableRecord
  2
AVE_RENDER
340
0
102
{BLKREFS
331
3376
331
3377
331
3378
331
3E3E
331
3E3F
331
3E40
102
}
  0
BLOCK_RECORD
  5
11D2A
330
1
100
AcDbSymbolTableRecord
100
AcDbBlockTableRecord
  2
*D3
340
0
  0
BLOCK_RECORD
  5
11D37
330
1
100
AcDbSymbolTableRecord
100
AcDbBlockTableRecord
  2
*D4
340
0
  0
BLOCK_RECORD
  5
11D44
330
1
100
AcDbSymbolTableRecord
100
AcDbBlockTableRecord
  2
*D5
340
0
  0
BLOCK_RECORD
  5
11D51
330
1
100
AcDbSymbolTableRecord
100
AcDbBlockTableRecord
  2
*D6
340
0
  0
BLOCK_RECORD
  5
11D5E
330
1
100
AcDbSymbolTableRecord
100
AcDbBlockTableRecord
  2
*D7
340
0
  0
BLOCK_RECORD
  5
11EA9
330
1
100
AcDbSymbolTableRecord
100
AcDbBlockTableRecord
  2
*D8
340
0
  0
BLOCK_RECORD
  5
1205E
330
1
100
AcDbSymbolTableRecord
100
AcDbBlockTableRecord
  2
*D9
340
0
  0
BLOCK_RECORD
  5
1242D
330
1
100
AcDbSymbolTableRecord
100
AcDbBlockTableRecord
  2
TRA118
340
0
102
{BLKREFS
331
1245F
102
}
  0
BLOCK_RECORD
  5
12B7B
330
1
100
AcDbSymbolTableRecord
100
AcDbBlockTableRecord
  2
A$C64B310A0
340
0
102
{BLKREFS
331
12BA1
102
}
  0
BLOCK_RECORD
  5
12BA2
330
1
100
AcDbSymbolTableRecord
100
AcDbBlockTableRecord
  2
A$C72C1395F
340
0
102
{BLKREFS
331
12BF8
102
}
  0
BLOCK_RECORD
  5
12BB0
330
1
100
AcDbSymbolTableRecord
100
AcDbBlockTableRecord
  2
A$C35F41955
340
0
102
{BLKREFS
331
12BF9
102
}
  0
BLOCK_RECORD
  5
12BBF
330
1
100
AcDbSymbolTableRecord
100
AcDbBlockTableRecord
  2
OSP-7
340
0
102
{BLKREFS
331
12BFB
102
}
  0
BLOCK_RECORD
  5
12BCE
330
1
100
AcDbSymbolTableRecord
100
AcDbBlockTableRecord
  2
A$C73B81CB7
340
0
102
{BLKREFS
331
12BFA
102
}
  0
BLOCK_RECORD
  5
12C55
330
1
100
AcDbSymbolTableRecord
100
AcDbBlockTableRecord
  2
HA90
340
0
102
{BLKREFS
331
13C75
102
}
  0
BLOCK_RECORD
  5
12CC8
330
1
100
AcDbSymbolTableRecord
100
AcDbBlockTableRecord
  2
*D17
340
0
  0
BLOCK_RECORD
  5
12D14
330
1
100
AcDbSymbolTableRecord
100
AcDbBlockTableRecord
  2
WD-9-4-375
340
0
102
{BLKREFS
331
12D2B
102
}
1001
ACAD
1000
DesignCenter Data
1002
{
1070
     1
1070
     1
1002
}
  0
BLOCK_RECORD
  5
12D36
330
1
100
AcDbSymbolTableRecord
100
AcDbBlockTableRecord
  2
A$C72267DA4
340
0
102
{BLKREFS
331
12D40
102
}
  0
BLOCK_RECORD
  5
12D3F
330
1
100
AcDbSymbolTableRecord
100
AcDbBlockTableRecord
  2
A$C66E47D23
340
0
102
{BLKREFS
331
12D4C
102
}
  0
BLOCK_RECORD
  5
12DDB
330
1
100
AcDbSymbolTableRecord
100
AcDbBlockTableRecord
  2
*D21
340
0
  0
BLOCK_RECORD
  5
13C96
330
1
100
AcDbSymbolTableRecord
100
AcDbBlockTableRecord
  2
A$C0E042484
340
0
102
{BLKREFS
331
13CAE
102
}
  0
BLOCK_RECORD
  5
14022
330
1
100
AcDbSymbolTableRecord
100
AcDbBlockTableRecord
  2
*D23
340
0
  0
BLOCK_RECORD
  5
14180
102
{ACAD_XDICTIONARY
360
14181
102
}
330
1
100
AcDbSymbolTableRecord
100
AcDbBlockTableRecord
  2
A$C6C5E50C0
340
0
  0
ENDTAB
  0
ENDSEC
  0
SECTION
  2
BLOCKS
  0
BLOCK
  5
57
330
17
100
AcDbEntity
  8
0
100
AcDbBlockBegin
  2
*MODEL_SPACE
 70
     0
 10
0.0
 20
0.0
 30
0.0
  3
*MODEL_SPACE
  1

  0
ENDBLK
  5
58
330
17
100
AcDbEntity
  8
0
100
AcDbBlockEnd
  0
BLOCK
  5
55
330
14
100
AcDbEntity
 67
     1
  8
0
100
AcDbBlockBegin
  2
*PAPER_SPACE
 70
     0
 10
0.0
 20
0.0
 30
0.0
  3
*PAPER_SPACE
  1

  0
ENDBLK
  5
56
330
14
100
AcDbEntity
 67
     1
  8
0
100
AcDbBlockEnd
  0
BLOCK
  5
91E
330
20
100
AcDbEntity
  8
0
100
AcDbBlockBegin
  2
AME_NIL
 70
     0
 10
0.0
 20
0.0
 30
0.0
  3
AME_NIL
  1
AME_NIL
  0
ENDBLK
  5
91F
330
20
100
AcDbEntity
  8
0
100
AcDbBlockEnd
  0
BLOCK
  5
920
330
21
100
AcDbEntity
  8
0
100
AcDbBlockBegin
  2
AME_SOL
 70
     0
 10
0.0
 20
0.0
 30
0.0
  3
AME_SOL
  1
AME_SOL
  0
ENDBLK
  5
921
330
21
100
AcDbEntity
  8
0
100
AcDbBlockEnd
  0
BLOCK
  5
922
330
22
100
AcDbEntity
  8
0
100
AcDbBlockBegin
  2
AVE_RENDER
 70
     0
 10
0.0
 20
0.0
 30
0.0
  3
AVE_RENDER
  1
AVE_RENDER
  0
ENDBLK
  5
923
330
22
100
AcDbEntity
  8
0
100
AcDbBlockEnd
  0
BLOCK
  5
11D35
330
11D2A
100
AcDbEntity
  8
0
100
AcDbBlockBegin
  2
*D3
 70
     1
 10
0.0
 20
0.0
 30
0.0
  3
*D3
  1

  0
LINE
  5
13FA7
330
11D2A
100
AcDbEntity
  8
TEXT
 62
     0
370
    -2
100
AcDbLine
 10
132.2169295018095
 20
123.0362941793405
 30
0.0
 11
75.21286151468958
 21
123.0362941793405
 31
0.0
  0
LINE
  5
13FA8
330
11D2A
100
AcDbEntity
  8
TEXT
 62
     0
370
    -2
100
AcDbLine
 10
140.5919295018095
 20
285.6966236099653
 30
0.0
 11
75.2128615146896
 21
285.6966236099653
 31
0.0
  0
LINE
  5
13FA9
330
11D2A
100
AcDbEntity
  8
TEXT
 62
     0
370
    -2
100
AcDbLine
 10
76.21286151468957
 20
126.0362941793405
 30
0.0
 11
76.21286151468959
 21
193.1405723809737
 31
0.0
  0
LINE
  5
13FAA
330
11D2A
100
AcDbEntity
  8
TEXT
 62
     0
370
    -2
100
AcDbLine
 10
76.21286151468961
 20
282.6966236099654
 30
0.0
 11
76.21286151468959
 21
199.8463522415841
 31
0.0
  0
SOLID
  5
13FAB
330
11D2A
100
AcDbEntity
  8
TEXT
 62
     0
100
AcDbTrace
 10
75.71286151468958
 20
126.0362941793405
 30
0.0
 11
76.71286151468958
 21
126.0362941793405
 31
0.0
 12
76.21286151468957
 22
123.0362941793405
 32
0.0
 13
76.21286151468957
 23
123.0362941793405
 33
0.0
  0
SOLID
  5
13FAC
330
11D2A
100
AcDbEntity
  8
TEXT
 62
     0
100
AcDbTrace
 10
75.7128615146896
 20
282.6966236099654
 30
0.0
 11
76.71286151468961
 21
282.6966236099654
 31
0.0
 12
76.21286151468961
 22
285.6966236099653
 32
0.0
 13
76.21286151468961
 23
285.6966236099653
 33
0.0
  0
MTEXT
  5
13FAD
330
11D2A
100
AcDbEntity
  8
TEXT
 62
     0
100
AcDbMText
 10
76.21286151468956
 20
196.4934623112789
 30
0.0
 40
1.75
 41
0.0
 71
     5
 72
     1
  1
\A1;FLOOR TO\PSHAFT CENTER
  7
WEB PAGE
 73
     1
 44
1.0
1001
ACAD
1000
MTEXTBEGIN
1070
    73
1070
     1
1070
    44
1040
1.0
1070
    74
1070
     0
1000
MTEXTEND
  0
POINT
  5
13FAE
330
11D2A
100
AcDbEntity
  8
Defpoints
 62
     0
100
AcDbPoint
 10
134.2169295018095
 20
123.0362941793405
 30
0.0
  0
POINT
  5
13FAF
330
11D2A
100
AcDbEntity
  8
Defpoints
 62
     0
100
AcDbPoint
 10
142.5919295018095
 20
285.6966236099653
 30
0.0
  0
POINT
  5
13FB0
330
11D2A
100
AcDbEntity
  8
Defpoints
 62
     0
100
AcDbPoint
 10
76.21286151468961
 20
285.6966236099653
 30
0.0
  0
ENDBLK
  5
11D36
330
11D2A
100
AcDbEntity
  8
0
100
AcDbBlockEnd
  0
BLOCK
  5
11D42
330
11D37
100
AcDbEntity
  8
0
100
AcDbBlockBegin
  2
*D4
 70
     1
 10
0.0
 20
0.0
 30
0.0
  3
*D4
  1

  0
LINE
  5
13FB1
330
11D37
100
AcDbEntity
  8
TEXT
 62
     0
370
    -2
100
AcDbLine
 10
132.2169295018095
 20
123.0362941793405
 30
0.0
 11
53.99080870537495
 21
123.0362941793405
 31
0.0
  0
LINE
  5
13FB2
330
11D37
100
AcDbEntity
  8
TEXT
 62
     0
370
    -2
100
AcDbLine
 10
136.2169295018095
 20
289.7903736099653
 30
0.0
 11
53.99080870537499
 21
289.7903736099653
 31
0.0
  0
LINE
  5
13FB3
330
11D37
100
AcDbEntity
  8
TEXT
 62
     0
370
    -2
100
AcDbLine
 10
54.99080870537496
 20
126.0362941793405
 30
0.0
 11
54.99080870537497
 21
207.6395087918827
 31
0.0
  0
LINE
  5
13FB4
330
11D37
100
AcDbEntity
  8
TEXT
 62
     0
370
    -2
100
AcDbLine
 10
54.990808705375
 20
286.7903736099653
 30
0.0
 11
54.99080870537498
 21
214.3452886524931
 31
0.0
  0
SOLID
  5
13FB5
330
11D37
100
AcDbEntity
  8
TEXT
 62
     0
100
AcDbTrace
 10
54.49080870537496
 20
126.0362941793405
 30
0.0
 11
55.49080870537496
 21
126.0362941793405
 31
0.0
 12
54.99080870537496
 22
123.0362941793405
 32
0.0
 13
54.99080870537496
 23
123.0362941793405
 33
0.0
  0
SOLID
  5
13FB6
330
11D37
100
AcDbEntity
  8
TEXT
 62
     0
100
AcDbTrace
 10
54.490808705375
 20
286.7903736099653
 30
0.0
 11
55.49080870537499
 21
286.7903736099653
 31
0.0
 12
54.990808705375
 22
289.7903736099653
 32
0.0
 13
54.990808705375
 23
289.7903736099653
 33
0.0
  0
MTEXT
  5
13FB7
330
11D37
100
AcDbEntity
  8
TEXT
 62
     0
100
AcDbMText
 10
54.99080870537494
 20
210.9923987221879
 30
0.0
 40
1.75
 41
0.0
 71
     5
 72
     1
  1
\A1;MINIMUM\PCEILING HEIGHT
  7
WEB PAGE
 73
     1
 44
1.0
1001
ACAD
1000
MTEXTBEGIN
1070
    73
1070
     1
1070
    44
1040
1.0
1070
    74
1070
     0
1000
MTEXTEND
  0
POINT
  5
13FB8
330
11D37
100
AcDbEntity
  8
Defpoints
 62
     0
100
AcDbPoint
 10
134.2169295018095
 20
123.0362941793405
 30
0.0
  0
POINT
  5
13FB9
330
11D37
100
AcDbEntity
  8
Defpoints
 62
     0
100
AcDbPoint
 10
138.2169295018095
 20
289.7903736099653
 30
0.0
  0
POINT
  5
13FBA
330
11D37
100
AcDbEntity
  8
Defpoints
 62
     0
100
AcDbPoint
 10
54.990808705375
 20
289.7903736099653
 30
0.0
  0
ENDBLK
  5
11D43
330
11D37
100
AcDbEntity
  8
0
100
AcDbBlockEnd
  0
BLOCK
  5
11D4F
330
11D44
100
AcDbEntity
  8
0
100
AcDbBlockBegin
  2
*D5
 70
     1
 10
0.0
 20
0.0
 30
0.0
  3
*D5
  1

  0
LINE
  5
14003
330
11D44
100
AcDbEntity
  8
TEXT
 62
     0
370
    -2
100
AcDbLine
 10
189.844776579024
 20
123.0362941793405
 30
0.0
 11
162.2892683683931
 21
123.0362941793405
 31
0.0
  0
LINE
  5
14004
330
11D44
100
AcDbEntity
  8
TEXT
 62
     0
370
    -2
100
AcDbLine
 10
145.7631022049856
 20
219.0232070238178
 30
0.0
 11
164.2892683683931
 21
219.0232070238178
 31
0.0
  0
LINE
  5
14005
330
11D44
100
AcDbEntity
  8
TEXT
 62
     0
370
    -2
100
AcDbLine
 10
163.2892683683931
 20
126.0362941793405
 30
0.0
 11
163.2892683683931
 21
170.0678390604544
 31
0.0
  0
LINE
  5
14006
330
11D44
100
AcDbEntity
  8
TEXT
 62
     0
370
    -2
100
AcDbLine
 10
163.2892683683931
 20
216.0232070238178
 30
0.0
 11
163.2892683683931
 21
179.6902855877315
 31
0.0
  0
SOLID
  5
14007
330
11D44
100
AcDbEntity
  8
TEXT
 62
     0
100
AcDbTrace
 10
162.7892683683931
 20
126.0362941793405
 30
0.0
 11
163.7892683683931
 21
126.0362941793405
 31
0.0
 12
163.2892683683931
 22
123.0362941793405
 32
0.0
 13
163.2892683683931
 23
123.0362941793405
 33
0.0
  0
SOLID
  5
14008
330
11D44
100
AcDbEntity
  8
TEXT
 62
     0
100
AcDbTrace
 10
162.7892683683931
 20
216.0232070238178
 30
0.0
 11
163.7892683683931
 21
216.0232070238178
 31
0.0
 12
163.2892683683931
 22
219.0232070238178
 32
0.0
 13
163.2892683683931
 23
219.0232070238178
 33
0.0
  0
MTEXT
  5
14009
330
11D44
100
AcDbEntity
  8
TEXT
 62
     0
100
AcDbMText
 10
163.2892683683931
 20
174.879062324093
 30
0.0
 40
1.75
 41
0.0
 71
     5
 72
     1
  1
\A1;VERTICAL\PTRACK\PDOOR HEIGHT - 12"
  7
WEB PAGE
 73
     1
 44
1.0
1001
ACAD
1000
MTEXTBEGIN
1070
    73
1070
     1
1070
    44
1040
1.0
1070
    74
1070
     0
1000
MTEXTEND
  0
POINT
  5
1400A
330
11D44
100
AcDbEntity
  8
Defpoints
 62
     0
100
AcDbPoint
 10
191.844776579024
 20
123.0362941793405
 30
0.0
  0
POINT
  5
1400B
330
11D44
100
AcDbEntity
  8
Defpoints
 62
     0
100
AcDbPoint
 10
143.7631022049856
 20
219.0232070238178
 30
0.0
  0
POINT
  5
1400C
330
11D44
100
AcDbEntity
  8
Defpoints
 62
     0
100
AcDbPoint
 10
163.2892683683931
 20
219.0232070238178
 30
0.0
  0
ENDBLK
  5
11D50
330
11D44
100
AcDbEntity
  8
0
100
AcDbBlockEnd
  0
BLOCK
  5
11D5C
330
11D51
100
AcDbEntity
  8
0
100
AcDbBlockBegin
  2
*D6
 70
     1
 10
0.0
 20
0.0
 30
0.0
  3
*D6
  1

  0
LINE
  5
13FEE
330
11D51
100
AcDbEntity
  8
TEXT
 62
     0
370
    -2
100
AcDbLine
 10
132.2169295018094
 20
231.0362941793405
 30
0.0
 11
93.52600415692993
 21
231.0362941793405
 31
0.0
  0
LINE
  5
13FEF
330
11D51
100
AcDbEntity
  8
TEXT
 62
     0
370
    -2
100
AcDbLine
 10
132.2169295018095
 20
123.0362941793405
 30
0.0
 11
93.5260041569299
 21
123.0362941793405
 31
0.0
  0
LINE
  5
13FF0
330
11D51
100
AcDbEntity
  8
TEXT
 62
     0
370
    -2
100
AcDbLine
 10
94.52600415692993
 20
228.0362941793405
 30
0.0
 11
94.52600415692991
 21
180.3891841096457
 31
0.0
  0
LINE
  5
13FF1
330
11D51
100
AcDbEntity
  8
TEXT
 62
     0
370
    -2
100
AcDbLine
 10
94.52600415692989
 20
126.0362941793405
 30
0.0
 11
94.52600415692991
 21
173.6834042490353
 31
0.0
  0
SOLID
  5
13FF2
330
11D51
100
AcDbEntity
  8
TEXT
 62
     0
100
AcDbTrace
 10
94.02600415692992
 20
228.0362941793405
 30
0.0
 11
95.02600415692993
 21
228.0362941793405
 31
0.0
 12
94.52600415692993
 22
231.0362941793405
 32
0.0
 13
94.52600415692993
 23
231.0362941793405
 33
0.0
  0
SOLID
  5
13FF3
330
11D51
100
AcDbEntity
  8
TEXT
 62
     0
100
AcDbTrace
 10
94.0260041569299
 20
126.0362941793405
 30
0.0
 11
95.0260041569299
 21
126.0362941793405
 31
0.0
 12
94.52600415692989
 22
123.0362941793405
 32
0.0
 13
94.52600415692989
 23
123.0362941793405
 33
0.0
  0
MTEXT
  5
13FF4
330
11D51
100
AcDbEntity
  8
TEXT
 62
     0
100
AcDbMText
 10
94.52600415692989
 20
177.0362941793405
 30
0.0
 40
1.75
 41
0.0
 71
     5
 72
     1
  1
\A1;OPENING\PHEIGHT
  7
WEB PAGE
 73
     1
 44
1.0
1001
ACAD
1000
MTEXTBEGIN
1070
    73
1070
     1
1070
    44
1040
1.0
1070
    74
1070
     0
1000
MTEXTEND
  0
POINT
  5
13FF5
330
11D51
100
AcDbEntity
  8
Defpoints
 62
     0
100
AcDbPoint
 10
134.2169295018094
 20
231.0362941793405
 30
0.0
  0
POINT
  5
13FF6
330
11D51
100
AcDbEntity
  8
Defpoints
 62
     0
100
AcDbPoint
 10
134.2169295018095
 20
123.0362941793405
 30
0.0
  0
POINT
  5
13FF7
330
11D51
100
AcDbEntity
  8
Defpoints
 62
     0
100
AcDbPoint
 10
94.52600415692989
 20
123.0362941793405
 30
0.0
  0
ENDBLK
  5
11D5D
330
11D51
100
AcDbEntity
  8
0
100
AcDbBlockEnd
  0
BLOCK
  5
11D6A
330
11D5E
100
AcDbEntity
  8
0
100
AcDbBlockBegin
  2
*D7
 70
     1
 10
0.0
 20
0.0
 30
0.0
  3
*D7
  1

  0
LINE
  5
14057
330
11D5E
100
AcDbEntity
  8
TEXT
 62
     0
370
    -2
100
AcDbLine
 10
132.2169295018094
 20
231.0362941793405
 30
0.0
 11
93.77600415692992
 21
231.0362941793405
 31
0.0
  0
LINE
  5
14058
330
11D5E
100
AcDbEntity
  8
TEXT
 62
     0
370
    -2
100
AcDbLine
 10
136.2169295018095
 20
289.7903736099653
 30
0.0
 11
93.77600415692993
 21
289.7903736099653
 31
0.0
  0
LINE
  5
14059
330
11D5E
100
AcDbEntity
  8
TEXT
 62
     0
370
    -2
100
AcDbLine
 10
94.77600415692991
 20
234.0362941793405
 30
0.0
 11
94.77600415692991
 21
286.7903736099653
 31
0.0
  0
LINE
  5
1405A
330
11D5E
100
AcDbEntity
  8
TEXT
 62
     0
370
    -2
100
AcDbLine
 10
94.77600415692993
 20
289.7903736099653
 30
0.0
 11
94.77600415692993
 21
300.368637741201
 31
0.0
  0
LINE
  5
1405B
330
11D5E
100
AcDbEntity
  8
TEXT
 62
     0
370
    -2
100
AcDbLine
 10
94.77600415692993
 20
300.368637741201
 30
0.0
 11
97.77600415692994
 21
300.368637741201
 31
0.0
  0
SOLID
  5
1405C
330
11D5E
100
AcDbEntity
  8
TEXT
 62
     0
100
AcDbTrace
 10
94.27600415692991
 20
234.0362941793405
 30
0.0
 11
95.27600415692992
 21
234.0362941793405
 31
0.0
 12
94.77600415692991
 22
231.0362941793405
 32
0.0
 13
94.77600415692991
 23
231.0362941793405
 33
0.0
  0
SOLID
  5
1405D
330
11D5E
100
AcDbEntity
  8
TEXT
 62
     0
100
AcDbTrace
 10
94.27600415692991
 20
286.7903736099653
 30
0.0
 11
95.27600415692992
 21
286.7903736099653
 31
0.0
 12
94.77600415692993
 22
289.7903736099653
 32
0.0
 13
94.77600415692993
 23
289.7903736099653
 33
0.0
  0
MTEXT
  5
1405E
330
11D5E
100
AcDbEntity
  8
TEXT
 62
     0
100
AcDbMText
 10
106.1917395570741
 20
300.368637741201
 30
0.0
 40
1.75
 41
0.0
 71
     5
 72
     1
  1
\A1;MINIMUM\PHEADROOM
  7
WEB PAGE
 73
     1
 44
1.0
1001
ACAD
1000
MTEXTBEGIN
1070
    73
1070
     1
1070
    44
1040
1.0
1070
    74
1070
     0
1000
MTEXTEND
  0
POINT
  5
1405F
330
11D5E
100
AcDbEntity
  8
Defpoints
 62
     0
100
AcDbPoint
 10
134.2169295018094
 20
231.0362941793405
 30
0.0
  0
POINT
  5
14060
330
11D5E
100
AcDbEntity
  8
Defpoints
 62
     0
100
AcDbPoint
 10
138.2169295018095
 20
289.7903736099653
 30
0.0
  0
POINT
  5
14061
330
11D5E
100
AcDbEntity
  8
Defpoints
 62
     0
100
AcDbPoint
 10
94.77600415692993
 20
289.7903736099653
 30
0.0
  0
ENDBLK
  5
11D6B
330
11D5E
100
AcDbEntity
  8
0
100
AcDbBlockEnd
  0
BLOCK
  5
11EB4
330
11EA9
100
AcDbEntity
  8
0
100
AcDbBlockBegin
  2
*D8
 70
     1
 10
0.0
 20
0.0
 30
0.0
  3
*D8
  1

  0
LINE
  5
14076
330
11EA9
100
AcDbEntity
  8
TEXT
 62
     0
370
    -2
100
AcDbLine
 10
142.7545088592659
 20
265.5277237689961
 30
0.0
 11
141.6707700767897
 21
268.8597335517203
 31
0.0
  0
LINE
  5
14077
330
11EA9
100
AcDbEntity
  8
TEXT
 62
     0
370
    -2
100
AcDbLine
 10
250.2119290366907
 20
307.2297252065165
 30
0.0
 11
251.7326131853438
 21
302.5543047623314
 31
0.0
  0
LINE
  5
14078
330
11EA9
100
AcDbEntity
  8
TEXT
 62
     0
370
    -2
100
AcDbLine
 10
144.8329636664851
 20
268.8366749028237
 30
0.0
 11
188.4297990086521
 21
283.0165796253446
 31
0.0
  0
LINE
  5
14079
330
11EA9
100
AcDbEntity
  8
TEXT
 62
     0
370
    -2
100
AcDbLine
 10
248.5704195956483
 20
302.577363411228
 30
0.0
 11
226.9126443714448
 21
295.5331551155872
 31
0.0
  0
SOLID
  5
1407A
330
11EA9
100
AcDbEntity
  8
TEXT
 62
     0
100
AcDbTrace
 10
144.6783127843349
 20
269.3121568737229
 30
0.0
 11
144.9876145486354
 21
268.3611929319245
 31
0.0
 12
141.9800718410902
 22
267.908769609922
 32
0.0
 13
141.9800718410902
 23
267.908769609922
 33
0.0
  0
SOLID
  5
1407B
330
11EA9
100
AcDbEntity
  8
TEXT
 62
     0
100
AcDbTrace
 10
248.4157687134981
 20
303.0528453821272
 30
0.0
 11
248.7250704777986
 21
302.1018814403289
 31
0.0
 12
251.4233114210433
 22
303.5052687041297
 32
0.0
 13
251.4233114210433
 23
303.5052687041297
 33
0.0
  0
MTEXT
  5
1407C
330
11EA9
100
AcDbEntity
  8
TEXT
 62
     0
100
AcDbMText
 10
207.6712216900484
 20
289.2748673704659
 30
0.0
 40
1.75
 41
0.0
 71
     5
 72
     1
  1
\A1;HORIZONTAL TRACK LENGTH\PDOOR HEIGHT - HIGH LIFT + 25"
  7
WEB PAGE
 11
0.9510565162951538
 21
0.3090169943749474
 31
0.0
 73
     1
 44
1.0
1001
ACAD
1000
MTEXTBEGIN
1070
    73
1070
     1
1070
    44
1040
1.0
1070
    74
1070
     0
1000
MTEXTEND
  0
POINT
  5
1407D
330
11EA9
100
AcDbEntity
  8
Defpoints
 62
     0
100
AcDbPoint
 10
143.373112387867
 20
263.6257958853995
 30
0.0
  0
POINT
  5
1407E
330
11EA9
100
AcDbEntity
  8
Defpoints
 62
     0
100
AcDbPoint
 10
249.5933255080896
 20
309.1316530901131
 30
0.0
  0
POINT
  5
1407F
330
11EA9
100
AcDbEntity
  8
Defpoints
 62
     0
100
AcDbPoint
 10
251.4233114210433
 20
303.5052687041297
 30
0.0
  0
ENDBLK
  5
11EB5
330
11EA9
100
AcDbEntity
  8
0
100
AcDbBlockEnd
  0
BLOCK
  5
1206B
330
1205E
100
AcDbEntity
  8
0
100
AcDbBlockBegin
  2
*D9
 70
     1
 10
0.0
 20
0.0
 30
0.0
  3
*D9
  1

  0
ARC
  5
13E8D
330
1205E
100
AcDbEntity
  8
TEXT
 62
     0
370
    -2
100
AcDbCircle
 10
232.2284126317921
 20
264.2493831212323
 30
0.0
 40
5.663360582444539
100
AcDbArc
 50
118.5653662259092
 51
149.2826831129546
  0
ARC
  5
13E8E
330
1205E
100
AcDbEntity
  8
TEXT
 62
     0
370
    -2
100
AcDbCircle
 10
232.2284126317921
 20
264.2493831212323
 30
0.0
 40
5.663360582444539
100
AcDbArc
 50
255.7173168870455
 51
286.4346337740908
  0
SOLID
  5
13E8F
330
1205E
100
AcDbEntity
  8
TEXT
 62
     0
100
AcDbTrace
 10
227.8417766583907
 20
267.0098132095816
 30
0.0
 11
226.877489894113
 21
267.2746736185496
 31
0.0
 12
226.5650520493476
 22
264.2493831212323
 32
0.0
 13
226.5650520493476
 23
264.2493831212323
 33
0.0
  0
SOLID
  5
13E90
330
1205E
100
AcDbEntity
  8
TEXT
 62
     0
100
AcDbTrace
 10
230.5839423040862
 20
258.3265059421019
 30
0.0
 11
231.0785114228662
 21
259.1956442433802
 31
0.0
 12
228.223811959641
 22
260.2447824490812
 32
0.0
 13
228.223811959641
 23
260.2447824490812
 33
0.0
  0
MTEXT
  5
13E91
330
1205E
100
AcDbEntity
  8
TEXT
 62
     0
100
AcDbMText
 10
226.9033530702044
 20
262.3213287256488
 30
0.0
 40
1.75
 41
0.0
 71
     5
 72
     1
  1
\A1;45°
  7
WEB PAGE
 73
     1
 44
1.0
1001
ACAD
1000
MTEXTBEGIN
1070
    73
1070
     1
1070
    44
1040
1.0
1070
    74
1070
     0
1000
MTEXTEND
  0
POINT
  5
13E92
330
1205E
100
AcDbEntity
  8
Defpoints
 62
     0
100
AcDbPoint
 10
227.3237984966037
 20
261.4177028300101
 30
0.0
  0
POINT
  5
13E93
330
1205E
100
AcDbEntity
  8
Defpoints
 62
     0
100
AcDbPoint
 10
220.4961795847584
 20
252.5171500741985
 30
0.0
  0
POINT
  5
13E94
330
1205E
100
AcDbEntity
  8
Defpoints
 62
     0
100
AcDbPoint
 10
242.3158973375802
 20
264.2493831212323
 30
0.0
  0
POINT
  5
13E95
330
1205E
100
AcDbEntity
  8
Defpoints
 62
     0
100
AcDbPoint
 10
220.4961795847584
 20
264.2493831212323
 30
0.0
  0
POINT
  5
13E96
330
1205E
100
AcDbEntity
  8
Defpoints
 62
     0
100
AcDbPoint
 10
232.2284126317921
 20
264.2493831212323
 30
0.0
  0
ENDBLK
  5
1206C
330
1205E
100
AcDbEntity
  8
0
100
AcDbBlockEnd
  0
BLOCK
  5
1245D
330
1242D
100
AcDbEntity
  8
0
100
AcDbBlockBegin
  2
TRA118
 70
     0
 10
0.0
 20
0.0
 30
0.0
  3
TRA118
  1

  0
LINE
  5
1242E
330
1242D
100
AcDbEntity
  8
0
100
AcDbLine
 10
9.878042329553387
 20
86.1762320956025
 30
0.0
 11
9.121583996220124
 21
13.55623209560241
 31
0.0
  0
LINE
  5
1242F
330
1242D
100
AcDbEntity
  8
0
100
AcDbLine
 10
5.450958996220151
 20
-26.82376790439759
 30
0.0
 11
5.450958996220155
 21
91.17623209560241
 31
0.0
  0
LINE
  5
12430
330
1242D
100
AcDbEntity
  8
0
100
AcDbLine
 10
5.536095759010208
 20
-26.82376790439759
 30
0.0
 11
5.536095759010208
 21
91.17623209560241
 31
0.0
  0
LINE
  5
12431
330
1242D
100
AcDbEntity
  8
0
100
AcDbLine
 10
6.904308111653051
 20
14.31630574587072
 30
0.0
 11
8.625823535715483
 21
14.31630574587072
 31
0.0
  0
LINE
  5
12432
330
1242D
100
AcDbEntity
  8
0
100
AcDbLine
 10
8.625823535715483
 20
14.03460322193325
 30
0.0
 11
6.904308111653051
 21
14.03460322193325
 31
0.0
  0
LINE
  5
12433
330
1242D
100
AcDbEntity
  8
0
100
AcDbLine
 10
6.9043102581889
 20
7.317083357571135
 30
0.0
 11
8.625825682251331
 21
7.317083357571135
 31
0.0
  0
LINE
  5
12434
330
1242D
100
AcDbEntity
  8
0
100
AcDbLine
 10
8.625825682251331
 20
7.035380833633666
 30
0.0
 11
6.9043102581889
 21
7.035380833633666
 31
0.0
  0
LINE
  5
12435
330
1242D
100
AcDbEntity
  8
0
100
AcDbLine
 10
6.6543102581889
 20
-16.68291664242883
 30
0.0
 11
8.375825682251445
 21
-16.68291664242883
 31
0.0
  0
LINE
  5
12436
330
1242D
100
AcDbEntity
  8
0
100
AcDbLine
 10
8.375825682251445
 20
-16.96461916636636
 30
0.0
 11
6.6543102581889
 21
-16.96461916636636
 31
0.0
  0
LINE
  5
12437
330
1242D
100
AcDbEntity
  8
0
100
AcDbLine
 10
5.450958996220151
 20
-26.82376790439759
 30
0.0
 11
8.700958996220151
 21
-26.82376790439759
 31
0.0
  0
ARC
  5
12438
330
1242D
100
AcDbEntity
  8
0
100
AcDbCircle
 10
6.6543102581889
 20
-16.82376790439758
 30
0.0
 40
0.14085126196875
100
AcDbArc
 50
90.0
 51
270.0
  0
ARC
  5
12439
330
1242D
100
AcDbEntity
  8
0
100
AcDbCircle
 10
6.9043102581889
 20
7.176232095602415
 30
0.0
 40
0.14085126196875
100
AcDbArc
 50
90.0
 51
270.0
  0
ARC
  5
1243A
330
1242D
100
AcDbEntity
  8
0
100
AcDbCircle
 10
6.904308111653051
 20
14.175454483902
 30
0.0
 40
0.14085126196875
100
AcDbArc
 50
90.0
 51
270.0
  0
LINE
  5
1243B
330
1242D
100
AcDbEntity
  8
0
100
AcDbLine
 10
9.061688162886753
 20
7.80623209560241
 30
0.0
 11
8.700958996220151
 21
-26.82376790439759
 31
0.0
  0
ARC
  5
1243C
330
1242D
100
AcDbEntity
  8
0
100
AcDbCircle
 10
8.375825682251445
 20
-16.82376790439758
 30
0.0
 40
0.14085126196875
100
AcDbArc
 50
270.0
 51
90.0
  0
LINE
  5
1243D
330
1242D
100
AcDbEntity
  8
0
100
AcDbLine
 10
7.263458996220151
 20
7.80623209560241
 30
0.0
 11
7.263458996220151
 21
13.55623209560241
 31
0.0
  0
ARC
  5
1243E
330
1242D
100
AcDbEntity
  8
0
100
AcDbCircle
 10
8.625825682251331
 20
7.176232095602415
 30
0.0
 40
0.14085126196875
100
AcDbArc
 50
270.0
 51
90.0
  0
LINE
  5
1243F
330
1242D
100
AcDbEntity
  8
0
100
AcDbLine
 10
7.263458996220151
 20
7.80623209560241
 30
0.0
 11
9.061688162886753
 21
7.80623209560241
 31
0.0
  0
ARC
  5
12440
330
1242D
100
AcDbEntity
  8
0
100
AcDbCircle
 10
8.625823535715483
 20
14.175454483902
 30
0.0
 40
0.14085126196875
100
AcDbArc
 50
270.0
 51
90.0
  0
LINE
  5
12441
330
1242D
100
AcDbEntity
  8
0
100
AcDbLine
 10
7.263458996220151
 20
13.55623209560241
 30
0.0
 11
9.121583996220124
 21
13.55623209560241
 31
0.0
  0
ARC
  5
12442
330
1242D
100
AcDbEntity
  8
0
100
AcDbCircle
 10
7.1543102581889
 20
31.1762008020055
 30
0.0
 40
0.14085126196875
100
AcDbArc
 50
90.0
 51
270.0
  0
LINE
  5
12443
330
1242D
100
AcDbEntity
  8
0
100
AcDbLine
 10
8.875825682251445
 20
31.03534954003675
 30
0.0
 11
7.1543102581889
 21
31.03534954003675
 31
0.0
  0
LINE
  5
12444
330
1242D
100
AcDbEntity
  8
0
100
AcDbLine
 10
7.1543102581889
 20
31.3170520639743
 30
0.0
 11
8.875825682251445
 21
31.3170520639743
 31
0.0
  0
ARC
  5
12445
330
1242D
100
AcDbEntity
  8
0
100
AcDbCircle
 10
8.875825682251445
 20
31.1762008020055
 30
0.0
 40
0.14085126196875
100
AcDbArc
 50
270.0
 51
90.0
  0
ARC
  5
12446
330
1242D
100
AcDbEntity
  8
0
100
AcDbCircle
 10
9.121154271553143
 20
55.1762008020055
 30
0.0
 40
0.14085126196875
100
AcDbArc
 50
270.0
 51
90.0
  0
LINE
  5
12447
330
1242D
100
AcDbEntity
  8
0
100
AcDbLine
 10
7.399638847490598
 20
55.3170520639743
 30
0.0
 11
9.121154271553143
 21
55.3170520639743
 31
0.0
  0
LINE
  5
12448
330
1242D
100
AcDbEntity
  8
0
100
AcDbLine
 10
9.121154271553143
 20
55.03534954003675
 30
0.0
 11
7.399638847490598
 21
55.03534954003675
 31
0.0
  0
ARC
  5
12449
330
1242D
100
AcDbEntity
  8
0
100
AcDbCircle
 10
7.399638847490598
 20
55.1762008020055
 30
0.0
 40
0.14085126196875
100
AcDbArc
 50
90.0
 51
270.0
  0
ARC
  5
1244A
330
1242D
100
AcDbEntity
  8
0
100
AcDbCircle
 10
7.539460561255122
 20
68.58119705884684
 30
0.0
 40
0.14085126196875
100
AcDbArc
 50
90.0
 51
270.0
  0
ARC
  5
1244B
330
1242D
100
AcDbEntity
  8
0
100
AcDbCircle
 10
9.260975985317553
 20
68.58119705884684
 30
0.0
 40
0.14085126196875
100
AcDbArc
 50
270.0
 51
90.0
  0
LINE
  5
1244C
330
1242D
100
AcDbEntity
  8
0
100
AcDbLine
 10
9.260975985317553
 20
68.44034579687809
 30
0.0
 11
7.539460561255122
 21
68.44034579687809
 31
0.0
  0
LINE
  5
1244D
330
1242D
100
AcDbEntity
  8
0
100
AcDbLine
 10
7.539460561255122
 20
68.72204832081559
 30
0.0
 11
9.260975985317553
 21
68.72204832081559
 31
0.0
  0
ARC
  5
1244E
330
1242D
100
AcDbEntity
  8
0
100
AcDbCircle
 10
7.539460561255122
 20
69.76869705884684
 30
0.0
 40
0.14085126196875
100
AcDbArc
 50
90.0
 51
270.0
  0
ARC
  5
1244F
330
1242D
100
AcDbEntity
  8
0
100
AcDbCircle
 10
9.260975985317553
 20
69.76869705884684
 30
0.0
 40
0.14085126196875
100
AcDbArc
 50
270.0
 51
90.0
  0
LINE
  5
12450
330
1242D
100
AcDbEntity
  8
0
100
AcDbLine
 10
9.260975985317553
 20
69.62784579687809
 30
0.0
 11
7.539460561255122
 21
69.62784579687809
 31
0.0
  0
LINE
  5
12451
330
1242D
100
AcDbEntity
  8
0
100
AcDbLine
 10
7.539460561255122
 20
69.90954832081559
 30
0.0
 11
9.260975985317553
 21
69.90954832081559
 31
0.0
  0
LINE
  5
12452
330
1242D
100
AcDbEntity
  8
0
100
AcDbLine
 10
5.450958996220151
 20
91.17623209560241
 30
0.0
 11
7.325958996220151
 21
91.17623209560241
 31
0.0
  0
LINE
  5
12453
330
1242D
100
AcDbEntity
  8
0
100
AcDbLine
 10
6.826260678845073
 20
88.54700853885248
 30
0.0
 11
6.826260678845073
 21
90.67542760860243
 31
0.0
  0
LINE
  5
12454
330
1242D
100
AcDbEntity
  8
0
100
AcDbLine
 10
6.450657313595002
 20
90.67542760860243
 30
0.0
 11
6.450657313595002
 21
88.54700853885248
 31
0.0
  0
ARC
  5
12455
330
1242D
100
AcDbEntity
  8
0
100
AcDbCircle
 10
6.638458996220151
 20
88.54700853885248
 30
0.0
 40
0.187801682625
100
AcDbArc
 50
180.0
 51
0.0
  0
ARC
  5
12456
330
1242D
100
AcDbEntity
  8
0
100
AcDbCircle
 10
6.638458996220151
 20
87.76605182465022
 30
0.0
 40
0.187801682625
100
AcDbArc
 50
0.0
 51
180.0
  0
ARC
  5
12457
330
1242D
100
AcDbEntity
  8
0
100
AcDbCircle
 10
6.638458996220151
 20
85.63763275490021
 30
0.0
 40
0.187801682625
100
AcDbArc
 50
180.0
 51
0.0
  0
LINE
  5
12458
330
1242D
100
AcDbEntity
  8
0
100
AcDbLine
 10
6.826260678845073
 20
85.63763275490021
 30
0.0
 11
6.826260678845073
 21
87.76605182465022
 31
0.0
  0
LINE
  5
12459
330
1242D
100
AcDbEntity
  8
0
100
AcDbLine
 10
6.450657313595002
 20
87.76605182465022
 30
0.0
 11
6.450657313595002
 21
85.63763275490021
 31
0.0
  0
ARC
  5
1245A
330
1242D
100
AcDbEntity
  8
0
100
AcDbCircle
 10
6.638458996220151
 20
90.67542760860243
 30
0.0
 40
0.187801682625
100
AcDbArc
 50
0.0
 51
180.0
  0
LINE
  5
1245B
330
1242D
100
AcDbEntity
  8
0
100
AcDbLine
 10
7.325958996220151
 20
86.17623209560239
 30
0.0
 11
7.325958996220151
 21
91.17623209560241
 31
0.0
  0
LINE
  5
1245C
330
1242D
100
AcDbEntity
  8
0
100
AcDbLine
 10
7.325958996220151
 20
86.17623209560239
 30
0.0
 11
9.878042329553387
 21
86.1762320956025
 31
0.0
  0
ENDBLK
  5
1245E
330
1242D
100
AcDbEntity
  8
0
100
AcDbBlockEnd
  0
BLOCK
  5
12B9F
330
12B7B
100
AcDbEntity
  8
0
100
AcDbBlockBegin
  2
A$C64B310A0
 70
     0
 10
0.0
 20
0.0
 30
0.0
  3
A$C64B310A0
  1

  0
LINE
  5
12B7C
330
12B7B
100
AcDbEntity
  8
OBJECT
 62
     7
 48
0.5
100
AcDbLine
 10
1.171491060933874
 20
60.89456544060249
 30
0.0
 11
1.153263171838034
 21
59.14466037344618
 31
0.0
  0
LINE
  5
12B7D
330
12B7B
100
AcDbEntity
  8
OBJECT
 62
     7
 48
0.5
100
AcDbLine
 10
2.296430032677193
 20
60.88284751189803
 30
0.0
 11
2.278202143581353
 21
59.13294244474172
 31
0.0
  0
LINE
  5
12B7E
330
12B7B
100
AcDbEntity
  8
OBJECT
 62
     7
 48
0.5
100
AcDbLine
 10
1.939894425933971
 20
0.0130200169361388
 30
0.0
 11
2.939824342049206
 21
96.00781227236462
 31
0.0
  0
LINE
  5
12B7F
330
12B7B
100
AcDbEntity
  8
OBJECT
 62
     7
 48
0.5
100
AcDbLine
 10
-0.0000003342278347
 20
0.0332269339909885
 30
0.0
 11
0.9999295818872724
 21
96.02801918941942
 31
0.0
  0
LINE
  5
12B80
330
12B7B
100
AcDbEntity
  8
OBJECT
 62
     7
 48
0.5
100
AcDbLine
 10
3.189826616759887
 20
0.0000000961533146
 30
0.0
 11
4.18975653287498
 21
95.99479235158174
 31
0.0
  0
LINE
  5
12B81
330
12B7B
100
AcDbEntity
  8
OBJECT
 62
     7
 48
0.5
100
AcDbLine
 10
-0.0000003342278347
 20
0.0332269339909885
 30
0.0
 11
3.189826616759887
 21
0.0000000961533146
 31
0.0
  0
CIRCLE
  5
12B82
330
12B7B
100
AcDbEntity
  8
OBJECT
 62
     7
 48
0.5
100
AcDbCircle
 10
0.7162107121370412
 20
0.6257990705827865
 30
0.0
 40
0.136
  0
CIRCLE
  5
12B83
330
12B7B
100
AcDbEntity
  8
OBJECT
 62
     7
 48
0.5
100
AcDbCircle
 10
1.466170026632582
 20
0.6179871181131489
 30
0.0
 40
0.136
  0
CIRCLE
  5
12B84
330
12B7B
100
AcDbEntity
  8
OBJECT
 62
     7
 48
0.5
100
AcDbCircle
 10
1.076263967958894
 20
1.397090619202401
 30
0.0
 40
0.195
  0
LINE
  5
12B85
330
12B7B
100
AcDbEntity
  8
OBJECT
 62
     7
 48
0.5
100
AcDbLine
 10
0.8633881183768608
 20
13.41095964098986
 30
0.0
 11
0.8761788885538237
 21
14.6388930252574
 31
0.0
  0
LINE
  5
12B86
330
12B7B
100
AcDbEntity
  8
OBJECT
 62
     7
 48
0.5
100
AcDbLine
 10
1.135373363100512
 20
13.40812650622752
 30
0.0
 11
1.148164133277475
 21
14.63605989049506
 31
0.0
  0
ARC
  5
12B87
330
12B7B
100
AcDbEntity
  8
OBJECT
 62
     7
 48
0.5
100
AcDbCircle
 10
0.9993807407387009
 20
13.40954307360869
 30
0.0
 40
0.136
100
AcDbArc
 50
179.4031999999998
 51
359.4031999999998
  0
ARC
  5
12B88
330
12B7B
100
AcDbEntity
  8
OBJECT
 62
     7
 48
0.5
100
AcDbCircle
 10
1.012171510915678
 20
14.63747645787612
 30
0.0
 40
0.136
100
AcDbArc
 50
359.4031999999998
 51
179.4031999999998
  0
LINE
  5
12B89
330
12B7B
100
AcDbEntity
  8
OBJECT
 62
     7
 48
0.5
100
AcDbLine
 10
1.385355842129285
 20
37.40682457008461
 30
0.0
 11
1.398146612306277
 21
38.63475795435216
 31
0.0
  0
LINE
  5
12B8A
330
12B7B
100
AcDbEntity
  8
OBJECT
 62
     7
 48
0.5
100
AcDbLine
 10
1.113370597405634
 20
37.40965770484695
 30
0.0
 11
1.126161367582625
 21
38.6375910891145
 31
0.0
  0
ARC
  5
12B8B
330
12B7B
100
AcDbEntity
  8
OBJECT
 62
     7
 48
0.5
100
AcDbCircle
 10
1.249363219767488
 20
37.40824113746578
 30
0.0
 40
0.136
100
AcDbArc
 50
179.4031999999998
 51
359.4031999999998
  0
ARC
  5
12B8C
330
12B7B
100
AcDbEntity
  8
OBJECT
 62
     7
 48
0.5
100
AcDbCircle
 10
1.262153989944451
 20
38.63617452173321
 30
0.0
 40
0.136
100
AcDbArc
 50
359.4031999999998
 51
179.4031999999998
  0
LINE
  5
12B8D
330
12B7B
100
AcDbEntity
  8
OBJECT
 62
     7
 48
0.5
100
AcDbLine
 10
1.146701131763535
 20
58.51469454926996
 30
0.0
 11
1.131077226824231
 21
57.01477592027891
 31
0.0
  0
LINE
  5
12B8E
330
12B7B
100
AcDbEntity
  8
OBJECT
 62
     7
 48
0.5
100
AcDbLine
 10
2.271640103506825
 20
58.50297662056551
 30
0.0
 11
2.25601619856755
 21
57.00305799157445
 31
0.0
  0
LINE
  5
12B8F
330
12B7B
100
AcDbEntity
  8
OBJECT
 62
     7
 48
0.5
100
AcDbLine
 10
1.131077226824231
 20
57.01477592027891
 30
0.0
 11
2.25601619856755
 21
57.00305799157445
 31
0.0
  0
LINE
  5
12B90
330
12B7B
100
AcDbEntity
  8
OBJECT
 62
     7
 48
0.5
100
AcDbLine
 10
1.153263171838034
 20
59.14466037344618
 30
0.0
 11
2.278202143581353
 21
59.13294244474172
 31
0.0
  0
LINE
  5
12B91
330
12B7B
100
AcDbEntity
  8
OBJECT
 62
     7
 48
0.5
100
AcDbLine
 10
1.146701131763535
 20
58.51469454926996
 30
0.0
 11
2.271640103506825
 21
58.50297662056551
 31
0.0
  0
ARC
  5
12B92
330
12B7B
100
AcDbEntity
  8
OBJECT
 62
     7
 48
0.5
100
AcDbCircle
 10
1.512136468973238
 20
62.63487258559042
 30
0.0
 40
0.136
100
AcDbArc
 50
359.4031999999998
 51
179.4031999999998
  0
ARC
  5
12B93
330
12B7B
100
AcDbEntity
  8
OBJECT
 62
     7
 48
0.5
100
AcDbCircle
 10
1.499345698796261
 20
61.40693920132298
 30
0.0
 40
0.136
100
AcDbArc
 50
179.4031999999998
 51
359.4031999999998
  0
LINE
  5
12B94
330
12B7B
100
AcDbEntity
  8
OBJECT
 62
     7
 48
0.5
100
AcDbLine
 10
1.363353076434407
 20
61.40835576870404
 30
0.0
 11
1.376143846611398
 21
62.63628915297158
 31
0.0
  0
LINE
  5
12B95
330
12B7B
100
AcDbEntity
  8
OBJECT
 62
     7
 48
0.5
100
AcDbLine
 10
1.635338321158059
 20
61.4055226339417
 30
0.0
 11
1.64812909133505
 21
62.63345601820924
 31
0.0
  0
LINE
  5
12B96
330
12B7B
100
AcDbEntity
  8
OBJECT
 62
     7
 48
0.5
100
AcDbLine
 10
1.171491060933874
 20
60.89456544060249
 30
0.0
 11
2.296430032677193
 21
60.88284751189803
 31
0.0
  0
LINE
  5
12B97
330
12B7B
100
AcDbEntity
  8
OBJECT
 62
     7
 48
0.5
100
AcDbLine
 10
1.61333555546318
 20
85.40705383256113
 30
0.0
 11
1.626126325640171
 21
86.63498721682868
 31
0.0
  0
LINE
  5
12B98
330
12B7B
100
AcDbEntity
  8
OBJECT
 62
     7
 48
0.5
100
AcDbLine
 10
1.885320800186832
 20
85.40422069779879
 30
0.0
 11
1.898111570363823
 21
86.63215408206633
 31
0.0
  0
ARC
  5
12B99
330
12B7B
100
AcDbEntity
  8
OBJECT
 62
     7
 48
0.5
100
AcDbCircle
 10
1.749328177825049
 20
85.40563726518007
 30
0.0
 40
0.136
100
AcDbArc
 50
179.4031999999998
 51
359.4031999999998
  0
ARC
  5
12B9A
330
12B7B
100
AcDbEntity
  8
OBJECT
 62
     7
 48
0.5
100
AcDbCircle
 10
1.762118948002026
 20
86.63357064944751
 30
0.0
 40
0.136
100
AcDbArc
 50
359.4031999999998
 51
179.4031999999998
  0
LINE
  5
12B9B
330
12B7B
100
AcDbEntity
  8
OBJECT
 62
     7
 48
0.5
100
AcDbLine
 10
0.9999295818872724
 20
96.02801918941942
 30
0.0
 11
4.18975653287498
 21
95.99479235158174
 31
0.0
  0
CIRCLE
  5
12B9C
330
12B7B
100
AcDbEntity
  8
OBJECT
 62
     7
 48
0.5
100
AcDbCircle
 10
2.45360081879626
 20
95.41284447034888
 30
0.0
 40
0.136
  0
CIRCLE
  5
12B9D
330
12B7B
100
AcDbEntity
  8
OBJECT
 62
     7
 48
0.5
100
AcDbCircle
 10
2.047550058351973
 20
94.64203205481396
 30
0.0
 40
0.195
  0
CIRCLE
  5
12B9E
330
12B7B
100
AcDbEntity
  8
OBJECT
 62
     7
 48
0.5
100
AcDbCircle
 10
1.703641504300719
 20
95.42065642281853
 30
0.0
 40
0.136
  0
ENDBLK
  5
12BA0
330
12B7B
100
AcDbEntity
  8
0
100
AcDbBlockEnd
  0
BLOCK
  5
12BAE
330
12BA2
100
AcDbEntity
  8
0
100
AcDbBlockBegin
  2
A$C72C1395F
 70
     0
 10
0.0
 20
0.0
 30
0.0
  3
A$C72C1395F
  1

  0
LINE
  5
12BA3
330
12BA2
100
AcDbEntity
  8
0
100
AcDbLine
 10
-0.0000000000000568
 20
-0.0000002294218575
 30
0.0
 11
-0.0000000000001137
 21
40.99999977057814
 31
0.0
  0
LINE
  5
12BA4
330
12BA2
100
AcDbEntity
  8
0
100
AcDbLine
 10
1.620000000000004
 20
20.99999977057814
 30
0.0
 11
1.619999999999976
 21
-0.0000002294218575
 31
0.0
  0
LINE
  5
12BA5
330
12BA2
100
AcDbEntity
  8
0
100
AcDbLine
 10
1.619999999999066
 20
-0.0000002294218575
 30
0.0
 11
-0.0000000000009379
 21
-0.0000002294218575
 31
0.0
  0
LINE
  5
12BA6
330
12BA2
100
AcDbEntity
  8
0
100
AcDbLine
 10
1.61999999999989
 20
40.99999977057814
 30
0.0
 11
1.620000000000004
 21
23.99999977057814
 31
0.0
  0
LINE
  5
12BA7
330
12BA2
100
AcDbEntity
  8
0
100
AcDbLine
 10
1.619999999999379
 20
23.99999977057814
 30
0.0
 11
1.240000000000009
 21
23.99999977057814
 31
0.0
  0
LINE
  5
12BA8
330
12BA2
100
AcDbEntity
  8
0
100
AcDbLine
 10
1.619999999999379
 20
20.99999977057814
 30
0.0
 11
1.240000000000009
 21
20.99999977057814
 31
0.0
  0
LINE
  5
12BA9
330
12BA2
100
AcDbEntity
  8
0
100
AcDbLine
 10
1.240000000000009
 20
23.99999977057814
 30
0.0
 11
1.240000000000009
 21
20.99999977057814
 31
0.0
  0
CIRCLE
  5
12BAA
330
12BA2
100
AcDbEntity
  8
0
100
AcDbCircle
 10
0.8100000000000022
 20
23.24999977057814
 30
0.0
 40
0.135
  0
CIRCLE
  5
12BAB
330
12BA2
100
AcDbEntity
  8
0
100
AcDbCircle
 10
0.8100000000000022
 20
21.74999977057814
 30
0.0
 40
0.135
  0
LINE
  5
12BAC
330
12BA2
100
AcDbEntity
  8
0
100
AcDbLine
 10
1.619999999999066
 20
40.99999977057814
 30
0.0
 11
-0.0000000000009379
 21
40.99999977057814
 31
0.0
  0
LWPOLYLINE
  5
12BAD
330
12BA2
100
AcDbEntity
  8
0
100
AcDbPolyline
 90
        4
 70
     1
 43
0.0
 10
1.036999999999892
 20
40.41699977057817
 42
-0.9999999999999998
 10
1.442999999999898
 20
40.41699977057817
 10
1.442999999999898
 20
39.32299977057812
 42
-0.9999999999999998
 10
1.036999999999892
 20
39.32299977057812
  0
ENDBLK
  5
12BAF
330
12BA2
100
AcDbEntity
  8
0
100
AcDbBlockEnd
  0
BLOCK
  5
12BBD
330
12BB0
100
AcDbEntity
  8
0
100
AcDbBlockBegin
  2
A$C35F41955
 70
     0
 10
0.0
 20
0.0
 30
0.0
  3
A$C35F41955
  1

  0
LINE
  5
12BB1
330
12BB0
100
AcDbEntity
  8
0
  6
DASHED2
100
AcDbLine
 10
2.549999360749154
 20
44.49999978891054
 30
0.0
 11
2.549999360749097
 21
-0.000000211089457
 31
0.0
  0
LINE
  5
12BB2
330
12BB0
100
AcDbEntity
  8
0
100
AcDbLine
 10
3.17999936074915
 20
44.49999978891054
 30
0.0
 11
3.17999936074915
 21
-0.000000211089457
 31
0.0
  0
LINE
  5
12BB3
330
12BB0
100
AcDbEntity
  8
0
100
AcDbLine
 10
-0.0000006392508567
 20
44.49999978891054
 30
0.0
 11
-0.0000006392508567
 21
-0.000000211089457
 31
0.0
  0
CIRCLE
  5
12BB4
330
12BB0
100
AcDbEntity
  8
0
100
AcDbCircle
 10
1.470999360749146
 20
0.5999997889105089
 30
0.0
 40
0.136
  0
CIRCLE
  5
12BB5
330
12BB0
100
AcDbEntity
  8
0
100
AcDbCircle
 10
0.720999360749147
 20
0.5999997889105089
 30
0.0
 40
0.136
  0
LINE
  5
12BB6
330
12BB0
100
AcDbEntity
  8
0
100
AcDbLine
 10
3.17999936074915
 20
-0.000000211089457
 30
0.0
 11
-0.0000006392508567
 21
-0.000000211089457
 31
0.0
  0
LWPOLYLINE
  5
12BB7
330
12BB0
100
AcDbEntity
  8
0
100
AcDbPolyline
 90
        4
 70
     1
 43
0.0
 10
0.7249993607491377
 20
17.88499978891059
 42
0.9999999999999998
 10
0.9949993607491478
 20
17.88499978891059
 10
0.9949993607491478
 20
19.11499978891055
 42
0.9999999999999998
 10
0.7249993607491377
 20
19.11499978891055
  0
ARC
  5
12BB8
330
12BB0
100
AcDbEntity
  8
0
100
AcDbCircle
 10
1.061999360749126
 20
43.24999978891054
 30
0.0
 40
0.203
100
AcDbArc
 50
250.7282345350513
 51
180.0010453669317
  0
LWPOLYLINE
  5
12BB9
330
12BB0
100
AcDbEntity
  8
0
100
AcDbPolyline
 90
        5
 70
     0
 43
0.0
 10
0.8589993607829171
 20
43.24999608515628
 42
0.4120456236871969
 10
0.7249993607491377
 20
43.11499978891055
 10
0.7249993607491377
 20
41.88499978891059
 42
1.0
 10
0.9949993607491478
 20
41.88499978891059
 10
0.9949993607491478
 20
43.05837515583852
  0
CIRCLE
  5
12BBA
330
12BB0
100
AcDbEntity
  8
0
100
AcDbCircle
 10
0.720999360749147
 20
43.89999978891057
 30
0.0
 40
0.136
  0
CIRCLE
  5
12BBB
330
12BB0
100
AcDbEntity
  8
0
100
AcDbCircle
 10
1.470999360749146
 20
43.89999978891057
 30
0.0
 40
0.136
  0
LINE
  5
12BBC
330
12BB0
100
AcDbEntity
  8
0
100
AcDbLine
 10
3.17999936074915
 20
44.49999978891054
 30
0.0
 11
-0.0000006392508567
 21
44.49999978891054
 31
0.0
  0
ENDBLK
  5
12BBE
330
12BB0
100
AcDbEntity
  8
0
100
AcDbBlockEnd
  0
BLOCK
  5
12BCC
330
12BBF
100
AcDbEntity
  8
0
100
AcDbBlockBegin
  2
OSP-7
 70
     0
 10
0.0
 20
0.0
 30
0.0
  3
OSP-7
  1

  0
LWPOLYLINE
  5
12BC0
330
12BBF
100
AcDbEntity
  8
0
100
AcDbPolyline
 90
        4
 70
     1
 43
0.0
 10
-0.5
 20
-1.938000000000016
 10
6.5
 20
-1.938000000000016
 10
6.5
 20
0.4369999999999834
 10
-0.5
 20
0.4369999999999834
  0
LINE
  5
12BC1
330
12BBF
100
AcDbEntity
  8
0
100
AcDbLine
 10
4.135999999999995
 20
-1.479999999999989
 30
0.0
 11
6.114000000000004
 21
-1.479999999999989
 31
0.0
  0
LINE
  5
12BC2
330
12BBF
100
AcDbEntity
  8
0
100
AcDbLine
 10
6.114000000000004
 20
-1.207999999999998
 30
0.0
 11
4.135999999999995
 21
-1.207999999999998
 31
0.0
  0
LINE
  5
12BC3
330
12BBF
100
AcDbEntity
  8
0
100
AcDbLine
 10
6.114000000000004
 20
-0.2940000000000111
 30
0.0
 11
4.135999999999995
 21
-0.2940000000000111
 31
0.0
  0
LINE
  5
12BC4
330
12BBF
100
AcDbEntity
  8
0
100
AcDbLine
 10
4.135999999999995
 20
-0.0220000000000198
 30
0.0
 11
6.114000000000004
 21
-0.0220000000000198
 31
0.0
  0
TEXT
  5
12BC5
330
12BBF
100
AcDbEntity
  8
0
100
AcDbText
 10
0.2593249693152302
 20
-0.9191210331097465
 30
0.0
 40
0.25
  1
7
100
AcDbText
  0
CIRCLE
  5
12BC6
330
12BBF
100
AcDbEntity
  8
0
100
AcDbCircle
 10
0.0
 20
0.0
 30
0.0
 40
0.136
  0
CIRCLE
  5
12BC7
330
12BBF
100
AcDbEntity
  8
0
100
AcDbCircle
 10
0.0
 20
-1.5
 30
0.0
 40
0.136
  0
ARC
  5
12BC8
330
12BBF
100
AcDbEntity
  8
0
100
AcDbCircle
 10
4.135999999999995
 20
-1.343999999999994
 30
0.0
 40
0.136
100
AcDbArc
 50
90.0
 51
270.0
  0
ARC
  5
12BC9
330
12BBF
100
AcDbEntity
  8
0
100
AcDbCircle
 10
4.135999999999995
 20
-0.1580000000000155
 30
0.0
 40
0.136
100
AcDbArc
 50
90.0
 51
270.0
  0
ARC
  5
12BCA
330
12BBF
100
AcDbEntity
  8
0
100
AcDbCircle
 10
6.114000000000004
 20
-1.343999999999994
 30
0.0
 40
0.136
100
AcDbArc
 50
270.0
 51
90.0
  0
ARC
  5
12BCB
330
12BBF
100
AcDbEntity
  8
0
100
AcDbCircle
 10
6.114000000000004
 20
-0.1580000000000155
 30
0.0
 40
0.136
100
AcDbArc
 50
270.0
 51
90.0
  0
ENDBLK
  5
12BCD
330
12BBF
100
AcDbEntity
  8
0
100
AcDbBlockEnd
  0
BLOCK
  5
12BEE
330
12BCE
100
AcDbEntity
  8
0
100
AcDbBlockBegin
  2
A$C73B81CB7
 70
     0
 10
0.0
 20
0.0
 30
0.0
  3
A$C73B81CB7
  1

  0
LINE
  5
12BCF
330
12BCE
100
AcDbEntity
  8
SPLICE-PLATE
 62
     7
100
AcDbLine
 10
5.999999993123793
 20
-0.0000000001829221
 30
0.0
 11
-0.0000000068762063
 21
-0.0000000001829221
 31
0.0
  0
LINE
  5
12BD0
330
12BCE
100
AcDbEntity
  8
SPLICE-PLATE
 62
     7
100
AcDbLine
 10
5.999999993123793
 20
2.499999999817077
 30
0.0
 11
-0.0000000068762063
 21
2.499999999817077
 31
0.0
  0
LINE
  5
12BD1
330
12BCE
100
AcDbEntity
  8
SPLICE-PLATE
 62
     7
100
AcDbLine
 10
-0.0000000068762063
 20
2.499999999817077
 30
0.0
 11
-0.0000000068762063
 21
-0.000000000182979
 31
0.0
  0
ARC
  5
12BD2
330
12BCE
100
AcDbEntity
  8
UPPER-ANGLE
100
AcDbCircle
 10
1.031249993123793
 20
1.968749999817077
 30
0.0
 40
0.1562500000000379
100
AcDbArc
 50
270.0
 51
90.0
  0
ARC
  5
12BD3
330
12BCE
100
AcDbEntity
  8
UPPER-ANGLE
100
AcDbCircle
 10
1.031249993123793
 20
0.5312499998169642
 30
0.0
 40
0.1562500000000379
100
AcDbArc
 50
270.0
 51
90.0
  0
ARC
  5
12BD4
330
12BCE
100
AcDbEntity
  8
UPPER-ANGLE
100
AcDbCircle
 10
1.031249993123793
 20
1.249999999817077
 30
0.0
 40
0.1562500000000379
100
AcDbArc
 50
270.0
 51
90.0
  0
ARC
  5
12BD5
330
12BCE
100
AcDbEntity
  8
UPPER-ANGLE
100
AcDbCircle
 10
0.5937499931237938
 20
1.968749999817191
 30
0.0
 40
0.1562500000000343
100
AcDbArc
 50
90.0
 51
270.0
  0
ARC
  5
12BD6
330
12BCE
100
AcDbEntity
  8
UPPER-ANGLE
100
AcDbCircle
 10
0.5937499931237938
 20
0.5312499998169642
 30
0.0
 40
0.1562500000000343
100
AcDbArc
 50
90.0
 51
270.0
  0
ARC
  5
12BD7
330
12BCE
100
AcDbEntity
  8
UPPER-ANGLE
100
AcDbCircle
 10
0.5937499931237938
 20
1.249999999817077
 30
0.0
 40
0.1562500000000343
100
AcDbArc
 50
90.0
 51
270.0
  0
LINE
  5
12BD8
330
12BCE
100
AcDbEntity
  8
UPPER-ANGLE
100
AcDbLine
 10
0.5937499931237938
 20
2.124999999817134
 30
0.0
 11
1.031249993123793
 21
2.124999999817134
 31
0.0
  0
LINE
  5
12BD9
330
12BCE
100
AcDbEntity
  8
UPPER-ANGLE
100
AcDbLine
 10
0.5937499931237938
 20
1.812499999817134
 30
0.0
 11
1.031249993123793
 21
1.812499999817134
 31
0.0
  0
LINE
  5
12BDA
330
12BCE
100
AcDbEntity
  8
UPPER-ANGLE
100
AcDbLine
 10
0.5937499931237938
 20
0.6874999998169642
 30
0.0
 11
1.031249993123793
 21
0.6874999998169642
 31
0.0
  0
LINE
  5
12BDB
330
12BCE
100
AcDbEntity
  8
UPPER-ANGLE
100
AcDbLine
 10
0.5937499931237938
 20
0.3749999998169642
 30
0.0
 11
1.031249993123793
 21
0.3749999998169642
 31
0.0
  0
LINE
  5
12BDC
330
12BCE
100
AcDbEntity
  8
UPPER-ANGLE
100
AcDbLine
 10
0.5937499931237938
 20
1.093749999817077
 30
0.0
 11
1.031249993123793
 21
1.093749999817077
 31
0.0
  0
LINE
  5
12BDD
330
12BCE
100
AcDbEntity
  8
UPPER-ANGLE
100
AcDbLine
 10
0.5937499931237938
 20
1.406249999817077
 30
0.0
 11
1.031249993123793
 21
1.406249999817077
 31
0.0
  0
TEXT
  5
12BDE
330
12BCE
100
AcDbEntity
  8
SPLICE-PLATE
 62
     7
100
AcDbText
 10
2.702608406870638
 20
1.162239747366129
 30
0.0
 40
0.3
  1
6
 50
90.0
100
AcDbText
  0
ARC
  5
12BDF
330
12BCE
100
AcDbEntity
  8
UPPER-ANGLE
100
AcDbCircle
 10
5.593749993123765
 20
1.249999999817077
 30
0.0
 40
0.1562500000000379
100
AcDbArc
 50
270.0
 51
90.0
  0
LINE
  5
12BE0
330
12BCE
100
AcDbEntity
  8
UPPER-ANGLE
100
AcDbLine
 10
5.624999993123793
 20
0.8124999998170778
 30
0.0
 11
5.624999993123793
 21
0.5624999998170779
 31
0.0
  0
ARC
  5
12BE1
330
12BCE
100
AcDbEntity
  8
UPPER-ANGLE
100
AcDbCircle
 10
4.15624999312385
 20
1.249999999817077
 30
0.0
 40
0.1562500000000343
100
AcDbArc
 50
90.0
 51
270.0
  0
LINE
  5
12BE2
330
12BCE
100
AcDbEntity
  8
UPPER-ANGLE
100
AcDbLine
 10
4.624999993123793
 20
0.8124999998170778
 30
0.0
 11
4.624999993123793
 21
0.5624999998170779
 31
0.0
  0
LINE
  5
12BE3
330
12BCE
100
AcDbEntity
  8
UPPER-ANGLE
100
AcDbLine
 10
4.874999993123793
 20
0.8124999998170778
 30
0.0
 11
4.874999993123793
 21
0.5624999998170779
 31
0.0
  0
ARC
  5
12BE4
330
12BCE
100
AcDbEntity
  8
UPPER-ANGLE
100
AcDbCircle
 10
4.749999993123793
 20
0.8124999998170778
 30
0.0
 40
0.125
100
AcDbArc
 50
0.0
 51
180.0
  0
ARC
  5
12BE5
330
12BCE
100
AcDbEntity
  8
UPPER-ANGLE
100
AcDbCircle
 10
4.749999993123793
 20
0.5624999998170779
 30
0.0
 40
0.125
100
AcDbArc
 50
180.0
 51
0.0
  0
LINE
  5
12BE6
330
12BCE
100
AcDbEntity
  8
UPPER-ANGLE
100
AcDbLine
 10
5.374999993123793
 20
0.8124999998170778
 30
0.0
 11
5.374999993123793
 21
0.5624999998170779
 31
0.0
  0
CIRCLE
  5
12BE7
330
12BCE
100
AcDbEntity
  8
UPPER-ANGLE
100
AcDbCircle
 10
4.749999993123793
 20
1.90619999981709
 30
0.0
 40
0.125
  0
ARC
  5
12BE8
330
12BCE
100
AcDbEntity
  8
UPPER-ANGLE
100
AcDbCircle
 10
5.499999993123793
 20
0.5624999998170779
 30
0.0
 40
0.125
100
AcDbArc
 50
180.0
 51
0.0
  0
ARC
  5
12BE9
330
12BCE
100
AcDbEntity
  8
UPPER-ANGLE
100
AcDbCircle
 10
5.499999993123793
 20
0.8124999998170778
 30
0.0
 40
0.125
100
AcDbArc
 50
0.0
 51
180.0
  0
LINE
  5
12BEA
330
12BCE
100
AcDbEntity
  8
UPPER-ANGLE
100
AcDbLine
 10
4.15624999312385
 20
1.406249999817077
 30
0.0
 11
5.593749993123765
 21
1.406249999817021
 31
0.0
  0
LINE
  5
12BEB
330
12BCE
100
AcDbEntity
  8
UPPER-ANGLE
100
AcDbLine
 10
4.15624999312385
 20
1.093749999817077
 30
0.0
 11
5.593749993123765
 21
1.093749999817021
 31
0.0
  0
CIRCLE
  5
12BEC
330
12BCE
100
AcDbEntity
  8
UPPER-ANGLE
100
AcDbCircle
 10
5.499999993123793
 20
1.90619999981709
 30
0.0
 40
0.125
  0
LINE
  5
12BED
330
12BCE
100
AcDbEntity
  8
SPLICE-PLATE
 62
     7
100
AcDbLine
 10
5.999999993123793
 20
2.499999999817077
 30
0.0
 11
5.999999993123793
 21
-0.0000000001829221
 31
0.0
  0
ENDBLK
  5
12BEF
330
12BCE
100
AcDbEntity
  8
0
100
AcDbBlockEnd
  0
BLOCK
  5
12C7E
330
12C55
100
AcDbEntity
  8
0
100
AcDbBlockBegin
  2
HA90
 70
     0
 10
0.0
 20
0.0
 30
0.0
  3
HA90
  1

  0
LWPOLYLINE
  5
12C56
330
12C55
100
AcDbEntity
  8
0
100
AcDbPolyline
 90
        4
 70
     1
 43
0.0
 10
-16.18999999999999
 20
-0.8100000000000022
 10
73.81
 20
-0.8100000000000022
 10
73.81
 20
0.6899999999999978
 10
-16.18999999999999
 20
0.6899999999999978
  0
LINE
  5
12C57
330
12C55
100
AcDbEntity
  8
0
100
AcDbLine
 10
73.81
 20
-0.710000000000008
 30
0.0
 11
-16.18999999999999
 21
-0.710000000000008
 31
0.0
  0
ARC
  5
12C58
330
12C55
100
AcDbEntity
  8
0
100
AcDbCircle
 10
-10.47899999999998
 20
0.0
 30
0.0
 40
0.195
100
AcDbArc
 50
270.0
 51
90.0
  0
LINE
  5
12C59
330
12C55
100
AcDbEntity
  8
0
100
AcDbLine
 10
-15.81
 20
0.1949999999999932
 30
0.0
 11
-14.94999999999999
 21
0.1949999999999932
 31
0.0
  0
LINE
  5
12C5A
330
12C55
100
AcDbEntity
  8
0
100
AcDbLine
 10
-14.94999999999999
 20
-0.1949999999999932
 30
0.0
 11
-15.81
 21
-0.1949999999999932
 31
0.0
  0
ARC
  5
12C5B
330
12C55
100
AcDbEntity
  8
0
100
AcDbCircle
 10
-15.81
 20
0.0
 30
0.0
 40
0.195
100
AcDbArc
 50
90.0
 51
270.0
  0
CIRCLE
  5
12C5C
330
12C55
100
AcDbEntity
  8
0
100
AcDbCircle
 10
-12.69
 20
0.0
 30
0.0
 40
0.195
  0
ARC
  5
12C5D
330
12C55
100
AcDbEntity
  8
0
100
AcDbCircle
 10
-14.94999999999999
 20
0.0
 30
0.0
 40
0.195
100
AcDbArc
 50
270.0
 51
90.0
  0
CIRCLE
  5
12C5E
330
12C55
100
AcDbEntity
  8
0
100
AcDbCircle
 10
-14.19000000000001
 20
0.0
 30
0.0
 40
0.195
  0
CIRCLE
  5
12C5F
330
12C55
100
AcDbEntity
  8
0
100
AcDbCircle
 10
-13.44000000000001
 20
0.0
 30
0.0
 40
0.195
  0
LINE
  5
12C60
330
12C55
100
AcDbEntity
  8
0
100
AcDbLine
 10
-10.90100000000001
 20
0.1949999999999932
 30
0.0
 11
-10.47899999999998
 21
0.1949999999999932
 31
0.0
  0
LINE
  5
12C61
330
12C55
100
AcDbEntity
  8
0
100
AcDbLine
 10
-10.90100000000001
 20
-0.1949999999999932
 30
0.0
 11
-10.47899999999998
 21
-0.1949999999999932
 31
0.0
  0
ARC
  5
12C62
330
12C55
100
AcDbEntity
  8
0
100
AcDbCircle
 10
-10.90100000000001
 20
0.0
 30
0.0
 40
0.195
100
AcDbArc
 50
90.0
 51
270.0
  0
CIRCLE
  5
12C63
330
12C55
100
AcDbEntity
  8
0
100
AcDbCircle
 10
-11.69
 20
0.0
 30
0.0
 40
0.195
  0
LINE
  5
12C64
330
12C55
100
AcDbEntity
  8
0
100
AcDbLine
 10
-7.961000000000012
 20
-0.1949999999999932
 30
0.0
 11
-7.538999999999987
 21
-0.1949999999999932
 31
0.0
  0
LINE
  5
12C65
330
12C55
100
AcDbEntity
  8
0
100
AcDbLine
 10
-7.961000000000012
 20
0.1949999999999932
 30
0.0
 11
-7.538999999999987
 21
0.1949999999999932
 31
0.0
  0
CIRCLE
  5
12C66
330
12C55
100
AcDbEntity
  8
0
100
AcDbCircle
 10
-9.309999999999988
 20
0.3799999999999954
 30
0.0
 40
0.078
  0
CIRCLE
  5
12C67
330
12C55
100
AcDbEntity
  8
0
100
AcDbCircle
 10
-9.309999999999988
 20
-0.25
 30
0.0
 40
0.078
  0
CIRCLE
  5
12C68
330
12C55
100
AcDbEntity
  8
0
100
AcDbCircle
 10
-8.75
 20
0.0
 30
0.0
 40
0.195
  0
ARC
  5
12C69
330
12C55
100
AcDbEntity
  8
0
100
AcDbCircle
 10
-7.961000000000012
 20
0.0
 30
0.0
 40
0.195
100
AcDbArc
 50
90.0
 51
270.0
  0
ARC
  5
12C6A
330
12C55
100
AcDbEntity
  8
0
100
AcDbCircle
 10
-7.538999999999987
 20
0.0
 30
0.0
 40
0.195
100
AcDbArc
 50
270.0
 51
90.0
  0
CIRCLE
  5
12C6B
330
12C55
100
AcDbEntity
  8
0
100
AcDbCircle
 10
-5.75
 20
0.0
 30
0.0
 40
0.195
  0
CIRCLE
  5
12C6C
330
12C55
100
AcDbEntity
  8
0
100
AcDbCircle
 10
-3.75
 20
0.0
 30
0.0
 40
0.195
  0
CIRCLE
  5
12C6D
330
12C55
100
AcDbEntity
  8
0
100
AcDbCircle
 10
-1.75
 20
0.0
 30
0.0
 40
0.195
  0
CIRCLE
  5
12C6E
330
12C55
100
AcDbEntity
  8
0
100
AcDbCircle
 10
0.0
 20
0.0
 30
0.0
 40
0.1325
  0
CIRCLE
  5
12C6F
330
12C55
100
AcDbEntity
  8
0
100
AcDbCircle
 10
5.0
 20
0.0
 30
0.0
 40
0.1325
  0
CIRCLE
  5
12C70
330
12C55
100
AcDbEntity
  8
0
100
AcDbCircle
 10
24.0
 20
0.0
 30
0.0
 40
0.1325
  0
LINE
  5
12C71
330
12C55
100
AcDbEntity
  8
0
100
AcDbLine
 10
23.89750000000001
 20
0.1324999999999932
 30
0.0
 11
24.1025
 21
0.1324999999999932
 31
0.0
  0
LINE
  5
12C72
330
12C55
100
AcDbEntity
  8
0
100
AcDbLine
 10
24.1025
 20
-0.1324999999999932
 30
0.0
 11
23.89750000000001
 21
-0.1324999999999932
 31
0.0
  0
ARC
  5
12C73
330
12C55
100
AcDbEntity
  8
0
100
AcDbCircle
 10
24.1025
 20
0.0
 30
0.0
 40
0.1325
100
AcDbArc
 50
270.0
 51
90.0
  0
ARC
  5
12C74
330
12C55
100
AcDbEntity
  8
0
100
AcDbCircle
 10
23.89750000000001
 20
0.0
 30
0.0
 40
0.1325
100
AcDbArc
 50
90.0
 51
270.0
  0
CIRCLE
  5
12C75
330
12C55
100
AcDbEntity
  8
0
100
AcDbCircle
 10
48.0
 20
0.0
 30
0.0
 40
0.1325
  0
ARC
  5
12C76
330
12C55
100
AcDbEntity
  8
0
100
AcDbCircle
 10
47.8975
 20
0.0
 30
0.0
 40
0.1325
100
AcDbArc
 50
90.0
 51
270.0
  0
ARC
  5
12C77
330
12C55
100
AcDbEntity
  8
0
100
AcDbCircle
 10
48.10249999999999
 20
0.0
 30
0.0
 40
0.1325
100
AcDbArc
 50
270.0
 51
90.0
  0
LINE
  5
12C78
330
12C55
100
AcDbEntity
  8
0
100
AcDbLine
 10
48.10249999999999
 20
-0.1324999999999932
 30
0.0
 11
47.8975
 21
-0.1324999999999932
 31
0.0
  0
LINE
  5
12C79
330
12C55
100
AcDbEntity
  8
0
100
AcDbLine
 10
47.8975
 20
0.1324999999999932
 30
0.0
 11
48.10249999999999
 21
0.1324999999999932
 31
0.0
  0
ARC
  5
12C7A
330
12C55
100
AcDbEntity
  8
0
100
AcDbCircle
 10
72.39749999999998
 20
0.0
 30
0.0
 40
0.1325
100
AcDbArc
 50
90.0
 51
270.0
  0
ARC
  5
12C7B
330
12C55
100
AcDbEntity
  8
0
100
AcDbCircle
 10
72.60249999999999
 20
0.0
 30
0.0
 40
0.1325
100
AcDbArc
 50
270.0
 51
90.0
  0
LINE
  5
12C7C
330
12C55
100
AcDbEntity
  8
0
100
AcDbLine
 10
72.60249999999999
 20
-0.1324999999999932
 30
0.0
 11
72.39749999999998
 21
-0.1324999999999932
 31
0.0
  0
LINE
  5
12C7D
330
12C55
100
AcDbEntity
  8
0
100
AcDbLine
 10
72.39749999999998
 20
0.1324999999999932
 30
0.0
 11
72.60249999999999
 21
0.1324999999999932
 31
0.0
  0
ENDBLK
  5
12C7F
330
12C55
100
AcDbEntity
  8
0
100
AcDbBlockEnd
  0
BLOCK
  5
12CD3
330
12CC8
100
AcDbEntity
  8
0
100
AcDbBlockBegin
  2
*D17
 70
     1
 10
0.0
 20
0.0
 30
0.0
  3
*D17
  1

  0
LINE
  5
14043
330
12CC8
100
AcDbEntity
  8
TEXT
 62
     0
370
    -2
100
AcDbLine
 10
136.2169295018095
 20
241.0362941793405
 30
0.0
 11
118.1311973672866
 21
241.0362941793405
 31
0.0
  0
LINE
  5
14044
330
12CC8
100
AcDbEntity
  8
TEXT
 62
     0
370
    -2
100
AcDbLine
 10
188.7681677061248
 20
123.0362941793405
 30
0.0
 11
118.1311973672866
 21
123.0362941793405
 31
0.0
  0
LINE
  5
14045
330
12CC8
100
AcDbEntity
  8
TEXT
 62
     0
370
    -2
100
AcDbLine
 10
119.1311973672866
 20
238.0362941793405
 30
0.0
 11
119.1311973672866
 21
186.847517442979
 31
0.0
  0
LINE
  5
14046
330
12CC8
100
AcDbEntity
  8
TEXT
 62
     0
370
    -2
100
AcDbLine
 10
119.1311973672866
 20
126.0362941793405
 30
0.0
 11
119.1311973672866
 21
177.225070915702
 31
0.0
  0
SOLID
  5
14047
330
12CC8
100
AcDbEntity
  8
TEXT
 62
     0
100
AcDbTrace
 10
118.6311973672866
 20
238.0362941793405
 30
0.0
 11
119.6311973672866
 21
238.0362941793405
 31
0.0
 12
119.1311973672866
 22
241.0362941793405
 32
0.0
 13
119.1311973672866
 23
241.0362941793405
 33
0.0
  0
SOLID
  5
14048
330
12CC8
100
AcDbEntity
  8
TEXT
 62
     0
100
AcDbTrace
 10
118.6311973672866
 20
126.0362941793405
 30
0.0
 11
119.6311973672866
 21
126.0362941793405
 31
0.0
 12
119.1311973672866
 22
123.0362941793405
 32
0.0
 13
119.1311973672866
 23
123.0362941793405
 33
0.0
  0
MTEXT
  5
14049
330
12CC8
100
AcDbEntity
  8
TEXT
 62
     0
100
AcDbMText
 10
119.1311973672866
 20
182.0362941793405
 30
0.0
 40
1.75
 41
0.0
 71
     5
 72
     1
  1
\A1;TAPERED REVERSE\PANGLE\PDOOR HEIGHT + 10"
  7
WEB PAGE
 73
     1
 44
1.0
1001
ACAD
1000
MTEXTBEGIN
1070
    73
1070
     1
1070
    44
1040
1.0
1070
    74
1070
     0
1000
MTEXTEND
  0
POINT
  5
1404A
330
12CC8
100
AcDbEntity
  8
Defpoints
 62
     0
100
AcDbPoint
 10
138.2169295018095
 20
241.0362941793405
 30
0.0
  0
POINT
  5
1404B
330
12CC8
100
AcDbEntity
  8
Defpoints
 62
     0
100
AcDbPoint
 10
190.7681677061248
 20
123.0362941793405
 30
0.0
  0
POINT
  5
1404C
330
12CC8
100
AcDbEntity
  8
Defpoints
 62
     0
100
AcDbPoint
 10
119.1311973672866
 20
123.0362941793405
 30
0.0
  0
ENDBLK
  5
12CD4
330
12CC8
100
AcDbEntity
  8
0
100
AcDbBlockEnd
  0
BLOCK
  5
12D29
330
12D14
100
AcDbEntity
  8
0
100
AcDbBlockBegin
  2
WD-9-4-375
 70
     0
 10
0.0
 20
0.0
 30
0.0
  3
WD-9-4-375
  1

  0
LINE
  5
12D15
330
12D14
100
AcDbEntity
  8
0
100
AcDbLine
 10
-3.949999999999988
 20
-0.5625000000000285
 30
0.0
 11
-3.949999999999988
 21
1.187499999999971
 31
0.0
  0
LINE
  5
12D16
330
12D14
100
AcDbEntity
  8
0
100
AcDbLine
 10
0.7375000000000114
 20
-0.5625
 30
0.0
 11
0.7375000000000114
 21
5.9375
 31
0.0
  0
LINE
  5
12D17
330
12D14
100
AcDbEntity
  8
0
100
AcDbLine
 10
0.7375000000000114
 20
-0.5625
 30
0.0
 11
-3.949999999999988
 21
-0.5625000000000285
 31
0.0
  0
LINE
  5
12D18
330
12D14
100
AcDbEntity
  8
0
100
AcDbLine
 10
0.7375000000000114
 20
5.9375
 30
0.0
 11
-5.387499999999988
 21
5.937499999999971
 31
0.0
  0
ARC
  5
12D19
330
12D14
100
AcDbEntity
  8
0
100
AcDbCircle
 10
-2.774999999999977
 20
-0.0000000000000284
 30
0.0
 40
0.21875
100
AcDbArc
 50
270.0
 51
90.0
  0
LINE
  5
12D1A
330
12D14
100
AcDbEntity
  8
0
100
AcDbLine
 10
-3.212499999999977
 20
0.2187499999999716
 30
0.0
 11
-2.774999999999977
 21
0.2187499999999716
 31
0.0
  0
ARC
  5
12D1B
330
12D14
100
AcDbEntity
  8
0
100
AcDbCircle
 10
-3.212499999999977
 20
-0.0000000000000284
 30
0.0
 40
0.21875
100
AcDbArc
 50
90.0
 51
270.0
  0
LINE
  5
12D1C
330
12D14
100
AcDbEntity
  8
0
100
AcDbLine
 10
-2.774999999999977
 20
-0.2187500000000284
 30
0.0
 11
-3.212499999999977
 21
-0.2187500000000284
 31
0.0
  0
LINE
  5
12D1D
330
12D14
100
AcDbEntity
  8
0
100
AcDbLine
 10
-5.387499999999988
 20
1.187499999999971
 30
0.0
 11
-3.949999999999988
 21
1.187499999999971
 31
0.0
  0
LINE
  5
12D1E
330
12D14
100
AcDbEntity
  8
0
100
AcDbLine
 10
-5.387499999999988
 20
5.937499999999971
 30
0.0
 11
-5.387499999999988
 21
1.187499999999971
 31
0.0
  0
LINE
  5
12D1F
330
12D14
100
AcDbEntity
  8
0
100
AcDbLine
 10
-5.228200000000015
 20
5.937499999999971
 30
0.0
 11
-5.228200000000015
 21
1.187499999999971
 31
0.0
  0
CIRCLE
  5
12D20
330
12D14
100
AcDbEntity
  8
0
100
AcDbCircle
 10
-1.012499999999988
 20
4.624999999999971
 30
0.0
 40
0.5
  0
ARC
  5
12D21
330
12D14
100
AcDbEntity
  8
0
100
AcDbCircle
 10
-1.824999999999988
 20
0.0
 30
0.0
 40
0.21875
100
AcDbArc
 50
90.0
 51
270.0
  0
ARC
  5
12D22
330
12D14
100
AcDbEntity
  8
0
100
AcDbCircle
 10
-1.387499999999988
 20
0.0
 30
0.0
 40
0.21875
100
AcDbArc
 50
270.0
 51
90.0
  0
LINE
  5
12D23
330
12D14
100
AcDbEntity
  8
0
100
AcDbLine
 10
-1.387499999999988
 20
-0.21875
 30
0.0
 11
-1.824999999999988
 21
-0.21875
 31
0.0
  0
LINE
  5
12D24
330
12D14
100
AcDbEntity
  8
0
100
AcDbLine
 10
-1.824999999999988
 20
0.21875
 30
0.0
 11
-1.387499999999988
 21
0.21875
 31
0.0
  0
ARC
  5
12D25
330
12D14
100
AcDbEntity
  8
0
100
AcDbCircle
 10
-0.4375
 20
0.0
 30
0.0
 40
0.21875
100
AcDbArc
 50
90.0
 51
270.0
  0
ARC
  5
12D26
330
12D14
100
AcDbEntity
  8
0
100
AcDbCircle
 10
0.0
 20
0.0
 30
0.0
 40
0.21875
100
AcDbArc
 50
270.0
 51
90.0
  0
LINE
  5
12D27
330
12D14
100
AcDbEntity
  8
0
100
AcDbLine
 10
-0.4375
 20
0.21875
 30
0.0
 11
0.0
 21
0.21875
 31
0.0
  0
LINE
  5
12D28
330
12D14
100
AcDbEntity
  8
0
100
AcDbLine
 10
0.0
 20
-0.21875
 30
0.0
 11
-0.4375
 21
-0.21875
 31
0.0
  0
ENDBLK
  5
12D2A
330
12D14
100
AcDbEntity
  8
0
100
AcDbBlockEnd
  0
BLOCK
  5
12D3D
330
12D36
100
AcDbEntity
  8
0
100
AcDbBlockBegin
  2
A$C72267DA4
 70
     0
 10
0.0
 20
0.0
 30
0.0
  3
A$C72267DA4
  1

  0
LINE
  5
12D37
330
12D36
100
AcDbEntity
  8
BDR
100
AcDbLine
 10
-0.0000007227840797
 20
3.011458393144607
 30
0.0
 11
-0.0000007227840797
 21
9.97725522305393
 31
0.0
  0
LINE
  5
12D38
330
12D36
100
AcDbEntity
  8
BDR
100
AcDbLine
 10
0.2499992772159203
 20
9.97725522305393
 30
0.0
 11
0.2499992772159203
 21
3.011458393144607
 31
0.0
  0
LINE
  5
12D39
330
12D36
100
AcDbEntity
  8
BDR
100
AcDbLine
 10
-0.0000007227840797
 20
9.97725522305393
 30
0.0
 11
0.2499992772159203
 21
9.97725522305393
 31
0.0
  0
ARC
  5
12D3A
330
12D36
100
AcDbEntity
  8
BDR
100
AcDbCircle
 10
3.01145753855053
 20
3.011458393144607
 30
0.0
 40
3.01145826133464
100
AcDbArc
 50
180.0
 51
0.0
  0
ARC
  5
12D3B
330
12D36
100
AcDbEntity
  8
BDR
100
AcDbCircle
 10
3.01145753855053
 20
3.011458393144607
 30
0.0
 40
2.76145826133464
100
AcDbArc
 50
180.0
 51
0.0
  0
LINE
  5
12D3C
330
12D36
100
AcDbEntity
  8
BDR
100
AcDbLine
 10
5.77291579988514
 20
3.011458393144607
 30
0.0
 11
6.02291579988514
 21
3.011458393144607
 31
0.0
  0
ENDBLK
  5
12D3E
330
12D36
100
AcDbEntity
  8
0
100
AcDbBlockEnd
  0
BLOCK
  5
12D41
330
12D3F
100
AcDbEntity
  8
0
100
AcDbBlockBegin
  2
A$C66E47D23
 70
     0
 10
0.0
 20
0.0
 30
0.0
  3
A$C66E47D23
  1

  0
INSERT
  5
12D40
330
12D3F
100
AcDbEntity
  8
0
100
AcDbBlockReference
  2
A$C72267DA4
 10
6.022915498545671
 20
-0.0000004041654051
 30
0.0
 41
-1.0
  0
ENDBLK
  5
12D42
330
12D3F
100
AcDbEntity
  8
0
100
AcDbBlockEnd
  0
BLOCK
  5
12DE6
330
12DDB
100
AcDbEntity
  8
0
100
AcDbBlockBegin
  2
*D21
 70
     1
 10
0.0
 20
0.0
 30
0.0
  3
*D21
  1

  0
LINE
  5
1406C
330
12DDB
100
AcDbEntity
  8
TEXT
 62
     0
370
    -2
100
AcDbLine
 10
140.2169295018093
 20
231.0362941793405
 30
0.0
 11
198.8453528327894
 21
231.0362941793405
 31
0.0
  0
LINE
  5
1406D
330
12DDB
100
AcDbEntity
  8
TEXT
 62
     0
370
    -2
100
AcDbLine
 10
160.6670591629167
 20
278.8316236099653
 30
0.0
 11
198.8453528327894
 21
278.8316236099653
 31
0.0
  0
LINE
  5
1406E
330
12DDB
100
AcDbEntity
  8
TEXT
 62
     0
370
    -2
100
AcDbLine
 10
197.8453528327894
 20
234.0362941793405
 30
0.0
 11
197.8453528327894
 21
253.039402297681
 31
0.0
  0
LINE
  5
1406F
330
12DDB
100
AcDbEntity
  8
TEXT
 62
     0
370
    -2
100
AcDbLine
 10
197.8453528327894
 20
275.8316236099653
 30
0.0
 11
197.8453528327894
 21
256.8285154916248
 31
0.0
  0
SOLID
  5
14070
330
12DDB
100
AcDbEntity
  8
TEXT
 62
     0
100
AcDbTrace
 10
197.3453528327894
 20
234.0362941793405
 30
0.0
 11
198.3453528327894
 21
234.0362941793405
 31
0.0
 12
197.8453528327894
 22
231.0362941793405
 32
0.0
 13
197.8453528327894
 23
231.0362941793405
 33
0.0
  0
SOLID
  5
14071
330
12DDB
100
AcDbEntity
  8
TEXT
 62
     0
100
AcDbTrace
 10
197.3453528327894
 20
275.8316236099653
 30
0.0
 11
198.3453528327894
 21
275.8316236099653
 31
0.0
 12
197.8453528327894
 22
278.8316236099653
 32
0.0
 13
197.8453528327894
 23
278.8316236099653
 33
0.0
  0
MTEXT
  5
14072
330
12DDB
100
AcDbEntity
  8
TEXT
 62
     0
100
AcDbMText
 10
197.8453528327894
 20
254.933958894653
 30
0.0
 40
1.75
 41
0.0
 71
     5
 72
     1
  1
\A1;HIGH LIFT
  7
WEB PAGE
 73
     1
 44
1.0
1001
ACAD
1000
MTEXTBEGIN
1070
    73
1070
     1
1070
    44
1040
1.0
1070
    74
1070
     0
1000
MTEXTEND
  0
POINT
  5
14073
330
12DDB
100
AcDbEntity
  8
Defpoints
 62
     0
100
AcDbPoint
 10
138.2169295018093
 20
231.0362941793405
 30
0.0
  0
POINT
  5
14074
330
12DDB
100
AcDbEntity
  8
Defpoints
 62
     0
100
AcDbPoint
 10
158.6670591629167
 20
278.8316236099653
 30
0.0
  0
POINT
  5
14075
330
12DDB
100
AcDbEntity
  8
Defpoints
 62
     0
100
AcDbPoint
 10
197.8453528327894
 20
278.8316236099653
 30
0.0
  0
ENDBLK
  5
12DE7
330
12DDB
100
AcDbEntity
  8
0
100
AcDbBlockEnd
  0
BLOCK
  5
13CAC
330
13C96
100
AcDbEntity
  8
0
100
AcDbBlockBegin
  2
A$C0E042484
 70
     0
 10
0.0
 20
0.0
 30
0.0
  3
A$C0E042484
  1

  0
LINE
  5
13C97
330
13C96
100
AcDbEntity
  8
0
  6
HIDDEN
100
AcDbLine
 10
115.1587297279258
 20
11.17111885516794
 30
0.0
 11
17.60756203283074
 21
11.17111885516812
 31
0.0
  0
LINE
  5
13C98
330
13C96
100
AcDbEntity
  8
0
100
AcDbLine
 10
115.1587297279258
 20
10.57111885516804
 30
0.0
 11
17.60756203283074
 21
10.57111885516815
 31
0.0
  0
LINE
  5
13C99
330
13C96
100
AcDbEntity
  8
0
100
AcDbLine
 10
115.1587297279258
 20
13.67111885516812
 30
0.0
 11
17.60756203283074
 21
13.67111885516817
 31
0.0
  0
ARC
  5
13C9A
330
13C96
100
AcDbEntity
  8
0
100
AcDbCircle
 10
17.60756203283074
 20
-4.888881144831884
 30
0.0
 40
18.56
100
AcDbArc
 50
90.0
 51
161.565051177079
  0
ARC
  5
13C9B
330
13C96
100
AcDbEntity
  8
0
  6
HIDDEN
100
AcDbCircle
 10
17.60756203283074
 20
-4.888881144831884
 30
0.0
 40
16.06
100
AcDbArc
 50
90.0
 51
161.565051177079
  0
ARC
  5
13C9C
330
13C96
100
AcDbEntity
  8
0
100
AcDbCircle
 10
17.60756203283074
 20
-4.888881144831884
 30
0.0
 40
15.46
100
AcDbArc
 50
90.0
 51
161.565051177079
  0
LINE
  5
13C9D
330
13C96
100
AcDbEntity
  8
0
100
AcDbLine
 10
0.000000021013193
 20
0.9803061924406222
 30
0.0
 11
2.940918244969793
 21
0.0000001177884315
 31
0.0
  0
CIRCLE
  5
13C9E
330
13C96
100
AcDbEntity
  8
0
100
AcDbCircle
 10
17.0499867601826
 20
12.81111885516816
 30
0.0
 40
0.136
  0
CIRCLE
  5
13C9F
330
13C96
100
AcDbEntity
  8
0
100
AcDbCircle
 10
18.0499867601826
 20
12.81111885516816
 30
0.0
 40
0.136
  0
CIRCLE
  5
13CA0
330
13C96
100
AcDbEntity
  8
0
100
AcDbCircle
 10
36.04998676018261
 20
12.81111885516816
 30
0.0
 40
0.136
  0
CIRCLE
  5
13CA1
330
13C96
100
AcDbEntity
  8
0
100
AcDbCircle
 10
37.04998676018261
 20
12.81111885516816
 30
0.0
 40
0.136
  0
CIRCLE
  5
13CA2
330
13C96
100
AcDbEntity
  8
0
100
AcDbCircle
 10
61.04998676018261
 20
12.81111885516816
 30
0.0
 40
0.136
  0
CIRCLE
  5
13CA3
330
13C96
100
AcDbEntity
  8
0
100
AcDbCircle
 10
60.0499867601826
 20
12.81111885516816
 30
0.0
 40
0.136
  0
CIRCLE
  5
13CA4
330
13C96
100
AcDbEntity
  8
0
100
AcDbCircle
 10
85.0499867601826
 20
12.81111885516816
 30
0.0
 40
0.136
  0
CIRCLE
  5
13CA5
330
13C96
100
AcDbEntity
  8
0
100
AcDbCircle
 10
84.0499867601826
 20
12.81111885516816
 30
0.0
 40
0.136
  0
CIRCLE
  5
13CA6
330
13C96
100
AcDbEntity
  8
0
100
AcDbCircle
 10
113.9087297279258
 20
12.82911885516813
 30
0.0
 40
0.2075
  0
CIRCLE
  5
13CA7
330
13C96
100
AcDbEntity
  8
0
100
AcDbCircle
 10
109.0499867601826
 20
12.81111885516816
 30
0.0
 40
0.136
  0
CIRCLE
  5
13CA8
330
13C96
100
AcDbEntity
  8
0
100
AcDbCircle
 10
108.0499867601826
 20
12.81111885516816
 30
0.0
 40
0.136
  0
CIRCLE
  5
13CA9
330
13C96
100
AcDbEntity
  8
0
100
AcDbCircle
 10
114.5587297279259
 20
13.19911885516814
 30
0.0
 40
0.136
  0
LINE
  5
13CAA
330
13C96
100
AcDbEntity
  8
0
100
AcDbLine
 10
115.1587297279258
 20
10.57111885516798
 30
0.0
 11
115.1587297279258
 21
13.67111885516812
 31
0.0
  0
CIRCLE
  5
13CAB
330
13C96
100
AcDbEntity
  8
0
100
AcDbCircle
 10
114.5587297279259
 20
12.44911885516813
 30
0.0
 40
0.136
  0
ENDBLK
  5
13CAD
330
13C96
100
AcDbEntity
  8
0
100
AcDbBlockEnd
  0
BLOCK
  5
1402D
330
14022
100
AcDbEntity
  8
0
100
AcDbBlockBegin
  2
*D23
 70
     1
 10
0.0
 20
0.0
 30
0.0
  3
*D23
  1

  0
LINE
  5
142D1
330
14022
100
AcDbEntity
  8
0
 62
     0
370
    -2
100
AcDbLine
 10
136.2169295018095
 20
241.0362941793405
 30
0.0
 11
118.1311973672866
 21
241.0362941793405
 31
0.0
  0
LINE
  5
142D2
330
14022
100
AcDbEntity
  8
0
 62
     0
370
    -2
100
AcDbLine
 10
136.2169295018103
 20
282.0362941793405
 30
0.0
 11
118.1311973672866
 21
282.0362941793406
 31
0.0
  0
LINE
  5
142D3
330
14022
100
AcDbEntity
  8
0
 62
     0
370
    -2
100
AcDbLine
 10
119.1311973672866
 20
244.0362941793405
 30
0.0
 11
119.1311973672866
 21
255.2667375823687
 31
0.0
  0
LINE
  5
142D4
330
14022
100
AcDbEntity
  8
0
 62
     0
370
    -2
100
AcDbLine
 10
119.1311973672866
 20
279.0362941793406
 30
0.0
 11
119.1311973672866
 21
267.8058507763125
 31
0.0
  0
SOLID
  5
142D5
330
14022
100
AcDbEntity
  8
0
 62
     0
100
AcDbTrace
 10
118.6311973672866
 20
244.0362941793405
 30
0.0
 11
119.6311973672866
 21
244.0362941793405
 31
0.0
 12
119.1311973672866
 22
241.0362941793405
 32
0.0
 13
119.1311973672866
 23
241.0362941793405
 33
0.0
  0
SOLID
  5
142D6
330
14022
100
AcDbEntity
  8
0
 62
     0
100
AcDbTrace
 10
118.6311973672866
 20
279.0362941793406
 30
0.0
 11
119.6311973672866
 21
279.0362941793406
 31
0.0
 12
119.1311973672866
 22
282.0362941793406
 32
0.0
 13
119.1311973672866
 23
282.0362941793406
 33
0.0
  0
MTEXT
  5
142D7
330
14022
100
AcDbEntity
  8
0
 62
     0
100
AcDbMText
 10
119.1311973672866
 20
261.5362941793406
 30
0.0
 40
1.75
 41
0.0
 71
     5
 72
     1
  1
\A1;UPPER\PCLIP STYLE\PREVERSE ANGLE\PHIGH LIFT - 7"
  7
WEB PAGE
 73
     1
 44
1.0
1001
ACAD
1000
MTEXTBEGIN
1070
    73
1070
     1
1070
    44
1040
1.0
1070
    74
1070
     0
1000
MTEXTEND
  0
POINT
  5
142D8
330
14022
100
AcDbEntity
  8
Defpoints
 62
     0
100
AcDbPoint
 10
138.2169295018095
 20
241.0362941793405
 30
0.0
  0
POINT
  5
142D9
330
14022
100
AcDbEntity
  8
Defpoints
 62
     0
100
AcDbPoint
 10
138.2169295018103
 20
282.0362941793405
 30
0.0
  0
POINT
  5
142DA
330
14022
100
AcDbEntity
  8
Defpoints
 62
     0
100
AcDbPoint
 10
119.1311973672866
 20
282.0362941793406
 30
0.0
  0
ENDBLK
  5
1402E
330
14022
100
AcDbEntity
  8
0
100
AcDbBlockEnd
  0
BLOCK
  5
14183
330
14180
100
AcDbEntity
  8
0
100
AcDbBlockBegin
  2
A$C6C5E50C0
 70
     0
 10
0.0
 20
0.0
 30
0.0
  3
A$C6C5E50C0
  1

  0
LWPOLYLINE
  5
14184
330
14180
100
AcDbEntity
  8
0
  6
Continuous
370
     0
100
AcDbPolyline
 90
       28
 70
   128
 43
0.0
 10
89.46615832157608
 20
41.13641031600053
 10
89.27222656000623
 20
40.35445574587828
 10
91.77842783909403
 20
40.35445574587828
 10
88.22941507752876
 20
25.06521308133514
 10
91.74883379729886
 20
25.06521308133514
 10
92.83903273295322
 20
29.70460717434085
 10
93.51142613728109
 20
32.40438248675599
 42
-0.0482014492949477
 10
94.90222709810149
 20
36.33090372740478
 42
-0.053262418155061
 10
95.69255445240377
 20
37.63994039319945
 10
96.01050029352478
 20
38.11803514598373
 10
96.7517412999145
 20
39.08163286814693
 10
97.13484158680508
 20
39.47512852694209
 10
97.49645935214255
 20
39.71838029675846
 10
97.78033614182687
 20
39.76451390855846
 10
97.9165330912067
 20
39.71679843199229
 10
98.11228370309459
 20
39.5001690907863
 10
98.33068664147061
 20
39.13886862333138
 42
0.3718636352105929
 10
100.6746008700249
 20
38.37498945413077
 42
0.410494964422803
 10
101.5307705106384
 20
40.42995940203829
 42
0.2569047224154794
 10
100.1528988099368
 20
41.55238320185122
 42
0.1662119308771796
 10
98.18469331953231
 20
41.25741139784284
 10
97.71438794235264
 20
41.01222767117803
 10
97.01069922142279
 20
40.48017371143288
 10
96.39362628518302
 20
39.86121166887861
 10
95.29143107727248
 20
38.43551478480922
 10
94.37584272418105
 20
36.84761105670324
 10
95.34031250106522
 20
41.13005136382585
 10
89.46615832157608
 20
41.13641031600053
  0
LWPOLYLINE
  5
14185
330
14180
100
AcDbEntity
  8
0
  6
Continuous
370
     0
100
AcDbPolyline
 90
       26
 70
   128
 43
0.0
 10
75.59615083226572
 20
41.13674535715873
 10
75.40091788583737
 20
40.3562948676153
 10
78.95044093464185
 20
40.3562948676153
 10
75.40156478915645
 20
25.06053692365268
 10
78.9196635215065
 20
25.06053692365268
 10
79.70730924972485
 20
28.43036040330673
 10
80.27649467985417
 20
30.82326659892113
 42
-0.01733175633708
 10
81.22171777395625
 20
34.26289196408487
 42
-0.0611456516273243
 10
82.52610073399313
 20
37.14510445964368
 42
-0.0392875224268328
 10
83.91818693319583
 20
39.07190933881472
 42
-0.0869198770273056
 10
84.69680457579983
 20
39.71873114771083
 42
-0.4067709259389317
 10
85.20421835518323
 20
39.58761862742637
 42
0.0215702245879046
 10
85.6066498173792
 20
38.98450103411784
 42
0.2657404308674667
 10
87.33010688662739
 20
38.2153073709851
 42
0.734337059089455
 10
87.96456148195227
 20
41.27750261076122
 42
0.0386318970070079
 10
87.41340509024139
 20
41.53098685880396
 10
87.02601329718943
 20
41.59307811797603
 42
0.0833432099983069
 10
86.52539628678443
 20
41.58938672075325
 10
85.67284268816024
 20
41.39913684324073
 10
84.86102376803472
 20
40.99408751333945
 10
84.16429746903038
 20
40.46810388216644
 10
83.51354700304625
 20
39.81386070292698
 10
82.43869762179031
 20
38.39330870531782
 10
81.53441484432812
 20
36.82930989192076
 10
82.50048283894143
 20
41.13627726077274
 10
75.59615083226572
 20
41.13674535715873
  0
LWPOLYLINE
  5
14186
330
14180
100
AcDbEntity
  8
0
  6
Continuous
370
     0
100
AcDbPolyline
 90
      156
 70
   129
 43
0.0
 10
54.33064058997752
 20
29.02034321961307
 42
-0.0578827302046354
 10
52.7211670287279
 20
26.8586720854571
 42
-0.1430380049304022
 10
51.35331304719511
 20
26.05537189010732
 42
-0.3423373963507752
 10
50.59107386371676
 20
26.38921087155529
 10
50.50790251789123
 20
26.8056599484066
 10
50.53722189948399
 20
27.06126789448155
 42
-0.0212674823469502
 10
50.61306976660145
 20
27.54122630580341
 10
51.03200416564042
 20
29.59925272959956
 10
51.39718013724001
 20
31.27016192444163
 10
51.75181644008342
 20
32.80603030782052
 10
52.09553297681935
 20
34.30451067810301
 10
52.61653005985397
 20
36.54637857420082
 10
52.83143572178744
 20
37.68631368147917
 42
0.071115785501764
 10
52.8797559248199
 20
38.77524386317574
 10
52.73441545637837
 20
39.57903631227703
 10
52.49281491723019
 20
40.1530044394739
 10
52.1330985906772
 20
40.62505302105154
 10
51.72506229909885
 20
40.96836105738467
 10
50.67689042053874
 20
41.45867564276253
 10
49.54405274952299
 20
41.6035087877822
 10
48.64207768897836
 20
41.52304591538478
 10
47.79916052213613
 20
41.29775002444605
 10
46.96986640613213
 20
40.92166309917172
 10
46.16453151364535
 20
40.43352204429729
 10
45.43973013420796
 20
39.83273304395351
 10
44.73973409355614
 20
39.12107741926985
 10
43.5263626714839
 20
37.48500011000166
 10
43.24122753822047
 20
37.01028473234226
 10
43.40229456431925
 20
37.60034533283596
 10
43.51798148918862
 20
38.40182563115843
 42
0.0557675588839378
 10
43.52540136077536
 20
38.63411299251726
 10
43.46604191206731
 20
39.30873499645077
 10
43.28221022012553
 20
39.91167046093037
 10
42.9752917243247
 20
40.41728412089407
 10
42.58522711145178
 20
40.83843578940371
 10
42.13224865172245
 20
41.14644219955837
 10
41.07529907102537
 20
41.51730721305526
 10
40.51321553498669
 20
41.59299691887312
 10
39.7956988390988
 20
41.59104358718297
 10
38.86150975451594
 20
41.43775270819211
 10
37.9710461457488
 20
41.12835313897457
 10
37.16662591457745
 20
40.69030978045288
 10
36.41464840755333
 20
40.13963074486213
 10
35.04131502638399
 20
38.74030042369415
 10
33.86240370142662
 20
37.02373798183834
 10
34.47548859056752
 20
39.44024794720212
 10
34.91000174484975
 20
41.13559238048899
 10
27.88419686051324
 20
41.13559238048899
 10
27.69003946820518
 20
40.35546833157574
 10
31.15951215838919
 20
40.35546833157574
 10
28.1587087845256
 20
27.14840465015362
 10
23.06678281546627
 20
30.80637402356061
 10
28.07625764820839
 20
52.61223311026123
 10
27.38517449773073
 20
52.61223311026123
 10
13.56600913476745
 20
37.35510241430174
 10
13.1240373137399
 20
37.59596652576235
 42
0.0562637230888328
 10
9.869517172889629
 20
38.92071850640391
 42
0.0646962069264304
 10
7.107627713940985
 20
39.32387559365975
 42
0.0577225793456043
 10
5.339740429830754
 20
39.14724199624089
 10
4.584370131484462
 20
38.89834916538382
 10
4.018906656507454
 20
38.61374567735337
 10
3.546567032577115
 20
38.26955975476918
 10
2.914413489970769
 20
37.52441481223318
 10
2.585693305085214
 20
36.81415209365571
 10
2.450766837646966
 20
36.13168729350525
 10
2.526663020207337
 20
35.5082008672926
 10
2.855545763947503
 20
34.95211842348723
 10
3.420549409192204
 20
34.572971354452
 10
4.061449236997248
 20
34.37918501569965
 10
4.660184677606849
 20
34.42973803412471
 10
5.199889595331427
 20
34.69935371079709
 10
5.613101351469623
 20
35.16275572622183
 10
5.832356593298783
 20
35.60930677766436
 10
5.916685367689694
 20
36.11483632952303
 10
5.849222252974129
 20
36.6709187733284
 10
5.646832908827406
 20
37.31968164551438
 10
5.62996701114497
 20
37.58087184019564
 10
5.714296023542971
 20
37.70725419654073
 10
6.043178767283166
 20
37.90946601728419
 10
6.599749582690208
 20
38.05269946408987
 10
7.282813797690693
 20
38.1285288020099
 42
-0.0749546678729362
 10
8.366621052464182
 20
38.08616424514168
 10
9.058118097302354
 20
37.98505833476994
 10
9.387000841042549
 20
37.89237790638933
 10
9.99416911148981
 20
37.72386814008866
 10
11.03984762758827
 20
37.32786998059282
 10
11.90000269722247
 20
36.93187194757536
 10
12.7517246990119
 20
36.47689528766338
 10
10.34558279809312
 20
33.805056640429
 10
8.332282576981413
 20
31.5888323569645
 10
6.054287749041321
 20
29.07182433619548
 10
4.36540668636951
 20
27.20469219712251
 10
3.160581147511152
 20
25.88396501064333
 10
0.328851596861
 20
25.88417951793071
 10
0.0000000320519291
 20
25.06419935733251
 10
8.038114597961481
 20
25.06419935733251
 10
8.355003925530809
 20
25.88621822250943
 10
4.458545769871108
 20
25.88621822250943
 10
13.58060896677622
 20
36.00182564413606
 10
13.84063863429108
 20
35.84830659819562
 42
-0.0378368776066533
 10
19.12396920544927
 20
32.1638489897112
 10
17.32949771742952
 20
25.04990502678623
 10
21.73818287021433
 20
25.04990502678623
 10
22.73315063988923
 20
29.33403166979494
 10
24.39499219105423
 20
28.03413243264277
 42
0.0003650787806321
 10
27.26706370847518
 20
25.79096459202856
 42
0.0251103921309316
 10
34.50912684913902
 20
20.70641298607825
 42
0.0329336940479412
 10
38.63199735836756
 20
18.4750678360279
 42
0.0102107528222509
 10
42.63361776458819
 20
16.73675959143432
 42
0.0504906545569961
 10
51.41978438629235
 20
14.1292971613048
 42
-0.0026300496461772
 10
53.89672864164964
 20
13.64559574959196
 42
0.0421128660143396
 10
62.41372517086967
 20
12.67096026152623
 42
0.0534558227927914
 10
78.01656244933468
 20
13.87550316777458
 42
0.0391028274483685
 10
89.03904433226216
 20
16.83161304440497
 42
0.0679636315755799
 10
99.50717386403471
 20
22.22709979326166
 10
100.886927724945
 20
28.38334953764746
 10
99.91578327672876
 20
27.78891265964726
 42
-0.063086927889271
 10
85.66749585848276
 20
20.94079482896962
 42
-0.0198540808759684
 10
76.65327320612306
 20
18.32605888169189
 42
-0.054564896002831
 10
67.03359069833613
 20
17.03321334230969
 42
-0.0042301217558797
 10
61.88260635956021
 20
16.95020585191992
 42
-0.0522238680180291
 10
49.04668548816835
 20
18.19531820776646
 42
-0.0832910642805675
 10
31.20925040777013
 20
25.05745211661287
 10
32.74665184666094
 20
31.7511572053048
 42
-0.075229814552481
 10
35.0729028537215
 20
37.64468889650007
 10
35.69600570003826
 20
38.39175631000799
 42
-0.1208127112472191
 10
38.22995789387818
 20
40.25942471729945
 42
-0.3496769803202913
 10
39.9746461491736
 20
39.76137990143917
 42
-0.2861912614926871
 10
40.05772633827681
 20
38.43326005520288
 10
36.98375196323758
 20
25.06905435540671
 10
40.59774899549035
 20
25.06905435540671
 10
42.25935682367546
 20
32.00017967647409
 42
-0.0838691129222138
 10
44.75176868495665
 20
37.85220762247448
 42
-0.1448629928951336
 10
47.53496192212046
 20
40.25942471729945
 42
-0.3544681206877798
 10
49.27965017741588
 20
39.80288364663406
 10
49.38490072861384
 20
39.62217909045381
 10
49.49271866248401
 20
38.9860992145916
 10
49.45164506186376
 20
38.57059543695371
 42
-0.0331725395765427
 10
49.32465184734383
 20
37.8072452002271
 42
0.0019803018015681
 10
48.79847620565695
 20
35.5314564421351
 10
47.11889860282329
 20
28.2315384553915
 42
0.1400941711987614
 10
47.23177609179177
 20
26.07236741884751
 42
0.1676676532585053
 10
47.96293035695149
 20
25.13581279229817
 10
48.99299013261256
 20
24.72616357116152
 10
49.74130471024711
 20
24.67916788290464
 10
50.28436719424189
 20
24.73043588346153
 10
50.9172276179585
 20
24.89705669555391
 10
51.57146822017188
 20
25.14912425956007
 10
52.24066661708417
 20
25.52680481208745
 10
52.94338450702117
 20
26.04486002119825
 10
53.70897578260628
 20
26.78489561769135
 10
54.45808935010183
 20
27.71958962118359
 10
54.99782663679304
 20
28.58491973370405
 10
55.29935046348771
 20
29.12053633570821
 10
54.63040863823767
 20
29.56047585770429
 10
54.51126989628335
 20
29.3326473642168
  0
LINE
  5
14187
330
14180
100
AcDbEntity
  8
0
  6
Continuous
370
     0
100
AcDbLine
 10
14.32758545098703
 20
36.83016027681293
 30
0.0
 11
19.41626490844274
 21
33.32261649623419
 31
0.0
  0
LINE
  5
14188
330
14180
100
AcDbEntity
  8
0
  6
Continuous
370
     0
100
AcDbLine
 10
19.41626490844274
 20
33.32261649623419
 30
0.0
 11
22.62082565675072
 21
46.02667211453158
 31
0.0
  0
LINE
  5
14189
330
14180
100
AcDbEntity
  8
0
  6
Continuous
370
     0
100
AcDbLine
 10
14.32758545098703
 20
36.83016027681293
 30
0.0
 11
22.62082565675072
 21
46.02667211453158
 31
0.0
  0
LINE
  5
1418A
330
14180
100
AcDbEntity
  8
0
  6
Continuous
370
     0
100
AcDbLine
 10
72.8631759048194
 20
41.13617810174367
 30
0.0
 11
69.31107452501573
 21
41.13617810174367
 31
0.0
  0
LINE
  5
1418B
330
14180
100
AcDbEntity
  8
0
  6
Continuous
370
     0
100
AcDbLine
 10
69.31107452501573
 20
41.13617810174367
 30
0.0
 11
68.85060693363129
 21
39.15781912798028
 31
0.0
  0
LINE
  5
1418C
330
14180
100
AcDbEntity
  8
0
  6
Continuous
370
     0
100
AcDbLine
 10
68.85060693363129
 20
39.1578191279803
 30
0.0
 11
68.74713048741512
 21
39.36459036688603
 31
0.0
  0
LINE
  5
1418D
330
14180
100
AcDbEntity
  8
0
  6
Continuous
370
     0
100
AcDbLine
 10
68.74713048741512
 20
39.36459036688603
 30
0.0
 11
68.54626462676566
 21
39.75988821573901
 31
0.0
  0
LINE
  5
1418E
330
14180
100
AcDbEntity
  8
0
  6
Continuous
370
     0
100
AcDbLine
 10
68.54626462676566
 20
39.75988821573901
 30
0.0
 11
67.94366680681014
 21
40.48966882085884
 31
0.0
  0
LINE
  5
1418F
330
14180
100
AcDbEntity
  8
0
  6
Continuous
370
     0
100
AcDbLine
 10
67.94366680681014
 20
40.48966882085884
 30
0.0
 11
67.46280581439799
 21
40.87280375237725
 31
0.0
  0
LINE
  5
14190
330
14180
100
AcDbEntity
  8
0
  6
Continuous
370
     0
100
AcDbLine
 10
67.46280581439799
 20
40.87280375237725
 30
0.0
 11
66.88455540755263
 21
41.2072865086441
 31
0.0
  0
LINE
  5
14191
330
14180
100
AcDbEntity
  8
0
  6
Continuous
370
     0
100
AcDbLine
 10
66.88455540755263
 20
41.2072865086441
 30
0.0
 11
66.19956404899994
 21
41.45344462454363
 31
0.0
  0
LINE
  5
14192
330
14180
100
AcDbEntity
  8
0
  6
Continuous
370
     0
100
AcDbLine
 10
66.19956404899994
 20
41.45344462454363
 30
0.0
 11
65.48131595726966
 21
41.58115626838309
 31
0.0
  0
LINE
  5
14193
330
14180
100
AcDbEntity
  8
0
  6
Continuous
370
     0
100
AcDbLine
 10
65.48131595726966
 20
41.58115626838309
 30
0.0
 11
65.0613236166364
 21
41.60548222953053
 31
0.0
  0
LINE
  5
14194
330
14180
100
AcDbEntity
  8
0
  6
Continuous
370
     0
100
AcDbLine
 10
65.0613236166364
 20
41.60548222953053
 30
0.0
 11
64.40394417668489
 21
41.56899322457022
 31
0.0
  0
LINE
  5
14195
330
14180
100
AcDbEntity
  8
0
  6
Continuous
370
     0
100
AcDbLine
 10
64.40394417668489
 20
41.56899322457022
 30
0.0
 11
63.69786991051324
 21
41.44128158073073
 31
0.0
  0
LINE
  5
14196
330
14180
100
AcDbEntity
  8
0
  6
Continuous
370
     0
100
AcDbLine
 10
63.69786991051324
 20
41.44128158073073
 30
0.0
 11
62.28235357759399
 21
40.92824452677004
 31
0.0
  0
LINE
  5
14197
330
14180
100
AcDbEntity
  8
0
  6
Continuous
370
     0
100
AcDbLine
 10
62.28235357759399
 20
40.92824452677004
 30
0.0
 11
60.83977083836481
 21
40.10115982410377
 31
0.0
  0
LINE
  5
14198
330
14180
100
AcDbEntity
  8
0
  6
Continuous
370
     0
100
AcDbLine
 10
60.83977083836481
 20
40.10115982410377
 30
0.0
 11
59.49918985331158
 21
38.97918489596711
 31
0.0
  0
LINE
  5
14199
330
14180
100
AcDbEntity
  8
0
  6
Continuous
370
     0
100
AcDbLine
 10
59.49918985331158
 20
38.97918489596711
 30
0.0
 11
58.26964703829759
 21
37.58652023698082
 31
0.0
  0
LINE
  5
1419A
330
14180
100
AcDbEntity
  8
0
  6
Continuous
370
     0
100
AcDbLine
 10
57.27512434191431
 20
36.01846172139585
 30
0.0
 11
56.51420776393417
 21
34.18577216752493
 31
0.0
  0
LINE
  5
1419B
330
14180
100
AcDbEntity
  8
0
  6
Continuous
370
     0
100
AcDbLine
 10
56.51420776393417
 20
34.18577216752493
 30
0.0
 11
56.08777042882781
 21
32.24836207842003
 31
0.0
  0
LINE
  5
1419C
330
14180
100
AcDbEntity
  8
0
  6
Continuous
370
     0
100
AcDbLine
 10
56.08777042882781
 20
32.24836207842003
 30
0.0
 11
56.01437022680733
 21
31.2107866614308
 31
0.0
  0
LINE
  5
1419D
330
14180
100
AcDbEntity
  8
0
  6
Continuous
370
     0
100
AcDbLine
 10
56.01437022680733
 20
31.2107866614308
 30
0.0
 11
56.02654405236598
 21
30.37762037361892
 31
0.0
  0
LINE
  5
1419E
330
14180
100
AcDbEntity
  8
0
  6
Continuous
370
     0
100
AcDbLine
 10
56.02654405236598
 20
30.37762037361892
 30
0.0
 11
56.23371495930905
 21
29.04789311398906
 31
0.0
  0
LINE
  5
1419F
330
14180
100
AcDbEntity
  8
0
  6
Continuous
370
     0
100
AcDbLine
 10
56.23371495930905
 20
29.04789311398906
 30
0.0
 11
56.65370753794945
 21
27.88024406991033
 31
0.0
  0
LINE
  5
141A0
330
14180
100
AcDbEntity
  8
0
  6
Continuous
370
     0
100
AcDbLine
 10
56.65370753794945
 20
27.88024406991033
 30
0.0
 11
57.18393049050502
 21
26.95839976121167
 31
0.0
  0
LINE
  5
141A1
330
14180
100
AcDbEntity
  8
0
  6
Continuous
370
     0
100
AcDbLine
 10
57.18393049050502
 20
26.95839976121167
 30
0.0
 11
57.93261255111406
 21
26.08874446843947
 31
0.0
  0
LINE
  5
141A2
330
14180
100
AcDbEntity
  8
0
  6
Continuous
370
     0
100
AcDbLine
 10
57.93261255111406
 20
26.08874446843947
 30
0.0
 11
58.72390264416754
 21
25.45626796086609
 31
0.0
  0
LINE
  5
141A3
330
14180
100
AcDbEntity
  8
0
  6
Continuous
370
     0
100
AcDbLine
 10
58.72390264416754
 20
25.45626796086609
 30
0.0
 11
59.61400210205971
 21
24.98518516799513
 31
0.0
  0
LINE
  5
141A4
330
14180
100
AcDbEntity
  8
0
  6
Continuous
370
     0
100
AcDbLine
 10
59.61400210205971
 20
24.98518516799513
 30
0.0
 11
60.53920284821521
 21
24.70543591916874
 31
0.0
  0
LINE
  5
141A5
330
14180
100
AcDbEntity
  8
0
  6
Continuous
370
     0
100
AcDbLine
 10
60.53920284821521
 20
24.70543591916874
 30
0.0
 11
61.43396938748487
 21
24.59596877780942
 31
0.0
  0
LINE
  5
141A6
330
14180
100
AcDbEntity
  8
0
  6
Continuous
370
     0
100
AcDbLine
 10
61.43396938748487
 20
24.59596877780942
 30
0.0
 11
62.4261253411878
 21
24.66286545554115
 31
0.0
  0
LINE
  5
141A7
330
14180
100
AcDbEntity
  8
0
  6
Continuous
370
     0
100
AcDbLine
 10
62.4261253411878
 20
24.66286545554115
 30
0.0
 11
63.31340846097294
 21
24.88799502744513
 31
0.0
  0
LINE
  5
141A8
330
14180
100
AcDbEntity
  8
0
  6
Continuous
370
     0
100
AcDbLine
 10
63.31340846097294
 20
24.88799502744513
 30
0.0
 11
64.10469855402642
 21
25.26504837381793
 31
0.0
  0
LINE
  5
141A9
330
14180
100
AcDbEntity
  8
0
  6
Continuous
370
     0
100
AcDbLine
 10
64.10469855402642
 20
25.26504837381793
 30
0.0
 11
64.80468602642236
 21
25.73332435906988
 31
0.0
  0
LINE
  5
141AA
330
14180
100
AcDbEntity
  8
0
  6
Continuous
370
     0
100
AcDbLine
 10
64.80468602642236
 20
25.73332435906988
 30
0.0
 11
65.34641543260619
 21
26.2137632616564
 31
0.0
  0
LINE
  5
141AB
330
14180
100
AcDbEntity
  8
0
  6
Continuous
370
     0
100
AcDbLine
 10
65.34641543260619
 20
26.2137632616564
 30
0.0
 11
65.80719885942272
 21
26.71736047723158
 31
0.0
  0
LINE
  5
141AC
330
14180
100
AcDbEntity
  8
0
  6
Continuous
370
     0
100
AcDbLine
 10
65.80719885942272
 20
26.71736047723158
 30
0.0
 11
66.20283379064739
 21
27.2312345649352
 31
0.0
  0
LINE
  5
141AD
330
14180
100
AcDbEntity
  8
0
  6
Continuous
370
     0
100
AcDbLine
 10
66.20283379064739
 20
27.2312345649352
 30
0.0
 11
66.53582667913275
 21
27.73193239073669
 31
0.0
  0
LINE
  5
141AE
330
14180
100
AcDbEntity
  8
0
  6
Continuous
370
     0
100
AcDbLine
 10
66.53582667913275
 20
27.73193239073669
 30
0.0
 11
66.56549926327357
 21
27.52770045773246
 31
0.0
  0
LINE
  5
141AF
330
14180
100
AcDbEntity
  8
0
  6
Continuous
370
     0
100
AcDbLine
 10
66.56549926327357
 20
27.52770045773246
 30
0.0
 11
66.68418983784381
 21
26.8458289675379
 31
0.0
  0
LINE
  5
141B0
330
14180
100
AcDbEntity
  8
0
  6
Continuous
370
     0
100
AcDbLine
 10
66.68418983784381
 20
26.8458289675379
 30
0.0
 11
66.87271455393783
 21
26.29052891882677
 31
0.0
  0
LINE
  5
141B1
330
14180
100
AcDbEntity
  8
0
  6
Continuous
370
     0
100
AcDbLine
 10
66.87271455393783
 20
26.29052891882677
 30
0.0
 11
67.13976804921202
 21
25.79971322621265
 31
0.0
  0
LINE
  5
141B2
330
14180
100
AcDbEntity
  8
0
  6
Continuous
370
     0
100
AcDbLine
 10
67.13976804921202
 20
25.79971322621265
 30
0.0
 11
67.82988727090293
 21
25.09910346204617
 31
0.0
  0
LINE
  5
141B3
330
14180
100
AcDbEntity
  8
0
  6
Continuous
370
     0
100
AcDbLine
 10
67.82988727090293
 20
25.09910346204617
 30
0.0
 11
68.6936902754789
 21
24.726874126551
 31
0.0
  0
LINE
  5
141B4
330
14180
100
AcDbEntity
  8
0
  6
Continuous
370
     0
100
AcDbLine
 10
68.6936902754789
 20
24.726874126551
 30
0.0
 11
69.18164007159072
 21
24.67416907894258
 31
0.0
  0
LINE
  5
141B5
330
14180
100
AcDbEntity
  8
0
  6
Continuous
370
     0
100
AcDbLine
 10
69.18164007159072
 20
24.67416907894258
 30
0.0
 11
69.91904035728135
 21
24.73999486445595
 31
0.0
  0
LINE
  5
141B6
330
14180
100
AcDbEntity
  8
0
  6
Continuous
370
     0
100
AcDbLine
 10
69.91904035728135
 20
24.73999486445595
 30
0.0
 11
70.66744989975188
 21
24.98375558316647
 31
0.0
  0
LINE
  5
141B7
330
14180
100
AcDbEntity
  8
0
  6
Continuous
370
     0
100
AcDbLine
 10
70.66744989975188
 20
24.98375558316647
 30
0.0
 11
71.38288974561686
 21
25.39221970213163
 31
0.0
  0
LINE
  5
141B8
330
14180
100
AcDbEntity
  8
0
  6
Continuous
370
     0
100
AcDbLine
 10
71.38288974561686
 20
25.39221970213163
 30
0.0
 11
72.0568954100932
 21
25.92397922027004
 31
0.0
  0
LINE
  5
141B9
330
14180
100
AcDbEntity
  8
0
  6
Continuous
370
     0
100
AcDbLine
 10
72.0568954100932
 20
25.92397922027004
 30
0.0
 11
72.68686428545675
 21
26.55135928259256
 31
0.0
  0
LINE
  5
141BA
330
14180
100
AcDbEntity
  8
0
  6
Continuous
370
     0
100
AcDbLine
 10
72.68686428545675
 20
26.55135928259256
 30
0.0
 11
73.20197830879988
 21
27.22447948255763
 31
0.0
  0
LINE
  5
141BB
330
14180
100
AcDbEntity
  8
0
  6
Continuous
370
     0
100
AcDbLine
 10
73.20197830879988
 20
27.22447948255763
 30
0.0
 11
73.5448620586655
 21
27.67906039170177
 31
0.0
  0
LINE
  5
141BC
330
14180
100
AcDbEntity
  8
0
  6
Continuous
370
     0
100
AcDbLine
 10
73.5448620586655
 20
27.67906039170177
 30
0.0
 11
73.72619467597502
 21
27.9096448485102
 31
0.0
  0
LINE
  5
141BD
330
14180
100
AcDbEntity
  8
0
  6
Continuous
370
     0
100
AcDbLine
 10
73.72619467597502
 20
27.9096448485102
 30
0.0
 11
74.16210588400872
 21
28.60709037723092
 31
0.0
  0
LINE
  5
141BE
330
14180
100
AcDbEntity
  8
0
  6
Continuous
370
     0
100
AcDbLine
 10
74.16210588400872
 20
28.60709037723092
 30
0.0
 11
74.44234735312796
 21
29.12096446493453
 31
0.0
  0
LINE
  5
141BF
330
14180
100
AcDbEntity
  8
0
  6
Continuous
370
     0
100
AcDbLine
 10
74.44234735312796
 20
29.12096446493453
 30
0.0
 11
73.88842555683112
 21
29.55639895446032
 31
0.0
  0
LINE
  5
141C0
330
14180
100
AcDbEntity
  8
0
  6
Continuous
370
     0
100
AcDbLine
 10
73.88842555683112
 20
29.55639895446032
 30
0.0
 11
73.29167604752933
 21
28.5385329122405
 31
0.0
  0
LINE
  5
141C1
330
14180
100
AcDbEntity
  8
0
  6
Continuous
370
     0
100
AcDbLine
 10
73.29167604752933
 20
28.5385329122405
 30
0.0
 11
73.11011660944604
 21
28.2271295464698
 31
0.0
  0
LINE
  5
141C2
330
14180
100
AcDbEntity
  8
0
  6
Continuous
370
     0
100
AcDbLine
 10
73.11011660944604
 20
28.2271295464698
 30
0.0
 11
72.35841019251774
 21
27.25538042090736
 31
0.0
  0
LINE
  5
141C3
330
14180
100
AcDbEntity
  8
0
  6
Continuous
370
     0
100
AcDbLine
 10
72.35841019251774
 20
27.25538042090736
 30
0.0
 11
72.2880698098756
 21
27.1578749698223
 31
0.0
  0
LINE
  5
141C4
330
14180
100
AcDbEntity
  8
0
  6
Continuous
370
     0
100
AcDbLine
 10
72.2880698098756
 20
27.1578749698223
 30
0.0
 11
71.82979259790449
 21
26.69670580324873
 31
0.0
  0
LINE
  5
141C5
330
14180
100
AcDbEntity
  8
0
  6
Continuous
370
     0
100
AcDbLine
 10
71.82979259790449
 20
26.69670580324873
 30
0.0
 11
71.44734540251784
 21
26.39694590821512
 31
0.0
  0
LINE
  5
141C6
330
14180
100
AcDbEntity
  8
0
  6
Continuous
370
     0
100
AcDbLine
 10
71.44734540251784
 20
26.39694590821512
 30
0.0
 11
71.04841359683547
 21
26.16965545364303
 31
0.0
  0
LINE
  5
141C7
330
14180
100
AcDbEntity
  8
0
  6
Continuous
370
     0
100
AcDbLine
 10
71.04841359683547
 20
26.16965545364303
 30
0.0
 11
70.72860868219516
 21
26.06424535842624
 31
0.0
  0
LINE
  5
141C8
330
14180
100
AcDbEntity
  8
0
  6
Continuous
370
     0
100
AcDbLine
 10
70.72860868219516
 20
26.06424535842624
 30
0.0
 11
70.36740290716136
 21
26.04997531172378
 31
0.0
  0
LINE
  5
141C9
330
14180
100
AcDbEntity
  8
0
  6
Continuous
370
     0
100
AcDbLine
 10
70.36740290716136
 20
26.04997531172378
 30
0.0
 11
70.04100400559849
 21
26.1685616688427
 31
0.0
  0
LINE
  5
141CA
330
14180
100
AcDbEntity
  8
0
  6
Continuous
370
     0
100
AcDbLine
 10
70.04100400559849
 20
26.1685616688427
 30
0.0
 11
69.82999856614111
 21
26.38926399246372
 31
0.0
  0
LINE
  5
141CB
330
14180
100
AcDbEntity
  8
0
  6
Continuous
370
     0
100
AcDbLine
 10
69.82999856614111
 20
26.38926399246372
 30
0.0
 11
69.72779283987364
 21
26.69890602068475
 31
0.0
  0
LINE
  5
141CC
330
14180
100
AcDbEntity
  8
0
  6
Continuous
370
     0
100
AcDbLine
 10
69.72779283987364
 20
26.69890602068475
 30
0.0
 11
69.70805705248494
 21
27.00712036125245
 31
0.0
  0
LINE
  5
141CD
330
14180
100
AcDbEntity
  8
0
  6
Continuous
370
     0
100
AcDbLine
 10
69.70805705248494
 20
27.00712036125245
 30
0.0
 11
69.76740245877363
 21
27.50123005610288
 31
0.0
  0
LINE
  5
141CE
330
14180
100
AcDbEntity
  8
0
  6
Continuous
370
     0
100
AcDbLine
 10
69.76740245877363
 20
27.50123005610288
 30
0.0
 11
69.84990167252658
 21
28.04010929371177
 31
0.0
  0
LINE
  5
141CF
330
14180
100
AcDbEntity
  8
0
  6
Continuous
370
     0
100
AcDbLine
 10
69.84990167252658
 20
28.04010929371177
 30
0.0
 11
70.00815569261789
 21
28.88338992896789
 31
0.0
  0
LINE
  5
141D0
330
14180
100
AcDbEntity
  8
0
  6
Continuous
370
     0
100
AcDbLine
 10
70.00815569261789
 20
28.88338992896789
 30
0.0
 11
70.31497327340503
 21
30.32902056040567
 31
0.0
  0
LINE
  5
141D1
330
14180
100
AcDbEntity
  8
0
  6
Continuous
370
     0
100
AcDbLine
 10
70.31497327340503
 20
30.32902056040567
 30
0.0
 11
70.49655865426302
 21
31.09262527157935
 31
0.0
  0
LINE
  5
141D2
330
14180
100
AcDbEntity
  8
0
  6
Continuous
370
     0
100
AcDbLine
 10
70.49655865426302
 20
31.09262527157935
 30
0.0
 11
70.68118814603031
 21
31.88649486146343
 31
0.0
  0
LINE
  5
141D3
330
14180
100
AcDbEntity
  8
0
  6
Continuous
370
     0
100
AcDbLine
 10
70.68118814603031
 20
31.88649486146343
 30
0.0
 11
70.85623570964327
 21
32.61759172680726
 31
0.0
  0
LINE
  5
141D4
330
14180
100
AcDbEntity
  8
0
  6
Continuous
370
     0
100
AcDbLine
 10
70.85623570964327
 20
32.61759172680726
 30
0.0
 11
71.07713201048091
 21
33.54651793794872
 31
0.0
  0
LINE
  5
141D5
330
14180
100
AcDbEntity
  8
0
  6
Continuous
370
     0
100
AcDbLine
 10
71.07713201048091
 20
33.54651793794872
 30
0.0
 11
71.32123471835376
 21
34.59043953279891
 31
0.0
  0
LINE
  5
141D6
330
14180
100
AcDbEntity
  8
0
  6
Continuous
370
     0
100
AcDbLine
 10
71.32123471835376
 20
34.59043953279891
 30
0.0
 11
71.60171919273011
 21
35.77242148332172
 31
0.0
  0
LINE
  5
141D7
330
14180
100
AcDbEntity
  8
0
  6
Continuous
370
     0
100
AcDbLine
 10
71.60171919273011
 20
35.77242148332172
 30
0.0
 11
72.07346641696904
 21
37.76867398213452
 31
0.0
  0
LINE
  5
141D8
330
14180
100
AcDbEntity
  8
0
  6
Continuous
370
     0
100
AcDbLine
 10
72.07346641696904
 20
37.76867398213452
 30
0.0
 11
72.37033720470555
 21
39.02577673884153
 31
0.0
  0
LINE
  5
141D9
330
14180
100
AcDbEntity
  8
0
  6
Continuous
370
     0
100
AcDbLine
 10
72.37033720470555
 20
39.02577673884153
 30
0.0
 11
72.71032131397641
 21
40.48130189834535
 31
0.0
  0
LINE
  5
141DA
330
14180
100
AcDbEntity
  8
0
  6
Continuous
370
     0
100
AcDbLine
 10
72.71032131397641
 20
40.48130189834535
 30
0.0
 11
72.8631759048194
 21
41.13617810174367
 31
0.0
  0
LINE
  5
141DB
330
14180
100
AcDbEntity
  8
0
  6
Continuous
370
     0
100
AcDbLine
 10
63.75544173286923
 20
25.87910706221808
 30
0.0
 11
64.3730625302132
 21
26.29228158146833
 31
0.0
  0
LINE
  5
141DC
330
14180
100
AcDbEntity
  8
0
  6
Continuous
370
     0
100
AcDbLine
 10
64.85141195769298
 20
26.71651122705865
 30
0.0
 11
65.2671741667549
 21
27.17090406898771
 31
0.0
  0
LINE
  5
141DD
330
14180
100
AcDbEntity
  8
0
  6
Continuous
370
     0
100
AcDbLine
 10
65.26717416675477
 20
27.17090406898757
 30
0.0
 11
66.13963025385377
 21
28.30410172277337
 31
0.0
  0
LINE
  5
141DE
330
14180
100
AcDbEntity
  8
0
  6
Continuous
370
     0
100
AcDbLine
 10
64.3730625302132
 20
26.29228158146833
 30
0.0
 11
64.85141195769298
 21
26.71651122705865
 31
0.0
  0
LINE
  5
141DF
330
14180
100
AcDbEntity
  8
0
  6
Continuous
370
     0
100
AcDbLine
 10
67.95339473939833
 20
39.37130269951169
 30
0.0
 11
67.44714539903937
 21
39.98439975647747
 31
0.0
  0
LINE
  5
141E0
330
14180
100
AcDbEntity
  8
0
  6
Continuous
370
     0
100
AcDbLine
 10
68.27270975499942
 20
38.74290054911427
 30
0.0
 11
67.95339473939833
 21
39.37130269951169
 31
0.0
  0
LINE
  5
141E1
330
14180
100
AcDbEntity
  8
0
  6
Continuous
370
     0
100
AcDbLine
 10
67.0646950397873
 20
40.28912418726605
 30
0.0
 11
66.67170105136347
 21
40.51644735191604
 31
0.0
  0
LINE
  5
141E2
330
14180
100
AcDbEntity
  8
0
  6
Continuous
370
     0
100
AcDbLine
 10
63.04205259129509
 20
25.53917387531499
 30
0.0
 11
63.75544173286923
 21
25.87910706221808
 31
0.0
  0
LINE
  5
141E3
330
14180
100
AcDbEntity
  8
0
  6
Continuous
370
     0
100
AcDbLine
 10
67.44714539903937
 20
39.98439975647747
 30
0.0
 11
67.0646950397873
 21
40.28912418726605
 31
0.0
  0
LINE
  5
141E4
330
14180
100
AcDbEntity
  8
0
  6
Continuous
370
     0
100
AcDbLine
 10
64.67551558471694
 20
40.52027232047021
 30
0.0
 11
63.66056729450952
 21
39.93836586755066
 31
0.0
  0
LINE
  5
141E5
330
14180
100
AcDbEntity
  8
0
  6
Continuous
370
     0
100
AcDbLine
 10
63.66056729450952
 20
39.93836586755066
 30
0.0
 11
62.31998630945629
 21
38.81639093941399
 31
0.0
  0
LINE
  5
141E6
330
14180
100
AcDbEntity
  8
0
  6
Continuous
370
     0
100
AcDbLine
 10
62.31998630945629
 20
38.81639093941399
 30
0.0
 11
61.09044349444229
 21
37.4237262804277
 31
0.0
  0
LINE
  5
141E7
330
14180
100
AcDbEntity
  8
0
  6
Continuous
370
     0
100
AcDbLine
 10
61.09044349444229
 20
37.4237262804277
 30
0.0
 11
60.09592079805901
 21
35.85566776484274
 31
0.0
  0
LINE
  5
141E8
330
14180
100
AcDbEntity
  8
0
  6
Continuous
370
     0
100
AcDbLine
 10
60.09592079805901
 20
35.85566776484274
 30
0.0
 11
59.33500422007887
 21
34.02297821097182
 31
0.0
  0
LINE
  5
141E9
330
14180
100
AcDbEntity
  8
0
  6
Continuous
370
     0
100
AcDbLine
 10
59.33500422007887
 20
34.02297821097182
 30
0.0
 11
58.90856688497251
 21
32.08556812186691
 31
0.0
  0
LINE
  5
141EA
330
14180
100
AcDbEntity
  8
0
  6
Continuous
370
     0
100
AcDbLine
 10
58.90856688497251
 20
32.08556812186691
 30
0.0
 11
58.83516668295204
 21
31.04799270487769
 31
0.0
  0
LINE
  5
141EB
330
14180
100
AcDbEntity
  8
0
  6
Continuous
370
     0
100
AcDbLine
 10
58.83516668295204
 20
31.04799270487769
 30
0.0
 11
58.84734050851069
 21
30.21482641706581
 31
0.0
  0
LINE
  5
141EC
330
14180
100
AcDbEntity
  8
0
  6
Continuous
370
     0
100
AcDbLine
 10
58.84734050851069
 20
30.21482641706581
 30
0.0
 11
59.05451141545376
 21
28.88509915743595
 31
0.0
  0
LINE
  5
141ED
330
14180
100
AcDbEntity
  8
0
  6
Continuous
370
     0
100
AcDbLine
 10
59.05451141545376
 20
28.88509915743595
 30
0.0
 11
59.47450399409416
 21
27.71745011335722
 31
0.0
  0
LINE
  5
141EE
330
14180
100
AcDbEntity
  8
0
  6
Continuous
370
     0
100
AcDbLine
 10
59.47450399409416
 20
27.71745011335722
 30
0.0
 11
60.00472694664972
 21
26.79560580465855
 31
0.0
  0
LINE
  5
141EF
330
14180
100
AcDbEntity
  8
0
  6
Continuous
370
     0
100
AcDbLine
 10
60.00472694664972
 20
26.79560580465855
 30
0.0
 11
60.75340900725876
 21
25.92595051188636
 31
0.0
  0
LINE
  5
141F0
330
14180
100
AcDbEntity
  8
0
  6
Continuous
370
     0
100
AcDbLine
 10
60.75340900725876
 20
25.92595051188636
 30
0.0
 11
60.93300203036966
 21
25.78240218613465
 31
0.0
  0
ARC
  5
141F1
330
14180
100
AcDbEntity
  8
0
  6
Continuous
370
     0
100
AcDbCircle
 10
65.67028736899421
 20
38.7852135038286
 30
0.0
 40
2.0
100
AcDbArc
 50
59.95322473496309
 51
119.827202193924
  0
ARC
  5
141F2
330
14180
100
AcDbEntity
  8
0
  6
Continuous
370
     0
100
AcDbCircle
 10
62.18172318426943
 20
27.34467472311508
 30
0.0
 40
2.0
100
AcDbArc
 50
231.3647291228864
 51
295.4780130935787
  0
ARC
  5
141F3
330
14180
100
AcDbEntity
  8
0
  6
Continuous
370
     0
100
AcDbCircle
 10
64.55489982708091
 20
29.52419576605868
 30
0.0
 40
2.0
100
AcDbArc
 50
322.4070969866769
 51
346.8975538706977
  0
LINE
  5
141F4
330
14180
100
AcDbEntity
  8
0
  6
Continuous
370
     0
100
AcDbLine
 10
68.43762968373738
 20
37.3834982776653
 30
0.0
 11
66.50283240701059
 21
29.0708099876662
 31
0.0
  0
ARC
  5
141F5
330
14180
100
AcDbEntity
  8
0
  6
Continuous
370
     0
100
AcDbCircle
 10
66.48969710380773
 20
37.83688405605778
 30
0.0
 40
2.0
100
AcDbArc
 50
346.8975538706977
 51
26.93685435958438
  0
LINE
  5
141F6
330
14180
100
AcDbEntity
  8
0
  6
Continuous
370
     0
100
AcDbLine
 10
57.27512434191431
 20
36.01846172139585
 30
0.0
 11
58.26964703829759
 21
37.58652023698082
 31
0.0
  0
HATCH
  5
141F7
330
14180
100
AcDbEntity
  8
0
  6
Continuous
 62
     7
370
     0
100
AcDbHatch
 10
0.0
 20
0.0
 30
0.0
210
0.0
220
0.0
230
1.0
  2
SOLID
 70
     1
 71
     0
 91
        6
 92
        7
 72
     1
 73
     1
 93
      156
 10
49.04668548816835
 20
18.19531820776646
 42
-0.0832910642805676
 10
31.20925040777013
 20
25.05745211661287
 42
0.0
 10
32.74665184666094
 20
31.7511572053048
 42
-0.075229814552481
 10
35.0729028537215
 20
37.64468889650007
 42
0.0
 10
35.69600570003826
 20
38.39175631000799
 42
-0.1208127112472191
 10
38.22995789387818
 20
40.25942471729945
 42
-0.3496769803202913
 10
39.9746461491736
 20
39.76137990143917
 42
-0.286191261492687
 10
40.05772633827681
 20
38.43326005520288
 42
0.0
 10
36.98375196323755
 20
25.06905435540668
 42
0.0
 10
40.59774899549035
 20
25.06905435540671
 42
0.0
 10
42.25935682367546
 20
32.00017967647409
 42
-0.0838691129222138
 10
44.75176868495665
 20
37.85220762247448
 42
-0.1448629928951336
 10
47.53496192212046
 20
40.25942471729945
 42
-0.3544681206877764
 10
49.27965017741586
 20
39.80288364663406
 42
0.0
 10
49.38490072861381
 20
39.62217909045381
 42
0.0
 10
49.49271866248402
 20
38.98609921459158
 42
0.0
 10
49.45164506186376
 20
38.57059543695371
 42
-0.0331725395765427
 10
49.32465184734383
 20
37.8072452002271
 42
0.0019803018015415
 10
48.798476205664
 20
35.53145644216568
 42
0.0
 10
47.11889860282329
 20
28.2315384553915
 42
0.1400941711987614
 10
47.23177609179177
 20
26.07236741884751
 42
0.1676676532585067
 10
47.9629303569515
 20
25.13581279229817
 42
0.0
 10
48.99299013261255
 20
24.72616357116155
 42
0.0
 10
49.74130471024698
 20
24.67916788290461
 42
0.0
 10
50.28436719424192
 20
24.73043588346155
 42
0.0
 10
50.91722761795853
 20
24.89705669555386
 42
0.0
 10
51.571468220172
 20
25.14912425956012
 42
0.0
 10
52.24066661708431
 20
25.52680481208756
 42
0.0
 10
52.94338450702122
 20
26.04486002119825
 42
0.0
 10
53.70897578260635
 20
26.78489561769143
 42
0.0
 10
54.45808935010179
 20
27.71958962118353
 42
0.0
 10
54.99782663679306
 20
28.58491973370409
 42
0.0
 10
55.29935046348768
 20
29.12053633570818
 42
0.0
 10
54.63040863823768
 20
29.56047585770432
 42
0.0
 10
54.51126989628322
 20
29.33264736421654
 42
0.0
 10
54.33064058997752
 20
29.02034321961307
 42
-0.0578827302046354
 10
52.7211670287279
 20
26.8586720854571
 42
-0.1430380049304022
 10
51.35331304719511
 20
26.05537189010732
 42
-0.3423373963507751
 10
50.59107386371676
 20
26.38921087155529
 42
0.0
 10
50.50790251789125
 20
26.80565994840672
 42
0.0
 10
50.53722189948399
 20
27.06126789448155
 42
-0.022045340022615
 10
50.6166147571464
 20
27.55864116653186
 42
0.0
 10
51.03200416564004
 20
29.59925272959842
 42
0.0
 10
51.39718013723975
 20
31.27016192444086
 42
0.0
 10
51.75181644008431
 20
32.80603030782547
 42
0.0
 10
52.09553297681797
 20
34.30451067809983
 42
0.0
 10
52.61653005985393
 20
36.5463785742007
 42
0.0
 10
52.83143572178744
 20
37.68631368147917
 42
0.0711157855017621
 10
52.8797559248199
 20
38.77524386317572
 42
0.0
 10
52.73441545637841
 20
39.57903631227706
 42
0.0
 10
52.49281491723021
 20
40.15300443947384
 42
0.0
 10
52.13309859067732
 20
40.62505302105148
 42
0.0
 10
51.72506229909894
 20
40.96836105738461
 42
0.0
 10
50.67689042053881
 20
41.45867564276255
 42
0.0
 10
49.54405274952311
 20
41.6035087877822
 42
0.0
 10
48.64207768897838
 20
41.52304591538478
 42
0.0
 10
47.7991605221363
 20
41.29775002444609
 42
0.0
 10
46.96986640613204
 20
40.92166309917163
 42
0.0
 10
46.16453151364545
 20
40.43352204429732
 42
0.0
 10
45.43973013420812
 20
39.83273304395371
 42
0.0
 10
44.73973409355609
 20
39.12107741926983
 42
0.0
 10
43.52636267148386
 20
37.48500011000164
 42
0.0
 10
43.24122753822047
 20
37.01028473234226
 42
0.0
 10
43.40229456431929
 20
37.60034533283607
 42
0.0
 10
43.51798148918862
 20
38.40182563115843
 42
0.0557675588839036
 10
43.52540136077537
 20
38.63411299251712
 42
0.0
 10
43.46604191206734
 20
39.3087349964508
 42
0.0
 10
43.28221022012555
 20
39.91167046093039
 42
0.0
 10
42.97529172432466
 20
40.41728412089392
 42
0.0
 10
42.58522711145182
 20
40.83843578940369
 42
0.0
 10
42.13224865172236
 20
41.14644219955837
 42
0.0
 10
41.07529907102533
 20
41.5173072130552
 42
0.0
 10
40.51321553498683
 20
41.59299691887309
 42
0.0
 10
39.79569883909864
 20
41.59104358718301
 42
0.0
 10
38.86150975451591
 20
41.43775270819211
 42
0.0
 10
37.97104614574889
 20
41.1283531389746
 42
0.0
 10
37.16662591457745
 20
40.69030978045285
 42
0.0
 10
36.41464840755336
 20
40.1396307448621
 42
0.0
 10
35.04131502638403
 20
38.74030042369421
 42
0.0
 10
33.8624037014266
 20
37.02373798183831
 42
0.0
 10
34.47548859056775
 20
39.4402479472042
 42
0.0
 10
34.91000174484975
 20
41.13559238048901
 42
0.0
 10
27.88419686051324
 20
41.13559238048899
 42
0.0
 10
27.69003946820518
 20
40.35546833157574
 42
0.0
 10
31.15951215838919
 20
40.3554683315757
 42
0.0
 10
28.1587087845256
 20
27.14840465015365
 42
0.0
 10
23.06678281546628
 20
30.80637402356064
 42
0.0
 10
28.07625764820837
 20
52.6122331102612
 42
0.0
 10
27.38517449773073
 20
52.61223311026123
 42
0.0
 10
13.56600913476747
 20
37.3551024143018
 42
0.0
 10
13.1240373137399
 20
37.59596652576235
 42
0.0562637230888328
 10
9.869517172889629
 20
38.92071850640391
 42
0.0646962069264304
 10
7.107627713940985
 20
39.32387559365975
 42
0.0577225793456058
 10
5.339740429830712
 20
39.14724199624087
 42
0.0
 10
4.584370131484448
 20
38.89834916538379
 42
0.0
 10
4.01890665650751
 20
38.61374567735339
 42
0.0
 10
3.546567032577151
 20
38.2695597547692
 42
0.0
 10
2.914413489970783
 20
37.52441481223323
 42
0.0
 10
2.585693305085207
 20
36.81415209365571
 42
0.0
 10
2.450766837646959
 20
36.13168729350519
 42
0.0
 10
2.526663020207337
 20
35.50820086729263
 42
0.0
 10
2.855545763947482
 20
34.95211842348732
 42
0.0
 10
3.420549409192169
 20
34.57297135445202
 42
0.0
 10
4.061449236997219
 20
34.37918501569965
 42
0.0
 10
4.660184677606778
 20
34.42973803412468
 42
0.0
 10
5.199889595331455
 20
34.69935371079711
 42
0.0
 10
5.613101351469666
 20
35.16275572622195
 42
0.0
 10
5.832356593298769
 20
35.60930677766433
 42
0.0
 10
5.916685367689694
 20
36.11483632952309
 42
0.0
 10
5.849222252974129
 20
36.6709187733284
 42
0.0
 10
5.646832908827406
 20
37.31968164551441
 42
0.0
 10
5.62996701114497
 20
37.58087184019564
 42
0.0
 10
5.714296023542956
 20
37.70725419654073
 42
0.0
 10
6.043178767283166
 20
37.90946601728416
 42
0.0
 10
6.599749582690165
 20
38.0526994640899
 42
0.0
 10
7.282813797690693
 20
38.1285288020099
 42
-0.0749546678729362
 10
8.366621052464182
 20
38.08616424514168
 42
0.0
 10
9.058118097302184
 20
37.98505833477003
 42
0.0
 10
9.387000841032104
 20
37.89237790639243
 42
0.0
 10
9.994169111489725
 20
37.7238681400886
 42
0.0
 10
11.03984762758789
 20
37.32786998059305
 42
0.0
 10
11.90000269722287
 20
36.93187194757559
 42
0.0
 10
12.75172469901191
 20
36.47689528766338
 42
0.0
 10
10.34558279809
 20
33.80505664042548
 42
0.0
 10
8.332282576990095
 20
31.5888323569674
 42
0.0
 10
6.054287749041321
 20
29.07182433619548
 42
0.0
 10
4.365406686369269
 20
27.20469219711981
 42
0.0
 10
3.160581147511152
 20
25.88396501064335
 42
0.0
 10
0.3288515968609929
 20
25.88417951793071
 42
0.0
 10
0.0000000320519362
 20
25.06419935733251
 42
0.0
 10
8.038114597961481
 20
25.06419935733248
 42
0.0
 10
8.355003925530809
 20
25.88621822250943
 42
0.0
 10
4.45854576987115
 20
25.88621822250943
 42
0.0
 10
13.58060896677621
 20
36.00182564413606
 42
0.0
 10
13.84063863429108
 20
35.84830659819562
 42
-0.0378368776066532
 10
19.12396920544927
 20
32.1638489897112
 42
0.0
 10
17.32949771742952
 20
25.04990502678623
 42
0.0
 10
21.73818287021433
 20
25.04990502678623
 42
0.0
 10
22.73315063988922
 20
29.33403166979494
 42
0.0
 10
24.39499219105423
 20
28.03413243264277
 42
0.0003650787806321
 10
27.26706370847518
 20
25.79096459202856
 42
0.0251103921309316
 10
34.50912684913902
 20
20.70641298607825
 42
0.0329336940479412
 10
38.63199735836756
 20
18.4750678360279
 42
0.0102107528222509
 10
42.63361776458819
 20
16.73675959143432
 42
0.0504906545569961
 10
51.41978438629235
 20
14.1292971613048
 42
-0.0026300496461772
 10
53.89672864164964
 20
13.64559574959196
 42
0.0421128660143396
 10
62.41372517086967
 20
12.67096026152623
 42
0.0534558227927914
 10
78.01656244933468
 20
13.87550316777458
 42
0.0391028274483685
 10
89.03904433226216
 20
16.83161304440497
 42
0.0679636315755799
 10
99.50717386403471
 20
22.22709979326166
 42
0.0
 10
100.886927724945
 20
28.38334953764749
 42
0.0
 10
99.91578327672876
 20
27.78891265964726
 42
-0.063086927889271
 10
85.66749585848276
 20
20.94079482896962
 42
-0.0198540808759684
 10
76.65327320612306
 20
18.32605888169189
 42
-0.054564896002831
 10
67.03359069833613
 20
17.03321334230969
 42
-0.0042301217558797
 10
61.88260635956021
 20
16.95020585191992
 42
-0.0522238680180291
 97
        0
 92
       22
 72
     0
 73
     1
 93
        3
 10
19.41626490844237
 20
33.32261649623422
 10
14.32758545098704
 20
36.83016027681293
 10
22.62082565675074
 20
46.02667211453158
 97
        0
 92
       23
 72
     0
 73
     1
 93
       82
 10
70.85623570963921
 20
32.61759172680246
 10
71.07713201048127
 20
33.5465179379494
 10
71.32123471835575
 20
34.59043953280119
 10
71.60171919273011
 20
35.77242148332172
 10
72.07346641696904
 20
37.76867398213452
 10
72.37033720470498
 20
39.02577673883772
 10
72.71032131397641
 20
40.48130189834535
 10
72.86317590481937
 20
41.13617810174367
 10
69.31107452501573
 20
41.13617810174363
 10
68.85060693363127
 20
39.1578191279803
 10
68.74713048741663
 20
39.36459036688322
 10
68.54626462676569
 20
39.75988821573898
 10
67.94366680681026
 20
40.48966882085898
 10
67.46280581439812
 20
40.87280375237722
 10
66.88455540755258
 20
41.2072865086441
 10
66.19956404899994
 20
41.45344462454366
 10
65.4813159572701
 20
41.58115626838307
 10
65.0613236166368
 20
41.60548222953053
 10
64.4039441766849
 20
41.56899322457016
 10
63.69786991051348
 20
41.44128158073079
 10
62.2823535775938
 20
40.92824452676995
 10
60.83977083836472
 20
40.10115982410371
 10
59.49918985331156
 20
38.97918489596711
 10
58.26964703829759
 20
37.58652023698079
 10
57.27512434191431
 20
36.01846172139588
 10
56.51420776393417
 20
34.18577216752496
 10
56.08777042882777
 20
32.24836207841983
 10
56.01437022680733
 20
31.21078666143075
 10
56.02654405236599
 20
30.37762037361892
 10
56.23371495930904
 20
29.04789311398912
 10
56.65370753794943
 20
27.88024406991048
 10
57.18393049050508
 20
26.95839976121169
 10
57.93261255111412
 20
26.08874446843945
 10
58.72390264416766
 20
25.45626796086609
 10
59.61400210205957
 20
24.98518516799516
 10
60.53920284821508
 20
24.70543591916877
 10
61.43396938748495
 20
24.59596877780948
 10
62.42612534118781
 20
24.66286545554118
 10
63.31340846097276
 20
24.8879950274451
 10
64.10469855402654
 20
25.26504837381802
 10
64.80468602642222
 20
25.73332435906977
 10
65.34641543260623
 20
26.2137632616564
 10
65.80719885942277
 20
26.71736047723167
 10
66.20283379064739
 20
27.2312345649352
 10
66.53582667913274
 20
27.73193239073669
 10
66.56549926327354
 20
27.52770045773355
 10
66.68418983784376
 20
26.84582896753795
 10
66.87271455393791
 20
26.29052891882679
 10
67.13976804921202
 20
25.79971322621273
 10
67.82988727090288
 20
25.09910346204617
 10
68.69369027547884
 20
24.726874126551
 10
69.18164007159069
 20
24.67416907894261
 10
69.91904035728123
 20
24.7399948644559
 10
70.66744989975195
 20
24.9837555831665
 10
71.38288974561695
 20
25.39221970213163
 10
72.05689541009306
 20
25.92397922026996
 10
72.68686428545669
 20
26.55135928259253
 10
73.20197830879886
 20
27.22447948255632
 10
73.5448620586659
 20
27.67906039170237
 10
73.72619467597496
 20
27.90964484851012
 10
74.16210588400869
 20
28.60709037723092
 10
74.44234735312796
 20
29.12096446493453
 10
73.88842555683112
 20
29.55639895446029
 10
73.29167604753104
 20
28.53853291224325
 10
73.110116609446
 20
28.22712954646977
 10
72.35841019251719
 20
27.25538042090659
 10
72.28806980987568
 20
27.15787496982239
 10
71.82979259790449
 20
26.69670580324871
 10
71.44734540251779
 20
26.39694590821512
 10
71.04841359683544
 20
26.16965545364303
 10
70.72860868219527
 20
26.06424535842626
 10
70.36740290716136
 20
26.04997531172384
 10
70.04100400559844
 20
26.1685616688427
 10
69.82999856614117
 20
26.38926399246372
 10
69.72779283987364
 20
26.69890602068469
 10
69.70805705248494
 20
27.00712036125251
 10
69.76740245877365
 20
27.50123005610305
 10
69.84990167252641
 20
28.04010929371134
 10
70.00815569261812
 20
28.8833899289684
 10
70.31497327340517
 20
30.32902056040604
 10
70.49655865426172
 20
31.09262527157639
 10
70.68118814603102
 20
31.88649486146466
 97
        0
 92
       22
 72
     1
 73
     1
 93
       27
 10
59.33500422007887
 20
34.02297821097182
 42
0.0
 10
60.09592079805905
 20
35.8556677648428
 42
0.0
 10
61.09044349444231
 20
37.42372628042773
 42
0.0
 10
62.31998630945629
 20
38.81639093941397
 42
0.0
 10
63.66056729450948
 20
39.93836586755069
 42
0.0
 10
64.67551558471694
 20
40.52027232047021
 42
-0.2673599227287467
 10
66.67170105136347
 20
40.51644735191604
 42
0.0
 10
67.06469503978745
 20
40.28912418726605
 42
0.0
 10
67.44714539903938
 20
39.98439975647759
 42
0.0
 10
67.95339473939833
 20
39.37130269951172
 42
0.0
 10
68.27270975499942
 20
38.74290054911427
 42
-0.1765037983312038
 10
68.43762968373738
 20
37.3834982776653
 42
0.0
 10
66.50283240701059
 20
29.0708099876662
 42
-0.1072683878166342
 10
66.13963025385377
 20
28.30410172277337
 42
0.0
 10
65.26717416675492
 20
27.17090406898771
 42
0.0
 10
64.85141195769294
 20
26.71651122705862
 42
0.0
 10
64.37306253021316
 20
26.29228158146833
 42
0.0
 10
63.75544173286937
 20
25.87910706221817
 42
0.0
 10
63.04205259129509
 20
25.53917387531499
 42
-0.2872803985438948
 10
60.93300203036966
 20
25.78240218613465
 42
0.0
 10
60.7534090072589
 20
25.92595051188638
 42
0.0
 10
60.00472694664972
 20
26.79560580465858
 42
0.0
 10
59.47450399409418
 20
27.71745011335708
 42
0.0
 10
59.05451141545381
 20
28.88509915743586
 42
0.0
 10
58.84734050851067
 20
30.21482641706584
 42
0.0
 10
58.83516668295202
 20
31.0479927048776
 42
0.0
 10
58.90856688497251
 20
32.08556812186694
 42
0.0
 97
        0
 92
       23
 72
     1
 73
     1
 93
       25
 10
81.22171777395625
 20
34.26289196408487
 42
-0.0611456516273243
 10
82.52610073399313
 20
37.14510445964368
 42
-0.0392875224268328
 10
83.91818693319583
 20
39.07190933881472
 42
-0.0869198770273056
 10
84.69680457579983
 20
39.71873114771083
 42
-0.4067709259389317
 10
85.20421835518323
 20
39.58761862742637
 42
0.0215702245879046
 10
85.6066498173792
 20
38.98450103411784
 42
0.2657404308674667
 10
87.33010688662739
 20
38.2153073709851
 42
0.734337059089455
 10
87.96456148195227
 20
41.27750261076122
 42
0.0386318970070029
 10
87.41340509024146
 20
41.53098685880396
 42
0.0
 10
87.02601329718943
 20
41.59307811797603
 42
0.0833432099983453
 10
86.5253962867842
 20
41.58938672075319
 42
0.0
 10
85.67284268816028
 20
41.39913684324073
 42
0.0
 10
84.86102376803467
 20
40.99408751333936
 42
0.0
 10
84.16429746903034
 20
40.46810388216641
 42
0.0
 10
83.51354700304638
 20
39.81386070292712
 42
0.0
 10
82.43869762179025
 20
38.39330870531771
 42
0.0
 10
81.53441484432816
 20
36.82930989192079
 42
0.0
 10
82.50048283894143
 20
41.13627726077277
 42
0.0
 10
75.59615083226569
 20
41.13674535715873
 42
0.0
 10
75.40091788583737
 20
40.3562948676153
 42
0.0
 10
78.95044093464182
 20
40.35629486761528
 42
0.0
 10
75.40156478915648
 20
25.06053692365268
 42
0.0
 10
78.91966352150652
 20
25.0605369236527
 42
0.0
 10
79.70730924972511
 20
28.43036040330571
 42
0.0
 10
80.27649467985417
 20
30.82326659892113
 42
-0.01733175633708
 97
        0
 92
        7
 72
     1
 73
     1
 93
       27
 10
93.51142613728109
 20
32.40438248675599
 42
-0.0482014492949477
 10
94.90222709810149
 20
36.33090372740478
 42
-0.0532624181550681
 10
95.6925544524039
 20
37.63994039319963
 42
0.0
 10
96.01050029352482
 20
38.11803514598378
 42
0.0
 10
96.75174129991461
 20
39.08163286814707
 42
0.0
 10
97.13484158680513
 20
39.47512852694217
 42
0.0
 10
97.49645935214259
 20
39.71838029675846
 42
0.0
 10
97.78033614182687
 20
39.76451390855848
 42
0.0
 10
97.9165330912067
 20
39.71679843199229
 42
0.0
 10
98.11228370309448
 20
39.50016909078641
 42
0.0
 10
98.33068664147061
 20
39.13886862333138
 42
0.3718636352105929
 10
100.6746008700249
 20
38.37498945413077
 42
0.4104949644228031
 10
101.5307705106384
 20
40.42995940203829
 42
0.2569047224154794
 10
100.1528988099368
 20
41.55238320185122
 42
0.1662119308772038
 10
98.18469331953204
 20
41.2574113978427
 42
0.0
 10
97.71438794235274
 20
41.01222767117812
 42
0.0
 10
97.01069922142274
 20
40.48017371143282
 42
0.0
 10
96.39362628518298
 20
39.86121166887853
 42
0.0
 10
95.29143107727245
 20
38.43551478480918
 42
0.0
 10
94.37584272418105
 20
36.84761105670327
 42
0.0
 10
95.34031250106522
 20
41.1300513638258
 42
0.0
 10
89.46615832157609
 20
41.13641031600056
 42
0.0
 10
89.27222656000623
 20
40.35445574587825
 42
0.0
 10
91.77842783909401
 20
40.35445574587831
 42
0.0
 10
88.22941507752878
 20
25.06521308133518
 42
0.0
 10
91.7488337972988
 20
25.06521308133512
 42
0.0
 10
92.83903273295313
 20
29.70460717434051
 42
0.0
 97
        0
 75
     0
 76
     1
 47
0.1237876043703409
 98
        6
 10
44.04364160747994
 20
17.70918335253393
 10
44.04364160747994
 20
17.70918335253393
 10
57.67223753528577
 20
32.43990835905504
 10
57.67223753528577
 20
32.43990835905504
 10
79.35409456333656
 20
32.5636960119798
 10
90.3808674764112
 20
30.33551901820417
  0
LWPOLYLINE
  5
141F8
330
14180
100
AcDbEntity
  8
0
  6
Continuous
370
     0
100
AcDbPolyline
 90
       73
 70
   128
 43
0.0
 10
85.61629764154586
 20
0.8215479890438359
 10
85.3252990729678
 20
0.3854331351839448
 10
85.37379913837979
 20
0.3442445975968837
 42
0.0596926992984442
 10
85.63850901723307
 20
0.1689883817952591
 42
0.0491234509519693
 10
85.92547632508578
 20
0.0585415066491635
 42
0.0463820074299391
 10
86.21117420302571
 20
0.00757515891857
 42
0.0340431083792141
 10
86.50128134362976
 20
0.002997497053741
 42
0.0391042060704208
 10
86.79216819872758
 20
0.0411605907468413
 42
0.0632329789214227
 10
87.12714996033374
 20
0.1577436457079386
 42
0.0536368970870089
 10
87.35016745646133
 20
0.3001835117667895
 42
0.0605080759642488
 10
87.54962024788548
 20
0.5040845218027812
 42
0.0622248536431659
 10
87.67313249539425
 20
0.7152673386544848
 42
0.0626145086061712
 10
87.74238162983735
 20
0.9562180421999926
 42
0.0266405014339851
 10
87.76031050346237
 20
1.13221014404246
 42
0.0620689554666285
 10
87.74300403351228
 20
1.360318824447233
 42
0.0363745569319892
 10
87.68713726204017
 20
1.56029615892865
 42
0.0452743877422055
 10
87.60335716766119
 20
1.740295774511452
 42
0.0185824162301901
 10
87.48828133978131
 20
1.922517102016712
 42
0.0315199046589205
 10
87.35024816375105
 20
2.099109155731781
 42
-0.0230778291591126
 10
87.22896015443003
 20
2.248996324215795
 10
87.09822072871791
 20
2.41267584348364
 42
-0.0210548975570547
 10
86.97923812084772
 20
2.57522209340243
 42
-0.0124727681739155
 10
86.8574435250923
 20
2.76741919578464
 42
-0.0409074550168537
 10
86.75631683510502
 20
2.972501451934931
 42
-0.0712691770527517
 10
86.71381281974831
 20
3.150777296265033
 42
-0.114782273627771
 10
86.7400472486398
 20
3.341331557897518
 42
-0.0007283258900418
 10
86.7618509841179
 20
3.398078621227824
 42
-0.0763243648646526
 10
86.79255760000112
 20
3.451628687382367
 42
0.0242836351354405
 10
86.8126564509807
 20
3.479519180251855
 42
-0.10230118387537
 10
86.90421818720322
 20
3.572116275653314
 42
0.0300724851171967
 10
86.92177635446361
 20
3.585388151226197
 10
86.965324092906
 20
3.613278886402582
 42
-0.0610555065067782
 10
87.03734508957607
 20
3.647863349559912
 42
0.0143517241510647
 10
87.06749313805877
 20
3.659019643630472
 42
-0.0622766540656416
 10
87.15179714586085
 20
3.681331989464695
 42
-0.0025870632163732
 10
87.2076274394619
 20
3.688583750225376
 42
-0.056626871256126
 10
87.36171908627861
 20
3.690257121643895
 42
-0.0664543430304561
 10
87.54133931518195
 20
3.647254190025279
 42
-0.0363481280633936
 10
87.72837093553741
 20
3.559119903020331
 42
-0.0245643065002876
 10
87.81905993869484
 20
3.501990721716225
 10
88.13146281006286
 20
3.88539704126876
 10
88.07116625712419
 20
3.928348603825583
 42
0.0451549098763571
 10
87.86682725487182
 20
4.04772061115085
 42
0.0420297000182856
 10
87.61579201793139
 20
4.140624224774796
 42
0.038368005171956
 10
87.40218307669644
 20
4.182535321523459
 42
0.0464232977685855
 10
87.12638118920128
 20
4.189229049504405
 42
0.0115816896764096
 10
86.98649721718821
 20
4.176368853346531
 42
0.0333683012300526
 10
86.80114038708765
 20
4.142342422968937
 42
0.0393119124671086
 10
86.61482920468561
 20
4.079181980735484
 42
0.0451666707950201
 10
86.41160688126111
 20
3.969292653755331
 42
0.0335889579903508
 10
86.27860035586261
 20
3.867522788527736
 42
0.0419402966583815
 10
86.16122140639888
 20
3.745666650912482
 42
0.0866008825590238
 10
86.00471127673106
 20
3.465918736529033
 42
0.0814906367170034
 10
85.95440829254206
 20
3.18089967794657
 42
0.0373777866464356
 10
85.96500739395137
 20
3.01194634910388
 42
0.0727596943799336
 10
86.04432122899273
 20
2.738836916729269
 42
-0.0044780957248908
 10
86.06613636380549
 20
2.689847793263794
 42
0.0430529540484516
 10
86.16998065518666
 20
2.497959874479903
 42
0.0177260977429256
 10
86.33708076679599
 20
2.262675033065761
 42
0.0111965016208332
 10
86.50862251518011
 20
2.048529287499093
 10
86.70354794683257
 20
1.805501771554503
 42
-0.0323828989733781
 10
86.82263907636908
 20
1.635564676717137
 42
-0.0370653382551936
 10
86.93659047387356
 20
1.412573760246715
 42
-0.0736878712222103
 10
86.99022753547726
 20
1.20357194775903
 42
-0.0094914988389141
 10
86.99584102385969
 20
1.13778392955362
 42
-0.1228253608227951
 10
86.94950181633462
 20
0.8806318600718157
 42
-0.1271847765034114
 10
86.75238680047195
 20
0.6347349458738166
 42
-0.1246684281967346
 10
86.47788854089364
 20
0.5206146981959421
 42
-0.0739653108214691
 10
86.21799510894012
 20
0.5210607851900591
 42
-0.081350569643218
 10
85.96005917074226
 20
0.6041747156326096
 42
-0.0133634257892959
 10
85.82910498156431
 20
0.6758498221647358
 42
-0.0349554731167606
 10
85.6593811990791
 20
0.7913170538732573
 42
0.0277207745359085
 10
85.61629764154586
 20
0.8215479890438359
 42
-3.680217350167294
  0
LWPOLYLINE
  5
141F9
330
14180
100
AcDbEntity
  8
0
  6
Continuous
370
     0
100
AcDbPolyline
 90
       20
 70
   128
 43
0.0
 10
82.13313607977838
 20
4.122661287710116
 10
81.38008508576362
 20
0.0691077834298142
 10
82.10993068210482
 20
0.0691077834298142
 10
82.41692525311506
 20
1.737148450249208
 10
82.86855595079051
 20
1.737148450249208
 10
83.41836319063142
 20
0.0053997276131383
 10
84.17121218843519
 20
0.1733957019127388
 10
83.5282988305058
 20
1.887461594255029
 10
83.63444305165714
 20
1.940454839164289
 10
83.70913377251529
 20
1.982766469210787
 42
0.0928792249129744
 10
84.16405842194725
 20
2.366444657099776
 42
0.1388804577175935
 10
84.38855099198574
 20
2.884472083815609
 42
0.0222894927264297
 10
84.40074417636024
 20
3.022101673390181
 42
0.0220361311954553
 10
84.40070769848919
 20
3.155606230380243
 42
0.065335393467941
 10
84.34393308400123
 20
3.477044499930769
 42
0.1307765355852319
 10
84.11528340458231
 20
3.837418822170235
 42
0.133642404390364
 10
83.6556827480541
 20
4.076471535805325
 42
0.0507229205670379
 10
83.29556134966148
 20
4.117176428829509
 42
-0.0139077548284244
 10
83.1225349519253
 20
4.123929279692902
 42
-0.0011269735147239
 10
82.13313607977838
 20
4.122661287710116
 42
-12.86267664854717
  0
LWPOLYLINE
  5
141FA
330
14180
100
AcDbEntity
  8
0
  6
Continuous
370
     0
100
AcDbPolyline
 90
       19
 70
   128
 43
0.0
 10
78.63799404522225
 20
4.189060161598462
 10
78.55974331213523
 20
4.18621717479661
 10
78.49783534924253
 20
4.181125095393156
 42
0.0830484602234666
 10
77.90597413977903
 20
4.031394214856618
 42
0.1357908586703189
 10
77.03090375512861
 20
3.31877811670256
 42
0.1393094335303694
 10
76.51334568914328
 20
1.858434924353758
 42
0.1816780125321811
 10
76.91283355000823
 20
0.5469391616015003
 42
0.126618924252365
 10
77.44616145562528
 20
0.1297746454043818
 42
0.0701001816539797
 10
77.85531960010771
 20
0.0156912283745783
 42
0.0911823975368719
 10
78.61654391710638
 20
0.0537191148201544
 42
0.1630441404871538
 10
79.60296345913471
 20
0.6653332182976044
 42
0.0153401013182768
 10
79.86090942874707
 20
0.9964237830199635
 42
0.02799900312625
 10
79.91627736533249
 20
1.081826059781121
 42
0.0984459176682016
 10
80.24864183969024
 20
2.074947523673131
 42
0.0860717780131919
 10
80.20599464868954
 20
3.021394137256095
 42
0.135946262728964
 10
79.84122870536456
 20
3.71025180202514
 42
0.0128818559512691
 10
79.75768024546667
 20
3.794204598938989
 42
0.1265852162990349
 10
79.13775113811763
 20
4.141145426906462
 42
0.0815822006805335
 10
78.63799404522194
 20
4.189060161598433
 42
5.340477107392616
  0
LWPOLYLINE
  5
141FB
330
14180
100
AcDbEntity
  8
0
  6
Continuous
370
     0
100
AcDbPolyline
 90
       19
 70
   128
 43
0.0
 10
73.65191410162157
 20
4.189060161598433
 10
73.57366336853485
 20
4.18621717479661
 10
73.51175540564216
 20
4.181125095393156
 42
0.0830484602234666
 10
72.91989419617866
 20
4.031394214856618
 42
0.1357908586703189
 10
72.04482381152823
 20
3.31877811670256
 42
0.1393094335303694
 10
71.5272657455429
 20
1.858434924353758
 42
0.1816780125321811
 10
71.92675360640786
 20
0.5469391616015003
 42
0.126618924252365
 10
72.46008151202492
 20
0.1297746454043818
 42
0.0701001816539797
 10
72.86923965650735
 20
0.0156912283745783
 42
0.0911823975368719
 10
73.63046397350601
 20
0.0537191148201544
 42
0.1630441404871538
 10
74.61688351553434
 20
0.6653332182976044
 42
0.0153401013182768
 10
74.87482948514671
 20
0.9964237830199635
 42
0.02799900312625
 10
74.93019742173212
 20
1.081826059781121
 42
0.0984459176682016
 10
75.26256189608986
 20
2.074947523673131
 42
0.0860717780131919
 10
75.21991470508917
 20
3.021394137256095
 42
0.135946262728964
 10
74.85514876176418
 20
3.71025180202514
 42
0.0128818559512691
 10
74.7716003018663
 20
3.794204598938989
 42
0.1265852162990349
 10
74.15167119451727
 20
4.141145426906462
 42
0.0815822006805335
 10
73.65191410162157
 20
4.189060161598433
 42
5.340477107392616
  0
LWPOLYLINE
  5
141FC
330
14180
100
AcDbEntity
  8
0
  6
Continuous
370
     0
100
AcDbPolyline
 90
       11
 70
   128
 43
0.0
 10
67.32305613798664
 20
4.122697391437498
 10
66.57056690318623
 20
0.0696534585578945
 10
67.60901027297072
 20
0.0693801363800617
 42
0.0287855802745308
 10
68.19244965395367
 20
0.1028432032262572
 42
0.3765123279664691
 10
70.2734355942828
 20
2.401413176686077
 42
0.0672696799543269
 10
70.1949940363331
 20
3.058745502850172
 42
0.1807500051238696
 10
69.647618958545
 20
3.840674699921549
 42
0.1147501402102381
 10
69.07516352051098
 20
4.065287861055622
 42
0.00794073288783
 10
68.74937372643799
 20
4.10772427915316
 42
0.0371825569454098
 10
68.45503424084447
 20
4.119302429528318
 10
67.32305613798664
 20
4.122697391437498
  0
LINE
  5
141FD
330
14180
100
AcDbEntity
  8
0
  6
Continuous
370
     0
100
AcDbLine
 10
62.84867637025306
 20
3.624521684034732
 30
0.0
 11
62.94138214370665
 21
4.122673403054875
 31
0.0
  0
LINE
  5
141FE
330
14180
100
AcDbEntity
  8
0
  6
Continuous
370
     0
100
AcDbLine
 10
61.62713369461321
 20
3.624521684034732
 30
0.0
 11
62.84867637025306
 21
3.624521684034732
 31
0.0
  0
LINE
  5
141FF
330
14180
100
AcDbEntity
  8
0
  6
Continuous
370
     0
100
AcDbLine
 10
61.41278014883531
 20
2.443444699961645
 30
0.0
 11
61.62713369461321
 21
3.624521684034732
 31
0.0
  0
LINE
  5
14200
330
14180
100
AcDbEntity
  8
0
  6
Continuous
370
     0
100
AcDbLine
 10
62.59998894028862
 20
2.443444699961645
 30
0.0
 11
61.41278014883531
 21
2.443444699961645
 31
0.0
  0
LINE
  5
14201
330
14180
100
AcDbEntity
  8
0
  6
Continuous
370
     0
100
AcDbLine
 10
62.50793976851409
 20
1.943087018967275
 30
0.0
 11
62.59998894028862
 21
2.443444699961645
 31
0.0
  0
LINE
  5
14202
330
14180
100
AcDbEntity
  8
0
  6
Continuous
370
     0
100
AcDbLine
 10
61.32097993853077
 20
1.943087018967275
 30
0.0
 11
62.50793976851409
 21
1.943087018967275
 31
0.0
  0
LINE
  5
14203
330
14180
100
AcDbEntity
  8
0
  6
Continuous
370
     0
100
AcDbLine
 10
61.060538882538
 20
0.5663695092237618
 30
0.0
 11
61.32097993853077
 21
1.943087018967275
 31
0.0
  0
LINE
  5
14204
330
14180
100
AcDbEntity
  8
0
  6
Continuous
370
     0
100
AcDbLine
 10
62.49558106579965
 20
0.5663695092237618
 30
0.0
 11
61.060538882538
 21
0.5663695092237618
 31
0.0
  0
LINE
  5
14205
330
14180
100
AcDbEntity
  8
0
  6
Continuous
370
     0
100
AcDbLine
 10
62.40301801201664
 20
0.0695119513310942
 30
0.0
 11
62.49558106579965
 21
0.5663695092237618
 31
0.0
  0
LINE
  5
14206
330
14180
100
AcDbEntity
  8
0
  6
Continuous
370
     0
100
AcDbLine
 10
60.23739839512572
 20
0.0695119513310942
 30
0.0
 11
62.40301801201664
 21
0.0695119513310942
 31
0.0
  0
LINE
  5
14207
330
14180
100
AcDbEntity
  8
0
  6
Continuous
370
     0
100
AcDbLine
 10
60.99001803831512
 20
4.122673403054875
 30
0.0
 11
60.23739839512572
 21
0.0695119513310942
 31
0.0
  0
LINE
  5
14208
330
14180
100
AcDbEntity
  8
0
  6
Continuous
370
     0
100
AcDbLine
 10
62.94138214370665
 20
4.122673403054875
 30
0.0
 11
60.99001803831512
 21
4.122673403054875
 31
0.0
  0
LWPOLYLINE
  5
14209
330
14180
100
AcDbEntity
  8
0
  6
Continuous
370
     0
100
AcDbPolyline
 90
        9
 70
   128
 43
0.0
 10
50.82891555063267
 20
0.069493217885281
 10
51.50022340454171
 20
0.068581814870555
 10
52.09584309410264
 20
1.176452762382837
 10
53.3310923675341
 20
1.176452762382837
 10
53.45412514377966
 20
0.0701292775245861
 10
54.21692840410361
 20
0.0701292775245861
 10
53.61682656468795
 20
4.122968876471645
 10
53.05638765776442
 20
4.122968876471645
 10
50.82891555063267
 20
0.069493217885281
  0
LWPOLYLINE
  5
1420A
330
14180
100
AcDbEntity
  8
0
  6
Continuous
370
     0
100
AcDbPolyline
 90
       29
 70
   128
 43
0.0
 10
58.94885433749116
 20
3.86467509925194
 10
58.46860145323958
 20
4.10663856056044
 10
57.84430571529836
 20
4.186606270204208
 10
57.05993377484827
 20
4.058657985365528
 10
56.33959241060461
 20
3.642825996400517
 10
55.97141802546051
 20
3.226993880957138
 10
55.7535617894112
 20
2.89315123163692
 10
55.59009874575784
 20
2.386000227287468
 10
55.54708205510926
 20
1.921828211647124
 10
55.6589251651871
 20
1.182591199477485
 10
56.06328162887123
 20
0.5207161899145945
 10
56.68272154579842
 20
0.1167144802146538
 10
57.43981430158408
 20
0.0049693372319553
 10
57.99903080400179
 20
0.0479481994627236
 10
58.5496438254855
 20
0.2370553450521413
 10
58.84215694108468
 20
1.930423933501941
 10
58.12808063794051
 20
1.930423933501941
 10
57.87858421298995
 20
0.6238654845641065
 10
57.48283099223269
 20
0.5465034819573873
 10
57.04406131883394
 20
0.6496527766068994
 10
56.67411806486441
 20
0.9505050651789872
 10
56.42462163991388
 20
1.388889788776509
 10
56.34719150154353
 20
1.913232363313966
 10
56.44182812576762
 20
2.55791580268891
 10
56.7859614129494
 20
3.142428809645082
 10
57.29355774378451
 20
3.494855808781096
 10
57.93880738949233
 20
3.615196673618584
 10
58.66148717357049
 20
3.434685376362324
 10
58.94885433749116
 20
3.86467509925194
  0
LWPOLYLINE
  5
1420B
330
14180
100
AcDbEntity
  8
0
  6
Continuous
370
     0
100
AcDbPolyline
 90
       21
 70
   128
 43
0.0
 10
47.7436402065422
 20
4.122577552446188
 10
46.98967819625301
 20
0.0687066490053781
 10
47.72153648643765
 20
0.0687066490053781
 10
48.02382074584187
 20
1.717745080496513
 10
48.04610844544078
 20
1.734874423334616
 10
48.45928735659811
 20
1.7357308082656
 10
48.48586108819489
 20
1.716888569087188
 10
49.02680340487307
 20
0.0053737518378512
 10
49.77457961042969
 20
0.171911088216973
 10
49.75441160213316
 20
0.2470162110853664
 10
49.14241321543951
 20
1.881803947062138
 10
49.52549422375438
 20
2.121671282619473
 10
49.89378713643816
 20
2.557636348837831
 10
50.01508626891027
 20
3.085690177699547
 10
49.96003712892511
 20
3.462959422621622
 10
49.79830487295993
 20
3.760170019963823
 10
49.56725899701578
 20
3.959272370388589
 10
49.40841495730416
 20
4.037181897787235
 10
49.07628627262733
 20
4.1093203443979
 10
48.68639611896447
 20
4.123748109607049
 10
47.7436402065422
 20
4.122577552446188
  0
LWPOLYLINE
  5
1420C
330
14180
100
AcDbEntity
  8
0
  6
Continuous
370
     0
100
AcDbPolyline
 90
        9
 70
   128
 43
0.0
 10
42.0757827338891
 20
0.069493217885281
 10
42.74709058779814
 20
0.068581814870555
 10
43.34271027735906
 20
1.176452762382837
 10
44.57795955079052
 20
1.176452762382837
 10
44.70099232703609
 20
0.0701292775245861
 10
45.46379558736004
 20
0.0701292775245861
 10
44.86369374794437
 20
4.122968876471645
 10
44.30325484102084
 20
4.122968876471645
 10
42.0757827338891
 20
0.069493217885281
  0
LWPOLYLINE
  5
1420D
330
14180
100
AcDbEntity
  8
0
  6
Continuous
370
     0
100
AcDbPolyline
 90
       29
 70
   128
 43
0.0
 10
41.21095344266413
 20
3.862294334037244
 10
40.73070055841256
 20
4.104257795345745
 10
40.10640482047134
 20
4.184225504989512
 10
39.32203288002126
 20
4.056277220150832
 10
38.60169151577759
 20
3.640445231185822
 10
38.23351713063349
 20
3.224613115742442
 10
38.01566089458419
 20
2.890770466422225
 10
37.85219785093082
 20
2.383619462072772
 10
37.80918116028224
 20
1.919447446432428
 10
37.92102427036008
 20
1.180210434262789
 10
38.32538073404422
 20
0.5183354246998988
 10
38.9448206509714
 20
0.1143337149999581
 10
39.70191340675706
 20
0.0025885720172596
 10
40.26112990917477
 20
0.0455674342480279
 10
40.81174293065848
 20
0.2346745798374457
 10
41.10425604625766
 20
1.928043168287246
 10
40.39017974311349
 20
1.928043168287246
 10
40.14068331816292
 20
0.6214847193494109
 10
39.74493009740567
 20
0.5441227167426917
 10
39.30616042400692
 20
0.6472720113922037
 10
38.93621717003739
 20
0.9481242999642915
 10
38.68672074508686
 20
1.386509023561814
 10
38.60929060671651
 20
1.91085159809927
 10
38.7039272309406
 20
2.555535037474214
 10
39.04806051812239
 20
3.140048044430386
 10
39.55565684895749
 20
3.4924750435664
 10
40.2009064946653
 20
3.612815908403888
 10
40.92358627874347
 20
3.432304611147628
 10
41.21095344266413
 20
3.862294334037244
  0
LWPOLYLINE
  5
1420E
330
14180
100
AcDbEntity
  8
0
  6
Continuous
370
     0
100
AcDbPolyline
 90
        3
 70
   129
 43
0.0
 10
43.65990409392336
 20
1.753670950831008
 10
44.63100294127612
 20
1.753670950831008
 10
44.42487915399463
 20
3.145745749656413
  0
LWPOLYLINE
  5
1420F
330
14180
100
AcDbEntity
  8
0
  6
Continuous
370
     0
100
AcDbPolyline
 90
        3
 70
   129
 43
0.0
 10
52.41303691066693
 20
1.753670950831008
 10
53.38413575801969
 20
1.753670950831008
 10
53.17801197073821
 20
3.145745749656413
  0
LWPOLYLINE
  5
14210
330
14180
100
AcDbEntity
  8
0
  6
Continuous
370
     0
100
AcDbPolyline
 90
       10
 70
   129
 43
0.0
 10
67.80270427802299
 20
3.54403807461108
 10
67.26478165393356
 20
0.6466889470816284
 10
67.60916219895097
 20
0.6465983048344981
 42
0.0287855802745307
 10
68.12630332066376
 20
0.6762588462529209
 42
0.376512327966466
 10
69.69628732954632
 20
2.410397473378253
 42
0.0672696799543277
 10
69.63616677627133
 20
2.91420163239124
 42
0.1807500051238706
 10
69.32054959774902
 20
3.365063019762317
 42
0.1147501402102437
 10
68.99152631698061
 20
3.494161206747662
 42
0.0079407328878306
 10
68.68391593329639
 20
3.534229628443654
 42
0.0389687943172403
 10
68.46521722285093
 20
3.542051104892891
  0
LWPOLYLINE
  5
14211
330
14180
100
AcDbEntity
  8
0
  6
Continuous
370
     0
100
AcDbPolyline
 90
       19
 70
   128
 43
0.0
 10
73.75112235964056
 20
3.615065546276326
 10
73.60781889976696
 20
3.609859079461188
 10
73.5590732016314
 20
3.60584962810978
 42
0.0830484602234659
 10
73.15183065938518
 20
3.502824149386952
 42
0.1357908586703172
 10
72.51546831132325
 20
2.984600631093371
 42
0.1393094335303696
 10
72.10331105102659
 20
1.821656627688724
 42
0.1816780125321792
 10
72.38447605004026
 20
0.8986080423267424
 42
0.1266189242523736
 10
72.69116615387125
 20
0.6587176719943387
 42
0.0701001816539782
 10
72.94518115861854
 20
0.5878920019956127
 42
0.0911823975368709
 10
73.49787291920122
 20
0.6155023909985573
 42
0.1630441404871586
 10
74.17263791700378
 20
1.033879938893022
 42
0.0153401013182766
 10
74.40882158977718
 20
1.337037168735605
 42
0.0279990031262509
 10
74.42904980090904
 20
1.36823817408279
 42
0.0984459176682028
 10
74.68996982830375
 20
2.147880102016671
 42
0.0860717780131919
 10
74.6562025578568
 20
2.897259322888544
 42
0.1359462627289693
 10
74.43565713361405
 20
3.313757652021195
 42
0.0128818559512655
 10
74.37308553404801
 20
3.376632070022026
 42
0.1265852162990283
 10
74.00417916549637
 20
3.583089033294925
 42
0.0669345353180189
 10
73.75112235964056
 20
3.615065546276326
 42
0.0642535182857324
  0
LWPOLYLINE
  5
14212
330
14180
100
AcDbEntity
  8
0
  6
Continuous
370
     0
100
AcDbPolyline
 90
       19
 70
   128
 43
0.0
 10
78.73720230324093
 20
3.615065546276326
 10
78.59389884336732
 20
3.609859079461188
 10
78.54515314523178
 20
3.60584962810978
 42
0.0830484602234659
 10
78.13791060298555
 20
3.502824149386952
 42
0.1357908586703172
 10
77.50154825492362
 20
2.984600631093371
 42
0.1393094335303696
 10
77.08939099462696
 20
1.821656627688724
 42
0.1816780125321792
 10
77.37055599364063
 20
0.8986080423267424
 42
0.1266189242523736
 10
77.67724609747162
 20
0.6587176719943387
 42
0.0701001816539782
 10
77.93126110221891
 20
0.5878920019956127
 42
0.0911823975368709
 10
78.4839528628016
 20
0.6155023909985573
 42
0.1630441404871586
 10
79.15871786060415
 20
1.033879938893022
 42
0.0153401013182766
 10
79.39490153337755
 20
1.337037168735605
 42
0.0279990031262509
 10
79.41512974450941
 20
1.36823817408279
 42
0.0984459176682028
 10
79.67604977190413
 20
2.147880102016671
 42
0.0860717780131919
 10
79.64228250145717
 20
2.897259322888544
 42
0.1359462627289693
 10
79.42173707721443
 20
3.313757652021195
 42
0.0128818559512655
 10
79.35916547764839
 20
3.376632070022026
 42
0.1265852162990283
 10
78.99025910909674
 20
3.583089033294925
 42
0.066934535317863
 10
78.73720230324093
 20
3.615065546276326
 42
0.0642535182838738
  0
LWPOLYLINE
  5
14213
330
14180
100
AcDbEntity
  8
0
  6
Continuous
370
     0
100
AcDbPolyline
 90
       13
 70
   129
 43
0.0
 10
48.22351311473688
 20
3.545954745258939
 10
47.99401255266471
 20
2.31198587386865
 10
48.64262356593204
 20
2.313330232650827
 10
48.69013295977485
 20
2.2796434559651
 10
49.14274177395241
 20
2.563045838098616
 10
49.36254753079359
 20
2.823239906559336
 10
49.42829030649214
 20
3.10943918696725
 10
49.40375174688194
 20
3.277609731649931
 10
49.34166538136675
 20
3.391704014645341
 10
49.24656713003535
 20
3.473654342838784
 10
49.21727734511136
 20
3.488020341746761
 10
49.00379037546321
 20
3.53438977345371
 10
48.67607810987945
 20
3.546516665039916
  0
LWPOLYLINE
  5
14214
330
14180
100
AcDbEntity
  8
0
  6
Continuous
370
     0
100
AcDbPolyline
 90
       14
 70
   129
 43
0.0
 10
82.61300809760163
 20
3.545500655325724
 10
82.38429354035984
 20
2.314366638697379
 10
83.09114356542128
 20
2.314366638697379
 10
83.36308614050427
 20
2.450135871598718
 10
83.42462468708438
 20
2.484996911719662
 42
0.0928792249129814
 10
83.71702268193567
 20
2.731601998841227
 42
0.1388804577175882
 10
83.81642552283969
 20
2.960978845802884
 42
0.0222894927264325
 10
83.82407937387062
 20
3.047371074748156
 42
0.0220361311954517
 10
83.82405679097832
 20
3.130021704934392
 42
0.0653353934679324
 10
83.79340886471096
 20
3.30353968429091
 42
0.1307765355852294
 10
83.72380444230072
 20
3.41324308127227
 42
0.1336424043903579
 10
83.53314818948247
 20
3.51240937696906
 42
0.0507229205670344
 10
83.28909990157715
 20
3.53999440661812
 42
-0.0124738647496129
 10
83.10511265223352
 20
3.546646747144819
 42
-0.0005590613015112
  0
HATCH
  5
14215
330
14180
100
AcDbEntity
  8
0
  6
Continuous
370
     0
100
AcDbHatch
 10
0.0
 20
0.0
 30
0.0
210
0.0
220
0.0
230
1.0
  2
SOLID
 70
     1
 71
     0
 91
       18
 92
        7
 72
     0
 73
     1
 93
       28
 10
40.81174293065851
 20
0.2346745798374457
 10
41.10425604625766
 20
1.928043168287246
 10
40.39017974311349
 20
1.928043168287274
 10
40.14068331816294
 20
0.6214847193494393
 10
39.74493009740567
 20
0.5441227167427201
 10
39.30616042400695
 20
0.6472720113922322
 10
38.93621717003737
 20
0.94812429996432
 10
38.68672074508687
 20
1.386509023561757
 10
38.6092906067165
 20
1.91085159809927
 10
38.70392723094056
 20
2.555535037474186
 10
39.04806051812237
 20
3.140048044430358
 10
39.55565684895744
 20
3.4924750435664
 10
40.20090649466529
 20
3.612815908403916
 10
40.92358627874351
 20
3.432304611147628
 10
41.21095344266413
 20
3.862294334037244
 10
40.73070055841251
 20
4.104257795345745
 10
40.10640482047136
 20
4.184225504989541
 10
39.32203288002127
 20
4.056277220150803
 10
38.60169151577756
 20
3.640445231185793
 10
38.23351713063348
 20
3.224613115742442
 10
38.01566089458417
 20
2.890770466422196
 10
37.85219785093081
 20
2.383619462072715
 10
37.80918116028221
 20
1.919447446432371
 10
37.92102427036009
 20
1.180210434262789
 10
38.32538073404423
 20
0.5183354246999557
 10
38.94482065097138
 20
0.1143337149999866
 10
39.70191340675697
 20
0.0025885720172596
 10
40.2611299091746
 20
0.0455674342479995
 97
        0
 92
        7
 72
     0
 73
     1
 93
        8
 10
44.86369374794435
 20
4.122968876471617
 10
44.30325484102083
 20
4.122968876471645
 10
42.07578273388911
 20
0.0694932178853094
 10
42.74709058779814
 20
0.068581814870555
 10
43.34271027735904
 20
1.176452762382837
 10
44.57795955079052
 20
1.176452762382837
 10
44.7009923270361
 20
0.0701292775245861
 10
45.46379558736005
 20
0.0701292775245577
 97
        0
 92
       22
 72
     0
 73
     1
 93
        3
 10
43.65990409392334
 20
1.753670950831008
 10
44.42487915399465
 20
3.145745749656413
 10
44.63100294127612
 20
1.753670950831008
 97
        0
 92
        7
 72
     0
 73
     1
 93
       18
 10
49.52549422375437
 20
2.121671282619445
 10
49.89378713643815
 20
2.557636348837775
 10
50.01508626891028
 20
3.085690177699603
 10
49.96003712892509
 20
3.462959422621707
 10
49.79830487295997
 20
3.760170019963794
 10
49.56725899701564
 20
3.959272370388589
 10
49.40841495730426
 20
4.037181897787235
 10
49.07628627262724
 20
4.109320344397872
 10
48.68639611896373
 20
4.123748109607106
 10
47.74364020654222
 20
4.122577552446188
 10
46.98967819625302
 20
0.0687066490053781
 10
47.72153648643767
 20
0.0687066490053781
 10
48.02695343778103
 20
1.734834721260142
 10
48.47989230159324
 20
1.735773515586629
 10
49.02680340487306
 20
0.0053737518378512
 10
49.77457961042969
 20
0.1719110882170014
 10
49.75441160213325
 20
0.2470162110850538
 10
49.14241321543951
 20
1.88180394706211
 97
        0
 92
       22
 72
     0
 73
     1
 93
       12
 10
47.99401255266468
 20
2.311985873868621
 10
48.22351311473688
 20
3.545954745258939
 10
48.67607810987983
 20
3.546516665039916
 10
49.0037903754634
 20
3.534389773453739
 10
49.23414865239637
 20
3.484355888912688
 10
49.34166538136674
 20
3.391704014645426
 10
49.40375174688196
 20
3.277609731649874
 10
49.42829030649214
 20
3.10943918696725
 10
49.36254753079357
 20
2.823239906559308
 10
49.14274177395241
 20
2.56304583809856
 10
48.69013295977485
 20
2.2796434559651
 10
48.64262356593205
 20
2.313330232650798
 97
        0
 92
        7
 72
     0
 73
     1
 93
        8
 10
53.61682656468795
 20
4.122968876471645
 10
53.05638765776442
 20
4.122968876471617
 10
50.82891555063267
 20
0.069493217885281
 10
51.5002234045417
 20
0.068581814870555
 10
52.09584309410264
 20
1.176452762382837
 10
53.3310923675341
 20
1.176452762382837
 10
53.45412514377966
 20
0.0701292775245861
 10
54.21692840410365
 20
0.0701292775245861
 97
        0
 92
       22
 72
     0
 73
     1
 93
        3
 10
53.38413575801967
 20
1.753670950831008
 10
52.41303691066692
 20
1.753670950831008
 10
53.17801197073824
 20
3.145745749656441
 97
        0
 92
        7
 72
     0
 73
     1
 93
       28
 10
56.34719150154353
 20
1.913232363313994
 10
56.44182812576763
 20
2.557915802688938
 10
56.7859614129494
 20
3.142428809645082
 10
57.29355774378446
 20
3.494855808781068
 10
57.93880738949235
 20
3.615196673618612
 10
58.66148717357048
 20
3.434685376362295
 10
58.94885433749116
 20
3.864675099251968
 10
58.46860145323963
 20
4.106638560560412
 10
57.84430571529838
 20
4.18660627020418
 10
57.05993377484827
 20
4.058657985365528
 10
56.33959241060463
 20
3.642825996400546
 10
55.97141802546049
 20
3.226993880957138
 10
55.75356178941118
 20
2.893151231636892
 10
55.5900987457578
 20
2.386000227287382
 10
55.54708205510927
 20
1.921828211647181
 10
55.6589251651871
 20
1.182591199477542
 10
56.0632816288712
 20
0.5207161899145945
 10
56.68272154579836
 20
0.1167144802146538
 10
57.43981430158405
 20
0.0049693372319553
 10
57.99903080400176
 20
0.0479481994627236
 10
58.5496438254855
 20
0.2370553450521129
 10
58.84215694108468
 20
1.930423933501913
 10
58.1280806379405
 20
1.930423933501941
 10
57.87858421298995
 20
0.6238654845641065
 10
57.48283099223278
 20
0.5465034819573873
 10
57.04406131883394
 20
0.6496527766068425
 10
56.6741180648644
 20
0.9505050651790156
 10
56.42462163991391
 20
1.388889788776566
 97
        0
 92
        7
 72
     0
 73
     1
 93
       12
 10
62.59998894028862
 20
2.443444699961645
 10
61.41278014883529
 20
2.443444699961645
 10
61.62713369461321
 20
3.62452168403476
 10
62.84867637025303
 20
3.624521684034732
 10
62.94138214370661
 20
4.122673403054847
 10
60.99001803831511
 20
4.122673403054903
 10
60.23739839512569
 20
0.0695119513310942
 10
62.40301801201664
 20
0.0695119513310658
 10
62.49558106579968
 20
0.5663695092237618
 10
61.06053888253801
 20
0.5663695092237618
 10
61.32097993853078
 20
1.943087018967275
 10
62.50793976851409
 20
1.943087018967304
 97
        0
 92
        7
 72
     1
 73
     1
 93
       10
 10
70.2734355942828
 20
2.401413176686077
 42
0.0672696799543269
 10
70.1949940363331
 20
3.058745502850172
 42
0.1807500051238695
 10
69.647618958545
 20
3.840674699921549
 42
0.1147501402102381
 10
69.07516352051098
 20
4.065287861055622
 42
0.00794073288783
 10
68.74937372643799
 20
4.10772427915316
 42
0.0371825569453775
 10
68.45503424084473
 20
4.119302429528318
 42
0.0
 10
67.32305613798661
 20
4.122697391437498
 42
0.0
 10
66.5705669031862
 20
0.0696534585578661
 42
0.0
 10
67.60901027297072
 20
0.0693801363800617
 42
0.0287855802745308
 10
68.19244965395367
 20
0.1028432032262572
 42
0.3765123279664693
 97
        0
 92
       22
 72
     1
 73
     1
 93
       10
 10
67.80270427802296
 20
3.544038074611052
 42
0.0
 10
68.46521722285093
 20
3.542051104892891
 42
-0.0389687943172454
 10
68.68391593329642
 20
3.534229628443654
 42
-0.0079407328878299
 10
68.99152631698061
 20
3.494161206747662
 42
-0.1147505649580506
 10
69.32055067572918
 20
3.365062278453962
 42
-0.1807495754546736
 10
69.63616677627126
 20
2.914201632391296
 42
-0.0672696799538808
 10
69.69628732954618
 20
2.410397473381664
 42
-0.3765123279670533
 10
68.12630332066337
 20
0.6762588462528641
 42
-0.0287855802745084
 10
67.60916219895097
 20
0.6465983048344981
 42
0.0
 10
67.26478165393356
 20
0.6466889470816
 42
0.0
 97
        0
 92
        7
 72
     1
 73
     1
 93
       18
 10
74.15167119451727
 20
4.141145426906462
 42
0.0815822006804501
 10
73.65191410162208
 20
4.189060161598462
 42
0.0
 10
73.57366336853513
 20
4.186217174796638
 42
0.0
 10
73.51175540564216
 20
4.181125095393156
 42
0.0830484602234666
 10
72.91989419617866
 20
4.031394214856618
 42
0.1357908586703189
 10
72.04482381152823
 20
3.31877811670256
 42
0.1393094335303694
 10
71.5272657455429
 20
1.858434924353758
 42
0.181678012532181
 10
71.92675360640786
 20
0.5469391616015003
 42
0.126618924252365
 10
72.46008151202492
 20
0.1297746454043818
 42
0.0701001816539797
 10
72.86923965650735
 20
0.0156912283745783
 42
0.0911823975368719
 10
73.63046397350601
 20
0.0537191148201544
 42
0.1630441404871538
 10
74.61688351553434
 20
0.6653332182976044
 42
0.0153401013182768
 10
74.87482948514671
 20
0.9964237830199635
 42
0.02799900312625
 10
74.93019742173212
 20
1.081826059781121
 42
0.0984459176682016
 10
75.26256189608986
 20
2.074947523673131
 42
0.0860717780131919
 10
75.21991470508917
 20
3.021394137256095
 42
0.135946262728964
 10
74.85514876176418
 20
3.71025180202514
 42
0.0128818559512691
 10
74.7716003018663
 20
3.794204598938989
 42
0.126585216299035
 97
        0
 92
       22
 72
     1
 73
     1
 93
       17
 10
73.5590732016314
 20
3.60584962810978
 42
0.0
 10
73.60781889976696
 20
3.609859079461216
 42
0.0
 10
73.75112235964056
 20
3.615065546276326
 42
-0.0669345353185902
 10
74.00417916549847
 20
3.583089033294356
 42
-0.1265852162985664
 10
74.37308553404847
 20
3.376632070021571
 42
-0.0128818559512013
 10
74.43565713361422
 20
3.313757652021081
 42
-0.1359462627288853
 10
74.6562025578568
 20
2.897259322888658
 42
-0.0860717780135914
 10
74.68996982830365
 20
2.147880102013346
 42
-0.1007410640457299
 10
74.41946576714221
 20
1.351644111434865
 42
-0.0160615590802892
 10
74.17263791700375
 20
1.033879938892994
 42
-0.1630441404872323
 10
73.49787291920089
 20
0.6155023909983868
 42
-0.0911823975369113
 10
72.94518115861794
 20
0.5878920019957264
 42
-0.0701001816536388
 10
72.69116615387185
 20
0.658717671994026
 42
-0.1266189242525736
 10
72.38447605004035
 20
0.8986080423267424
 42
-0.1816780125322317
 10
72.10331105102662
 20
1.82165662768898
 42
-0.1393094335303467
 10
72.51546831132333
 20
2.9846006310934
 42
-0.135790858670118
 10
73.15183065938419
 20
3.502824149386469
 42
-0.083048460223683
 97
        0
 92
        7
 72
     1
 73
     1
 93
       18
 10
79.75768024546667
 20
3.794204598938989
 42
0.126585216299035
 10
79.13775113811763
 20
4.141145426906462
 42
0.0815822006803573
 10
78.63799404522302
 20
4.18906016159849
 42
0.0
 10
78.55974331213577
 20
4.186217174796666
 42
0.0
 10
78.49783534924253
 20
4.181125095393156
 42
0.0830484602234666
 10
77.90597413977903
 20
4.031394214856618
 42
0.1357908586703189
 10
77.03090375512861
 20
3.31877811670256
 42
0.1393094335303694
 10
76.51334568914328
 20
1.858434924353758
 42
0.181678012532181
 10
76.91283355000823
 20
0.5469391616015003
 42
0.126618924252365
 10
77.44616145562528
 20
0.1297746454043818
 42
0.0701001816539797
 10
77.85531960010771
 20
0.0156912283745783
 42
0.0911823975368719
 10
78.61654391710638
 20
0.0537191148201544
 42
0.1630441404871538
 10
79.60296345913471
 20
0.6653332182976044
 42
0.0153401013182768
 10
79.86090942874707
 20
0.9964237830199635
 42
0.02799900312625
 10
79.91627736533249
 20
1.081826059781121
 42
0.0984459176682016
 10
80.24864183969024
 20
2.074947523673131
 42
0.0860717780131919
 10
80.20599464868954
 20
3.021394137256095
 42
0.135946262728964
 10
79.84122870536456
 20
3.71025180202514
 42
0.0128818559512691
 97
        0
 92
       22
 72
     1
 73
     1
 93
       17
 10
78.73720230324093
 20
3.615065546276326
 42
-0.0669345353183494
 10
78.99025910909853
 20
3.583089033294442
 42
-0.1265852162986516
 10
79.35916547764882
 20
3.376632070021599
 42
-0.0128818559512071
 10
79.42173707721457
 20
3.313757652021052
 42
-0.1359462627289118
 10
79.64228250145717
 20
2.897259322888544
 42
-0.086071778013428
 10
79.67604977190439
 20
2.147880102014653
 42
-0.1007410640459035
 10
79.40554571074255
 20
1.351644111434808
 42
-0.0160615590802892
 10
79.1587178606041
 20
1.033879938892937
 42
-0.163044140487152
 10
78.48395286280155
 20
0.6155023909985289
 42
-0.0911823975368992
 10
77.93126110221868
 20
0.5878920019956127
 42
-0.0701001816540322
 10
77.67724609747128
 20
0.6587176719946797
 42
-0.1266189242525278
 10
77.37055599364007
 20
0.8986080423275382
 42
-0.1816780125320162
 10
77.08939099462694
 20
1.821656627688838
 42
-0.1393094335303857
 10
77.50154825492376
 20
2.98460063109357
 42
-0.1357908586701658
 10
78.13791060298493
 20
3.502824149386697
 42
-0.0830484602236
 10
78.54515314523178
 20
3.60584962810978
 42
0.0
 10
78.59389884336716
 20
3.609859079461216
 42
0.0
 97
        0
 92
        7
 72
     1
 73
     1
 93
       19
 10
84.11528340458231
 20
3.837418822170235
 42
0.133642404390364
 10
83.6556827480541
 20
4.076471535805325
 42
0.0507229205670379
 10
83.29556134966148
 20
4.117176428829509
 42
-0.0139077548284244
 10
83.1225349519253
 20
4.123929279692902
 42
-0.0011269735147239
 10
82.13313607977841
 20
4.122661287710201
 42
0.0
 10
81.3800850857636
 20
0.0691077834298142
 42
0.0
 10
82.10993068210479
 20
0.0691077834297858
 42
0.0
 10
82.41692525311504
 20
1.737148450249208
 42
0.0
 10
82.8685559507905
 20
1.737148450249179
 42
0.0
 10
83.41836319063139
 20
0.0053997276131099
 42
0.0
 10
84.17121218843519
 20
0.1733957019127388
 42
0.0
 10
83.52829883050583
 20
1.887461594255057
 42
0.0
 10
83.63444305165671
 20
1.940454839164061
 42
0.0
 10
83.70913377251529
 20
1.982766469210787
 42
0.0928792249129744
 10
84.16405842194725
 20
2.366444657099776
 42
0.1388804577175935
 10
84.38855099198574
 20
2.884472083815609
 42
0.0222894927264297
 10
84.40074417636024
 20
3.022101673390181
 42
0.0220361311954553
 10
84.40070769848919
 20
3.155606230380243
 42
0.065335393467941
 10
84.34393308400123
 20
3.477044499930769
 42
0.1307765355852319
 97
        0
 92
       22
 72
     1
 73
     1
 93
       14
 10
83.81642552283969
 20
2.960978845802884
 42
0.0222894927264325
 10
83.82407937387062
 20
3.047371074748156
 42
0.0220361311954517
 10
83.82405679097832
 20
3.130021704934392
 42
0.0653353934679324
 10
83.79340886471096
 20
3.30353968429091
 42
0.1307765355852294
 10
83.72380444230072
 20
3.41324308127227
 42
0.1336424043903579
 10
83.53314818948247
 20
3.51240937696906
 42
0.0507229205670344
 10
83.28909990157715
 20
3.53999440661812
 42
-0.0124738647496129
 10
83.10511265223352
 20
3.546646747144819
 42
-0.0005590613015112
 10
82.61300809760163
 20
3.545500655325724
 42
0.0
 10
82.38429354035986
 20
2.314366638697379
 42
0.0
 10
83.0911435654213
 20
2.314366638697379
 42
0.0
 10
83.36308614050409
 20
2.450135871598689
 42
0.0
 10
83.42462468708438
 20
2.484996911719662
 42
0.0928792249129814
 10
83.71702268193567
 20
2.731601998841227
 42
0.1388804577175882
 97
        0
 92
        7
 72
     1
 73
     1
 93
       76
 10
86.71381281974831
 20
3.150777296265033
 42
-0.114782273627771
 10
86.7400472486398
 20
3.341331557897518
 42
-0.0007283258900418
 10
86.7618509841179
 20
3.398078621227824
 42
-0.0763243648646526
 10
86.79255760000112
 20
3.451628687382367
 42
0.0242836351354405
 10
86.8126564509807
 20
3.479519180251855
 42
-0.1023011838753699
 10
86.90421818720322
 20
3.572116275653314
 42
0.0300724851171112
 10
86.92177635446356
 20
3.585388151226169
 42
0.0
 10
86.965324092906
 20
3.613278886402582
 42
-0.0610555065067782
 10
87.03734508957607
 20
3.647863349559912
 42
0.0143517241510647
 10
87.06749313805877
 20
3.659019643630472
 42
-0.0622766540656416
 10
87.15179714586085
 20
3.681331989464695
 42
-0.0025870632163732
 10
87.2076274394619
 20
3.688583750225376
 42
-0.056626871256126
 10
87.36171908627861
 20
3.690257121643895
 42
-0.0664543430304561
 10
87.54133931518195
 20
3.647254190025279
 42
-0.0363481280633936
 10
87.72837093553741
 20
3.559119903020331
 42
-0.0245643065002876
 10
87.81905993869484
 20
3.501990721716225
 42
0.0
 10
88.13146281006288
 20
3.88539704126876
 42
0.0
 10
88.07116625712419
 20
3.928348603825583
 42
0.0451549098763571
 10
87.86682725487182
 20
4.04772061115085
 42
0.0420297000182856
 10
87.61579201793139
 20
4.140624224774796
 42
0.038368005171956
 10
87.40218307669644
 20
4.182535321523459
 42
0.0464232977685855
 10
87.12638118920128
 20
4.189229049504405
 42
0.0115816896764096
 10
86.98649721718821
 20
4.176368853346531
 42
0.0333683012300526
 10
86.80114038708765
 20
4.142342422968937
 42
0.0393119124671086
 10
86.61482920468561
 20
4.079181980735484
 42
0.0451666707950201
 10
86.41160688126111
 20
3.969292653755331
 42
0.0335889579903508
 10
86.27860035586261
 20
3.867522788527736
 42
0.0419402966583815
 10
86.16122140639888
 20
3.745666650912482
 42
0.0866008825590238
 10
86.00471127673106
 20
3.465918736529033
 42
0.0814906367170034
 10
85.95440829254206
 20
3.18089967794657
 42
0.0373777866464356
 10
85.96500739395137
 20
3.01194634910388
 42
0.0793047097440342
 10
86.05523324532965
 20
2.71571322970604
 42
0.0485932163604407
 10
86.16998065518666
 20
2.497959874479903
 42
0.0177260977429255
 10
86.33708076679599
 20
2.262675033065761
 42
0.0111965016208538
 10
86.50862251518043
 20
2.048529287498695
 42
0.0
 10
86.70354794683257
 20
1.805501771554503
 42
-0.0323828989733781
 10
86.82263907636908
 20
1.635564676717137
 42
-0.0370653382551936
 10
86.93659047387356
 20
1.412573760246715
 42
-0.0736878712222103
 10
86.99022753547726
 20
1.20357194775903
 42
-0.0094914988389141
 10
86.99584102385969
 20
1.13778392955362
 42
-0.1228253608227951
 10
86.94950181633462
 20
0.8806318600718157
 42
-0.1271847765034114
 10
86.75238680047195
 20
0.6347349458738166
 42
-0.1246684281967346
 10
86.47788854089364
 20
0.5206146981959421
 42
-0.0739653108214691
 10
86.21799510894012
 20
0.5210607851900591
 42
-0.081350569643218
 10
85.96005917074226
 20
0.6041747156326096
 42
-0.0133634257892959
 10
85.82910498156431
 20
0.6758498221647358
 42
-0.0349554731167606
 10
85.6593811990791
 20
0.7913170538732573
 42
0.0277207745359085
 10
85.61629764154586
 20
0.8215479890438359
 42
0.0
 10
85.3252990729678
 20
0.3854331351839448
 42
0.0
 10
85.37379913837979
 20
0.3442445975968837
 42
0.0596926992984442
 10
85.63850901723307
 20
0.1689883817952591
 42
0.0491219744629405
 10
85.92546741596626
 20
0.0585439649935324
 42
0.0000034648256743
 10
85.92548835906411
 20
0.0585381861343137
 42
-0.0000036411246271
 10
85.92546633551805
 20
0.0585442631316653
 42
0.0000035527553772
 10
85.92548781010274
 20
0.0585383376060236
 42
-0.0000012423195852
 10
85.92548029585401
 20
0.0585404109905596
 42
0.0
 10
85.92547632508578
 20
0.0585415066491635
 42
0.0463820074299391
 10
86.21117420302571
 20
0.00757515891857
 42
0.0340431083792141
 10
86.50128134362976
 20
0.002997497053741
 42
0.0391042060704208
 10
86.79216819872758
 20
0.0411605907468413
 42
0.0632329789214227
 10
87.12714996033374
 20
0.1577436457079386
 42
0.0536368970870089
 10
87.35016745646133
 20
0.3001835117667895
 42
0.0605080759642488
 10
87.54962024788548
 20
0.5040845218027812
 42
0.0622248536431659
 10
87.67313249539425
 20
0.7152673386544848
 42
0.0626145086061712
 10
87.74238162983735
 20
0.9562180421999926
 42
0.0266405014339851
 10
87.76031050346237
 20
1.13221014404246
 42
0.0620689554666285
 10
87.74300403351228
 20
1.360318824447233
 42
0.0363745569319892
 10
87.68713726204017
 20
1.56029615892865
 42
0.0452743877422055
 10
87.60335716766119
 20
1.740295774511452
 42
0.0185824162301901
 10
87.48828133978131
 20
1.922517102016712
 42
0.0315199046589205
 10
87.35024816375105
 20
2.099109155731781
 42
-0.0230778291590738
 10
87.22896015443025
 20
2.248996324215539
 42
0.0
 10
87.09822072871791
 20
2.41267584348364
 42
-0.0210548975570547
 10
86.97923812084772
 20
2.57522209340243
 42
-0.0124727681739155
 10
86.8574435250923
 20
2.76741919578464
 42
-0.0409074550168537
 10
86.75631683510502
 20
2.972501451934931
 42
-0.0712691770527517
 97
        0
 75
     0
 76
     1
 47
0.0571672144114756
 98
       18
 10
39.7407133701756
 20
0.159827000393193
 10
43.74593345527014
 20
1.41750567479238
 10
43.74593345527014
 20
1.41750567479238
 10
47.7511530843914
 20
1.874843462685475
 10
47.7511530843914
 20
1.874843462685475
 10
53.70176493543849
 20
1.474672898279038
 10
53.70176493543849
 20
1.474672898279038
 10
55.81880970728182
 20
1.760509015712216
 10
61.14003009122743
 20
2.160679337811814
 10
67.31951185683996
 20
2.046344890838497
 10
67.31951185683996
 20
2.046344890838497
 10
73.38455889315648
 20
3.818528576617495
 10
73.38455889315648
 20
3.818528576617495
 10
78.64856191245414
 20
3.761361353130837
 10
78.64856191245414
 20
3.761361353130837
 10
82.82543409149273
 20
3.761361353130837
 10
82.82543409149273
 20
3.761361353130837
 10
86.60178380604859
 20
3.018187690111403
  0
ENDBLK
  5
14216
330
14180
100
AcDbEntity
  8
0
100
AcDbBlockEnd
  0
ENDSEC
  0
SECTION
  2
ENTITIES
  0
INSERT
  5
3374
330
17
100
AcDbEntity
  8
AME_FRZ
100
AcDbBlockReference
  2
AME_NIL
 10
0.0
 20
0.0
 30
0.0
 41
24.609375
 42
24.609375
 43
24.609375
  0
INSERT
  5
3375
330
17
100
AcDbEntity
  8
AME_FRZ
100
AcDbBlockReference
  2
AME_SOL
 10
0.0
 20
0.0
 30
0.0
 41
24.609375
 42
24.609375
 43
24.609375
1001
AME_SOL
1000
R2.1
1000
AME2
1000
sq cm
1070
     3
1070
     0
1070
     3
1000
wire
1040
45.0
1000
U
1040
1.0
1000
cm
1000
gm
1000
MILD_STEEL
1070
    25
1000
CSG
1070
     1
1070
     3
1070
     3
1070
     3
1070
     0
1000
cu cm
1070
     1
1070
     0
1005
2D0D
  0
INSERT
  5
3376
330
17
100
AcDbEntity
  8
ASHADE
 62
     1
100
AcDbBlockReference
  2
AVE_RENDER
 10
0.0
 20
0.0
 30
0.0
 41
24.609375
 42
24.609375
 43
24.609375
1001
AVE_RENDER
1002
{
1070
     2
1000
Pref
1070
    30
1070
    20
1070
     0
1070
     0
1000

1070
    10
1070
     0
1070
    30
1040
1.0
1070
     1
1040
0.3
1040
0.7
1040
0.0
1040
10.0
1010
-1.0
1020
-1.0
1030
-1.0
1040
0.3
1070
    49
1002
}
  0
INSERT
  5
3377
330
17
100
AcDbEntity
  8
ASHADE
 62
     3
100
AcDbBlockReference
  2
AVE_RENDER
 10
0.0
 20
0.0
 30
0.0
 41
24.609375
 42
24.609375
 43
24.609375
1001
AVE_RENDER
1002
{
1070
     0
1000
Full Opt
1070
     0
1070
     1
1070
     1
1070
     1
1070
     0
1070
     0
1070
     0
1070
     1
1070
     1
1040
0.0001
1040
0.0001
1002
}
  0
INSERT
  5
3378
330
17
100
AcDbEntity
  8
ASHADE
 62
     4
100
AcDbBlockReference
  2
AVE_RENDER
 10
0.0
 20
0.0
 30
0.0
 41
24.609375
 42
24.609375
 43
24.609375
1001
AVE_RENDER
1002
{
1070
     0
1000
Quick Opt
1070
     0
1070
     1
1070
     1
1070
     1
1070
     0
1070
     0
1070
     1
1002
}
  0
INSERT
  5
3E3C
330
17
100
AcDbEntity
  8
AME_FRZ
100
AcDbBlockReference
  2
AME_NIL
 10
0.0
 20
0.0
 30
0.0
 41
34.993056
 42
34.993056
 43
34.993056
  0
INSERT
  5
3E3D
330
17
100
AcDbEntity
  8
AME_FRZ
100
AcDbBlockReference
  2
AME_SOL
 10
0.0
 20
0.0
 30
0.0
 41
34.993056
 42
34.993056
 43
34.993056
1001
AME_SOL
1000
R2.1
1000
AME2
1000
sq cm
1070
     3
1070
     0
1070
     3
1000
wire
1040
45.0
1000
U
1040
1.0
1000
cm
1000
gm
1000
MILD_STEEL
1070
    25
1000
CSG
1070
     1
1070
     3
1070
     3
1070
     3
1070
     0
1000
cu cm
1070
     1
1070
     0
1005
2D0D
  0
INSERT
  5
3E3E
330
17
100
AcDbEntity
  8
ASHADE
 62
     1
100
AcDbBlockReference
  2
AVE_RENDER
 10
0.0
 20
0.0
 30
0.0
 41
34.993056
 42
34.993056
 43
34.993056
1001
AVE_RENDER
1002
{
1070
     2
1000
Pref
1070
    30
1070
    20
1070
     0
1070
     0
1000

1070
    10
1070
     0
1070
    30
1040
1.0
1070
     1
1040
0.3
1040
0.7
1040
0.0
1040
10.0
1010
-1.0
1020
-1.0
1030
-1.0
1040
0.3
1070
    49
1002
}
  0
INSERT
  5
3E3F
330
17
100
AcDbEntity
  8
ASHADE
 62
     3
100
AcDbBlockReference
  2
AVE_RENDER
 10
0.0
 20
0.0
 30
0.0
 41
34.993056
 42
34.993056
 43
34.993056
1001
AVE_RENDER
1002
{
1070
     0
1000
Full Opt
1070
     0
1070
     1
1070
     1
1070
     1
1070
     0
1070
     0
1070
     0
1070
     1
1070
     1
1040
0.0001
1040
0.0001
1002
}
  0
INSERT
  5
3E40
330
17
100
AcDbEntity
  8
ASHADE
 62
     4
100
AcDbBlockReference
  2
AVE_RENDER
 10
0.0
 20
0.0
 30
0.0
 41
34.993056
 42
34.993056
 43
34.993056
1001
AVE_RENDER
1002
{
1070
     0
1000
Quick Opt
1070
     0
1070
     1
1070
     1
1070
     1
1070
     0
1070
     0
1070
     1
1002
}
  0
MTEXT
  5
405A
330
17
100
AcDbEntity
  8
BDR
100
AcDbMText
 10
353.0635595970848
 20
56.58463448330076
 30
0.0
 40
0.1
 41
37.627
 71
     1
 72
     5
  1

  7
SIMPLEX
 73
     1
 44
1.0
1001
ACAD
1000
MTEXTBEGIN
1070
    73
1070
     1
1070
    44
1040
1.0
1070
    74
1070
     0
1000
MTEXTEND
  0
MTEXT
  5
8913
330
17
100
AcDbEntity
  8
BDR
100
AcDbMText
 10
877.3233813939555
 20
282.200335478095
 30
0.0
 40
3.0
 41
0.0
 71
     4
 72
     1
  1
\A1;
 73
     1
 44
1.0
1001
ACAD
1000
MTEXTBEGIN
1070
    73
1070
     1
1070
    44
1040
1.0
1070
    74
1070
     0
1000
MTEXTEND
  0
MTEXT
  5
BB0D
330
17
100
AcDbEntity
  8
HATCH
 48
0.5
100
AcDbMText
 10
862.711853351133
 20
170.0626199810501
 30
0.0
 40
1.1
 41
0.0
 71
     4
 72
     1
  1

 73
     1
 44
1.0
1001
ACAD
1000
MTEXTBEGIN
1070
    73
1070
     1
1070
    44
1040
1.0
1070
    74
1070
     0
1000
MTEXTEND
  0
MTEXT
  5
BD7C
330
17
100
AcDbEntity
  8
BDR
100
AcDbMText
 10
648.3700742151118
 20
223.690432353357
 30
0.0
 40
2.5
 41
0.0
 71
     1
 72
     1
  1

 73
     1
 44
1.0
1001
ACAD
1000
MTEXTBEGIN
1070
    73
1070
     1
1070
    44
1040
1.0
1070
    74
1070
     0
1000
MTEXTEND
  0
MTEXT
  5
CE5A
330
17
100
AcDbEntity
  8
BDR
100
AcDbMText
 10
645.7641368582438
 20
217.5930814931963
 30
0.0
 40
2.5
 41
0.0
 71
     1
 72
     1
  1

 73
     1
 44
1.0
1001
ACAD
1000
MTEXTBEGIN
1070
    73
1070
     1
1070
    44
1040
1.0
1070
    74
1070
     0
1000
MTEXTEND
  0
MTEXT
  5
D3E4
330
17
100
AcDbEntity
  8
0
100
AcDbMText
 10
393.5054431651311
 20
218.3654697964034
 30
0.0
 40
2.5
 41
0.0
 71
     1
 72
     1
  1

 73
     1
 44
1.0
1001
ACAD
1000
MTEXTBEGIN
1070
    73
1070
     1
1070
    44
1040
1.0
1070
    74
1070
     0
1000
MTEXTEND
  0
MTEXT
  5
D891
330
17
100
AcDbEntity
  8
BDR
100
AcDbMText
 10
278.8170020773584
 20
330.6127380359346
 30
0.0
 40
2.5
 41
0.0
 71
     1
 72
     1
  1

 73
     1
 44
1.0
1001
ACAD
1000
MTEXTBEGIN
1070
    73
1070
     1
1070
    44
1040
1.0
1070
    74
1070
     0
1000
MTEXTEND
  0
MTEXT
  5
D894
330
17
100
AcDbEntity
  8
BDR
100
AcDbMText
 10
282.4572809863948
 20
283.699790306357
 30
0.0
 40
2.5
 41
0.0
 71
     1
 72
     1
  1

 73
     1
 44
1.0
1001
ACAD
1000
MTEXTBEGIN
1070
    73
1070
     1
1070
    44
1040
1.0
1070
    74
1070
     0
1000
MTEXTEND
  0
MTEXT
  5
D8BC
330
17
100
AcDbEntity
  8
BDR
100
AcDbMText
 10
280.6377852630108
 20
262.5297979250931
 30
0.0
 40
2.5
 41
0.0
 71
     1
 72
     1
  1

 73
     1
 44
1.0
1001
ACAD
1000
MTEXTBEGIN
1070
    73
1070
     1
1070
    44
1040
1.0
1070
    74
1070
     0
1000
MTEXTEND
  0
MTEXT
  5
D8BE
330
17
100
AcDbEntity
  8
BDR
100
AcDbMText
 10
280.052229178619
 20
230.2002619872308
 30
0.0
 40
2.5
 41
0.0
 71
     1
 72
     1
  1

 73
     1
 44
1.0
1001
ACAD
1000
MTEXTBEGIN
1070
    73
1070
     1
1070
    44
1040
1.0
1070
    74
1070
     0
1000
MTEXTEND
  0
MTEXT
  5
D8C2
330
17
100
AcDbEntity
  8
BDR
100
AcDbMText
 10
210.2931674542633
 20
331.4813092531851
 30
0.0
 40
2.5
 41
0.0
 71
     9
 72
     1
  1

 73
     1
 44
1.0
1001
ACAD
1000
MTEXTBEGIN
1070
    73
1070
     1
1070
    44
1040
1.0
1070
    74
1070
     0
1000
MTEXTEND
  0
MTEXT
  5
DE82
330
17
100
AcDbEntity
  8
0
100
AcDbMText
 10
230.9601867147205
 20
186.4290317625283
 30
0.0
 40
3.5
 41
0.0
 71
     1
 72
     1
  1

 73
     1
 44
1.0
1001
ACAD
1000
MTEXTBEGIN
1070
    73
1070
     1
1070
    44
1040
1.0
1070
    74
1070
     0
1000
MTEXTEND
  0
DIMENSION
  5
11CDE
330
17
100
AcDbEntity
  8
TEXT
100
AcDbDimension
  2
*D3
 10
76.21286151468961
 20
285.6966236099653
 30
0.0
 11
76.21286151468956
 21
196.4934623112789
 31
0.0
 70
   160
  1
FLOOR TO\PSHAFT CENTER
 71
     5
 42
162.6603294306248
  3
STANDARD
100
AcDbAlignedDimension
 13
134.2169295018095
 23
123.0362941793405
 33
0.0
 14
142.5919295018095
 24
285.6966236099653
 34
0.0
 50
90.0
100
AcDbRotatedDimension
1001
ACAD
1000
DSTYLE
1002
{
1070
    40
1040
1.0
1002
}
  0
DIMENSION
  5
11CDF
330
17
100
AcDbEntity
  8
TEXT
100
AcDbDimension
  2
*D4
 10
54.990808705375
 20
289.7903736099653
 30
0.0
 11
54.99080870537494
 21
210.9923987221879
 31
0.0
 70
   160
  1
MINIMUM\PCEILING HEIGHT
 71
     5
 42
166.7540794306248
  3
STANDARD
100
AcDbAlignedDimension
 13
134.2169295018095
 23
123.0362941793405
 33
0.0
 14
138.2169295018095
 24
289.7903736099653
 34
0.0
 50
90.0
100
AcDbRotatedDimension
1001
ACAD
1000
DSTYLE
1002
{
1070
    40
1040
1.0
1002
}
  0
DIMENSION
  5
11CE0
330
17
100
AcDbEntity
  8
TEXT
100
AcDbDimension
  2
*D5
 10
163.2892683683931
 20
219.0232070238178
 30
0.0
 11
163.2892683683931
 21
174.879062324093
 31
0.0
 70
   160
  1
VERTICAL\PTRACK\PDOOR HEIGHT - 12"
 71
     5
 42
95.98691284447726
  3
STANDARD
100
AcDbAlignedDimension
 13
191.844776579024
 23
123.0362941793405
 33
0.0
 14
143.7631022049856
 24
219.0232070238178
 34
0.0
 50
90.0
100
AcDbRotatedDimension
1001
ACAD
1000
DSTYLE
1002
{
1070
    40
1040
1.0
1002
}
  0
DIMENSION
  5
11CE1
330
17
100
AcDbEntity
  8
TEXT
100
AcDbDimension
  2
*D6
 10
94.52600415692989
 20
123.0362941793405
 30
0.0
 11
94.52600415692989
 21
177.0362941793405
 31
0.0
 70
    32
  1
OPENING\PHEIGHT
 71
     5
 42
108.0
  3
STANDARD
100
AcDbAlignedDimension
 13
134.2169295018094
 23
231.0362941793405
 33
0.0
 14
134.2169295018095
 24
123.0362941793405
 34
0.0
 50
90.0
100
AcDbRotatedDimension
1001
ACAD
1000
DSTYLE
1002
{
1070
    40
1040
1.0
1002
}
  0
LINE
  5
11CE2
330
17
100
AcDbEntity
  8
BDR
100
AcDbLine
 10
134.2169295018095
 20
123.0362941793405
 30
0.0
 11
134.2169295018095
 21
294.7817974050721
 31
0.0
  0
LINE
  5
11CE3
330
17
100
AcDbEntity
  8
BDR
100
AcDbLine
 10
138.2169295018095
 20
123.0362941793405
 30
0.0
 11
138.2169295018095
 21
289.7903736099653
 31
0.0
  0
MTEXT
  5
11CF7
330
17
100
AcDbEntity
  8
TEXT
100
AcDbMText
 10
181.2587839317012
 20
313.1589751519916
 30
0.0
 40
1.75
 41
0.0
 71
     6
 72
     1
  1
HORIZONTAL ANGLE
  7
WEB PAGE
 73
     1
 44
1.0
1001
ACAD
1000
MTEXTBEGIN
1070
    73
1070
     1
1070
    44
1040
1.0
1070
    74
1070
     0
1000
MTEXTEND
  0
LEADER
  5
11CFD
330
17
100
AcDbEntity
  8
TEXT
100
AcDbLeader
  3
STANDARD
 73
     0
 74
     0
 75
     1
 40
3.5
 76
     3
 10
146.9538936123103
 20
281.0349699683809
 30
0.0
 10
151.4957647420847
 20
313.0919433649702
 30
0.0
 10
154.4957647420847
 20
313.0919433649702
 30
0.0
213
-30.35839136054324
223
2.172941992376536
233
0.0
1001
ACAD
1000
DSTYLE
1002
{
1070
    40
1040
1.0
1070
   147
1040
3.0
1002
}
  0
DIMENSION
  5
11CFE
330
17
100
AcDbEntity
  8
TEXT
100
AcDbDimension
  2
*D7
 10
94.77600415692993
 20
289.7903736099653
 30
0.0
 11
106.1917395570741
 21
300.368637741201
 31
0.0
 70
   160
  1
MINIMUM\PHEADROOM
 71
     5
 42
58.75407943062478
  3
STANDARD
100
AcDbAlignedDimension
 13
134.2169295018094
 23
231.0362941793405
 33
0.0
 14
138.2169295018095
 24
289.7903736099653
 34
0.0
 50
90.0
100
AcDbRotatedDimension
1001
ACAD
1000
DSTYLE
1002
{
1070
    40
1040
1.0
1002
}
  0
LINE
  5
11D06
330
17
100
AcDbEntity
  8
BDR
100
AcDbLine
 10
138.2169295018094
 20
231.0362941793405
 30
0.0
 11
134.2169295018094
 21
231.0362941793405
 31
0.0
  0
LINE
  5
11D0E
330
17
100
AcDbEntity
  8
0
100
AcDbLine
 10
200.1948104828835
 20
294.1135438157871
 30
0.0
 11
198.7032727819543
 21
294.1135438157871
 31
0.0
  0
LINE
  5
11D0F
330
17
100
AcDbEntity
  8
0
100
AcDbLine
 10
198.7032727819543
 20
294.1135438157871
 30
0.0
 11
198.7032727819542
 21
309.9466833123489
 31
0.0
  0
LINE
  5
11D10
330
17
100
AcDbEntity
  8
0
100
AcDbLine
 10
198.8276073647094
 20
294.1135438157871
 30
0.0
 11
198.827607364709
 21
309.9881162411857
 31
0.0
  0
LINE
  5
11D12
330
17
100
AcDbEntity
  8
0
100
AcDbLine
 10
200.1948104828833
 20
294.1135438157871
 30
0.0
 11
200.1948104828837
 21
310.4437194068185
 31
0.0
  0
CIRCLE
  5
11D13
330
17
100
AcDbEntity
  8
0
100
AcDbCircle
 10
199.4490416324189
 20
300.7608864758731
 30
0.0
 40
0.2171678892550922
  0
CIRCLE
  5
11D14
330
17
100
AcDbEntity
  8
0
100
AcDbCircle
 10
199.4490416324189
 20
294.7828033705546
 30
0.0
 40
0.2171678892550922
  0
CIRCLE
  5
11D15
330
17
100
AcDbEntity
  8
0
100
AcDbCircle
 10
199.4490416324189
 20
296.7754977389941
 30
0.0
 40
0.2171678892550922
  0
CIRCLE
  5
11D16
330
17
100
AcDbEntity
  8
0
100
AcDbCircle
 10
199.4490416324189
 20
297.7694584628925
 30
0.0
 40
0.2171678892550922
  0
CIRCLE
  5
11D17
330
17
100
AcDbEntity
  8
0
100
AcDbCircle
 10
199.4490416324189
 20
295.776764094453
 30
0.0
 40
0.2171678892550922
  0
CIRCLE
  5
11D18
330
17
100
AcDbEntity
  8
0
100
AcDbCircle
 10
199.4490416324189
 20
299.7621528313321
 30
0.0
 40
0.2171678892550922
  0
CIRCLE
  5
11D19
330
17
100
AcDbEntity
  8
0
100
AcDbCircle
 10
199.4490416324189
 20
298.7681921074336
 30
0.0
 40
0.2171678892550922
  0
MTEXT
  5
11D1B
330
17
100
AcDbEntity
  8
TEXT
100
AcDbMText
 10
245.1442562991218
 20
273.5057227651391
 30
0.0
 40
1.75
 41
0.0
 71
     4
 72
     1
  1
BACK AND INTERMEDIATE HANGERS\PSUPPLIED BY OTHERS
  7
WEB PAGE
 73
     1
 44
1.0
1001
ACAD
1000
MTEXTBEGIN
1070
    73
1070
     1
1070
    44
1040
1.0
1070
    74
1070
     0
1000
MTEXTEND
  0
LINE
  5
11D1C
330
17
100
AcDbEntity
  8
0
100
AcDbLine
 10
246.947811126926
 20
310.2093998085426
 30
0.0
 11
246.947811126926
 21
326.0235661853293
 31
0.0
  0
LINE
  5
11D1D
330
17
100
AcDbEntity
  8
0
100
AcDbLine
 10
247.0721457096811
 20
310.2093998085426
 30
0.0
 11
247.0721457096804
 21
326.0649991141659
 31
0.0
  0
LINE
  5
11D1E
330
17
100
AcDbEntity
  8
0
100
AcDbLine
 10
248.439348827855
 20
310.2093998085426
 30
0.0
 11
248.4393488278555
 21
326.5206022797989
 31
0.0
  0
LEADER
  5
11D1F
330
17
100
AcDbEntity
  8
TEXT
100
AcDbLeader
  3
STANDARD
 73
     0
 74
     0
 75
     1
 40
3.5
 76
     3
 10
237.5291916950117
 20
266.8004560268142
 30
0.0
 10
241.4278482819474
 20
274.8047840804558
 30
0.0
 10
244.4278482819474
 20
274.8047840804558
 30
0.0
213
-30.73869949890218
223
37.29359984281018
233
0.0
1001
ACAD
1000
DSTYLE
1002
{
1070
    40
1040
1.0
1002
}
  0
LINE
  5
11D20
330
17
100
AcDbEntity
  8
0
100
AcDbLine
 10
248.4393488278552
 20
310.2093998085426
 30
0.0
 11
246.947811126926
 21
310.2093998085426
 31
0.0
  0
CIRCLE
  5
11D21
330
17
100
AcDbEntity
  8
0
100
AcDbCircle
 10
247.6935799773906
 20
310.8786593633101
 30
0.0
 40
0.2075
  0
CIRCLE
  5
11D22
330
17
100
AcDbEntity
  8
0
100
AcDbCircle
 10
247.6935799773906
 20
313.8653144556479
 30
0.0
 40
0.2171678892550922
  0
CIRCLE
  5
11D23
330
17
100
AcDbEntity
  8
0
100
AcDbCircle
 10
247.6935799773906
 20
314.8640481001891
 30
0.0
 40
0.2171678892550922
  0
CIRCLE
  5
11D24
330
17
100
AcDbEntity
  8
0
100
AcDbCircle
 10
247.6935799773906
 20
315.8580088240875
 30
0.0
 40
0.2171678892550922
  0
CIRCLE
  5
11D25
330
17
100
AcDbEntity
  8
0
100
AcDbCircle
 10
247.6935799773906
 20
311.8726200872084
 30
0.0
 40
0.2171678892550922
  0
CIRCLE
  5
11D26
330
17
100
AcDbEntity
  8
0
100
AcDbCircle
 10
247.6935799773906
 20
312.8713537317496
 30
0.0
 40
0.2171678892550922
  0
CIRCLE
  5
11D27
330
17
100
AcDbEntity
  8
0
100
AcDbCircle
 10
247.6935799773906
 20
316.8567424686286
 30
0.0
 40
0.2171678892550922
  0
DIMENSION
  5
11EA8
330
17
100
AcDbEntity
  8
TEXT
100
AcDbDimension
  2
*D8
 10
251.4233114210433
 20
303.5052687041297
 30
0.0
 11
207.6712216900484
 21
289.2748673704659
 31
0.0
 70
   160
  1
HORIZONTAL TRACK LENGTH\PDOOR HEIGHT - HIGH LIFT + 25"
 71
     5
 42
115.0866344868895
 53
18.0
  3
STANDARD
100
AcDbAlignedDimension
 13
143.373112387867
 23
263.6257958853995
 33
0.0
 14
249.5933255080896
 24
309.1316530901131
 34
0.0
 50
18.01715661330355
100
AcDbRotatedDimension
  0
LWPOLYLINE
  5
12008
330
17
100
AcDbEntity
  8
FRAMING
100
AcDbPolyline
 90
        6
 70
     0
 43
0.0
 10
217.9961795847583
 20
264.2493831212323
 10
214.3158973375802
 20
264.2493831212323
 10
214.3158973375802
 20
266.7493831212323
 10
242.3158973375802
 20
266.7493831212323
 10
242.3158973375802
 20
264.2493831212323
 10
220.4961795847584
 20
264.2493831212323
  0
LWPOLYLINE
  5
1200A
330
17
100
AcDbEntity
  8
FRAMING
100
AcDbPolyline
 90
        2
 70
     0
 43
0.0
 10
220.4961795847584
 20
252.5171500741985
 10
232.2284126317921
 20
264.2493831212323
  0
CIRCLE
  5
1200B
330
17
100
AcDbEntity
  8
FRAMING
100
AcDbCircle
 10
219.2461795847584
 20
243.4993831212323
 30
0.0
 40
0.5
  0
CIRCLE
  5
1200C
330
17
100
AcDbEntity
  8
FRAMING
100
AcDbCircle
 10
219.2461795847584
 20
245.4993831212323
 30
0.0
 40
0.5
  0
CIRCLE
  5
1200D
330
17
100
AcDbEntity
  8
FRAMING
100
AcDbCircle
 10
219.2461795847584
 20
247.4993831212323
 30
0.0
 40
0.5
  0
CIRCLE
  5
1200E
330
17
100
AcDbEntity
  8
FRAMING
100
AcDbCircle
 10
219.2461795847584
 20
249.4993831212323
 30
0.0
 40
0.5
  0
CIRCLE
  5
1200F
330
17
100
AcDbEntity
  8
FRAMING
100
AcDbCircle
 10
219.2461795847584
 20
251.4993831212323
 30
0.0
 40
0.5
  0
CIRCLE
  5
12010
330
17
100
AcDbEntity
  8
FRAMING
100
AcDbCircle
 10
219.2461795847584
 20
253.4993831212323
 30
0.0
 40
0.5
  0
CIRCLE
  5
12011
330
17
100
AcDbEntity
  8
FRAMING
100
AcDbCircle
 10
219.2461795847584
 20
255.4993831212323
 30
0.0
 40
0.5
  0
CIRCLE
  5
12012
330
17
100
AcDbEntity
  8
FRAMING
100
AcDbCircle
 10
219.2461795847584
 20
257.4993831212323
 30
0.0
 40
0.5
  0
CIRCLE
  5
12013
330
17
100
AcDbEntity
  8
FRAMING
100
AcDbCircle
 10
219.2461795847584
 20
259.4993831212323
 30
0.0
 40
0.5
  0
CIRCLE
  5
12014
330
17
100
AcDbEntity
  8
FRAMING
100
AcDbCircle
 10
219.2461795847584
 20
261.4993831212323
 30
0.0
 40
0.5
  0
CIRCLE
  5
12015
330
17
100
AcDbEntity
  8
FRAMING
100
AcDbCircle
 10
219.2461795847584
 20
263.4993831212323
 30
0.0
 40
0.5
  0
CIRCLE
  5
12016
330
17
100
AcDbEntity
  8
FRAMING
100
AcDbCircle
 10
219.2461795847584
 20
265.4993831212323
 30
0.0
 40
0.5
  0
CIRCLE
  5
12017
330
17
100
AcDbEntity
  8
FRAMING
100
AcDbCircle
 10
219.2461795847584
 20
265.4993831212323
 30
0.0
 40
0.5
  0
CIRCLE
  5
12018
330
17
100
AcDbEntity
  8
FRAMING
100
AcDbCircle
 10
221.2461795847584
 20
265.4993831212323
 30
0.0
 40
0.5
  0
CIRCLE
  5
12019
330
17
100
AcDbEntity
  8
FRAMING
100
AcDbCircle
 10
223.2461795847584
 20
265.4993831212323
 30
0.0
 40
0.5
  0
CIRCLE
  5
1201A
330
17
100
AcDbEntity
  8
FRAMING
100
AcDbCircle
 10
225.2461795847584
 20
265.4993831212323
 30
0.0
 40
0.5
  0
CIRCLE
  5
1201B
330
17
100
AcDbEntity
  8
FRAMING
100
AcDbCircle
 10
227.2461795847584
 20
265.4993831212323
 30
0.0
 40
0.5
  0
CIRCLE
  5
1201C
330
17
100
AcDbEntity
  8
FRAMING
100
AcDbCircle
 10
229.2461795847584
 20
265.4993831212323
 30
0.0
 40
0.5
  0
CIRCLE
  5
1201D
330
17
100
AcDbEntity
  8
FRAMING
100
AcDbCircle
 10
231.2461795847584
 20
265.4993831212323
 30
0.0
 40
0.5
  0
CIRCLE
  5
1201E
330
17
100
AcDbEntity
  8
FRAMING
100
AcDbCircle
 10
233.2461795847584
 20
265.4993831212323
 30
0.0
 40
0.5
  0
CIRCLE
  5
1201F
330
17
100
AcDbEntity
  8
FRAMING
100
AcDbCircle
 10
235.2461795847584
 20
265.4993831212323
 30
0.0
 40
0.5
  0
CIRCLE
  5
12020
330
17
100
AcDbEntity
  8
FRAMING
100
AcDbCircle
 10
237.2461795847584
 20
265.4993831212323
 30
0.0
 40
0.5
  0
CIRCLE
  5
12021
330
17
100
AcDbEntity
  8
FRAMING
100
AcDbCircle
 10
239.2461795847584
 20
265.4993831212323
 30
0.0
 40
0.5
  0
CIRCLE
  5
12022
330
17
100
AcDbEntity
  8
FRAMING
100
AcDbCircle
 10
241.2461795847583
 20
265.4993831212323
 30
0.0
 40
0.5
  0
CIRCLE
  5
12023
330
17
100
AcDbEntity
  8
FRAMING
100
AcDbCircle
 10
225.3466846481467
 20
255.5998881846206
 30
0.0
 40
0.5
  0
CIRCLE
  5
12024
330
17
100
AcDbEntity
  8
FRAMING
100
AcDbCircle
 10
223.9324710857736
 20
254.1856746222475
 30
0.0
 40
0.5
  0
CIRCLE
  5
12025
330
17
100
AcDbEntity
  8
FRAMING
100
AcDbCircle
 10
222.5182575234005
 20
252.7714610598744
 30
0.0
 40
0.5
  0
CIRCLE
  5
12026
330
17
100
AcDbEntity
  8
FRAMING
100
AcDbCircle
 10
221.1040439610274
 20
251.3572474975013
 30
0.0
 40
0.5
  0
CIRCLE
  5
12028
330
17
100
AcDbEntity
  8
FRAMING
100
AcDbCircle
 10
232.4177524600123
 20
262.6709559964861
 30
0.0
 40
0.5
  0
CIRCLE
  5
12029
330
17
100
AcDbEntity
  8
FRAMING
100
AcDbCircle
 10
231.0035388976392
 20
261.256742434113
 30
0.0
 40
0.5
  0
CIRCLE
  5
1202A
330
17
100
AcDbEntity
  8
FRAMING
100
AcDbCircle
 10
229.5893253352661
 20
259.8425288717399
 30
0.0
 40
0.5
  0
CIRCLE
  5
1202B
330
17
100
AcDbEntity
  8
FRAMING
100
AcDbCircle
 10
228.175111772893
 20
258.4283153093668
 30
0.0
 40
0.5
  0
CIRCLE
  5
1202C
330
17
100
AcDbEntity
  8
FRAMING
100
AcDbCircle
 10
226.7608982105198
 20
257.0141017469937
 30
0.0
 40
0.5
  0
CIRCLE
  5
1202D
330
17
100
AcDbEntity
  8
FRAMING
100
AcDbCircle
 10
235.2461795847584
 20
265.4993831212323
 30
0.0
 40
0.5
  0
ARC
  5
1202E
330
17
100
AcDbEntity
  8
FRAMING
100
AcDbCircle
 10
233.8319660223852
 20
264.0851695588592
 30
0.0
 40
0.5
100
AcDbArc
 50
160.8266638561468
 51
19.17333614385317
  0
CIRCLE
  5
12030
330
17
100
AcDbEntity
  8
FRAMING
100
AcDbCircle
 10
217.2461795847584
 20
265.4993831212323
 30
0.0
 40
0.5
  0
CIRCLE
  5
12032
330
17
100
AcDbEntity
  8
FRAMING
100
AcDbCircle
 10
215.2461795847584
 20
265.4993831212323
 30
0.0
 40
0.5
  0
LINE
  5
12047
330
17
100
AcDbEntity
  8
FRAMING
100
AcDbLine
 10
217.9961795847583
 20
266.4376788751138
 30
0.0
 11
220.4961795847584
 21
266.4376788751138
 31
0.0
  0
LINE
  5
12048
330
17
100
AcDbEntity
  8
FRAMING
100
AcDbLine
 10
220.4961795847584
 20
266.4376788751138
 30
0.0
 11
220.4961795847584
 21
242.4376788751137
 31
0.0
  0
LINE
  5
12049
330
17
100
AcDbEntity
  8
FRAMING
100
AcDbLine
 10
220.4961795847584
 20
242.4376788751137
 30
0.0
 11
217.9961795847583
 21
242.4376788751137
 31
0.0
  0
LINE
  5
1204A
330
17
100
AcDbEntity
  8
FRAMING
100
AcDbLine
 10
217.9961795847583
 20
242.4376788751137
 30
0.0
 11
217.9961795847583
 21
266.4376788751138
 31
0.0
  0
LINE
  5
1204B
330
17
100
AcDbEntity
  8
FRAMING
100
AcDbLine
 10
218.2891592150889
 20
242.4376788751137
 30
0.0
 11
218.2891592150889
 21
266.4376788751138
 31
0.0
  0
LWPOLYLINE
  5
1204C
330
17
100
AcDbEntity
  8
FRAMING
100
AcDbPolyline
 90
        2
 70
     0
 43
0.0
 10
235.7639465377248
 20
264.2493831212323
 10
220.4961795847584
 20
248.9816161682659
  0
DIMENSION
  5
1205D
330
17
100
AcDbEntity
  8
TEXT
100
AcDbDimension
  2
*D9
 10
232.2284126317921
 20
264.2493831212323
 30
0.0
 11
226.9033530702044
 21
262.3213287256488
 31
0.0
 70
   162
 71
     5
 42
0.785398163397451
  3
STANDARD
100
AcDb2LineAngularDimension
 13
242.3158973375802
 23
264.2493831212323
 33
0.0
 14
220.4961795847584
 24
264.2493831212323
 34
0.0
 15
220.4961795847584
 25
252.5171500741985
 35
0.0
 16
227.3237984966037
 26
261.4177028300101
 36
0.0
1001
ACAD
1000
DSTYLE
1002
{
1070
   179
1070
     0
1002
}
  0
TEXT
  5
12085
330
17
100
AcDbEntity
  8
TEXT
100
AcDbText
 10
270.9287271271354
 20
307.2133840278471
 30
0.0
 40
2.0
  1
A
  7
WEB PAGE
100
AcDbText
  0
TEXT
  5
12088
330
17
100
AcDbEntity
  8
TEXT
100
AcDbText
 10
260.2909192959197
 20
337.6138256696462
 30
0.0
 40
2.0
  1
A
  7
WEB PAGE
100
AcDbText
  0
SOLID
  5
12091
330
17
100
AcDbEntity
  8
TEXT
100
AcDbTrace
 10
275.6629377769986
 20
310.3517347461319
 30
0.0
 11
273.0006774866863
 21
308.8812347812811
 31
0.0
 12
275.9959507228792
 22
309.4088124917143
 32
0.0
 13
275.9959507228792
 23
309.4088124917143
 33
0.0
1001
ACAD
1000
DSTYLE
1002
{
1070
   147
1040
1.0
1070
    77
1070
     0
1002
}
  0
LINE
  5
12092
330
17
100
AcDbEntity
  8
TEXT
100
AcDbLine
 10
271.8688743235075
 20
342.2660071839274
 30
0.0
 11
282.4773846669851
 21
312.2281344440844
 31
0.0
1001
ACAD
1000
DSTYLE
1002
{
1070
   147
1040
1.0
1070
    77
1070
     0
1002
}
  0
LINE
  5
12093
330
17
100
AcDbEntity
  8
TEXT
100
AcDbLine
 10
275.8294442499389
 20
309.8802736189231
 30
0.0
 11
282.4773846669851
 21
312.2281344440844
 31
0.0
1001
ACAD
1000
DSTYLE
1002
{
1070
   147
1040
1.0
1070
    77
1070
     0
1002
}
  0
LINE
  5
12094
330
17
100
AcDbEntity
  8
TEXT
100
AcDbLine
 10
265.2209339064613
 20
339.9181463587661
 30
0.0
 11
271.8688743235075
 21
342.2660071839274
 31
0.0
1001
ACAD
1000
DSTYLE
1002
{
1070
   147
1040
1.0
1070
    77
1070
     0
1002
}
  0
SOLID
  5
12095
330
17
100
AcDbEntity
  8
TEXT
100
AcDbTrace
 10
265.054427433521
 20
340.3896074859748
 30
0.0
 11
262.3921671432086
 21
338.919107521124
 31
0.0
 12
265.3874403794016
 22
339.4466852315573
 32
0.0
 13
265.3874403794016
 23
339.4466852315573
 33
0.0
1001
ACAD
1000
DSTYLE
1002
{
1070
   147
1040
1.0
1070
    77
1070
     0
1002
}
  0
TEXT
  5
12096
330
17
100
AcDbEntity
  8
TEXT
100
AcDbText
 10
225.4948621075158
 20
238.1714245698996
 30
0.0
 40
3.0
  1
%%USECTION A-A
  7
WEB PAGE
100
AcDbText
  0
TEXT
  5
12097
330
17
100
AcDbEntity
  8
TEXT
100
AcDbText
 10
215.4584431756274
 20
232.264924382379
 30
0.0
 40
3.0
  1
%%USUPPORT HANGER DETAIL
  7
WEB PAGE
100
AcDbText
  0
INSERT
  5
1245F
330
17
100
AcDbEntity
  8
FRAMING
100
AcDbBlockReference
  2
TRA118
 10
132.7659705055894
 20
149.8600620837381
 30
0.0
  0
MTEXT
  5
12770
330
17
100
AcDbEntity
  8
PHANTOM
100
AcDbMText
 10
162.2645684110151
 20
469.8683003837515
 30
0.0
 40
0.18
 41
0.0
 71
     9
 72
     1
  1

 73
     1
 44
1.0
1001
ACAD
1000
MTEXTBEGIN
1070
    73
1070
     1
1070
    44
1040
1.0
1070
    74
1070
     0
1000
MTEXTEND
  0
INSERT
  5
12BA1
330
17
100
AcDbEntity
  8
FRAMING
100
AcDbBlockReference
  2
A$C64B310A0
 10
139.5733456721107
 20
123.028414672236
 30
0.0
  0
INSERT
  5
12BF8
330
17
100
AcDbEntity
  8
BDR
100
AcDbBlockReference
  2
A$C72C1395F
 10
138.2169295018104
 20
241.0362944087624
 30
0.0
  0
INSERT
  5
12BF9
330
17
100
AcDbEntity
  8
BDR
100
AcDbBlockReference
  2
A$C35F41955
 10
140.5973059512245
 20
219.2124546483417
 30
0.0
 50
356.4237000000003
  0
INSERT
  5
12BFA
330
17
100
AcDbEntity
  8
BDR
100
AcDbBlockReference
  2
A$C73B81CB7
 10
138.5896540151489
 20
239.7862941795235
 30
0.0
  0
INSERT
  5
12BFB
330
17
100
AcDbEntity
  8
BDR
100
AcDbBlockReference
  2
OSP-7
 10
139.0269295018104
 20
264.2862941793405
 30
0.0
  0
DIMENSION
  5
12CC7
330
17
100
AcDbEntity
  8
TEXT
100
AcDbDimension
  2
*D17
 10
119.1311973672866
 20
123.0362941793405
 30
0.0
 11
119.1311973672866
 21
182.0362941793405
 31
0.0
 70
    32
  1
TAPERED REVERSE\PANGLE\PDOOR HEIGHT + 10"
 71
     5
 42
118.0
  3
STANDARD
100
AcDbAlignedDimension
 13
138.2169295018095
 23
241.0362941793405
 33
0.0
 14
190.7681677061248
 24
123.0362941793405
 34
0.0
 50
90.0
100
AcDbRotatedDimension
  0
INSERT
  5
12D2B
330
17
100
AcDbEntity
  8
FRAMING
100
AcDbBlockReference
  2
WD-9-4-375
 10
143.6044295018095
 20
281.0716236099653
 30
0.0
  0
MTEXT
  5
12D4B
330
17
100
AcDbEntity
  8
TEXT
100
AcDbMText
 10
275.7570028369514
 20
316.8762979341181
 30
0.0
 40
1.75
 41
0.0
 71
     9
 72
     1
  1
BUMPER SPRING
  7
WEB PAGE
 73
     1
 44
1.0
1001
ACAD
1000
MTEXTBEGIN
1070
    73
1070
     1
1070
    44
1040
1.0
1070
    74
1070
     0
1000
MTEXTEND
  0
INSERT
  5
12D4C
330
17
100
AcDbEntity
  8
0
100
AcDbBlockReference
  2
A$C66E47D23
 10
246.766062225847
 20
308.404295575879
 30
0.0
 41
-1.0
 50
15.51371276703142
  0
CIRCLE
  5
12D4E
330
17
100
AcDbEntity
  8
FRAMING
100
AcDbCircle
 10
142.5919295018095
 20
285.6966236099653
 30
0.0
 40
3.59375
  0
CIRCLE
  5
12D66
330
17
100
AcDbEntity
  8
0
100
AcDbCircle
 10
199.4490416324189
 20
301.7596201204142
 30
0.0
 40
0.2171678892550922
  0
CIRCLE
  5
12D67
330
17
100
AcDbEntity
  8
0
100
AcDbCircle
 10
199.4490416324189
 20
302.7535808443126
 30
0.0
 40
0.2171678892550922
  0
CIRCLE
  5
12D69
330
17
100
AcDbEntity
  8
0
100
AcDbCircle
 10
247.6935799773906
 20
317.850703192527
 30
0.0
 40
0.2171678892550922
  0
CIRCLE
  5
12D6A
330
17
100
AcDbEntity
  8
0
100
AcDbCircle
 10
247.6935799773906
 20
318.8494368370681
 30
0.0
 40
0.2171678892550922
  0
MTEXT
  5
12DD4
102
{ACAD_REACTORS
330
12DD7
102
}
330
17
100
AcDbEntity
  8
TEXT
100
AcDbMText
 10
154.5116412404758
 20
268.3211039893198
 30
0.0
 40
1.75
 41
0.0
 71
     1
 72
     1
  1
OVERALL OFFSET\PSPLICE PLATE
  7
WEB PAGE
 73
     1
 44
1.0
1001
ACAD
1000
MTEXTBEGIN
1070
    73
1070
     1
1070
    44
1040
1.0
1070
    74
1070
     0
1000
MTEXTEND
  0
LEADER
  5
12DD7
330
17
100
AcDbEntity
  8
TEXT
100
AcDbLeader
  3
STANDARD
 73
     0
 74
     0
 75
     1
 40
4.70577986061043
 41
21.88193943763518
 76
     3
 10
145.0370531867182
 20
263.4720673420159
 30
0.0
 10
150.5116412404758
 20
267.4461039893198
 30
0.0
 10
153.5116412404758
 20
267.4461039893198
 30
0.0
340
12DD4
213
0.0
223
-0.875
233
0.0
1001
ACAD
1000
DSTYLE
1002
{
1070
   147
1040
1.0
1070
    77
1070
     0
1002
}
  0
MTEXT
  5
12DD8
102
{ACAD_REACTORS
330
12DD9
102
}
330
17
100
AcDbEntity
  8
TEXT
100
AcDbMText
 10
154.9575521264534
 20
237.2767279642798
 30
0.0
 40
1.75
 41
0.0
 71
     1
 72
     1
  1
HIGH LIFT\PSPLICE PLATE
  7
WEB PAGE
 73
     1
 44
1.0
1001
ACAD
1000
MTEXTBEGIN
1070
    73
1070
     1
1070
    44
1040
1.0
1070
    74
1070
     0
1000
MTEXTEND
  0
LEADER
  5
12DD9
330
17
100
AcDbEntity
  8
TEXT
100
AcDbLeader
  3
STANDARD
 73
     0
 74
     0
 75
     1
 40
4.70577986061043
 41
17.07858687815428
 76
     3
 10
144.154910008346
 20
240.0476705229598
 30
0.0
 10
150.9575521264534
 20
236.4017279642798
 30
0.0
 10
153.9575521264534
 20
236.4017279642798
 30
0.0
340
12DD8
213
0.0
223
-0.875
233
0.0
1001
ACAD
1000
DSTYLE
1002
{
1070
   147
1040
1.0
1070
    77
1070
     0
1002
}
  0
DIMENSION
  5
12DDA
330
17
100
AcDbEntity
  8
TEXT
100
AcDbDimension
  2
*D21
 10
197.8453528327894
 20
278.8316236099653
 30
0.0
 11
197.8453528327894
 21
254.933958894653
 31
0.0
 70
    32
  1
HIGH LIFT
 71
     5
 42
47.79532943062477
  3
STANDARD
100
AcDbAlignedDimension
 13
138.2169295018093
 23
231.0362941793405
 33
0.0
 14
158.6670591629167
 24
278.8316236099653
 34
0.0
 50
90.0
100
AcDbRotatedDimension
  0
LEADER
  5
12E10
330
17
100
AcDbEntity
  8
TEXT
100
AcDbLeader
  3
STANDARD
 73
     0
 40
4.749939918288872
 41
37.5019826964672
 76
     2
 10
144.5106503534456
 20
251.959025778164
 30
0.0
 10
152.9780428104755
 20
251.9590257781641
 30
0.0
340
12E11
213
0.0
223
-0.875
233
0.0
1001
ACAD
1000
DSTYLE
1002
{
1070
   147
1040
1.0
1070
    77
1070
     0
1002
}
  0
MTEXT
  5
12E11
102
{ACAD_REACTORS
330
12E10
102
}
330
17
100
AcDbEntity
  8
TEXT
100
AcDbMText
 10
153.9780428104756
 20
252.8340257781641
 30
0.0
 40
1.75
 41
0.0
 71
     1
 72
     1
  1
UPPER VERTICAL\PTRACK = HIGH LIFT - 3-1/2"
  7
WEB PAGE
 73
     1
 44
1.0
1001
ACAD
1000
MTEXTBEGIN
1070
    73
1070
     1
1070
    44
1040
1.0
1070
    74
1070
     0
1000
MTEXTEND
  0
TEXT
  5
12EAE
330
17
100
AcDbEntity
  8
TEXT
100
AcDbText
 10
102.0047664545442
 20
111.4901081015594
 30
0.0
 40
3.0
  1
%%UHIGH LIFT TAPERED REVERSE ANGLE  MOUNT TRACK SET DETAIL
  7
WEB PAGE
100
AcDbText
  0
LINE
  5
12FC6
330
17
100
AcDbEntity
  8
0
100
AcDbLine
 10
217.9961795847583
 20
248.6261797424857
 30
0.0
 11
215.9961795847583
 21
248.6261797424857
 31
0.0
  0
LINE
  5
12FC7
330
17
100
AcDbEntity
  8
0
100
AcDbLine
 10
217.8861795847583
 20
248.5161797424857
 30
0.0
 11
215.9961795847583
 21
248.5161797424857
 31
0.0
  0
LINE
  5
12FC8
330
17
100
AcDbEntity
  8
0
100
AcDbLine
 10
216.3004444735014
 20
243.4966553991075
 30
0.0
 11
216.6707166662427
 21
243.0553821831704
 31
0.0
  0
LINE
  5
12FC9
330
17
100
AcDbEntity
  8
0
100
AcDbLine
 10
216.2161795847583
 20
243.425948762042
 30
0.0
 11
216.3004444735014
 21
243.4966553991075
 31
0.0
  0
LINE
  5
12FCA
330
17
100
AcDbEntity
  8
0
100
AcDbLine
 10
217.5436223771122
 20
243.2171890003551
 30
0.0
 11
217.8861795847583
 21
243.9865850858942
 31
0.0
  0
LINE
  5
12FCB
330
17
100
AcDbEntity
  8
0
100
AcDbLine
 10
217.6459714436118
 20
243.1766235005747
 30
0.0
 11
217.9961795847583
 21
243.9632038641105
 31
0.0
  0
ARC
  5
12FCC
330
17
100
AcDbEntity
  8
0
100
AcDbCircle
 10
217.0613993322334
 20
243.3832038641105
 30
0.0
 40
0.51
100
AcDbArc
 50
220.0000000000001
 51
341.002957950965
  0
LINE
  5
12FCD
330
17
100
AcDbEntity
  8
0
100
AcDbLine
 10
216.2161795847583
 20
243.425948762042
 30
0.0
 11
216.5864517774996
 21
242.9846755461049
 31
0.0
  0
ARC
  5
12FCE
330
17
100
AcDbEntity
  8
0
100
AcDbCircle
 10
217.0613993322334
 20
243.3832038641105
 30
0.0
 40
0.6200000000000001
100
AcDbArc
 50
220.0000000000001
 51
340.5372384316827
  0
LINE
  5
12FCF
330
17
100
AcDbEntity
  8
0
100
AcDbLine
 10
217.9961795847583
 20
245.1412038641105
 30
0.0
 11
217.8861795847583
 21
245.1412038641105
 31
0.0
  0
LINE
  5
12FD0
330
17
100
AcDbEntity
  8
0
100
AcDbLine
 10
217.9961795847583
 20
245.6852038641105
 30
0.0
 11
217.8861795847583
 21
245.6852038641105
 31
0.0
  0
LINE
  5
12FD1
330
17
100
AcDbEntity
  8
0
100
AcDbLine
 10
217.8861795847583
 20
243.9865850858942
 30
0.0
 11
217.8861795847583
 21
248.5161797424857
 31
0.0
  0
LINE
  5
12FD2
330
17
100
AcDbEntity
  8
0
100
AcDbLine
 10
217.9961795847583
 20
243.9632038641105
 30
0.0
 11
217.9961795847583
 21
248.6261797424857
 31
0.0
  0
LINE
  5
12FD3
330
17
100
AcDbEntity
  8
0
100
AcDbLine
 10
215.9961795847583
 20
248.6261797424857
 30
0.0
 11
215.9961795847583
 21
248.5161797424857
 31
0.0
  0
INSERT
  5
13C75
330
17
100
AcDbEntity
  8
FRAMING
100
AcDbBlockReference
  2
HA90
 10
153.9109324420391
 20
279.6078038198119
 30
0.0
 50
18.43
  0
INSERT
  5
13CAE
330
17
100
AcDbEntity
  8
0
100
AcDbBlockReference
  2
A$C0E042484
 10
143.6830320768874
 20
262.6957689947694
 30
0.0
 50
18.43
  0
LEADER
  5
13CCB
330
17
100
AcDbEntity
  8
0
100
AcDbLeader
  3
STANDARD
 40
1.75
 76
     2
 10
239.4664347470597
 20
313.1179635182294
 30
0.0
 10
253.1304113781652
 20
317.7719987250413
 30
0.0
213
0.0
223
0.3958062936085298
233
0.0
1001
ACAD
1000
DSTYLE
1002
{
1070
   147
1040
1.0
1070
    77
1070
     0
1002
}
  0
MTEXT
  5
13CCC
330
17
100
AcDbEntity
  8
0
100
AcDbMText
 10
254.1304113781653
 20
317.3761924314328
 30
0.0
 40
1.75
 41
0.0
 71
     1
 72
     1
  1

  7
WEB PAGE
 73
     1
 44
1.0
1001
ACAD
1000
MTEXTBEGIN
1070
    73
1070
     1
1070
    44
1040
1.0
1070
    74
1070
     0
1000
MTEXTEND
  0
LINE
  5
13CCD
330
17
100
AcDbEntity
  8
0
100
AcDbLine
 10
138.2169295018095
 20
289.7903736099653
 30
0.0
 11
249.5630426656738
 21
326.8950590542947
 31
0.0
  0
LINE
  5
13CCE
330
17
100
AcDbEntity
  8
0
100
AcDbLine
 10
249.5630426656738
 20
326.8950590542947
 30
0.0
 11
247.6661677218309
 21
332.5873227030923
 31
0.0
  0
LINE
  5
13CCF
330
17
100
AcDbEntity
  8
0
100
AcDbLine
 10
247.6661677218309
 20
332.5873227030923
 30
0.0
 11
134.2169295018095
 21
294.7817974050721
 31
0.0
  0
CIRCLE
  5
13CD0
330
17
100
AcDbEntity
  8
0
100
AcDbCircle
 10
199.4490416324189
 20
304.7462752127521
 30
0.0
 40
0.2171678892550922
  0
CIRCLE
  5
13CD1
330
17
100
AcDbEntity
  8
0
100
AcDbCircle
 10
199.4490416324189
 20
303.7475415682111
 30
0.0
 40
0.2171678892550922
  0
CIRCLE
  5
13CD2
330
17
100
AcDbEntity
  8
0
100
AcDbCircle
 10
199.4490416324189
 20
305.7450088572932
 30
0.0
 40
0.2171678892550922
  0
CIRCLE
  5
13CD3
330
17
100
AcDbEntity
  8
0
100
AcDbCircle
 10
199.4490416324189
 20
306.7389695811917
 30
0.0
 40
0.2171678892550922
  0
CIRCLE
  5
13CD4
330
17
100
AcDbEntity
  8
0
100
AcDbCircle
 10
199.4490416324189
 20
308.7316639496312
 30
0.0
 40
0.2171678892550922
  0
CIRCLE
  5
13CD5
330
17
100
AcDbEntity
  8
0
100
AcDbCircle
 10
199.4490416324189
 20
307.7329303050901
 30
0.0
 40
0.2171678892550922
  0
CIRCLE
  5
13CD6
330
17
100
AcDbEntity
  8
0
100
AcDbCircle
 10
199.4490416324189
 20
309.7303975941723
 30
0.0
 40
0.2171678892550922
  0
CIRCLE
  5
13CD8
330
17
100
AcDbEntity
  8
0
100
AcDbCircle
 10
247.6935799773906
 20
319.8433975609665
 30
0.0
 40
0.2171678892550922
  0
CIRCLE
  5
13CD9
330
17
100
AcDbEntity
  8
0
100
AcDbCircle
 10
247.6935799773906
 20
320.8421312055076
 30
0.0
 40
0.2171678892550922
  0
CIRCLE
  5
13CDA
330
17
100
AcDbEntity
  8
0
100
AcDbCircle
 10
247.6935799773906
 20
321.836091929406
 30
0.0
 40
0.2171678892550922
  0
CIRCLE
  5
13CDB
330
17
100
AcDbEntity
  8
0
100
AcDbCircle
 10
247.6935799773906
 20
322.8348255739472
 30
0.0
 40
0.2171678892550922
  0
CIRCLE
  5
13CDC
330
17
100
AcDbEntity
  8
0
100
AcDbCircle
 10
247.6935799773906
 20
324.8275199423867
 30
0.0
 40
0.2171678892550922
  0
CIRCLE
  5
13CDD
330
17
100
AcDbEntity
  8
0
100
AcDbCircle
 10
247.6935799773906
 20
323.8287862978455
 30
0.0
 40
0.2171678892550922
  0
LINE
  5
13CE1
330
17
100
AcDbEntity
  8
0
100
AcDbLine
 10
138.4169964825672
 20
281.8866236099653
 30
0.0
 11
157.7877193042294
 21
281.8866236099652
 31
0.0
  0
LWPOLYLINE
  5
13CE2
330
17
100
AcDbEntity
  8
0
100
AcDbPolyline
 90
        4
 70
     1
 43
0.0
 10
144.790030247964
 20
281.2791236099653
 10
147.0400302479489
 20
281.2791236099653
 42
-0.6078378199146741
 10
147.0400302479641
 20
280.8691236099653
 10
144.7900302479642
 20
280.8691236099652
 42
-0.6078378199146746
  0
LINE
  5
13CE3
330
17
100
AcDbEntity
  8
0
100
AcDbLine
 10
138.4169964825672
 20
280.2616236099654
 30
0.0
 11
157.7877193042294
 21
280.2616236099652
 31
0.0
  0
LINE
  5
13CE4
330
17
100
AcDbEntity
  8
0
100
AcDbLine
 10
138.4169964825672
 20
280.3646236099654
 30
0.0
 11
157.7877193042294
 21
280.3646236099652
 31
0.0
  0
LWPOLYLINE
  5
13CE5
330
17
100
AcDbEntity
  8
0
100
AcDbPolyline
 90
        4
 70
     1
 43
0.0
 10
138.7916032356456
 20
281.2791236099653
 10
141.0416032356305
 20
281.2791236099653
 42
-0.6078378199146741
 10
141.0416032356456
 20
280.8691236099653
 10
138.7916032356458
 20
280.8691236099652
 42
-0.6078378199146746
  0
LINE
  5
13CE6
330
17
100
AcDbEntity
  8
0
100
AcDbLine
 10
138.4169964825672
 20
281.8866236099653
 30
0.0
 11
138.4169964825672
 21
280.2616236099654
 31
0.0
  0
LWPOLYLINE
  5
13CE7
330
17
100
AcDbEntity
  8
0
100
AcDbPolyline
 90
        4
 70
     1
 43
0.0
 10
141.7908167418065
 20
281.2791236099653
 10
144.0408167417914
 20
281.2791236099653
 42
-0.6078378199146741
 10
144.0408167418065
 20
280.8691236099653
 10
141.7908167418067
 20
280.8691236099652
 42
-0.6078378199146746
  0
LWPOLYLINE
  5
13CE8
330
17
100
AcDbEntity
  8
0
100
AcDbPolyline
 90
        4
 70
     1
 43
0.0
 10
150.7884572602825
 20
281.2791236099653
 10
153.0384572602673
 20
281.2791236099653
 42
-0.6078378199146741
 10
153.0384572602825
 20
280.8691236099653
 10
150.7884572602826
 20
280.8691236099652
 42
-0.6078378199146746
  0
LWPOLYLINE
  5
13CE9
330
17
100
AcDbEntity
  8
0
100
AcDbPolyline
 90
        4
 70
     1
 43
0.0
 10
147.789243754125
 20
281.2791236099653
 10
150.0392437541098
 20
281.2791236099653
 42
-0.6078378199146741
 10
150.039243754125
 20
280.8691236099653
 10
147.7892437541251
 20
280.8691236099652
 42
-0.6078378199146746
  0
LINE
  5
13CEA
330
17
100
AcDbEntity
  8
0
100
AcDbLine
 10
157.7877193042294
 20
281.8866236099652
 30
0.0
 11
157.7877193042294
 21
280.2616236099652
 31
0.0
  0
LWPOLYLINE
  5
13CEB
330
17
100
AcDbEntity
  8
0
100
AcDbPolyline
 90
        4
 70
     1
 43
0.0
 10
153.78767076644
 20
281.2791236099653
 10
156.0376707664248
 20
281.2791236099653
 42
-0.6078378199146741
 10
156.03767076644
 20
280.8691236099653
 10
153.7876707664401
 20
280.8691236099652
 42
-0.6078378199146746
  0
LWPOLYLINE
  5
13CED
330
17
100
AcDbEntity
  8
0
100
AcDbPolyline
 90
        4
 70
     0
 43
0.0
 10
157.7877193042294
 20
280.8691236099652
 10
156.7868842725976
 20
280.8691236099652
 42
-0.6078378199146746
 10
156.7868842725975
 20
281.2791236099653
 10
157.7877193042294
 20
281.2791236099653
  0
TEXT
  5
13F88
330
17
100
AcDbEntity
  8
TEXT
100
AcDbText
 10
233.0217170806339
 20
147.7190516424665
 30
0.0
 40
1.75
  1
9" - 120"
  7
WEB PAGE
 72
     1
 11
237.7367495247579
 21
147.7190516424665
 31
0.0
100
AcDbText
  0
LINE
  5
13F89
330
17
100
AcDbEntity
  8
TEXT
100
AcDbLine
 10
280.928481741828
 20
143.2916047496752
 30
0.0
 11
210.9969879688491
 21
143.2916047496752
 31
0.0
  0
MTEXT
  5
13F8A
330
17
100
AcDbEntity
  8
TEXT
100
AcDbMText
 10
245.9627348553386
 20
173.3625582949867
 30
0.0
 40
2.6
 41
50.92302437734452
 71
     2
 72
     5
  1
HEADROOM\PREQUIREMENTS
  7
WEB PAGE
 73
     1
 44
1.0
1001
ACAD
1000
MTEXTBEGIN
1070
    73
1070
     1
1070
    44
1040
1.0
1070
    74
1070
     0
1000
MTEXTEND
  0
LINE
  5
13F8B
330
17
100
AcDbEntity
  8
TEXT
100
AcDbLine
 10
210.9969879688492
 20
157.8260439535478
 30
0.0
 11
280.928481741828
 21
157.8260439535478
 31
0.0
  0
LINE
  5
13F8C
330
17
100
AcDbEntity
  8
TEXT
100
AcDbLine
 10
210.9969879688492
 20
164.709653754516
 30
0.0
 11
280.928481741828
 21
164.709653754516
 31
0.0
  0
LINE
  5
13F8D
330
17
100
AcDbEntity
  8
TEXT
100
AcDbLine
 10
210.9969879688492
 20
174.9481782182005
 30
0.0
 11
280.928481741828
 21
174.9481782182004
 31
0.0
  0
TEXT
  5
13F8E
330
17
100
AcDbEntity
  8
TEXT
100
AcDbText
 10
233.2085755020966
 20
144.2132184642352
 30
0.0
 40
1.75
  1
9" - 164"
  7
WEB PAGE
 72
     1
 11
237.9236079462206
 21
144.2132184642352
 31
0.0
100
AcDbText
  0
LINE
  5
13F8F
330
17
100
AcDbEntity
  8
TEXT
100
AcDbLine
 10
280.928481741828
 20
154.1924341525797
 30
0.0
 11
210.9969879688491
 21
154.1924341525796
 31
0.0
  0
LINE
  5
13F90
330
17
100
AcDbEntity
  8
TEXT
100
AcDbLine
 10
280.928481741828
 20
150.5588243516115
 30
0.0
 11
210.9969879688491
 21
150.5588243516115
 31
0.0
  0
LINE
  5
13F91
330
17
100
AcDbEntity
  8
TEXT
100
AcDbLine
 10
280.928481741828
 20
146.9252145506434
 30
0.0
 11
210.9969879688491
 21
146.9252145506433
 31
0.0
  0
TEXT
  5
13F92
330
17
100
AcDbEntity
  8
TEXT
100
AcDbText
 10
214.079842452497
 20
147.7190516424665
 30
0.0
 40
1.75
  1
D575-120
  7
WEB PAGE
 72
     1
 11
219.3191178670608
 21
147.7190516424665
 31
0.0
100
AcDbText
  0
TEXT
  5
13F93
330
17
100
AcDbEntity
  8
TEXT
100
AcDbText
 10
215.2191198420371
 20
155.1364038008652
 30
0.0
 40
1.75
  1
D400-54
  7
WEB PAGE
 72
     1
 11
219.812396698562
 21
155.1364038008652
 31
0.0
100
AcDbText
  0
TEXT
  5
13F94
330
17
100
AcDbEntity
  8
TEXT
100
AcDbText
 10
214.7258410105358
 20
151.3526614434346
 30
0.0
 40
1.75
  1
D525-54
  7
WEB PAGE
 72
     1
 11
219.3191178670606
 21
151.3526614434346
 31
0.0
100
AcDbText
  0
TEXT
  5
13F95
330
17
100
AcDbEntity
  8
TEXT
100
AcDbText
 10
213.6207023159208
 20
144.2132184642352
 30
0.0
 40
1.75
  1
D6375-164
  7
WEB PAGE
 72
     1
 11
219.5059762885235
 21
144.2132184642352
 31
0.0
100
AcDbText
  0
TEXT
  5
13F96
330
17
100
AcDbEntity
  8
TEXT
100
AcDbText
 10
215.6965797512071
 20
160.2441926610624
 30
0.0
 40
1.75
  1
DRUM
  7
WEB PAGE
 72
     1
 11
219.5732019574075
 21
160.2441926610624
 31
0.0
100
AcDbText
  0
LINE
  5
13F97
330
17
100
AcDbEntity
  8
TEXT
100
AcDbLine
 10
210.9969879688491
 20
143.2916047496752
 30
0.0
 11
210.9969879688492
 21
174.9481782182005
 31
0.0
  0
LINE
  5
13F98
330
17
100
AcDbEntity
  8
TEXT
100
AcDbLine
 10
228.0125368249833
 20
164.709653754516
 30
0.0
 11
228.0125368249834
 21
143.2916047496752
 31
0.0
  0
TEXT
  5
13F99
330
17
100
AcDbEntity
  8
TEXT
100
AcDbText
 10
233.0427781371816
 20
151.502793999897
 30
0.0
 40
1.75
  1
9" - 54"
  7
WEB PAGE
 72
     1
 11
237.1118120232667
 21
151.502793999897
 31
0.0
100
AcDbText
  0
TEXT
  5
13F9A
330
17
100
AcDbEntity
  8
TEXT
100
AcDbText
 10
234.6256384383003
 20
162.0247977324292
 30
0.0
 40
1.75
  1
HIGH
  7
WEB PAGE
 72
     1
 11
237.8550003705282
 21
162.0247977324292
 31
0.0
100
AcDbText
  0
TEXT
  5
13F9B
330
17
100
AcDbEntity
  8
TEXT
100
AcDbText
 10
235.1278013799009
 20
158.9789587700574
 30
0.0
 40
1.75
  1
LIFT
  7
WEB PAGE
 72
     1
 11
237.8550003705282
 21
158.9789587700574
 31
0.0
100
AcDbText
  0
TEXT
  5
13F9C
330
17
100
AcDbEntity
  8
TEXT
100
AcDbText
 10
233.0427781371816
 20
155.1364038008652
 30
0.0
 40
1.75
  1
9" - 54"
  7
WEB PAGE
 72
     1
 11
237.1118120232667
 21
155.1364038008652
 31
0.0
100
AcDbText
  0
TEXT
  5
13F9D
330
17
100
AcDbEntity
  8
TEXT
100
AcDbText
 10
252.7014656619747
 20
147.9765556370967
 30
0.0
 40
1.75
  1
HIGH LIFT + 13-1/2"
  7
WEB PAGE
 72
     1
 11
264.2562601825226
 21
147.9765556370967
 31
0.0
100
AcDbText
  0
TEXT
  5
13F9E
330
17
100
AcDbEntity
  8
TEXT
100
AcDbText
 10
254.782666094563
 20
155.1364038008652
 30
0.0
 40
1.75
  1
HIGH LIFT + 10"
  7
WEB PAGE
 72
     1
 11
264.2562601825226
 21
155.1364038008652
 31
0.0
100
AcDbText
  0
TEXT
  5
13F9F
330
17
100
AcDbEntity
  8
TEXT
100
AcDbText
 10
254.782666094563
 20
151.6101654380649
 30
0.0
 40
1.75
  1
HIGH LIFT + 11"
  7
WEB PAGE
 72
     1
 11
264.2562601825226
 21
151.6101654380649
 31
0.0
100
AcDbText
  0
TEXT
  5
13FA0
330
17
100
AcDbEntity
  8
TEXT
100
AcDbText
 10
252.0554671039358
 20
144.3068939686031
 30
0.0
 40
1.75
  1
HIGH LIFT + 14-5/16"
  7
WEB PAGE
 72
     1
 11
264.2562601825226
 21
144.3068939686031
 31
0.0
100
AcDbText
  0
TEXT
  5
13FA1
330
17
100
AcDbEntity
  8
TEXT
100
AcDbText
 10
255.9218338480478
 20
158.9789587700574
 30
0.0
 40
1.75
  1
HEADROOM
  7
WEB PAGE
 72
     1
 11
263.3867761696051
 21
158.9789587700574
 31
0.0
100
AcDbText
  0
LINE
  5
13FA2
330
17
100
AcDbEntity
  8
TEXT
100
AcDbLine
 10
247.4593208034563
 20
164.709653754516
 30
0.0
 11
247.4593208034563
 21
143.2916047496752
 31
0.0
  0
TEXT
  5
13FA3
330
17
100
AcDbEntity
  8
TEXT
100
AcDbText
 10
257.2138309641257
 20
162.0247977324292
 30
0.0
 40
1.75
  1
MINIMUM
  7
WEB PAGE
 72
     1
 11
263.3867761696051
 21
162.0247977324292
 31
0.0
100
AcDbText
  0
LINE
  5
13FA4
330
17
100
AcDbEntity
  8
TEXT
100
AcDbLine
 10
280.928481741828
 20
164.709653754516
 30
0.0
 11
280.928481741828
 21
143.2916047496752
 31
0.0
  0
LINE
  5
13FA5
330
17
100
AcDbEntity
  8
TEXT
100
AcDbLine
 10
280.928481741828
 20
164.709653754516
 30
0.0
 11
280.928481741828
 21
174.9481782182004
 31
0.0
  0
LINE
  5
13FA6
330
17
100
AcDbEntity
  8
0
100
AcDbLine
 10
134.2169295018095
 20
123.0362941793405
 30
0.0
 11
239.2123040577931
 21
123.0362941793381
 31
0.0
  0
DIMENSION
  5
14021
330
17
100
AcDbEntity
  8
0
100
AcDbDimension
  2
*D23
 10
119.1311973672866
 20
282.0362941793406
 30
0.0
 11
119.1311973672866
 21
261.5362941793406
 31
0.0
 70
    32
  1
UPPER\PCLIP STYLE\PREVERSE ANGLE\PHIGH LIFT - 7"
 71
     5
 42
41.00000000000003
  3
STANDARD
100
AcDbAlignedDimension
 13
138.2169295018095
 23
241.0362941793405
 33
0.0
 14
138.2169295018103
 24
282.0362941793405
 34
0.0
 50
90.0
100
AcDbRotatedDimension
  0
HATCH
  5
1417D
330
17
100
AcDbEntity
  8
0
100
AcDbHatch
 10
0.0
 20
0.0
 30
0.0
210
0.0
220
0.0
230
1.0
  2
ANSI31
 70
     0
 71
     0
 91
        1
 92
        7
 72
     0
 73
     1
 93
        8
 10
249.5630426656738
 20
326.8950590542947
 10
247.6661677218309
 20
332.5873227030923
 10
134.2169295018095
 20
294.7817974050721
 10
134.2169295018095
 20
231.0362941793405
 10
138.2169295018095
 20
231.0362941793405
 10
138.2169295018095
 20
241.0362941793405
 10
138.2169295018103
 20
282.0362941793405
 10
138.2169295018095
 20
289.7903736099652
 97
        0
 75
     0
 76
     1
 52
0.0
 41
15.0
 77
     0
 78
     1
 53
45.0
 43
0.0
 44
0.0
 45
-1.325825214724776
 46
1.325825214724776
 79
     0
 47
0.300966923312242
 98
        1
 10
165.716498961675
 20
303.0037885786386
1001
ACAD
1010
0.0
1020
0.0
1030
0.0
  0
VIEWPORT
  5
C943
102
{ACAD_XDICTIONARY
360
143A9
102
}
330
14
100
AcDbEntity
 67
     1
  8
0
100
AcDbViewport
 10
0.875618041606021
 20
7.525481576087427
 30
0.0
 40
24.34742939699847
 41
16.56475764215005
 68
     1
 69
     1
 12
0.875618041606021
 22
7.525481576087427
 13
0.0
 23
0.0
 14
0.5
 24
0.5
 15
0.5
 25
0.5
 16
0.0
 26
0.0
 36
1.0
 17
0.0
 27
0.0
 37
0.0
 42
50.0
 43
0.0
 44
0.0
 45
16.56475764215005
 50
0.0
 51
0.0
 72
   100
 90
    32800
  1

281
     0
 71
     1
 74
     0
110
0.0
120
0.0
130
0.0
111
1.0
121
0.0
131
0.0
112
0.0
122
1.0
132
0.0
 79
     0
146
0.0
  0
ENDSEC
  0
SECTION
  2
OBJECTS
  0
DICTIONARY
  5
C
330
0
100
AcDbDictionary
281
     1
  3
ACAD_COLOR
350
13F57
  3
ACAD_GROUP
350
D
  3
ACAD_LAYOUT
350
B57A
  3
ACAD_MATERIAL
350
13F42
  3
ACAD_MLINESTYLE
350
1A
  3
ACAD_PLOTSETTINGS
350
B57B
  3
ACAD_PLOTSTYLENAME
350
B578
  3
ACAD_TABLESTYLE
350
13F58
  3
ACAD_VISUALSTYLE
350
13F46
  3
AcadDim
350
119E2
  3
ACDBVARIABLEDICTIONARY
350
59
  3
ASE_INDEX_DICTIONARY
350
123F7
  3
DWGPROPS
350
143A5
  0
DICTIONARY
  5
1425F
330
8
100
AcDbDictionary
280
     1
281
     1
  0
DICTIONARY
  5
13F62
330
2
100
AcDbDictionary
280
     1
281
     1
  3
ACAD_LAYERSTATES
360
13F63
  0
DICTIONARY
  5
1417E
330
17
100
AcDbDictionary
280
     1
281
     1
  3
ACAD_SORTENTS
360
1417F
  0
DICTIONARY
  5
14181
330
14180
100
AcDbDictionary
280
     1
281
     1
  3
ACAD_SORTENTS
360
14182
  0
DICTIONARY
  5
143A9
330
C943
100
AcDbDictionary
280
     1
281
     1
  3
ACAD_XREC_ROUNDTRIP
360
143AA
  0
DICTIONARY
  5
13F57
102
{ACAD_REACTORS
330
C
102
}
330
C
100
AcDbDictionary
281
     1
  0
DICTIONARY
  5
D
102
{ACAD_REACTORS
330
C
102
}
330
C
100
AcDbDictionary
281
     1
  0
DICTIONARY
  5
B57A
102
{ACAD_REACTORS
330
C
102
}
330
C
100
AcDbDictionary
281
     1
  3
Layout1
350
B57D
  3
Model
350
B57C
  0
DICTIONARY
  5
13F42
102
{ACAD_REACTORS
330
C
102
}
330
C
100
AcDbDictionary
281
     1
  3
ByBlock
350
13F44
  3
ByLayer
350
13F43
  3
Global
350
13F45
  0
DICTIONARY
  5
1A
102
{ACAD_REACTORS
330
C
102
}
330
C
100
AcDbDictionary
281
     1
  3
STANDARD
350
1B
  0
DICTIONARY
  5
B57B
102
{ACAD_REACTORS
330
C
102
}
330
C
100
AcDbDictionary
281
     1
  0
ACDBDICTIONARYWDFLT
  5
B578
102
{ACAD_REACTORS
330
C
102
}
330
C
100
AcDbDictionary
281
     1
  3
Normal
350
B579
100
AcDbDictionaryWithDefault
340
B579
  0
DICTIONARY
  5
13F58
102
{ACAD_REACTORS
330
C
102
}
330
C
100
AcDbDictionary
281
     1
  3
Standard
350
13F59
  0
DICTIONARY
  5
13F46
102
{ACAD_REACTORS
330
C
102
}
330
C
100
AcDbDictionary
281
     1
  3
2dWireframe
350
13F4C
  3
3D Hidden
350
13F4E
  3
3dWireframe
350
13F4D
  3
Basic
350
13F4B
  3
Brighten
350
13F52
  3
ColorChange
350
13F56
  3
Conceptual
350
13F4F
  3
Dim
350
13F51
  3
Facepattern
350
13F55
  3
Flat
350
13F47
  3
FlatWithEdges
350
13F48
  3
Gouraud
350
13F49
  3
GouraudWithEdges
350
13F4A
  3
Linepattern
350
13F54
  3
Realistic
350
13F50
  3
Thicken
350
13F53
  0
XRECORD
  5
119E2
102
{ACAD_REACTORS
330
C
102
}
330
C
100
AcDbXrecord
280
     1
 90
   990106
  3

 60
     0
 61
     0
 62
     1
 63
     3
 64
     0
 65
     0
 66
     0
 67
     3
 68
     1
 69
     0
 70
     0
 71
     0
 72
     0
 40
0.0
170
     0
340
13CCC
  0
DICTIONARY
  5
59
102
{ACAD_REACTORS
330
C
102
}
330
C
100
AcDbDictionary
281
     1
  3
CTABLESTYLE
350
1422A
  3
DIMADEC
350
5A
  3
DIMASSOC
350
143A4
  3
INDEXCTL
350
143A3
  3
SORTENTS
350
769A
  0
DICTIONARY
  5
123F7
102
{ACAD_REACTORS
330
C
102
}
330
C
100
AcDbDictionary
281
     1
  3
ASEBlockHierarchyIndexRecord
350
123F9
1001
DCO15
1040
1434891614.2
  0
XRECORD
  5
143A5
102
{ACAD_REACTORS
330
C
102
}
330
C
100
AcDbXrecord
280
     1
  1
DWGPROPS COOKIE
  2

  3

  4

  6

  7

  8
Ron.Sutcliffe
  9

300
=
301
=
302
=
303
=
304
=
305
=
306
=
307
=
308
=
309
=
 40
3.195662233796296
 41
2451029.636190972
 42
2454776.400066493
  1

 90
        0
  0
DICTIONARY
  5
13F63
102
{ACAD_REACTORS
330
13F62
102
}
330
13F62
100
AcDbDictionary
281
     1
  0
SORTENTSTABLE
  5
1417F
102
{ACAD_REACTORS
330
1417E
102
}
330
1417E
100
AcDbSortentsTable
330
17
331
3377
  5
3377
331
1200F
  5
12010
331
12017
  5
12018
331
12D67
  5
12D69
331
1201F
  5
12020
331
12DD7
  5
12DD8
331
13CE3
  5
13CE4
331
13CEB
  5
13CED
331
13F8A
  5
13F8B
331
13F92
  5
13F93
331
13F9A
  5
13F9B
331
3E3F
  5
3E3F
331
11D19
  5
11D1B
331
11D21
  5
11D22
331
11EA8
  5
12008
331
12096
  5
12097
331
12BFA
  5
12BFB
331
12047
  5
12048
331
13CCC
  5
13CCD
331
13FA2
  5
13FA3
331
12FCD
  5
12FCE
331
13CD4
  5
13CD5
331
14021
  5
14080
331
13CDC
  5
13CDD
331
13C75
  5
13CAE
331
3378
  5
3378
331
12008
  5
1200A
331
12010
  5
12011
331
12018
  5
12019
331
13CE4
  5
13CE5
331
13F8B
  5
13F8C
331
13F93
  5
13F94
331
12EAE
  5
12FC6
331
13F9B
  5
13F9C
331
D8BE
  5
D8BE
331
3E40
  5
3E40
331
11D12
  5
11D13
331
12020
  5
12021
331
11D22
  5
11D23
331
12028
  5
12029
331
12097
  5
1245F
331
12030
  5
12032
331
12BFB
  5
12CC7
331
13FA3
  5
13FA4
331
12FC6
  5
12FC7
331
13CCD
  5
13CCE
331
12FCE
  5
12FCF
331
13CD5
  5
13CD6
331
13CDD
  5
13CE1
331
11CFD
  5
11CFE
331
12011
  5
12012
331
12048
  5
12049
331
12019
  5
1201A
331
12D69
  5
12D6A
331
13CE5
  5
13CE6
331
13CED
  5
13F88
331
13F8C
  5
13F8D
331
13F94
  5
13F95
331
13F9C
  5
13F9D
331
13CAE
  5
13CCB
331
11D13
  5
11D14
331
12088
  5
12091
331
11CDE
  5
11CDE
331
11D1B
  5
11D1C
331
12021
  5
12022
331
11D23
  5
11D24
331
12029
  5
1202A
331
12FC7
  5
12FC8
331
13CCE
  5
13CCF
331
13FA4
  5
13FA5
331
12FCF
  5
12FD0
331
13CD6
  5
13CD8
331
11CFE
  5
11D06
331
1200A
  5
1200B
331
11D06
  5
11D0E
331
12012
  5
12013
331
12049
  5
1204A
331
11D0E
  5
11D0F
331
1201A
  5
1201B
331
1245F
  5
12770
331
12D6A
  5
12DD4
331
12D2B
  5
12D4B
331
12DD8
  5
12DD9
331
13CE6
  5
13CE7
331
12E10
  5
12E11
331
13F8D
  5
13F8E
331
13F95
  5
13F96
331
13F9D
  5
13F9E
331
11D14
  5
11D15
331
405A
  5
405A
331
11CDF
  5
11CDF
331
11D1C
  5
11D1D
331
12022
  5
12023
331
12091
  5
12092
331
11D24
  5
11D25
331
1202A
  5
1202B
331
11CF7
  5
11CFD
331
12032
  5
12047
331
12D4B
  5
12D4C
331
13FA5
  5
13FA6
331
12FC8
  5
12FC9
331
13CCF
  5
13CD0
331
12FD0
  5
12FD1
331
1200B
  5
1200C
331
D891
  5
D891
331
12013
  5
12014
331
1204A
  5
1204B
331
11D0F
  5
11D10
331
1201B
  5
1201C
331
12DD9
  5
12DDA
331
13CE7
  5
13CE8
331
12E11
  5
12EAE
331
13F8E
  5
13F8F
331
13F96
  5
13F97
331
13F9E
  5
13F9F
331
11D15
  5
11D16
331
12023
  5
12024
331
12770
  5
12BA1
331
11CE0
  5
11CE0
331
11D1D
  5
11D1E
331
12092
  5
12093
331
1202B
  5
1202C
331
11D25
  5
11D26
331
12D4C
  5
12D4E
331
12FC9
  5
12FCA
331
13CD0
  5
13CD1
331
13FA6
  5
14021
331
12FD1
  5
12FD2
331
13CD8
  5
13CD9
331
3374
  5
3374
331
CE5A
  5
CE5A
331
1200C
  5
1200D
331
1204B
  5
1204C
331
8913
  5
8913
331
12014
  5
12015
331
1201C
  5
1201D
331
12DD4
  5
12DD7
331
12DDA
  5
12E10
331
13CE8
  5
13CE9
331
13F8F
  5
13F90
331
13F97
  5
13F98
331
13F9F
  5
13FA0
331
3E3C
  5
3E3C
331
D8C2
  5
D8C2
331
11D16
  5
11D17
331
12024
  5
12025
331
11CE1
  5
11CE1
331
DE82
  5
DE82
331
11D1E
  5
11D1F
331
12093
  5
12094
331
1202C
  5
1202D
331
11D26
  5
11D27
331
12FCA
  5
12FCB
331
13CD1
  5
13CD2
331
13CD9
  5
13CDA
331
12FD2
  5
12FD3
331
3375
  5
3375
331
1200D
  5
1200E
331
1204C
  5
1205D
331
12015
  5
12016
331
1201D
  5
1201E
331
12BA1
  5
12BF8
331
13CE1
  5
13CE2
331
1417D
  5
11CE2
331
13CE9
  5
13CEA
331
13F88
  5
13F89
331
13F90
  5
13F91
331
13F98
  5
13F99
331
3E3D
  5
3E3D
331
11D17
  5
11D18
331
12025
  5
12026
331
BD7C
  5
BD7C
331
11CE2
  5
11CE3
331
11D1F
  5
11D20
331
12094
  5
12095
331
1202D
  5
1202E
331
12BF8
  5
12BF9
331
11D27
  5
11EA8
331
12CC7
  5
12D2B
331
12D4E
  5
12D66
331
13FA0
  5
13FA1
331
12FCB
  5
12FCC
331
13CD2
  5
13CD3
331
12FD3
  5
13C75
331
13CDA
  5
13CDB
331
3376
  5
3376
331
D3E4
  5
D3E4
331
1200E
  5
1200F
331
D894
  5
D894
331
12016
  5
12017
331
12D66
  5
12D67
331
1205D
  5
12085
331
1201E
  5
1201F
331
12085
  5
12088
331
13CE2
  5
13CE3
331
13F89
  5
13F8A
331
13CEA
  5
13CEB
331
13F91
  5
13F92
331
13F99
  5
13F9A
331
D8BC
  5
D8BC
331
3E3E
  5
3E3E
331
11D10
  5
11D12
331
BB0D
  5
BB0D
331
11D18
  5
11D19
331
12026
  5
12028
331
11CE3
  5
11CF7
331
11D20
  5
11D21
331
12095
  5
12096
331
1202E
  5
12030
331
12BF9
  5
12BFA
331
13CCB
  5
13CCC
331
13FA1
  5
13FA2
331
12FCC
  5
12FCD
331
13CD3
  5
13CD4
331
13CDB
  5
13CDC
  0
SORTENTSTABLE
  5
14182
102
{ACAD_REACTORS
330
14181
102
}
330
14181
100
AcDbSortentsTable
330
14180
  0
XRECORD
  5
143AA
102
{ACAD_REACTORS
330
143A9
102
}
330
143A9
100
AcDbXrecord
280
     1
102
SHADEPLOT
 70
     0
  0
LAYOUT
  5
B57D
102
{ACAD_XDICTIONARY
360
1422F
102
}
102
{ACAD_REACTORS
330
B57A
102
}
330
B57A
100
AcDbPlotSettings
  1

  2
Adobe PDF
  4
Letter
  6

 40
3.174999952316284
 41
3.174999952316284
 42
3.175003051757812
 43
3.17498779296875
 44
215.8999938964844
 45
279.3999938964844
 46
5.737923213645039
 47
5.971928240436784
 48
0.0
 49
0.0
140
0.0
141
0.0
142
1.0
143
1.0
 70
   692
 72
     0
 73
     0
 74
     1
  7

 75
    16
147
1.0
148
-3.250950358914699
149
-5.418983879395868
100
AcDbLayout
  1
Layout1
 70
     1
 71
     1
 10
-0.2229123152380561
 20
-0.1467694611557952
 11
8.277087444466054
 21
10.85323029854831
 12
0.0
 22
0.0
 32
0.0
 14
1.000000000000000E+20
 24
1.000000000000000E+20
 34
1.000000000000000E+20
 15
-1.000000000000000E+20
 25
-1.000000000000000E+20
 35
-1.000000000000000E+20
146
0.0
 13
0.0
 23
0.0
 33
0.0
 16
1.0
 26
0.0
 36
0.0
 17
0.0
 27
1.0
 37
0.0
 76
     0
330
14
331
C943
1001
ACAD_PSEXT
1000
Adobe PDF
1000
Adobe PDF Converter
1000
My Documents
1000
Creates Adobe PDF
1070
     0
  0
LAYOUT
  5
B57C
102
{ACAD_XDICTIONARY
360
143A6
102
}
102
{ACAD_REACTORS
330
B57A
102
}
330
B57A
100
AcDbPlotSettings
  1

  2
PMKT1 Marketing HP-8100DN Laser
  4
Letter
  6

 40
4.233333110809326
 41
4.233341693878173
 42
4.233322143554687
 43
4.23333740234375
 44
215.8999938964844
 45
279.3999938964844
 46
0.0
 47
59.69
 48
50.31077333313806
 49
56.55010684868378
140
305.3107733331381
141
386.5501068486836
142
1.0
143
32.39846328215528
 70
 11956
 72
     0
 73
     0
 74
     1
  7

 75
     0
147
0.0308656614757031
148
-1722.226230336001
149
-2816.419874787243
100
AcDbLayout
  1
Model
 70
     1
 71
     0
 10
0.0
 20
0.0
 11
12.0
 21
9.0
 12
0.0
 22
0.0
 32
0.0
 14
0.0
 24
0.0
 34
0.0
 15
0.0
 25
0.0
 35
0.0
146
0.0
 13
0.0
 23
0.0
 33
0.0
 16
1.0
 26
0.0
 36
0.0
 17
0.0
 27
1.0
 37
0.0
 76
     0
330
17
331
13F40
  0
MATERIAL
  5
13F44
102
{ACAD_XDICTIONARY
360
143AD
102
}
102
{ACAD_REACTORS
330
13F42
102
}
330
13F42
100
AcDbMaterial
  1
ByBlock
  0
MATERIAL
  5
13F43
102
{ACAD_XDICTIONARY
360
143AB
102
}
102
{ACAD_REACTORS
330
13F42
102
}
330
13F42
100
AcDbMaterial
  1
ByLayer
  0
MATERIAL
  5
13F45
102
{ACAD_XDICTIONARY
360
143AF
102
}
102
{ACAD_REACTORS
330
13F42
102
}
330
13F42
100
AcDbMaterial
  1
Global
  0
MLINESTYLE
  5
1B
102
{ACAD_REACTORS
330
1A
102
}
330
1A
100
AcDbMlineStyle
  2
STANDARD
 70
     0
  3

 62
   256
 51
90.0
 52
90.0
 71
     2
 49
0.5
 62
   256
  6
BYLAYER
 49
-0.5
 62
   256
  6
BYLAYER
  0
ACDBPLACEHOLDER
  5
B579
102
{ACAD_REACTORS
330
B578
102
}
330
B578
  0
TABLESTYLE
  5
13F59
102
{ACAD_XDICTIONARY
360
143B1
102
}
102
{ACAD_REACTORS
330
13F58
102
}
330
13F58
100
AcDbTableStyle
  3
Standard
 70
     0
 71
     0
 40
0.06
 41
0.06
280
     0
281
     0
  7
STANDARD
140
0.18
170
     2
 62
     0
 63
     7
283
     0
274
    -2
284
     1
 64
     0
275
    -2
285
     1
 65
     0
276
    -2
286
     1
 66
     0
277
    -2
287
     1
 67
     0
278
    -2
288
     1
 68
     0
279
    -2
289
     1
 69
     0
  7
STANDARD
140
0.25
170
     5
 62
     0
 63
     7
283
     0
274
    -2
284
     1
 64
     0
275
    -2
285
     1
 65
     0
276
    -2
286
     1
 66
     0
277
    -2
287
     1
 67
     0
278
    -2
288
     1
 68
     0
279
    -2
289
     1
 69
     0
  7
STANDARD
140
0.18
170
     5
 62
     0
 63
     7
283
     0
274
    -2
284
     1
 64
     0
275
    -2
285
     1
 65
     0
276
    -2
286
     1
 66
     0
277
    -2
287
     1
 67
     0
278
    -2
288
     1
 68
     0
279
    -2
289
     1
 69
     0
  0
VISUALSTYLE
  5
13F4C
102
{ACAD_REACTORS
330
13F46
102
}
330
13F46
100
AcDbVisualStyle
  2
2dWireframe
 70
     4
 71
     0
 72
     2
 73
     0
 90
        0
 40
-0.6
 41
-30.0
 62
     5
 63
     7
 74
     1
 91
        4
 64
     7
 65
   257
 75
     1
175
     1
 42
1.0
 92
        0
 66
   257
 43
1.0
 76
     1
 77
     6
 78
     2
 67
     7
 79
     5
170
     0
171
     0
290
     0
174
     0
 93
        1
 44
0.0
173
     0
291
     0
 45
0.0
1001
ACAD
1000
AcDbSavedByObjectVersion
1070
     0
  0
VISUALSTYLE
  5
13F4E
102
{ACAD_REACTORS
330
13F46
102
}
330
13F46
100
AcDbVisualStyle
  2
3D Hidden
 70
     6
 71
     1
 72
     2
 73
     2
 90
        0
 40
-0.6
 41
-30.0
 62
     5
 63
     7
 74
     2
 91
        2
 64
     7
 65
   257
 75
     2
175
     1
 42
40.0
 92
        0
 66
   257
 43
1.0
 76
     1
 77
     6
 78
     2
 67
     7
 79
     3
170
     0
171
     0
290
     0
174
     0
 93
        1
 44
0.0
173
     0
291
     0
 45
0.0
1001
ACAD
1000
AcDbSavedByObjectVersion
1070
     0
  0
VISUALSTYLE
  5
13F4D
102
{ACAD_REACTORS
330
13F46
102
}
330
13F46
100
AcDbVisualStyle
  2
3dWireframe
 70
     5
 71
     0
 72
     2
 73
     0
 90
        0
 40
-0.6
 41
-30.0
 62
     5
 63
     7
 74
     1
 91
        4
 64
     7
 65
   257
 75
     1
175
     1
 42
1.0
 92
        0
 66
   257
 43
1.0
 76
     1
 77
     6
 78
     2
 67
     7
 79
     5
170
     0
171
     0
290
     0
174
     0
 93
        1
 44
0.0
173
     0
291
     0
 45
0.0
1001
ACAD
1000
AcDbSavedByObjectVersion
1070
     0
  0
VISUALSTYLE
  5
13F4B
102
{ACAD_REACTORS
330
13F46
102
}
330
13F46
100
AcDbVisualStyle
  2
Basic
 70
     7
 71
     1
 72
     0
 73
     1
 90
        0
 40
-0.6
 41
-30.0
 62
     5
 63
     7
 74
     0
 91
        4
 64
     7
 65
   257
 75
     1
175
     1
 42
1.0
 92
        8
 66
     7
 43
1.0
 76
     1
 77
     6
 78
     2
 67
     7
 79
     5
170
     0
171
     0
290
     0
174
     0
 93
        1
 44
0.0
173
     0
291
     1
 45
0.0
1001
ACAD
1000
AcDbSavedByObjectVersion
1070
     0
  0
VISUALSTYLE
  5
13F52
102
{ACAD_REACTORS
330
13F46
102
}
330
13F46
100
AcDbVisualStyle
  2
Brighten
 70
    12
 71
     2
 72
     2
 73
     0
 90
        0
 40
-0.6
 41
-30.0
 62
     5
 63
     7
 74
     1
 91
        4
 64
     7
 65
   257
 75
     1
175
     1
 42
1.0
 92
        8
 66
     7
 43
1.0
 76
     1
 77
     6
 78
     2
 67
     7
 79
     5
170
     0
171
     0
290
     0
174
     0
 93
        1
 44
50.0
173
     0
291
     1
 45
0.0
1001
ACAD
1000
AcDbSavedByObjectVersion
1070
     0
  0
VISUALSTYLE
  5
13F56
102
{ACAD_REACTORS
330
13F46
102
}
330
13F46
100
AcDbVisualStyle
  2
ColorChange
 70
    16
 71
     2
 72
     2
 73
     3
 90
        0
 40
-0.6
 41
-30.0
 62
     5
 63
     8
 74
     1
 91
        4
 64
     7
 65
   257
 75
     1
175
     1
 42
1.0
 92
        8
 66
     8
 43
1.0
 76
     1
 77
     6
 78
     2
 67
     7
 79
     5
170
     0
171
     0
290
     0
174
     0
 93
        1
 44
0.0
173
     0
291
     1
 45
0.0
1001
ACAD
1000
AcDbSavedByObjectVersion
1070
     0
  0
VISUALSTYLE
  5
13F4F
102
{ACAD_REACTORS
330
13F46
102
}
330
13F46
100
AcDbVisualStyle
  2
Conceptual
 70
     9
 71
     3
 72
     2
 73
     0
 90
        0
 40
-0.6
 41
-30.0
 62
     5
 63
     7
 74
     2
 91
        2
 64
     7
 65
   257
 75
     1
175
     1
 42
40.0
 92
        8
 66
     7
 43
1.0
 76
     1
 77
     6
 78
     2
 67
     7
 79
     3
170
     0
171
     0
290
     0
174
     0
 93
        1
 44
0.0
173
     0
291
     0
 45
0.0
1001
ACAD
1000
AcDbSavedByObjectVersion
1070
     0
  0
VISUALSTYLE
  5
13F51
102
{ACAD_REACTORS
330
13F46
102
}
330
13F46
100
AcDbVisualStyle
  2
Dim
 70
    11
 71
     2
 72
     2
 73
     0
 90
        0
 40
-0.6
 41
-30.0
 62
     5
 63
     7
 74
     1
 91
        4
 64
     7
 65
   257
 75
     1
175
     1
 42
1.0
 92
        8
 66
     7
 43
1.0
 76
     1
 77
     6
 78
     2
 67
     7
 79
     5
170
     0
171
     0
290
     0
174
     0
 93
        1
 44
-50.0
173
     0
291
     1
 45
0.0
1001
ACAD
1000
AcDbSavedByObjectVersion
1070
     0
  0
VISUALSTYLE
  5
13F55
102
{ACAD_REACTORS
330
13F46
102
}
330
13F46
100
AcDbVisualStyle
  2
Facepattern
 70
    15
 71
     2
 72
     2
 73
     0
 90
        0
 40
-0.6
 41
-30.0
 62
     5
 63
     7
 74
     1
 91
        4
 64
     7
 65
   257
 75
     1
175
     1
 42
1.0
 92
        8
 66
     7
 43
1.0
 76
     1
 77
     6
 78
     2
 67
     7
 79
     5
170
     0
171
     0
290
     0
174
     0
 93
        1
 44
0.0
173
     0
291
     1
 45
0.0
1001
ACAD
1000
AcDbSavedByObjectVersion
1070
     0
  0
VISUALSTYLE
  5
13F47
102
{ACAD_REACTORS
330
13F46
102
}
330
13F46
100
AcDbVisualStyle
  2
Flat
 70
     0
 71
     2
 72
     1
 73
     1
 90
        2
 40
-0.6
 41
30.0
 62
     5
 63
     7
 74
     0
 91
        4
 64
     7
 65
   257
 75
     1
175
     1
 42
1.0
 92
        8
 66
     7
 43
1.0
 76
     1
 77
     6
 78
     2
 67
     7
 79
     5
170
     0
171
     0
290
     0
174
     0
 93
       13
 44
0.0
173
     0
291
     1
 45
0.0
1001
ACAD
1000
AcDbSavedByObjectVersion
1070
     0
  0
VISUALSTYLE
  5
13F48
102
{ACAD_REACTORS
330
13F46
102
}
330
13F46
100
AcDbVisualStyle
  2
FlatWithEdges
 70
     1
 71
     2
 72
     1
 73
     1
 90
        2
 40
-0.6
 41
30.0
 62
     5
 63
     7
 74
     1
 91
        4
 64
     7
 65
   257
 75
     1
175
     1
 42
1.0
 92
        0
 66
   257
 43
1.0
 76
     1
 77
     6
 78
     2
 67
     7
 79
     5
170
     0
171
     0
290
     0
174
     0
 93
       13
 44
0.0
173
     0
291
     1
 45
0.0
1001
ACAD
1000
AcDbSavedByObjectVersion
1070
     0
  0
VISUALSTYLE
  5
13F49
102
{ACAD_REACTORS
330
13F46
102
}
330
13F46
100
AcDbVisualStyle
  2
Gouraud
 70
     2
 71
     2
 72
     2
 73
     1
 90
        2
 40
-0.6
 41
30.0
 62
     5
 63
     7
 74
     0
 91
        4
 64
     7
 65
   257
 75
     1
175
     1
 42
1.0
 92
        0
 66
     7
 43
1.0
 76
     1
 77
     6
 78
     2
 67
     7
 79
     5
170
     0
171
     0
290
     0
174
     0
 93
       13
 44
0.0
173
     0
291
     1
 45
0.0
1001
ACAD
1000
AcDbSavedByObjectVersion
1070
     0
  0
VISUALSTYLE
  5
13F4A
102
{ACAD_REACTORS
330
13F46
102
}
330
13F46
100
AcDbVisualStyle
  2
GouraudWithEdges
 70
     3
 71
     2
 72
     2
 73
     1
 90
        2
 40
-0.6
 41
30.0
 62
     5
 63
     7
 74
     1
 91
        4
 64
     7
 65
   257
 75
     1
175
     1
 42
1.0
 92
        0
 66
   257
 43
1.0
 76
     1
 77
     6
 78
     2
 67
     7
 79
     5
170
     0
171
     0
290
     0
174
     0
 93
       13
 44
0.0
173
     0
291
     1
 45
0.0
1001
ACAD
1000
AcDbSavedByObjectVersion
1070
     0
  0
VISUALSTYLE
  5
13F54
102
{ACAD_REACTORS
330
13F46
102
}
330
13F46
100
AcDbVisualStyle
  2
Linepattern
 70
    14
 71
     2
 72
     2
 73
     0
 90
        0
 40
-0.6
 41
-30.0
 62
     5
 63
     7
 74
     1
 91
        4
 64
     7
 65
   257
 75
     7
175
     7
 42
1.0
 92
        8
 66
     7
 43
1.0
 76
     1
 77
     6
 78
     2
 67
     7
 79
     5
170
     0
171
     0
290
     0
174
     0
 93
        1
 44
0.0
173
     0
291
     1
 45
0.0
1001
ACAD
1000
AcDbSavedByObjectVersion
1070
     0
  0
VISUALSTYLE
  5
13F50
102
{ACAD_REACTORS
330
13F46
102
}
330
13F46
100
AcDbVisualStyle
  2
Realistic
 70
     8
 71
     2
 72
     2
 73
     0
 90
        0
 40
-0.6
 41
-30.0
 62
     5
 63
     7
 74
     1
 91
        0
 64
     7
 65
   257
 75
     1
175
     1
 42
1.0
 92
        8
 66
     8
 43
1.0
 76
     1
 77
     6
 78
     2
 67
     7
 79
     5
170
     0
171
     0
290
     0
174
     0
 93
       13
 44
0.0
173
     0
291
     0
 45
0.0
1001
ACAD
1000
AcDbSavedByObjectVersion
1070
     0
  0
VISUALSTYLE
  5
13F53
102
{ACAD_REACTORS
330
13F46
102
}
330
13F46
100
AcDbVisualStyle
  2
Thicken
 70
    13
 71
     2
 72
     2
 73
     0
 90
        0
 40
-0.6
 41
-30.0
 62
     5
 63
     7
 74
     1
 91
        4
 64
     7
 65
   257
 75
     1
175
     1
 42
1.0
 92
       12
 66
     7
 43
1.0
 76
     1
 77
     6
 78
     2
 67
     7
 79
     5
170
     0
171
     0
290
     0
174
     0
 93
        1
 44
0.0
173
     0
291
     1
 45
0.0
1001
ACAD
1000
AcDbSavedByObjectVersion
1070
     0
  0
DICTIONARYVAR
  5
1422A
102
{ACAD_REACTORS
330
59
102
}
330
59
100
DictionaryVariables
280
     0
  1
STANDARD
  0
DICTIONARYVAR
  5
5A
102
{ACAD_REACTORS
330
59
102
}
330
59
100
DictionaryVariables
280
     0
  1
0
  0
DICTIONARYVAR
  5
143A4
102
{ACAD_REACTORS
330
59
102
}
330
59
100
DictionaryVariables
280
     0
  1
1
  0
DICTIONARYVAR
  5
143A3
102
{ACAD_REACTORS
330
59
102
}
330
59
100
DictionaryVariables
280
     0
  1
0
  0
DICTIONARYVAR
  5
769A
102
{ACAD_REACTORS
330
59
102
}
330
59
100
DictionaryVariables
280
     0
  1
96
  0
XRECORD
  5
123F9
102
{ACAD_REACTORS
330
123F7
102
}
330
123F7
100
AcDbXrecord
280
     1
330
3374
330
3375
330
3376
330
3377
330
3378
330
3E3C
330
3E3D
330
3E3E
330
3E3F
330
3E40
330
0
330
0
330
0
330
0
330
0
330
0
330
0
330
0
330
0
330
0
330
0
330
0
330
0
330
0
330
0
330
0
330
0
330
0
330
0
330
0
330
0
330
0
330
0
330
0
330
0
330
0
330
0
330
0
330
0
330
0
330
0
330
0
330
0
330
0
330
0
330
0
330
0
330
0
330
0
330
0
330
0
330
0
330
0
330
0
330
0
330
0
330
0
330
0
330
0
330
0
330
0
330
0
330
0
330
0
330
0
330
0
330
0
330
0
330
0
330
0
330
0
330
0
330
0
330
0
330
0
330
0
330
0
330
0
330
0
330
0
330
0
  0
DICTIONARY
  5
1422F
330
B57D
100
AcDbDictionary
280
     1
281
     1
  3
ACAD_XREC_ROUNDTRIP
360
143A8
  3
ADSK_XREC_LAYOUTTHUMBNAIL
360
14230
  0
DICTIONARY
  5
143A6
330
B57C
100
AcDbDictionary
280
     1
281
     1
  3
ACAD_XREC_ROUNDTRIP
360
143A7
  0
DICTIONARY
  5
143AD
330
13F44
100
AcDbDictionary
280
     1
281
     1
  3
ACAD_XREC_ROUNDTRIP
360
143AE
  0
DICTIONARY
  5
143AB
330
13F43
100
AcDbDictionary
280
     1
281
     1
  3
ACAD_XREC_ROUNDTRIP
360
143AC
  0
DICTIONARY
  5
143AF
330
13F45
100
AcDbDictionary
280
     1
281
     1
  3
ACAD_XREC_ROUNDTRIP
360
143B0
  0
DICTIONARY
  5
143B1
330
13F59
100
AcDbDictionary
280
     1
281
     1
  3
ACAD_XREC_ROUNDTRIP
360
143B2
  0
XRECORD
  5
143A8
102
{ACAD_REACTORS
330
1422F
102
}
330
1422F
100
AcDbXrecord
280
     1
102
SHADEPLOT
 70
     0
102
SHADEPLOTRESLEVEL
 70
     2
102
SHADEPLOTCUSTOMDPI
 70
   300
  0
XRECORD
  5
14230
102
{ACAD_REACTORS
330
1422F
102
}
330
1422F
100
AcDbXrecord
280
     1
310
280000006C0000008C0000000100080000000000103B0000000000000000000000010000000000000000000000000000FFFFFF000000000000000000000000000000000000000000000000000000000000000000330000006600000099000000CC000000FF00000000330000333300006633000099330000CC330000FF3300
310
0000660000336600006666000099660000CC660000FF66000000990000339900006699000099990000CC990000FF99000000CC000033CC000066CC000099CC0000CCCC0000FFCC000000FF000033FF000066FF000099FF0000CCFF0000FFFF000000003300330033006600330099003300CC003300FF003300003333003333
310
33006633330099333300CC333300FF33330000663300336633006666330099663300CC663300FF66330000993300339933006699330099993300CC993300FF99330000CC330033CC330066CC330099CC3300CCCC3300FFCC330000FF330033FF330066FF330099FF3300CCFF3300FFFF330000006600330066006600660099
310
006600CC006600FF00660000336600333366006633660099336600CC336600FF33660000666600336666006666660099666600CC666600FF66660000996600339966006699660099996600CC996600FF99660000CC660033CC660066CC660099CC6600CCCC6600FFCC660000FF660033FF660066FF660099FF6600CCFF6600
310
FFFF660000009900330099006600990099009900CC009900FF00990000339900333399006633990099339900CC339900FF33990000669900336699006666990099669900CC669900FF66990000999900339999006699990099999900CC999900FF99990000CC990033CC990066CC990099CC9900CCCC9900FFCC990000FF99
310
0033FF990066FF990099FF9900CCFF9900FFFF99000000CC003300CC006600CC009900CC00CC00CC00FF00CC000033CC003333CC006633CC009933CC00CC33CC00FF33CC000066CC003366CC006666CC009966CC00CC66CC00FF66CC000099CC003399CC006699CC009999CC00CC99CC00FF99CC0000CCCC0033CCCC0066CC
310
CC0099CCCC00CCCCCC00FFCCCC0000FFCC0033FFCC0066FFCC0099FFCC00CCFFCC00FFFFCC000000FF003300FF006600FF009900FF00CC00FF00FF00FF000033FF003333FF006633FF009933FF00CC33FF00FF33FF000066FF003366FF006666FF009966FF00CC66FF00FF66FF000099FF003399FF006699FF009999FF00CC
310
99FF00FF99FF0000CCFF0033CCFF0066CCFF0099CCFF00CCCCFF00FFCCFF0000FFFF0033FFFF0066FFFF0099FFFF00CCFFFF00FFFFFF00000000000D0D0D001A1A1A00282828003535350043434300505050005D5D5D006B6B6B00787878008686860093939300A1A1A100AEAEAE00BBBBBB00C9C9C900D6D6D600E4E4E400
310
F1F1F100FFFFFF0000000000000000000000000000000000000000000000000000000000000000000000000000000000F5F5F5F5F5F5F5F5F5F5F5F5F5F5F5F5F5F5F5F5F5F5F5F5F5F5F5F5F5F5F5F5F5F5F5F5F5F5F5F5F5F5F5F5F5F5F5F5F5F5F5F5F5F5F5F5F5F5F5F5F5F5F5F5F5F5F5F5F5F5F5F5F5F5F5F5F5F5F5
310
F5F5F5F5F5F5F5F5F5F5F5F5F5F5F5F5F5F5F5F5F5F5F5F5F5F5F5F5F5F5E2E2E2E2E2E2E2E2E2E2E2E2E2E2E2E2E2E2E2E2E2E2E2E2E2E2E2E2E2E2E2E2E2E2E2E2E2E2E2E2E2E2E2E2E2E2E2E2E2E2E2E2E2E2E2E2E2E2E2E2E2E2E2E2E2E2E2E2E2E2E2E2E2E2E2E2E2E2E2E2E2E2E2E2E2E2E2E2E2E2E2E2E2E2E2E2E2
310
E2E2E2E2E2E2E2E2E2E2F5E2F5F5F5F5F5F5F5F5F5E2E2E2E2E2E2E2E2E2F5F5F5F5F5F5F5F5F5F5F5F5F5F5F5F5F5E2E2E2E2E2E2E2E2E2F5F5F5F5F5F5F5F5F5F5F5F5F5F5F5F5F5E2E2E2E2E2E2E2E2E2F5F5F5F5F5F5F5F5F5F5F5F5F5F5F5F5F5E2E2E2E2E2E2E2E2E2F5F5F5F5F5F5F5F5F5E2F5E2F5E2E2E2E2E2E2
310
E2E2E2E2E2E2E2E2E2E2E2E2E2E2E2E2E2E2E2E2E2E2E2E2E2E2E2E2E2E2E2E2E2E2E2E2E2E2E2E2E2E2E2E2E2E2E2E2E2E2E2E2E2E2E2E2E2E2E2E2E2E2E2E2E2E2E2E2E2E2E2E2E2E2E2E2E2E2E2E2E2E2E2E2E2E2E2E2E2E2E2E2E2E2E2E2E2F5E2F5E2F5E2E2E2E2E2E2E2E2E2E2E2E2E2E2E2E2E2E2E2E2E2E2E2E2E2
310
E2E2E2E2E2E2E2E2E2E2E2E2E2E2E2E2E2E2E2E2E2E2E2E2E2E2E2E2E2E2E2E2E2E2E2E2E2E2E2E2E2E2E2E2E2E2E2E2E2E2E2E2E2E2E2E2E2E2E2E2E2E2E2E2E2E2E2E2E2E2E2E2E2E2E2E2E2E2F5E2F5E2F5E2E2E2E2E2E2E2E2E2E2E2E2E2E2E2E2E2E2E2E2E2E2E2E2E2E2E2E2E2E2E2E2E2E2E2E2E2E2E2E2E2E2E2E2
310
E2E2E2E2E2E2E2E2E2E2E2E2E2E2E2E2E2E2E2E2E2E2E2E2E2E2E2E2E2E2E2E2E2E2E2E2E2E2E2E2E2E2E2E2E2E2E2E2E2E2E2E2E2E2E2E2E2E2E2F5E2F5E2F5E2E2E2E2E2E2E2E2E2E2E2E2E2E2E2E2E2E2E2E2E2E2E2E2E2E2E2E2E2E2E2E2E2E2E2E2E2E2E2E2E2E2E2E2E2E2E2E2E2E2E2E2E2E2E2E2E2E2E2E2E2E2E2
310
E2E2E2E2E2E2E2E2E2E2E2E2E2E2E2E2E2E2E2E2E2E2E2E2E2E2E2E2E2E2E2E2E2E2E2E2E2E2E2E2F5E2F5E2F5E2E2E2E2E2E2E2E2E2E2E2E2E2E2E2E2E2E2E2E2E2E2E2E2E2E2E2E2E2E2E2E2E2E2E2E2E2E2E2E2E2E2E2E2E2E2E2E2E2E2E2E2E2E2E2E2E2E2E2E2E2E2E2E2E2E2E2E2E2E2E2E2E2E2E2E2E2E2E2E2E2E2
310
E2E2E2E2E2E2E2E2E2E2E2E2E2E2E2E2E2E2E2E2E2F5E2F5E2F5E2E2E2E2E2E2E2E2E2E2E2E2E2E2E2E2E2E2E2E2E2E2E2E2E2E2E2E2E2E2E2E2E2E2E2E2E2E2E2E2E2E2E2E2E2E2E2E2E2E2E2E2E2E2E2E2E2E2E2E2E2E2E2E2E2E2E2E2E2E2E2E2E2E2E2E2E2E2E2E2E2E2E2E2E2E2E2E2E2E2E2E2E2E2E2E2E2E2E2E2E2
310
E2E2F5E2F5E2F5E2E2E2E2E2E2E2E2E2E2E2E2E2E2E2E2E2E2E2E2E2E2E2E2E2E2E2E2E2E2E2E2E2E2E2E2E2E2E2E2E2E2E2E2E2E2E2E2E2E2E2E2E2E2E2E2E2E2E2E2E2E2E2E2E2E2E2E2E2E2E2E2E2E2E2E2E2E2E2E2E2E2E2E2E2E2E2E2E2E2E2E2E2E2E2E2E2E2E2E2E2E2E2F5E2F5E2F5E2E2E2E2E2E2E2E2E2E2E2E2
310
E2E2E2E2E2E2E2E2E2E2E2E2E2E2E2E2E2E2E2E2E2E2E2E2E2E2E2E2E2E2E2E2E2E2E2E2E2E2E2E2E2E2E2E2E2E2E2E2E2E2E2E2E2E2E2E2E2E2E2E2E2E2E2E2E2E2E2E2E2E2E2E2E2E2E2E2E2E2E2E2E2E2E2E2E2E2E2E2E2E2E2F5E2F5E2E2E2E2E2E2E2E2E2E2E2E2E2E2E2E2E2E2E2E2E2E2E2E2E2E2E2E2E2E2E2E2E2
310
E2E2E2E2E2E2E2E2E2E2E2E2E2E2E2E2E2E2E2E2E2E2E2E2E2E2E2E2E2E2E2E2E2E2E2E2E2E2E2E2E2E2E2E2E2E2E2E2E2E2E2E2E2E2E2E2E2E2E2E2E2E2E2E2E2E2E2E2E2E2E2E2E2E2F5E2E2E2E2E2E2E2E2E2E2E2E2E2E2E2E2E2E2E2E2E2E2E2E2E2E2E2E2E2E2E2E2E2E2E2E2E2E2E2E2E2E2E2E2E2E2E2E2E2E2E2E2
310
E2E2E2E2E2E2E2E2E2E2E2E2E2E2E2E2E2E2E2E2E2E2E2E2E2E2E2E2E2E2E2E2E2E2E2E2E2E2E2E2E2E2E2E2E2E2E2E2E2E2E2E2E2E2E2F5E2E2E2E2E2E2E2E2E2E2E2E2E2E2E2E2E2E2E2E2E2E2E2E2E2E2E2E2E2E2E2E2E2E2E2E2E2E2E2E2E2E2E2E2E2E2E2E2E2E2E2E2E2E2E2E2E2E2E2E2E2E2E2E2E2E2E2E2E2E2E2
310
E2E2E2E2E2E2E2E2E2E2E2E2E2E2E2E2E2E2E2E2E2E2E2E2E2E2E2E2E2E2E2E2E2E2E2E2F5E2E2E2E2E2E2E2E2E2E2E2E2E2E2E2E2E2E2E2E2E2E2E2E2E2E2E2E2E2E2E2E2E2E2E2E2E2E2E2E2E2E2E2E2E2E2E2E2E2E2E2E2E2E2E2E2E2E2E2E2E2E2E2E2E2E2E2E2E2E2E2E2E2E2E2E2E2E2E2E2E2E2E2E2E2E2E2E2E2E2
310
E2E2E2E2E2E2E2E2E2E2E2E2E2E2E2E2E2F5E2E2E2E2E2E2E2E2E2E2E2E2E2E2E2E2E2E2E2E2E2E2E2E2E2E2E2E2E2E2E2E2E2E2E2E2E2E2E2E2E2E2E2E2E2E2E2E2E2E2E2E2E2E2E2E2E2E2E2E2E2E2E2E2E2E2E2E2E2E2E2E2E2E2E2E2E2E2E2E2E2E2E2E2E2E2E2E2E2E2E2E2E2E2E2E2E2E2E2E2E2E2E2E2E2E2E2F5E2
310
E2E2E2E2E2E2E2E2E2E2E2E2E2E2E2E2E2E2E2E2E2E2E2E2E2E2E2E2E2E2E2E2E2E2E2E2E2E2E2E2E2E2E2E2E2E2E2E2E2E2E2E2E2E2E2E2E2E2E2E2E2E2E2E2E2E2E2E2E2E2E2E2E2E2E2E2E2E2E2E2E2E2E2E2E2E2E2E2E2E2E2E2E2E2E2E2E2E2E2E2E2E2E2E2E2E2F5E2E2E2E2E2E2E2E2E2E2E2E2E2E2E2E2E2E2E2E2
310
E2E2E2E2E2E2E2E2E2E2E2E2E2E2E2E2E2E2E2E2E2E2E2E2E2E2E2E2E2E2E2E2E2E2E2E2E2E2E2E2E2E2E2E2E2E2E2E2E2E2E2E2E2E2E2E2E2E2E2E2E2E2E2E2E2E2E2E2E2E2E2E2E2E2E2E2E2E2E2E2E2E2E2E2E2E2E2F5E2E2E2E2E2E2E2E2E2E2E2E2E2E2E2E2E2E2E2E2E2E2E2E2E2E2E2E2E2E2E2E2E2E2E2E2E2E2E2
310
E2E2E2E2E2E2E2E2E2E2E2E2E2E2E2E2E2E2E2E2E2E2E2E2E2E2E2E2E2E2E2E2E2E2E2E2E2E2E2E2E2E2E2E2E2E2E2E2E2E2E2E2E2E2E2E2E2E2E2E2E2E2E2E2E2E2E2E2F5E2E2E2E2E2E2E2E2E2E2E2E2E2E2E2E2E2E2E2E2E2E2E2E2E2E2E2E2E2E2E2E2E2E2E2E2E2E2E2E2E2E2E2E2E2E2E2E2E2E2E2E2E2E2E2E2E2E2
310
E2E2E2E2E2E2E2E2E2E2E2E2E2E2E2E2E2E2E2E2E2E2E2E2E2E2E2E2E2E2E2E2E2E2E2E2E2E2E2E2E2E2E2E2E2E2E2E2E2F5E2E2E2E2E2E2E2E2E2E2E2E2E2E2E2E2E2E2E2E2E2E2E2E2E2E2E2E2E2E2E2E2E2E2E2E2E2E2E2E2E2E2E2E2E2E2E2E2E2E2E2E2E2E2E2E2E2E2E2E2E2E2E2E2E2E2E2E2E2E2E2E2E2E2E2E2E2
310
E2E2E2E2E2E2E2E2E2E2E2E2E2E2E2E2E2E2E2E2E2E2E2E2E2E2E2E2E2E2F5E2F5E2E2E2E2E2E2E2E2E2E2E2E2E2E2E2E2E2E2E2E2E2E2E2E2E2E2E2E2E2E2E2E2E2E2E2E2E2E2E2E2E2E2E2E2E2E2E2E2E2E2E2E2E2E2E2E2E2E2E2E2E2E2E2E2E2E2E2E2E2E2E2E2E2E2E2E2E2E2E2E2E2E2E2E2E2E2E2E2E2E2E2E2E2E2
310
E2E2E2E2E2E2E2E2E2F5E2F5E2F5E2E2E2E2E2E2E2E2E2E2E2E2E2E2E2E2E2E2E2E2E2E2E2E2E2E2E2E2E2E2E2E2E2E2E2E2E2E2E2E2E2E2E2E2E2E2E2E2E2E2E2E2E2E2E2E2E2E2E2E2E2E2E2E2E2E2E2E2E2E2E2E2E2E2E2E2E2E2E2E2E2E2E2E2E2E2E2E2E2E2E2E2E2E2E2E2E2E2E2E2E2E2E2F5E2F5E2F5E2E2E2E2E2
310
E2E2E2E2E2E2E2E2E2E2E2E2E2E2E2E2E2E2E2E2E2E2E2E2E2E2E2E2E2E2E2E2E2E2E2E2E2E2E2E2E2E2E2E2E2E2E2E2E2E2E2E2E2E2E2E2E2E2E2E2E2E2E2E2E2E2E2E2E2E2E2E2E2E2E2E2E2E2E2E2E2E2E2E2E2E2E2E2E2E2E2E2E2E2E2E2E2E2F5E2F5E2F5E2E2E2E2E2E2E2E2E2E2E2E2E2E2E2E2E2E2E2E2E2E2E2E2
310
E2E2E2E2E2E2E2E2E2E2E2E2E2E2E2E2E2E2E2E2E2E2E2E2E2E2E2E2E2E2E2E2E2E2E2E2E2E2E2E2E2E2E2E2E2E2E2E2E2E2E2E2E2E2E2E2E2E2E2E2E2E2E2E2E2E2E2E2E2E2E2E2E2E2E2E2E2E2E2F5E2F5E2F5E2E2E2E2E2E2E2E2E2E2E2E2E2E2E2E2E2E2E2E2E2E2E2E2E2E2E2E2E2E2E2E2E2E2E2E2E2E2E2E2E2E2E2
310
E2E2E2E2E2E2E2E2E2E2E2E2E2E2E2E2E2E2E2E2E2E2E2E2E2E2E2E2E2E2E2E2E2E2E2E2E2E2E2E2E2E2E2E2E2E2E2E2E2E2E2E2E2E2E2E2E2E2E2E2F5E2F5E2F5E2E2E2E2E2E2E2E2E2E2E2E2E2E2E2E2E2E2E2E2E2E2E2E2E2E2E2E2E2E2E2E2E2E2E2E2E2E2E2E2E2E2E2E2E2E2E2E2E2E2E2E2E2E2E2E2E2E2E2E2E2E2
310
E2E2E2E2E2E2E2E2E2E2E2E2E2E2E2E2E2E2E2E2E2E2E2E2E2E2E2E2E2E2E2E2E2E2E2E2E2E2E2E2E2F5E2F5E2F5E2E2E2E2E2E2E2E2E2E2E2E2E2E2E2E2E2E2E2E2E2E2E2E2E2E2E2E2E2E2E2E2E2E2E2E2E2E2E2E2E2E2E2E2E2E2E2E2E2E2E2E2E2E2E2E2E2E2E2E2E2E2E2E2E2E2E2E2E2E2E2E2E2E2E2E2E2E2E2E2E2
310
E2E2E2E2E2E2E2E2E2E2E2E2E2E2E2E2E2E2E2E2E2E2F5E2F5E2F5E2E2E2E2E2E2E2E2E2E2E2E2E2E2E2E2E2E2E2E2E2E2E2E2E2E2E2E2E2E2E2E2E2E2E2E2E2E2E2E2E2E2E2E2E2E2E2E2E2E2E2E2E2E2E2E2E2E2E2E2E2E2E2E2E2E2E2E2E2E2E2E2E2E2E2E2E2E2E2E2E2E2E2E2E2E2E2E2E2E2E2E2E2E2E2E2E2E2E2E2
310
E2E2E2F5E2F5E2F5E2E2E2E2E2E2E2E2E2E2E2E2E2E2E2E2E2E2E2E2E2E2E2E2E2E2E2E2E2E2E2E2E2E2E2E2E2E2E2E2E2E2E2E2E2E2E2E2E2E2E2E2E2E2E2E2E2E2E2E2E2E2E2E2E2E2E2E2E2E2E2E2E2E2E2E2E2E2E2E2E2E2E2E2E2E2E2E2E2E2E2E2E2E2E2E2E2E2E2E2E2E2E2F5E2F5E2F5E2E2E2E2E2E2E2E2E2E2E2
310
E2E2E2E2E2E2E2E2E2E2E2E2E2E2E2E2E2E2E2E2E2E2E2E2E2E2E2E2E2E2E2E2E2E2E2E2E2E2E2E2E2E2E2E2E2E2E2E2E2E2E2E2E2E2E2E2E2E2E2E2E2E2E2E2E2E2E2E2E2E2E2E2E2E2E2E2E2E2E2E2E2E2E2E2E2E2E2E2E2E2E2E2F5E2F5E2F5E2E2E2E2E2E2E2E2E2E2E2E2E2E2E2E2E2E2E2E2E2E2E2E2E2E2E2E2E2E2
310
E2E2E2E2E2E2E2E2E2E2E2E2E2E2E2E2E2E2E2E2E2E2E2E2E2E2E2E2E2E2E2E2E2E2E2E2E2E2E2E2E2E2E2E2E2E2E2E2E2E2E2E2E2E2E2E2E2E2E2E2E2E2E2E2E2E2E2E2E2E2E2E2E2F5E2F5E2F5E2E2E2E2E2E2E2E2E2E2E2E2E2E2E2E2E2E2E2E2E2E2E2E2E2E2E2E2E2E2E2E2E2E2E2E2E2E2E2E2E2E2E2E2E2E2E2E2E2
310
E2E2E2E2E2E2E2E2E2E2E2E2E2E2E2E2E2E2E2E2E2E2E2E2E2E2E2E2E2E2E2E2E2E2E2E2E2E2E2E2E2E2E2E2E2E2E2E2E2E2E2E2E2E2F5E2F5E2F5E2E2E2E2E2E2E2E2E2E2E2E2E2E2E2E2E2E2E2E2E2E2E2E2E2E2E2E2E2E2E2E2E2E2E2E2E2E2E2E2E2E2E2E2E2E2E2E2E2E2E2E2E2E2E2E2E2E2E2E2E2E2E2E2E2E2E2E2
310
E2E2E2E2E2E2E2E2E2E2E2E2E2E2E2E2E2E2E2E2E2E2E2E2E2E2E2E2E2E2E2E2E2E2E2F5E2F5E2F5E2E2E2E2E2E2E2E2E2E2E2E2E2E2E2E2E2E2E2E2E2E2E2E2E2E2E2E2E2E2E2E2E2E2E2E2E2E2E2E2E2E2E2E2E2E2E2E2E2E2E2E2E2E2E2E2E2E2E2E2E2E2E2E2E2E2E2E2E2E2E2E2E2E2E2E2E2E2E2E2E2E2E2E2E2E2E2
310
E2E2E2E2E2E2E2E2E2E2E2E2E2E2E2E2F5E2F5E2F5E2E2E2E2E2E2E2E2E2E2E2E2E2E2E2E2E2E2E2E2E2E2E2E2E2E2E2E2E2E2E2E2E2E2E2E2E2E2E2E2E2E2E2E2E2E2E2E2E2E2E2E2E2E2E2E2E2E2E2E2E2E2E2E2E2E2E2E2E2E2E2E2E2E2E2E2E2E2E2E2E2E2E2E2E2E2E2E2E2E2E2E2E2E2E2E2E2E2E2E2E2E2E2F5E2F5
310
E2F5E2E2E2E2E2E2E2E2E2E2E2E2E2E2E2E2E2E2E2E2E2E2E2E2E2E2E2E2E2E2E2E2E2E2E2E2E2E2E2E2E2E2E2E2E2E2E2E2E2E2E2E2E2E2E2E2E2E2E2E2E2E2E2E2E2E2E2E2E2E2E2E2E2E2E2E2E2E2E2E2E2E2E2E2E2E2E2E2E2E2E2E2E2E2E2E2E2E2E2E2E2E2E2F5E2F5E2F5E2E2E2E2E2E2E2E2E2E2E2E2E2E2E2E2E2
310
E2E2E2E2E2E2E2E2E2E2E2E2E2E2E2E2E2E2E2E2E2E2E2E2E2E2E2E2E2E2E2E2E2E2E2E2E2E2E2E2E2E2E2E2E2E2E2E2E2E2E2E2E2E2E2E2E2E2E2E2E2E2E2E2E2E2E2E2E2E2E2E2E2E2E2E2E2E2E2E2E2E2E2E2E2E2F5E2F5E2E2E2E2E2E2E2E2E2E2E2E2E2E2E2E2E2E2E2E2E2E2E2E2E2E2E2E2E2E2E2E2E2E2E2E2E2E2
310
E2E2E2E2E2E2E2E2E2E2E2E2E2E2E2E2E2E2E2E2E2E2E2E2E2E2E2E2E2E2E2E2E2E2E2E2E2E2E2E2E2E2E2E2E2E2E2E2E2E2E2E2E2E2E2E2E2E2E2E2E2E2E2E2E2E2E2E2E2F5E2E2E2E2E2E2E2E2E2E2E2E2E2E2E2E2E2E2E2E2E2E2E2E2E2E2E2E2E2E2E2E2E2E2E2E2E2E2E2E2E2E2E2E2E2E2E2E2E2E2E2E2E2E2E2E2E2
310
E2E2E2E2E2E2E2E2E2E2E2E2E2E2E2E2E2E2E2E2E2E2E2E2E2E2E2E2E2E2E2E2E2E2E2E2E2E2E2E2E2E2E2E2E2E2E2E2E2E2F5E2E2E2E2E2E2E2E2E2E2E2E2E2E2E2E2E2E2E2E2E2E2E2E2E2E2E2E2E2E2E2E2E2E2E2E2E2E2E2E2E2E2E2E2E2E2E2E2E2E2E2E2E2E2E2E2E2E2E2E2E2E2E2E2E2E2E2E2E2E2E2E2E2E2E2E2
310
E2E2E2E2E2E2E2E2E2E2E2E2E2E2E2E2E2E2E2E2E2E2E2E2E2E2E2E2E2E2E2F5E2E2E2E2E2E2E2E2E2E2E2E2E2E2E2E2E2E2E2E2E2E2E2E2E2E2E2E2E2E2E2E2E2E2E2E2E2E2E2E2E2E2E2E2E2E2E2E2E2E2E2E2E2E2E2E2E2E2E2E2E2E2E2E2E2E2E2E2E2E2E2E2E2E2E2E2E2E2E2E2E2E2E2E2E2E2E2E2E2E2E2E2E2E2E2
310
E2E2E2E2E2E2E2E2E2E2E2E2F5E2E2E2E2E2E2E2E2E2E2E2E2E2E2E2E2E2E2E2E2E2E2E2E2E2E2E2E2E2E2E2E2E2E2E2E2E2E2E2E2E2E2E2E2E2E2E2E2E2E2E2E2E2E2E2E2E2E2E2E2E2E2E2E2E2E2E2E2E2E2E2E2E2E2E2E2E2E2E2E2E2E2E2E2E2E2E2E2E2E2E2E2E2E2E2E2E2E2E2E2E2E2E2E2E2E2E2F5E2E2E2E2E2E2
310
E2E2E2E2E2E2E2E2E2E2E2E2E2E2E2E2E2E2E2E2E2E2E2E2E2E2E2E2E2E2E2E2E2E2E2E2E2E2E2E2E2E2E2E2E2E2E2E2E2E2E2E2E2E2E2E2E2E2E2E2E2E2E2E2E2E2E2E2E2E2E2E2E2E2E2E2E2E2E2E2E2E2E2E2E2E2E2E2E2E2E2E2E2E2E2E2E2E2E2E2E2F5E2E2E2E2E2E2E2E2E2E2E2E2E2E2E2E2E2E2E2E2E2E2E2E2E2
310
E2E2E2E2E2E2E2E2E2E2E2E2E2E2E2E2E2E2E2E2E2E2E2E2E2E2E2E2E2E2E2E2E2E2E2E2E2E2E2E2E2E2E2E2E2E2E2E2E2E2E2E2E2E2E2E2E2E2E2E2E2E2E2E2E2E2E2E2E2E2E2E2E2E2E2E2E2E2E2E2E2E2F5E2E2E2E2E2E2E2E2E2E2E2E2E2E2E2E2E2E2E2E2E2E2E2E2E2E2E2E2E2E2E2E2E2E2E2E2E2E2E2E2E2E2E2E2
310
E2E2E2E2E2E2E2E2E2E2E2E2E2E2E2E2E2E2E2E2E2E2E2E2E2E2E2E2E2E2E2E2E2E2E2E2E2E2E2E2E2E2E2E2E2E2E2E2E2E2E2E2E2E2E2E2E2E2E2E2E2E2E2F5E2E2E2E2E2E2E2E2E2E2E2E2E2E2E2E2E2E2E2E2E2E2E2E2E2E2E2E2E2E2E2E2E2E2E2E2E2E2E2E2E2E2E2E2E2E2E2E2E2E2E2E2E2E2E2E2E2E2E2E2E2E2E2
310
E2E2E2E2E2E2E2E2E2E2E2E2E2E2E2E2E2E2E2E2E2E2E2E2E2E2E2E2E2E2E2E2E2E2E2E2E2E2E2E2E2E2E2E2F5E2E2E2E2E2E2E2E2E2E2E2E2E2E2E2E2E2E2E2E2E2E2E2E2E2E2E2E2E2E2E2E2E2E2E2E2E2E2E2E2E2E2E2E2E2E2E2E2E2E2E2E2E2E2E2E2E2E2E2E2E2E2E2E2E2E2E2E2E2E2E2E2E2E2E2E2E2E2E2E2E2E2
310
E2E2E2E2E2E2E2E2E2E2E2E2E2E2E2E2E2E2E2E2E2E2E2E2E2F5E2F5E2E2E2E2E2E2E2E2E2E2E2E2E2E2E2E2E2E2E2E2E2E2E2E2E2E2E2E2E2E2E2E2E2E2E2E2E2E2E2E2E2E2E2E2E2E2E2E2E2E2E2E2E2E2E2E2E2E2E2E2E2E2E2E2E2E2E2E2E2E2E2E2E2E2E2E2E2E2E2E2E2E2E2E2E2E2E2E2E2E2E2E2E2E2E2E2E2E2E2
310
E2E2E2E2F5E2F5E2F5E2E2E2E2E2E2E2E2E2E2E2E2E2E2E2E2E2E2E2E2E2E2E2E2E2E2E2E2E2E2E2E2E2E2E2E2E2E2E2E2E2E2E2E2E2E2E2E2E2E2E2E2E2E2E2E2E2E2E2E2E2E2E2E2E2E2E2E2E2E2E2E2E2E2E2E2E2E2E2E2E2E2E2E2E2E2E2E2E2E2E2E2E2E2E2E2E2E2E2E2E2E2E2F5E2F5E2F5E2E2E2E2E2E2E2E2E2E2
310
E2E2E2E2E2E2E2E2E2E2E2E2E2E2E2E2E2E2E2E2E2E2E2E2E2E2E2E2E2E2E2E2E2E2E2E2E2E2E2E2E2E2E2E2E2E2E2E2E2E2E2E2E2E2E2E2E2E2E2E2E2E2E2E2E2E2E2E2E2E2E2E2E2E2E2E2E2E2E2E2E2E2E2E2E2E2E2E2E2E2E2E2E2F5E2F5E2F5E2E2E2E2E2E2E2E2E2E2E2E2E2E2E2E2E2E2E2E2E2E2E2E2E2E2E2E2E2
310
E2E2E2E2E2E2E2E2E2E2E2E2E2E2E2E2E2E2E2E2E2E2E2E2E2E2E2E2E2E2E2E2E2E2E2E2E2E2E2E2E2E2E2E2E2E2E2E2E2E2E2E2E2E2E2E2E2E2E2E2E2E2E2E2E2E2E2E2E2E2E2E2E2E2F5E2F5E2F5E2E2E2E2E2E2E2E2E2E2E2E2E2E2E2E2E2E2E2E2E2E2E2E2E2E2E2E2E2E2E2E2E2E2E2E2E2E2E2E2E2E2E2E2E2E2E2E2
310
E2E2E2E2E2E2E2E2E2E2E2E2E2E2E2E2E2E2E2E2E2E2E2E2E2E2E2E2E2E2E2E2E2E2E2E2E2E2E2E2E2E2E2E2E2E2E2E2E2E2E2E2E2E2E2F5E2F5E2F5E2E2E2E2E2E2E2E2E2E2E2E2E2E2E2E2E2E2E2E2E2E2E2E2E2E2E2E2E2E2E2E2E2E2E2E2E2E2E2E2E2E2E2E2E2E2E2E2E2E2E2E2E2E2E2E2E2E2E2E2E2E2E2E2E2E2E2
310
E2E2E2E2E2E2E2E2E2E2E2E2E2E2E2E2E2E2E2E2E2E2E2E2E2E2E2E2E2E2E2E2E2E2E2E2F5E2F5E2F5E2E2E2E2E2E2E2E2E2E2E2E2E2E2E2E2E2E2E2E2E2E2E2E2E2E2E2E2E2E2E2E2E2E2E2E2E2E2E2E2E2E2E2E2E2E2E2E2E2E2E2E2E2E2E2E2E2E2E2E2E2E2E2E2E2E2E2E2E2E2E2E2E2E2E2E2E2E2E2E2E2E2E2E2E2E2
310
E2E2E2E2E2E2E2E2E2E2E2E2E2E2E2E2E2F5E2F5E2F5E2E2E2E2E2E2E2E2E2E2E2E2E2E2E2E2E2E2E2E2E2E2E2E2E2E2E2E2E2E2E2E2E2E2E2E2E2E2E2E2E2E2E2E2E2E2E2E2E2E2E2E2E2E2E2E2E2E2E2E2E2E2E2E2E2E2E2E2E2E2E2E2E2E2E2E2E2E2E2E2E2E2E2E2E2E2E2E2E2E2E2E2E2E2E2E2E2E2E2E2E2E2E2F5E2
310
F5E2F5E2E2E2E2E2E2E2E2E2E2E2E2E2E2E2E2E2E2E2E2E2E2E2E2E2E2E2E2E2E2E2E2E2E2E2E2E2E2E2E2E2E2E2E2E2E2E2E2E2E2E2E2E2E2E2E2E2E2E2E2E2E2E2E2E2E2E2E2E2E2E2E2E2E2E2E2E2E2E2E2E2E2E2E2E2E2E2E2E2E2E2E2E2E2E2E2E2E2E2E2E2E2E2F5E2F5E2F5E2E2E2E2E2E2E2E2E2E2E2E2E2E2E2E2
310
E2E2E2E2E2E2E2E2E2E2E2E2E2E2E2E2E2E2E2E2E2E2E2E2E2E2E2E2E2E2E2E2E2E2E2E2E2E2E2E2E2E2E2E2E2E2E2E2E2E2E2E2E2E2E2E2E2E2E2E2E2E2E2E2E2E2E2E2E2E2E2E2E2E2E2E2E2E2E2E2E2E2E2E2E2E2E2F5E2F5E2F5E2E2E2E2E2E2E2E2E2E2E2E2E2E2E2E2E2E2E2E2E2E2E2E2E2E2E2E2E2E2E2E2E2E2E2
310
E2E2E2E2E2E2E2E2E2E2E2E2E2E2E2E2E2E2E2E2E2E2E2E2E2E2E2E2E2E2E2E2E2E2E2E2E2E2E2E2E2E2E2E2E2E2E2E2E2E2E2E2E2E2E2E2E2E2E2E2E2E2E2E2E2E2E2E2F5E2F5E2F5E2E2E2E2E2E2E2E2E2E2E2E2E2E2E2E2E2E2E2E2E2E2E2E2E2E2E2E2E2E2E2E2E2E2E2E2E2E2E2E2E2E2E2E2E2E2E2E2E2E2E2E2E2E2
310
E2E2E2E2E2E2E2E2E2E2E2E2E2E2E2E2E2E2E2E2E2E2E2E2E2E2E2E2E2E2E2E2E2E2E2E2E2E2E2E2E2E2E2E2E2E2E2E2E2F5E2F5E2F5E2E2E2E2E2E2E2E2E2E2E2E2E2E2E2E2E2E2E2E2E2E2E2E2E2E2E2E2E2E2E2E2E2E2E2E2E2E2E2E2E2E2E2E2E2E2E2E2E2E2E2E2E2E2E2E2E2E2E2E2E2E2E2E2E2E2E2E2E2E2E2E2E2
310
E2E2E2E2E2E2E2E2E2E2E2E2E2E2E2E2E2E2E2E2E2E2E2E2E2E2E2E2E2E2F5E2F5E2F5E2E2E2E2E2E2E2E2E2E2E2E2E2E2E2E2E2E2E2E2E2E2E2E2E2E2E2E2E2E2E2E2E2E2E2E2E2E2E2E2E2E2E2E2E2E2E2E2E2E2E2E2E2E2E2E2E2E2E2E2E2E2E2E2E2E2E2E2E2E2E2E2E2E2E2E2E2E2E2E2E2E2E2E2E2E2E2E2E2E2E2E2
310
E2E2E2E2E2E2E2E2E2E2E2F5E2F5E2F5E2E2E2E2E2E2E2E2E2E2E2E2E2E2E2E2E2E2E2E2E2E2E2E2E2E2E2E2E2E2E2E2E2E2E2E2E2E2E2E2E2E2E2E2E2E2E2E2E2E2E2E2E2E2E2E2E2E2E2E2E2E2E2E2E2E2E2E2E2E2E2E2E2E2E2E2E2E2E2E2E2E2E2E2E2E2E2E2E2E2E2E2E2E2E2E2E2E2E2E2E2E2E2F5E2F5E2F5E2E2E2
310
E2E2E2E2E2E2E2E2E2E2E2E2E2E2E2E2E2E2E2E2E2E2E2E2E2E2E2E2E2E2E2E2E2E2E2E2E2E2E2E2E2E2E2E2E2E2E2E2E2E2E2E2E2E2E2E2E2E2E2E2E2E2E2E2E2E2E2E2E2E2E2E2E2E2E2E2E2E2E2E2E2E2E2E2E2E2E2E2E2E2E2E2E2E2E2E2E2E2E2E2F5E2F5E2F5E2E2E2E2E2E2E2E2E2E2E2E2E2E2E2E2E2E2E2E2E2E2
310
E2E2E2E2E2E2E2E2E2E2E2E2E2E2E2E2E2E2E2E2E2E2E2E2E2E2E2E2E2E2E2E2E2E2E2E2E2E2E2E2E2E2E2E2E2E2E2E2E2E2E2E2E2E2E2E2E2E2E2E2E2E2E2E2E2E2E2E2E2E2E2E2E2E2E2E2E2E2E2E2E2F5E2F5E2E2E2E2E2E2E2E2E2E2E2E2E2E2E2E2E2E2E2E2E2E2E2E2E2E2E2E2E2E2E2E2E2E2E2E2E2E2E2E2E2E2E2
310
E2E2E2E2E2E2E2E2E2E2E2E2E2E2E2E2E2E2E2E2E2E2E2E2E2E2E2E2E2E2E2E2E2E2E2E2E2E2E2E2E2E2E2E2E2E2E2E2E2E2E2E2E2E2E2E2E2E2E2E2E2E2E2E2F5E2E2E2E2E2E2E2E2E2E2E2E2E2E2E2E2E2E2E2E2E2E2E2E2E2E2E2E2E2E2E2E2E2E2E2E2E2E2E2E2E2E2E2E2E2E2E2E2E2E2E2E2E2E2E2E2E2E2E2E2E2E2
310
E2E2E2E2E2E2E2E2E2E2E2E2E2E2E2E2E2E2E2E2E2E2E2E2E2E2E2E2E2E2E2E2E2E2E2E2E2E2E2E2E2E2E2E2E2F5E2E2E2E2E2E2E2E2E2E2E2E2E2E2E2E2E2E2E2E2E2E2E2E2E2E2E2E2E2E2E2E2E2E2E2E2E2E2E2E2E2E2E2E2E2E2E2E2E2E2E2E2E2E2E2E2E2E2E2E2E2E2E2E2E2E2E2E2E2E2E2E2E2E2E2E2E2E2E2E2E2
310
E2E2E2E2E2E2E2E2E2E2E2E2E2E2E2E2E2E2E2E2E2E2E2E2E2E2F5E2E2E2E2E2E2E2E2E2E2E2E2E2E2E2E2E2E2E2E2E2E2E2E2E2E2E2E2E2E2E2E2E2E2E2E2E2E2E2E2E2E2E2E2E2E2E2E2E2E2E2E2E2E2E2E2E2E2E2E2E2E2E2E2E2E2E2E2E2E2E2E2E2E2E2E2E2E2E2E2E2E2E2E2E2E2E2E2E2E2E2E2E2E2E2E2E2E2E2E2
310
E2E2E2E2E2E2E2F5E2E2E2E2E2E2E2E2E2E2E2E2E2E2E2E2E2E2E2E2E2E2E2E2E2E2E2E2E2E2E2E2E2E2E2E2E2E2E2E2E2E2E2E2E2E2E2E2E2E2E2E2E2E2E2E2E2E2E2E2E2E2E2E2E2E2E2E2E2E2E2E2E2E2E2E2E2E2E2E2E2E2E2E2E2E2E2E2E2E2E2E2E2E2E2E2E2E2E2E2E2E2E2E2E2E2E2F5E2E2E2E2E2E2E2E2E2E2E2
310
E2E2E2E2E2E2E2E2E2E2E2E2E2E2E2E2E2E2E2E2E2E2E2E2E2E2E2E2E2E2E2E2E2E2E2E2E2E2E2E2E2E2E2E2E2E2E2E2E2E2E2E2E2E2E2E2E2E2E2E2E2E2E2E2E2E2E2E2E2E2E2E2E2E2E2E2E2E2E2E2E2E2E2E2E2E2E2E2E2E2E2E2E2E2E2E2F5E2E2E2E2E2E2E2E2E2E2E2E2E2E2E2E2E2E2E2E2E2E2E2E2E2E2E2E2E2E2
310
E2E2E2E2E2E2E2E2E2E2E2E2E2E2E2E2E2E2E2E2E2E2E2E2E2E2E2E2E2E2E2E2E2E2E2E2E2E2E2E2E2E2E2E2E2E2E2E2E2E2E2E2E2E2E2E2E2E2E2E2E2E2E2E2E2E2E2E2E2E2E2E2E2E2E2E2E2F5E2E2E2E2E2E2E2E2E2E2E2E2E2E2E2E2E2E2E2E2E2E2E2E2E2E2E2E2E2E2E2E2E2E2E2E2E2E2E2E2E2E2E2E2E2E2E2E2E2
310
E2E2E2E2E2E2E2E2E2E2E2E2E2E2E2E2E2E2E2E2E2E2E2E2E2E2E2E2E2E2E2E2E2E2E2E2E2E2E2E2E2E2E2E2E2E2E2E2E2E2E2E2E2E2E2E2E2E2F5E2E2E2E2E2E2E2E2E2E2E2E2E2E2E2E2E2E2E2E2E2E2E2E2E2E2E2E2E2E2E2E2E2E2E2E2E2E2E2E2E2E2E2E2E2E2E2E2E2E2E2E2E2E2E2E2E2E2E2E2E2E2E2E2E2E2E2E2
310
E2E2E2E2E2E2E2E2E2E2E2E2E2E2E2E2E2E2E2E2E2E2E2E2E2E2E2E2E2E2E2E2E2E2E2E2E2E2E2F5E2E2E2E2E2E2E2E2E2E2E2E2E2E2E2E2E2E2E2E2E2E2E2E2E2E2E2E2E2E2E2E2E2E2E2E2E2E2E2E2E2E2E2E2E2E2E2E2E2E2E2E2E2E2E2E2E2E2E2E2E2E2E2E2E2E2E2E2E2E2E2E2E2E2E2E2E2E2E2E2E2E2E2E2E2E2E2
310
E2E2E2E2E2E2E2E2E2E2E2E2E2E2E2E2E2E2E2E2F5E2F5E2E2E2E2E2E2E2E2E2E2E2E2E2E2E2E2E2E2E2E2E2E2E2E2E2E2E2E2E2E2E2E2E2E2E2E2E2E2E2E2E2E2E2E2E2E2E2E2E2E2E2E2E2E2E2E2E2E2E2E2E2E2E2E2E2E2E2E2E2E2E2E2E2E2E2E2E2E2E2E2E2E2E2E2E2E2E2E2E2E2E2E2E2E2E2E2E2E2E2E2E2E2E2F5
310
E2F5E2F5E2E2E2E2E2E2E2E2E2E2E2E2E2E2E2E2E2E2E2E2E2E2E2E2E2E2E2E2E2E2E2E2E2E2E2E2E2E2E2E2E2E2E2E2E2E2E2E2E2E2E2E2E2E2E2E2E2E2E2E2E2E2E2E2E2E2E2E2E2E2E2E2E2E2E2E2E2E2E2E2E2E2E2E2E2E2E2E2E2E2E2E2E2E2E2E2E2E2E2E2E2E2E2F5E2F5E2F5E2E2E2E2E2E2E2E2E2E2E2E2E2E2E2
310
E2E2E2E2E2E2E2E2E2E2E2E2E2E2E2E2E2E2E2E2E2E2E2E2E2E2E2E2E2E2E2E2E2E2E2E2E2E2E2E2E2E2E2E2E2E2E2E2E2E2E2E2E2E2E2E2E2E2E2E2E2E2E2E2E2E2E2E2E2E2E2E2E2E2E2E2E2E2E2E2E2E2E2E2E2E2E2E2F5E2F5E2F5E2E2E2E2E2E2E2E2E2E2E2E2E2E2E2E2E2E2E2E2E2E2E2E2E2E2E2E2E2E2E2E2E2E2
310
E2E2E2E2E2E2E2E2E2E2E2E2E2E2E2E2E2E2E2E2E2E2E2E2E2E2E2E2E2E2E2E2E2E2E2E2E2E2E2E2E2E2E2E2E2E2E2E2E2E2E2E2E2E2E2E2E2E2E2E2E2E2E2E2E2E2E2E2E2F5E2F5E2F5E2E2E2E2E2E2E2E2E2E2E2E2E2E2E2E2E2E2E2E2E2E2E2E2E2E2E2E2E2E2E2E2E2E2E2E2E2E2E2E2E2E2E2E2E2E2E2E2E2E2E2E2E2
310
E2E2E2E2E2E2E2E2E2E2E2E2E2E2E2E2E2E2E2E2E2E2E2E2E2E2E2E2E2E2E2E2E2E2E2E2E2E2E2E2E2E2E2E2E2E2E2E2E2E2F5E2F5E2F5E2E2E2E2E2E2E2E2E2E2E2E2E2E2E2E2E2E2E2E2E2E2E2E2E2E2E2E2E2E2E2E2E2E2E2E2E2E2E2E2E2E2E2E2E2E2E2E2E2E2E2E2E2E2E2E2E2E2E2E2E2E2E2E2E2E2E2E2E2E2E2E2
310
E2E2E2E2E2E2E2E2E2E2E2E2E2E2E2E2E2E2E2E2E2E2E2E2E2E2E2E2E2E2E2F5E2F5E2F5E2E2E2E2E2E2E2E2E2E2E2E2E2E2E2E2E2E2E2E2E2E2E2E2E2E2E2E2E2E2E2E2E2E2E2E2E2E2E2E2E2E2E2E2E2E2E2E2E2E2E2E2E2E2E2E2E2E2E2E2E2E2E2E2E2E2E2E2E2E2E2E2E2E2E2E2E2E2E2E2E2E2E2E2E2E2E2E2E2E2E2
310
E2E2E2E2E2E2E2E2E2E2E2E2F5E2F5E2F5E2E2E2E2E2E2E2E2E2E2E2E2E2E2E2E2E2E2E2E2E2E2E2E2E2E2E2E2E2E2E2E2E2E2E2E2E2E2E2E2E2E2E2E2E2E2E2E2E2E2E2E2E2E2E2E2E2E2E2E2E2E2E2E2E2E2E2E2E2E2E2E2E2E2E2E2E2E2E2E2E2E2E2E2E2E2E2E2E2E2E2E2E2E2E2E2E2E2E2E2E2E2E2F5E2F5E2F5E2E2
310
E2E2E2E2E2E2E2E2E2E2E2E2E2E2E2E2E2E2E2E2E2E2E2E2E2E2E2E2E2E2E2E2E2E2E2E2E2E2E2E2E2E2E2E2E2E2E2E2E2E2E2E2E2E2E2E2E2E2E2E2E2E2E2E2E2E2E2E2E2E2E2E2E2E2E2E2E2E2E2E2E2E2E2E2E2E2E2E2E2E2E2E2E2E2E2E2E2E2E2E2E2F5E2F5E2F5E2E2E2E2E2E2E2E2E2E2E2E2E2E2E2E2E2E2E2E2E2
310
E2E2E2E2E2E2E2E2E2E2E2E2E2E2E2E2E2E2E2E2E2E2E2E2E2E2E2E2E2E2E2E2E2E2E2E2E2E2E2E2E2E2E2E2E2E2E2E2E2E2E2E2E2E2E2E2E2E2E2E2E2E2E2E2E2E2E2E2E2E2E2E2E2E2E2E2E2E2E2E2E2E2F5E2F5E2F5E2E2E2E2E2E2E2E2E2E2E2E2E2E2E2E2E2E2E2E2E2E2E2E2E2E2E2E2E2E2E2E2E2E2E2E2E2E2E2E2
310
E2E2E2E2E2E2E2E2E2E2E2E2E2E2E2E2E2E2E2E2E2E2E2E2E2E2E2E2E2E2E2E2E2E2E2E2E2E2E2E2E2E2E2E2E2E2E2E2E2E2E2E2E2E2E2E2E2E2E2E2E2E2E2F5E2F5E2F5E2E2E2E2E2E2E2E2E2E2E2E2E2E2E2E2E2E2E2E2E2E2E2E2E2E2E2E2E2E2E2E2E2E2E2E2E2E2E2E2E2E2E2E2E2E2E2E2E2E2E2E2E2E2E2E2E2E2E2
310
E2E2E2E2E2E2E2E2E2E2E2E2E2E2E2E2E2E2E2E2E2E2E2E2E2E2E2E2E2E2E2E2E2E2E2E2E2E2E2E2E2E2E2E2F5E2F5E2F5E2E2E2E2E2E2E2E2E2E2E2E2E2E2E2E2E2E2E2E2E2E2E2E2E2E2E2E2E2E2E2E2E2E2E2E2E2E2E2E2E2E2E2E2E2E2E2E2E2E2E2E2E2E2E2E2E2E2E2E2E2E2E2E2E2E2E2E2E2E2E2E2E2E2E2E2E2E2
310
E2E2E2E2E2E2E2E2E2E2E2E2E2E2E2E2E2E2E2E2E2E2E2E2E2F5E2F5E2F5E2E2E2E2E2E2E2E2E2E2E2E2E2E2E2E2E2E2E2E2E2E2E2E2E2E2E2E2E2E2E2E2E2E2E2E2E2E2E2E2E2E2E2E2E2E2E2E2E2E2E2E2E2E2E2E2E2E2E2E2E2E2E2E2E2E2E2E2E2E2E2E2E2E2E2E2E2E2E2E2E2E2E2E2E2E2E2E2E2E2E2E2E2E2E2E2E2
310
E2E2E2E2E2E2F5E2F5E2F5E2E2E2E2E2E2E2E2E2E2E2E2E2E2E2E2E2E2E2E2E2E2E2E2E2E2E2E2E2E2E2E2E2E2E2E2E2E2E2E2E2E2E2E2E2E2E2E2E2E2E2E2E2E2E2E2E2E2E2E2E2E2E2E2E2E2E2E2E2E2E2E2E2E2E2E2E2E2E2E2E2E2E2E2E2E2E2E2E2E2E2E2E2E2E2E2E2E2E2E2E2E2E2F5E2F5E2F5E2E2E2E2E2E2E2E2
310
E2E2E2E2E2E2E2E2E2E2E2E2E2E2E2E2E2E2E2E2E2E2E2E2E2E2E2E2E2E2E2E2E2E2E2E2E2E2E2E2E2E2E2E2E2E2E2E2E2E2E2E2E2E2E2E2E2E2E2E2E2E2E2E2E2E2E2E2E2E2E2E2E2E2E2E2E2E2E2E2E2E2E2E2E2E2E2E2E2E2E2E2E2E2E2F5E2F5E2F5E2E2E2E2E2E2E2E2E2E2E2E2E2E2E2E2E2E2E2E2E2E2E2E2E2E2E2
310
E2E2E2E2E2E2E2E2E2E2E2E2E2E2E2E2E2E2E2E2E2E2E2E2E2E2E2E2E2E2E2E2E2E2E2E2E2E2E2E2E2E2E2E2E2E2E2E2E2E2E2E2E2E2E2E2E2E2E2E2E2E2E2E2E2E2E2E2E2E2E2E2E2E2E2E2F5E2F5E2E2E2E2E2E2E2E2E2E2E2E2E2E2E2E2E2E2E2E2E2E2E2E2E2E2E2E2E2E2E2E2E2E2E2E2E2E2E2E2E2E2E2E2E2E2E2E2
310
E2E2E2E2E2E2E2E2E2E2E2E2E2E2E2E2E2E2E2E2E2E2E2E2E2E2E2E2E2E2E2E2E2E2E2E2E2E2E2E2E2E2E2E2E2E2E2E2E2E2E2E2E2E2E2E2E2E2E2F5E2E2E2E2E2E2E2E2E2E2E2E2E2E2E2E2E2E2E2E2E2E2E2E2E2E2E2E2E2E2E2E2E2E2E2E2E2E2E2E2E2E2E2E2E2E2E2E2E2E2E2E2E2E2E2E2E2E2E2E2E2E2E2E2E2E2E2
310
E2E2E2E2E2E2E2E2E2E2E2E2E2E2E2E2E2E2E2E2E2E2E2E2E2E2E2E2E2E2E2E2E2E2E2E2E2E2E2E2F5E2E2E2E2E2E2E2E2E2E2E2E2E2E2E2E2E2E2E2E2E2E2E2E2E2E2E2E2E2E2E2E2E2E2E2E2E2E2E2E2E2E2E2E2E2E2E2E2E2E2E2E2E2E2E2E2E2E2E2E2E2E2E2E2E2E2E2E2E2E2E2E2E2E2E2E2E2E2E2E2E2E2E2E2E2E2
310
E2E2E2E2E2E2E2E2E2E2E2E2E2E2E2E2E2E2E2E2E2F5E2E2E2E2E2E2E2E2E2E2E2E2E2E2E2E2E2E2E2E2E2E2E2E2E2E2E2E2E2E2E2E2E2E2E2E2E2E2E2E2E2E2E2E2E2E2E2E2E2E2E2E2E2E2E2E2E2E2E2E2E2E2E2E2E2E2E2E2E2E2E2E2E2E2E2E2E2E2E2E2E2E2E2E2E2E2E2E2E2E2E2E2E2E2E2E2E2E2E2E2E2E2E2E2E2
310
E2E2F5E2E2E2E2E2E2E2E2E2E2E2E2E2E2E2E2E2E2E2E2E2E2E2E2E2E2E2E2E2E2E2E2E2E2E2E2E2E2E2E2E2E2E2E2E2E2E2E2E2E2E2E2E2E2E2E2E2E2E2E2E2E2E2E2E2E2E2E2E2E2E2E2E2E2E2E2E2E2E2E2E2E2E2E2E2E2E2E2E2E2E2E2E2E2E2E2E2E2E2E2E2E2E2E2E2E2E2F5E2E2E2E2E2E2E2E2E2E2E2E2E2E2E2E2
310
E2E2E2E2E2E2E2E2E2E2E2E2E2E2E2E2E2E2E2E2E2E2E2E2E2E2E2E2E2E2E2E2E2E2E2E2E2E2E2E2E2E2E2E2E2E2E2E2E2E2E2E2E2E2E2E2E2E2E2E2E2E2E2E2E2E2E2E2E2E2E2E2E2E2E2E2E2E2E2E2E2E2E2E2E2E2E2E2E2E2E2F5E2E2E2E2E2E2E2E2E2E2E2E2E2E2E2E2E2E2E2E2E2E2E2E2E2E2E2E2E2E2E2E2E2E2E2
310
E2E2E2E2E2E2E2E2E2E2E2E2E2E2E2E2E2E2E2E2E2E2E2E2E2E2E2E2E2E2E2E2E2E2E2E2E2E2E2E2E2E2E2E2E2E2E2E2E2E2E2E2E2E2E2E2E2E2E2E2E2E2E2E2E2E2E2E2E2E2E2E2F5E2E2E2E2E2E2E2E2E2E2E2E2E2E2E2E2E2E2E2E2E2E2E2E2E2E2E2E2E2E2E2E2E2E2E2E2E2E2E2E2E2E2E2E2E2E2E2E2E2E2E2E2E2E2
310
E2E2E2E2E2E2E2E2E2E2E2E2E2E2E2E2E2E2E2E2E2E2E2E2E2E2E2E2E2E2E2E2E2E2E2E2E2E2E2E2E2E2E2E2E2E2E2E2E2E2E2E2E2F5E2E2E2E2E2E2E2E2E2E2E2E2E2E2E2E2E2E2E2E2E2E2E2E2E2E2E2E2E2E2E2E2E2E2E2E2E2E2E2E2E2E2E2E2E2E2E2E2E2E2E2E2E2E2E2E2E2E2E2E2E2E2E2E2E2E2E2E2E2E2E2E2E2
310
E2E2E2E2E2E2E2E2E2E2E2E2E2E2E2E2E2E2E2E2E2E2E2E2E2E2E2E2E2E2E2E2E2E2F5E2E2E2E2E2E2E2E2E2E2E2E2E2E2E2E2E2E2E2E2E2E2E2E2E2E2E2E2E2E2E2E2E2E2E2E2E2E2E2E2E2E2E2E2E2E2E2E2E2E2E2E2E2E2E2E2E2E2E2E2E2E2E2E2E2E2E2E2E2E2E2E2E2E2E2E2E2E2E2E2E2E2E2E2E2E2E2E2E2E2E2E2
310
E2E2E2E2E2E2E2E2E2E2E2E2E2E2E2F5E2F5E2E2E2E2E2E2E2E2E2E2E2E2E2E2E2E2E2E2E2E2E2E2E2E2E2E2E2E2E2E2E2E2E2E2E2E2E2E2E2E2E2E2E2E2E2E2E2E2E2E2E2E2E2E2E2E2E2E2E2E2E2E2E2E2E2E2E2E2E2E2E2E2E2E2E2E2E2E2E2E2E2E2E2E2E2E2E2E2E2E2E2E2E2E2E2E2E2E2E2E2E2E2E2F5E2F5E2F5E2
310
E2E2E2E2E2E2E2E2E2E2E2E2E2E2E2E2E2E2E2E2E2E2E2E2E2E2E2E2E2E2E2E2E2E2E2E2E2E2E2E2E2E2E2E2E2E2E2E2E2E2E2E2E2E2E2E2E2E2E2E2E2E2E2E2E2E2E2E2E2E2E2E2E2E2E2E2E2E2E2E2E2E2E2E2E2E2E2E2E2E2E2E2E2E2E2E2E2E2E2E2E2E2F5E2F5E2F5E2E2E2E2E2E2E2E2E2E2E2E2E2E2E2E2E2E2E2E2
310
E2E2E2E2E2E2E2E2E2E2E2E2E2E2E2E2E2E2E2E2E2E2E2E2E2E2E2E2E2E2E2E2E2E2E2E2E2E2E2E2E2E2E2E2E2E2E2E2E2E2E2E2E2E2E2E2E2E2E2E2E2E2E2E2E2E2E2E2E2E2E2E2E2E2E2E2E2E2E2E2E2E2E2F5E2F5E2F5E2E2E2E2E2E2E2E2E2E2E2E2E2E2E2E2E2E2E2E2E2E2E2E2E2E2E2E2E2E2E2E2E2E2E2E2E2E2E2
310
E2E2E2E2E2E2E2E2E2E2E2E2E2E2E2E2E2E2E2E2E2E2E2E2E2E2E2E2E2E2E2E2E2E2E2E2E2E2E2E2E2E2E2E2E2E2E2E2E2E2E2E2E2E2E2E2E2E2E2E2E2E2E2E2F5E2F5E2F5E2E2E2E2E2E2E2E2E2E2E2E2E2E2E2E2E2E2E2E2E2E2E2E2E2E2E2E2E2E2E2E2E2E2E2E2E2E2E2E2E2E2E2E2E2E2E2E2E2E2E2E2E2E2E2E2E2E2
310
E2E2E2E2E2E2E2E2E2E2E2E2E2E2E2E2E2E2E2E2E2E2E2E2E2E2E2E2E2E2E2E2E2E2E2E2E2E2E2E2E2E2E2E2E2F5E2F5E2F5E2E2E2E2E2E2E2E2E2E2E2E2E2E2E2E2E2E2E2E2E2E2E2E2E2E2E2E2E2E2E2E2E2E2E2E2E2E2E2E2E2E2E2E2E2E2E2E2E2E2E2E2E2E2E2E2E2E2E2E2E2E2E2E2E2E2E2E2E2E2E2E2E2E2E2E2E2
310
E2E2E2E2E2E2E2E2E2E2E2E2E2E2E2E2E2E2E2E2E2E2E2E2E2E2F5E2F5E2F5E2E2E2E2E2E2E2E2E2E2E2E2E2E2E2E2E2E2E2E2E2E2E2E2E2E2E2E2E2E2E2E2E2E2E2E2E2E2E2E2E2E2E2E2E2E2E2E2E2E2E2E2E2E2E2E2E2E2E2E2E2E2E2E2E2E2E2E2E2E2E2E2E2E2E2E2E2E2E2E2E2E2E2E2E2E2E2E2E2E2E2E2E2E2E2E2
310
E2E2E2E2E2E2E2F5E2F5E2F5E2E2E2E2E2E2E2E2E2E2E2E2E2E2E2E2E2E2E2E2E2E2E2E2E2E2E2E2E2E2E2E2E2E2E2E2E2E2E2E2E2E2E2E2E2E2E2E2E2E2E2E2E2E2E2E2E2E2E2E2E2E2E2E2E2E2E2E2E2E2E2E2E2E2E2E2E2E2E2E2E2E2E2E2E2E2E2E2E2E2E2E2E2E2E2E2E2E2E2E2E2E2E2F5E2F5E2F5E2E2E2E2E2E2E2
310
E2E2E2E2E2E2E2E2E2E2E2E2E2E2E2E2E2E2E2E2E2E2E2E2E2E2E2E2E2E2E2E2E2E2E2E2E2E2E2E2E2E2E2E2E2E2E2E2E2E2E2E2E2E2E2E2E2E2E2E2E2E2E2E2E2E2E2E2E2E2E2E2E2E2E2E2E2E2E2E2E2E2E2E2E2E2E2E2E2E2E2E2E2E2E2E2F5E2F5E2F5E2E2E2E2E2E2E2E2E2E2E2E2E2E2E2E2E2E2E2E2E2E2E2E2E2E2
310
E2E2E2E2E2E2E2E2E2E2E2E2E2E2E2E2E2E2E2E2E2E2E2E2E2E2E2E2E2E2E2E2E2E2E2E2E2E2E2E2E2E2E2E2E2E2E2E2E2E2E2E2E2E2E2E2E2E2E2E2E2E2E2E2E2E2E2E2E2E2E2E2E2E2E2E2E2F5E2F5E2F5E2E2E2E2E2E2E2E2E2E2E2E2E2E2E2E2E2E2E2E2E2E2E2E2E2E2E2E2E2E2E2E2E2E2E2E2E2E2E2E2E2E2E2E2E2
310
E2E2E2E2E2E2E2E2E2E2E2E2E2E2E2E2E2E2E2E2E2E2E2E2E2E2E2E2E2E2E2E2E2E2E2E2E2E2E2E2E2E2E2E2E2E2E2E2E2E2E2E2E2E2E2E2E2E2F5E2F5E2F5E2E2E2E2E2E2E2E2E2E2E2E2E2E2E2E2E2E2E2E2E2E2E2E2E2E2E2E2E2E2E2E2E2E2E2E2E2E2E2E2E2E2E2E2E2E2E2E2E2E2E2E2E2E2E2E2E2E2E2E2E2E2E2E2
310
E2E2E2E2E2E2E2E2E2E2E2E2E2E2E2E2E2E2E2E2E2E2E2E2E2E2E2E2E2E2E2E2E2E2E2E2E2E2E2F5E2F5E2F5E2E2E2E2E2E2E2E2E2E2E2E2E2E2E2E2E2E2E2E2E2E2E2E2E2E2E2E2E2E2E2E2E2E2E2E2E2E2E2E2E2E2E2E2E2E2E2E2E2E2E2E2E2E2E2E2E2E2E2E2E2E2E2E2E2E2E2E2E2E2E2E2E2E2E2E2E2E2E2E2E2E2E2
310
E2E2E2E2E2E2E2E2E2E2E2E2E2E2E2E2E2E2E2E2F5E2F5E2F5E2E2E2E2E2E2E2E2E2E2E2E2E2E2E2E2E2E2E2E2E2E2E2E2E2E2E2E2E2E2E2E2E2E2E2E2E2E2E2E2E2E2E2E2E2E2E2E2E2E2E2E2E2E2E2E2E2E2E2E2E2E2E2E2E2E2E2E2E2E2E2E2E2E2E2E2E2E2E2E2E2E2E2E2E2E2E2E2E2E2E2E2E2E2E2E2E2E2E2E2E2E2
310
E2F5E2F5E2F5E2E2E2E2E2E2E2E2E2E2E2E2E2E2E2E2E2E2E2E2E2E2E2E2E2E2E2E2E2E2E2E2E2E2E2E2E2E2E2E2E2E2E2E2E2E2E2E2E2E2E2E2E2E2E2E2E2E2E2E2E2E2E2E2E2E2E2E2E2E2E2E2E2E2E2E2E2E2E2E2E2E2E2E2E2E2E2E2E2E2E2E2E2E2E2E2E2E2E2E2E2E2E2F5E2F5E2F5E2E2E2E2E2E2E2E2E2E2E2E2E2
310
E2E2E2E2E2E2E2E2E2E2E2E2E2E2E2E2E2E2E2E2E2E2E2E2E2E2E2E2E2E2E2E2E2E2E2E2E2E2E2E2E2E2E2E2E2E2E2E2E2E2E2E2E2E2E2E2E2E2E2E2E2E2E2E2E2E2E2E2E2E2E2E2E2E2E2E2E2E2E2E2E2E2E2E2E2E2E2E2E2E2F5E2F5E2F5E2E2E2E2E2E2E2E2E2E2E2E2E2E2E2E2E2E2E2E2E2E2E2E2E2E2E2E2E2E2E2E2
310
E2E2E2E2E2E2E2E2E2E2E2E2E2E2E2E2E2E2E2E2E2E2E2E2E2E2E2E2E2E2E2E2E2E2E2E2E2E2E2E2E2E2E2E2E2E2E2E2E2E2E2E2E2E2E2E2E2E2E2E2E2E2E2E2E2E2E2E2E2E2E2F5E2F5E2E2E2E2E2E2E2E2E2E2E2E2E2E2E2E2E2E2E2E2E2E2E2E2E2E2E2E2E2E2E2E2E2E2E2E2E2E2E2E2E2E2E2E2E2E2E2E2E2E2E2E2E2
310
E2E2E2E2E2E2E2E2E2E2E2E2E2E2E2E2E2E2E2E2E2E2E2E2E2E2E2E2E2E2E2E2E2E2E2E2E2E2E2E2E2E2E2E2E2E2E2E2E2E2E2E2E2E2F5E2E2E2E2E2E2E2E2E2E2E2E2E2E2E2E2E2E2E2E2E2E2E2E2E2E2E2E2E2E2E2E2E2E2E2E2E2E2E2E2E2E2E2E2E2E2E2E2E2E2E2E2E2E2E2E2E2E2E2E2E2E2E2E2E2E2E2E2E2E2E2E2
310
E2E2E2E2E2E2E2E2E2E2E2E2E2E2E2E2E2E2E2E2E2E2E2E2E2E2E2E2E2E2E2E2E2E2E2F5E2E2E2E2E2E2E2E2E2E2E2E2E2E2E2E2E2E2E2E2E2E2E2E2E2E2E2E2E2E2E2E2E2E2E2E2E2E2E2E2E2E2E2E2E2E2E2E2E2E2E2E2E2E2E2E2E2E2E2E2E2E2E2E2E2E2E2E2E2E2E2E2E2E2E2E2E2E2E2E2E2E2E2E2E2E2E2E2E2E2E2
310
E2E2E2E2E2E2E2E2E2E2E2E2E2E2E2E2F5E2E2E2E2E2E2E2E2E2E2E2E2E2E2E2E2E2E2E2E2E2E2E2E2E2E2E2E2E2E2E2E2E2E2E2E2E2E2E2E2E2E2E2E2E2E2E2E2E2E2E2E2E2E2E2E2E2E2E2E2E2E2E2E2E2E2E2E2E2E2E2E2E2E2E2E2E2E2E2E2E2E2E2E2E2E2E2E2E2E2E2E2E2E2E2E2E2E2E2E2E2E2E2E2E2E2E2F5E2E2
310
E2E2E2E2E2E2E2E2E2E2E2E2E2E2E2E2E2E2E2E2E2E2E2E2E2E2E2E2E2E2E2E2E2E2E2E2E2E2E2E2E2E2E2E2E2E2E2E2E2E2E2E2E2E2E2E2E2E2E2E2E2E2E2E2E2E2E2E2E2E2E2E2E2E2E2E2E2E2E2E2E2E2E2E2E2E2E2E2E2E2E2E2E2E2E2E2E2E2E2E2E2E2E2E2E2F5E2E2E2E2E2E2E2E2E2E2E2E2E2E2E2E2E2E2E2E2E2
310
E2E2E2E2E2E2E2E2E2E2E2E2E2E2E2E2E2E2E2E2E2E2E2E2E2E2E2E2E2E2E2E2E2E2E2E2E2E2E2E2E2E2E2E2E2E2E2E2E2E2E2E2E2E2E2E2E2E2E2E2E2E2E2E2E2E2E2E2E2E2E2E2E2E2E2E2E2E2E2E2E2E2E2E2E2E2F5E2E2E2E2E2E2E2E2E2E2E2E2E2E2E2E2E2E2E2E2E2E2E2E2E2E2E2E2E2E2E2E2E2E2E2E2E2E2E2E2
310
E2E2E2E2E2E2E2E2E2E2E2E2E2E2E2E2E2E2E2E2E2E2E2E2E2E2E2E2E2E2E2E2E2E2E2E2E2E2E2E2E2E2E2E2E2E2E2E2E2E2E2E2E2E2E2E2E2E2E2E2E2E2E2E2E2E2E2F5E2E2E2E2E2E2E2E2E2E2E2E2E2E2E2E2E2E2E2E2E2E2E2E2E2E2E2E2E2E2E2E2E2E2E2E2E2E2E2E2E2E2E2E2E2E2E2E2E2E2E2E2E2E2E2E2E2E2E2
310
E2E2E2E2E2E2E2E2E2E2E2E2E2E2E2E2E2E2E2E2E2E2E2E2E2E2E2E2E2E2E2E2E2E2E2E2E2E2E2E2E2E2E2E2E2E2E2E2F5E2E2E2E2E2E2E2E2E2E2E2E2E2E2E2E2E2E2E2E2E2E2E2E2E2E2E2E2E2E2E2E2E2E2E2E2E2E2E2E2E2E2E2E2E2E2E2E2E2E2E2E2E2E2E2E2E2E2E2E2E2E2E2E2E2E2E2E2E2E2E2E2E2E2E2E2E2E2
310
E2E2E2E2E2E2E2E2E2E2E2E2E2E2E2E2E2E2E2E2E2E2E2E2E2E2E2E2E2F5E2E2E2E2E2E2E2E2E2E2E2E2E2E2E2E2E2E2E2E2E2E2E2E2E2E2E2E2E2E2E2E2E2E2E2E2E2E2E2E2E2E2E2E2E2E2E2E2E2E2E2E2E2E2E2E2E2E2E2E2E2E2E2E2E2E2E2E2E2E2E2E2E2E2E2E2E2E2E2E2E2E2E2E2E2E2E2E2E2E2E2E2E2E2E2E2E2
310
E2E2E2E2E2E2E2E2E2E2F5E2F5E2E2E2E2E2E2E2E2E2E2E2E2E2E2E2E2E2E2E2E2E2E2E2E2E2E2E2E2E2E2E2E2E2E2E2E2E2E2E2E2E2E2E2E2E2E2E2E2E2E2E2E2E2E2E2E2E2E2E2E2E2E2E2E2E2E2E2E2E2E2E2E2E2E2E2E2E2E2E2E2E2E2E2E2E2E2E2E2E2E2E2E2E2E2E2E2E2E2E2E2E2E2E2F5E2F5E2F5E2E2E2E2E2E2
310
E2E2E2E2E2E2E2E2E2E2E2E2E2E2E2E2E2E2E2E2E2E2E2E2E2E2E2E2E2E2E2E2E2E2E2E2E2E2E2E2E2E2E2E2E2E2E2E2E2E2E2E2E2E2E2E2E2E2E2E2E2E2E2E2E2E2E2E2E2E2E2E2E2E2E2E2E2E2E2E2E2E2E2E2E2E2E2E2E2E2E2E2E2E2E2E2E2F5E2F5E2F5E2E2E2E2E2E2E2E2E2E2E2E2E2E2E2E2E2E2E2E2E2E2E2E2E2
310
E2E2E2E2E2E2E2E2E2E2E2E2E2E2E2E2E2E2E2E2E2E2E2E2E2E2E2E2E2E2E2E2E2E2E2E2E2E2E2E2E2E2E2E2E2E2E2E2E2E2E2E2E2E2E2E2E2E2E2E2E2E2E2E2E2E2E2E2E2E2E2E2E2E2E2E2E2E2F5E2F5E2F5E2E2E2E2E2E2E2E2E2E2E2E2E2E2E2E2E2E2E2E2E2E2E2E2E2E2E2E2E2E2E2E2E2E2E2E2E2E2E2E2E2E2E2E2
310
E2E2E2E2E2E2E2E2E2E2E2E2E2E2E2E2E2E2E2E2E2E2E2E2E2E2E2E2E2E2E2E2E2E2E2E2E2E2E2E2E2E2E2E2E2E2E2E2E2E2E2E2E2E2E2E2E2E2E2F5E2F5E2F5E2E2E2E2E2E2E2E2E2E2E2E2E2E2E2E2E2E2E2E2E2E2E2E2E2E2E2E2E2E2E2E2E2E2E2E2E2E2E2E2E2E2E2E2E2E2E2E2E2E2E2E2E2E2E2E2E2E2E2E2E2E2E2
310
E2E2E2E2E2E2E2E2E2E2E2E2E2E2E2E2E2E2E2E2E2E2E2E2E2E2E2E2E2E2E2E2E2E2E2E2E2E2E2E2F5E2F5E2F5E2E2E2E2E2E2E2E2E2E2E2E2E2E2E2E2E2E2E2E2E2E2E2E2E2E2E2E2E2E2E2E2E2E2E2E2E2E2E2E2E2E2E2E2E2E2E2E2E2E2E2E2E2E2E2E2E2E2E2E2E2E2E2E2E2E2E2E2E2E2E2E2E2E2E2E2E2E2E2E2E2E2
310
E2E2E2E2E2E2E2E2E2E2E2E2E2E2E2E2E2E2E2E2E2F5E2F5E2F5E2E2E2E2E2E2E2E2E2E2E2E2E2E2E2E2E2E2E2E2E2E2E2E2E2E2E2E2E2E2E2E2E2E2E2E2E2E2E2E2E2E2E2E2E2E2E2E2E2E2E2E2E2E2E2E2E2E2E2E2E2E2E2E2E2E2E2E2E2E2E2E2E2E2E2E2E2E2E2E2E2E2E2E2E2E2E2E2E2E2E2E2E2E2E2E2E2E2E2E2E2
310
E2E2F5E2F5E2F5E2E2E2E2E2E2E2E2E2E2E2E2E2E2E2E2E2E2E2E2E2E2E2E2E2E2E2E2E2E2E2E2E2E2E2E2E2E2E2E2E2E2E2E2E2E2E2E2E2E2E2E2E2E2E2E2E2E2E2E2E2E2E2E2E2E2E2E2E2E2E2E2E2E2E2E2E2E2E2E2E2E2E2E2E2E2E2E2E2E2E2E2E2E2E2E2E2E2E2E2E2E2E2F5E2F5E2F5F5F5F5F5F5F5F5F5E2E2E2E2
310
E2E2E2E2E2F5F5F5F5F5F5F5F5F5F5F5F5F5F5F5F5F5E2E2E2E2E2E2E2E2E2F5F5F5F5F5F5F5F5F5F5F5F5F5F5F5F5F5E2E2E2E2E2E2E2E2E2F5F5F5F5F5F5F5F5F5F5F5F5F5F5F5F5F5E2E2E2E2E2E2E2E2E2F5F5F5F5F5F5F5F5F5E2F5E2E2E2E2E2E2E2E2E2E2E2E2E2E2E2E2E2E2E2E2E2E2E2E2E2E2E2E2E2E2E2E2E2
310
E2E2E2E2E2E2E2E2E2E2E2E2E2E2E2E2E2E2E2E2E2E2E2E2E2E2E2E2E2E2E2E2E2E2E2E2E2E2E2E2E2E2E2E2E2E2E2E2E2E2E2E2E2E2E2E2E2E2E2E2E2E2E2E2E2E2E2E2E2E2E2E2E2E2F5F5F5F5F5F5F5F5F5F5F5F5F5F5F5F5F5F5F5F5F5F5F5F5F5F5F5F5F5F5F5F5F5F5F5F5F5F5F5F5F5F5F5F5F5F5F5F5F5F5F5F5F5
310
F5F5F5F5F5F5F5F5F5F5F5F5F5F5F5F5F5F5F5F5F5F5F5F5F5F5F5F5F5F5F5F5F5F5F5F5F5F5F5F5F5F5F5F5F5F5F5F5F5F5F5F5F5F5F5
  0
XRECORD
  5
143A7
102
{ACAD_REACTORS
330
143A6
102
}
330
143A6
100
AcDbXrecord
280
     1
102
SHADEPLOT
 70
     0
102
SHADEPLOTRESLEVEL
 70
     2
102
SHADEPLOTCUSTOMDPI
 70
   300
  0
XRECORD
  5
143AE
102
{ACAD_REACTORS
330
143AD
102
}
330
143AD
100
AcDbXrecord
280
     1
102
MATERIAL
148
0.0
149
0.0
149
0.0
 93
        0
 94
       63
282
     0
 72
     1
 77
     1
171
     1
175
     1
179
     1
273
     0
  0
XRECORD
  5
143AC
102
{ACAD_REACTORS
330
143AB
102
}
330
143AB
100
AcDbXrecord
280
     1
102
MATERIAL
148
0.0
149
0.0
149
0.0
 93
        0
 94
       63
282
     0
 72
     1
 77
     1
171
     1
175
     1
179
     1
273
     0
  0
XRECORD
  5
143B0
102
{ACAD_REACTORS
330
143AF
102
}
330
143AF
100
AcDbXrecord
280
     1
102
MATERIAL
148
0.0
149
0.0
149
0.0
 93
        0
 94
       63
282
     0
 72
     1
 77
     1
171
     1
175
     1
179
     1
273
     0
  0
XRECORD
  5
143B2
102
{ACAD_REACTORS
330
143B1
102
}
330
143B1
100
AcDbXrecord
280
     1
102
ACAD_ROUNDTRIP_PRE2007_TABLESTYLE
 90
      512
 91
        0
  1

 92
      512
 93
        0
  2

 94
      512
 95
        0
  3

  0
ENDSEC
  0
EOF
